osu file format v14

[General]
AudioFilename: audio.ogg
AudioLeadIn: 0
PreviewTime: 33944
Countdown: 0
SampleSet: Normal
StackLeniency: 0.7
Mode: 1
LetterboxInBreaks: 0
EpilepsyWarning: 1
WidescreenStoryboard: 1

[Editor]
Bookmarks: 164394
DistanceSpacing: 0.4
BeatDivisor: 4
GridSize: 32
TimelineZoom: 0.8999999

[Metadata]
Title:Starships (Nightcore & Cut Ver.)
TitleUnicode:Starships (Nightcore & Cut Ver.)
Artist:Nicki Minaj
ArtistUnicode:Nicki Minaj
Creator:Toofu
Version:Futsuu
Source:
Tags:Tachibana_ Froskya Revialink marianna english pop electronic sped up
BeatmapID:3615039
BeatmapSetID:1766063

[Difficulty]
HPDrainRate:9
CircleSize:5
OverallDifficulty:3
ApproachRate:5
SliderMultiplier:1.4
SliderTickRate:1

[Events]
//Background and Video events
0,0,"mari.jpg",0,0
//Break Periods
//Storyboard Layer 0 (Background)
//Storyboard Layer 1 (Fail)
//Storyboard Layer 2 (Pass)
//Storyboard Layer 3 (Foreground)
Sprite,Foreground,Centre,"sb\dbt.png",320,240 M,0,3601,3704,498.6182,400.5818,436.3637,401.1637 F,0,3601,3704,0,1 M,0,3704,6078,436.3637,401.1637,410.7637,402.3273 F,0,3704,6078,1 S,0,5976,,0.2261819 M,0,6078,6181,410.7637,402.3273,398.5455,402.3273 F,0,6078,6181,1,0
//Storyboard Layer 4 (Overlay)
//Storyboard Sound Samples

[TimingPoints]
980,412.825099766066,4,1,0,75,1,0
6965,-100,4,1,0,55,0,0
14190,-100,4,1,0,65,0,0
20795,-100,4,1,0,75,0,0
34006,-100,4,1,0,65,0,0
47216,-100,4,1,0,70,0,0
53821,-100,4,1,0,75,0,0
58775,-100,4,1,0,55,0,0
60426,-100,4,1,0,90,0,1
71985,-100,4,1,0,60,0,0

[HitObjects]
264,111,14190,5,8,1:0:0:0:
264,111,14603,1,8,1:0:0:0:
264,111,15016,1,0,1:0:0:0:
276,101,15222,1,8,1:0:0:0:
264,111,15429,1,0,1:0:0:0:
276,101,15841,1,8,1:0:0:0:
276,101,16254,1,8,1:0:0:0:
276,101,16667,1,8,1:0:0:0:
276,101,16873,1,0,1:0:0:0:
276,101,17080,1,8,1:0:0:0:
276,101,17493,1,0,1:0:0:0:
283,101,17905,1,8,1:0:0:0:
281,101,18318,1,0,1:0:0:0:
276,101,18525,1,0,1:0:0:0:
283,101,18731,1,8,1:0:0:0:
287,92,19969,1,0,1:0:0:0:
282,86,20176,1,8,0:0:0:0:
295,81,20382,1,0,1:0:0:0:
295,81,20795,1,12,1:0:0:0:
291,62,21414,1,0,1:0:0:0:
291,65,21621,1,8,1:0:0:0:
346,68,22240,1,0,1:0:0:0:
291,62,22446,1,8,1:0:0:0:
291,62,22756,1,0,1:0:0:0:
291,62,23066,1,0,1:0:0:0:
341,55,23478,1,8,1:0:0:0:
302,57,23685,1,0,1:0:0:0:
295,81,24098,1,8,1:0:0:0:
291,62,24717,1,8,1:0:0:0:
291,65,24923,1,0,1:0:0:0:
320,64,25543,1,0,1:0:0:0:
291,62,25749,1,0,1:0:0:0:
291,62,26059,1,8,1:0:0:0:
291,62,26368,1,8,1:0:0:0:
319,43,26781,1,8,1:0:0:0:
302,57,26987,1,0,1:0:0:0:
295,81,27400,1,8,1:0:0:0:
291,62,28020,1,0,1:0:0:0:
291,65,28226,1,8,1:0:0:0:
315,37,28639,1,8,1:0:0:0:
346,68,28845,1,0,1:0:0:0:
291,62,29052,1,8,1:0:0:0:
291,62,29361,1,0,1:0:0:0:
291,62,29671,1,8,1:0:0:0:
341,55,30084,1,0,1:0:0:0:
302,57,30290,1,8,1:0:0:0:
295,81,30703,1,8,1:0:0:0:
291,62,31322,1,8,1:0:0:0:
291,65,31529,1,0,1:0:0:0:
320,64,32148,1,8,1:0:0:0:
291,62,32354,1,0,1:0:0:0:
291,62,32664,1,8,1:0:0:0:
291,62,32973,1,0,1:0:0:0:
319,43,33386,1,8,1:0:0:0:
302,57,33593,1,8,1:0:0:0:
314,53,34006,1,12,1:0:0:0:
314,53,34419,1,0,1:0:0:0:
314,53,34831,1,8,1:0:0:0:
312,47,35451,1,0,1:0:0:0:
312,47,35657,1,8,1:0:0:0:
308,54,35967,1,0,1:0:0:0:
312,47,36276,1,0,1:0:0:0:
313,45,36895,1,8,1:0:0:0:
312,47,37102,1,0,1:0:0:0:
312,47,37308,1,0,1:0:0:0:
313,45,37721,1,8,1:0:0:0:
312,47,38134,1,8,1:0:0:0:
313,45,38753,1,0,1:0:0:0:
312,47,38960,1,8,1:0:0:0:
313,45,39269,1,0,1:0:0:0:
313,45,39579,1,8,1:0:0:0:
313,45,40198,1,8,1:0:0:0:
313,45,40404,1,8,1:0:0:0:
314,53,40611,1,0,1:0:0:0:
314,53,41024,1,8,1:0:0:0:
314,53,41437,1,8,1:0:0:0:
312,47,42056,1,8,1:0:0:0:
312,47,42262,1,0,1:0:0:0:
308,54,42572,1,8,1:0:0:0:
312,47,42881,1,0,1:0:0:0:
313,45,43501,1,8,1:0:0:0:
312,47,43707,1,0,1:0:0:0:
312,47,43913,1,8,1:0:0:0:
313,45,44326,1,0,1:0:0:0:
312,47,44739,1,8,1:0:0:0:
313,45,45152,1,8,1:0:0:0:
312,47,45565,1,0,1:0:0:0:
313,45,45874,1,8,1:0:0:0:
313,45,46184,1,0,1:0:0:0:
313,45,46803,1,8,1:0:0:0:
313,45,47010,1,0,1:0:0:0:
323,43,47216,1,12,1:0:0:0:
323,43,47629,1,0,1:0:0:0:
323,43,48042,1,0,1:0:0:0:
330,44,48661,1,0,1:0:0:0:
323,43,48867,1,8,1:0:0:0:
323,43,49177,1,0,1:0:0:0:
339,39,49486,1,8,0:0:0:0:
323,43,50106,1,0,1:0:0:0:
330,46,50312,1,8,1:0:0:0:
330,46,50519,1,8,1:0:0:0:
343,54,50932,1,8,1:0:0:0:
325,42,51344,1,0,1:0:0:0:
343,54,51964,1,0,1:0:0:0:
340,70,52170,1,8,1:0:0:0:
357,47,52479,1,0,0:0:0:0:
357,62,52789,1,8,1:0:0:0:
373,70,53408,1,8,1:0:0:0:
373,70,53615,1,8,1:0:0:0:
323,43,53821,1,0,1:0:0:0:
323,43,54234,1,0,1:0:0:0:
323,43,54647,1,8,1:0:0:0:
316,46,54853,1,0,0:0:0:0:
310,50,55060,1,8,0:0:0:0:
323,43,55473,1,0,1:0:0:0:
323,43,55782,1,0,1:0:0:0:
322,59,56092,1,8,0:0:0:0:
323,43,56711,1,0,1:0:0:0:
330,46,56917,1,8,1:0:0:0:
330,46,57124,1,8,1:0:0:0:
343,54,57537,1,0,1:0:0:0:
325,42,57950,1,8,1:0:0:0:
315,43,58362,1,0,1:0:0:0:
309,47,58569,1,0,0:0:0:0:
340,70,58775,1,8,1:0:0:0:
310,110,60427,5,12,1:0:0:0:
310,110,60839,1,8,1:0:0:0:
326,113,61046,1,0,1:0:0:0:
320,106,61252,1,0,1:0:0:0:
320,106,61665,1,0,1:0:0:0:
320,106,62078,1,8,1:0:0:0:
329,111,62284,1,0,1:0:0:0:
324,110,62491,1,8,1:0:0:0:
328,110,62697,1,0,1:0:0:0:
324,110,62903,1,0,1:0:0:0:
324,110,63316,1,0,1:0:0:0:
317,69,63729,1,8,0:0:0:0:
277,24,63935,1,0,0:0:0:0:
294,42,64143,1,0,0:0:0:0:
320,106,64555,1,8,1:0:0:0:
320,106,65380,1,0,1:0:0:0:
324,110,65793,1,0,1:0:0:0:
324,110,66206,1,8,1:0:0:0:
324,110,66412,1,0,1:0:0:0:
329,111,66619,1,8,1:0:0:0:
310,110,67032,5,12,1:0:0:0:
310,110,67445,1,8,1:0:0:0:
326,113,67651,1,0,1:0:0:0:
320,106,67857,1,0,1:0:0:0:
320,106,68270,1,0,1:0:0:0:
320,106,68683,1,8,1:0:0:0:
329,111,68889,1,0,1:0:0:0:
324,110,69096,1,8,1:0:0:0:
328,110,69302,1,0,1:0:0:0:
324,110,69509,1,8,1:0:0:0:
324,110,69921,1,0,1:0:0:0:
310,110,70334,5,8,1:0:0:0:
326,113,70541,1,8,1:0:0:0:
310,110,70747,1,0,1:0:0:0:
320,106,71160,1,8,1:0:0:0:
320,106,71986,1,0,1:0:0:0:
324,110,72398,1,8,1:0:0:0:
324,110,72811,1,0,1:0:0:0:
329,111,73018,1,0,1:0:0:0:
324,110,73224,1,8,1:0:0:0:
344,118,73431,1,0,1:0:0:0:
