osu file format v14

[General]
AudioFilename: audio.mp3
AudioLeadIn: 0
PreviewTime: 60905
Countdown: 1
SampleSet: Normal
StackLeniency: 1
Mode: 0
LetterboxInBreaks: 0
WidescreenStoryboard: 0

[Editor]
DistanceSpacing: 1.5
BeatDivisor: 2
GridSize: 4
TimelineZoom: 1

[Metadata]
Title:Rockstar
TitleUnicode:Rockstar
Artist:Nickelback
ArtistUnicode:Nickelback
Creator:CIRCULARKA
Version:Easy
Source:
Tags:nickelback, rockstar
BeatmapID:1712637
BeatmapSetID:816682

[Difficulty]
HPDrainRate:2
CircleSize:3
OverallDifficulty:2
ApproachRate:2
SliderMultiplier:1
SliderTickRate:1

[Events]
//Background and Video events
0,0,"wallhaven-396722.jpg",0,0
//Break Periods
2,11522,13095
2,24855,26429
2,38189,39762
2,51522,53095
2,98189,99762
2,111522,113095
2,124855,126429
2,193188,208512
2,239855,241429
//Storyboard Layer 0 (Background)
//Storyboard Layer 1 (Fail)
//Storyboard Layer 2 (Pass)
//Storyboard Layer 3 (Foreground)
//Storyboard Sound Samples

[TimingPoints]
1322.66666666667,833.333333333333,4,1,0,60,1,0
60905,-100,4,1,0,60,0,1
87989,-100,4,1,0,60,0,0
134239,-100,4,1,0,60,0,1
174655,-100,4,1,0,60,0,0

[Colours]
Combo1 : 128,0,255
Combo2 : 196,0,0
Combo3 : 121,174,21
Combo4 : 128,0,0

[HitObjects]
81,58,1322,6,8,P|157:51|216:67,1,100
63,149,2989,2,8,P|130:137|197:146,1,100
311,140,4656,6,8,P|240:175|204:220,1,100
266,251,5906,1,0,0:0:0:0:
339,264,6322,2,8,P|388:226|435:216,1,100
468,73,7989,6,8,P|420:118|374:126,1,100
251,67,9656,2,8,P|294:66|295:120,1,100
183,207,11322,1,8,0:0:0:0:
452,336,14655,5,0,0:0:0:0:
419,189,15489,1,8,0:0:0:0:
373,331,16322,2,0,L|321:314,1,50
250,321,17156,1,8,0:0:0:0:
100,304,17989,5,0,0:0:0:0:
56,160,18822,1,8,0:0:0:0:
159,51,19656,2,0,P|164:111|179:115,1,50
202,148,20489,1,8,0:0:0:0:
325,62,21322,5,0,0:0:0:0:
466,112,22155,1,8,0:0:0:0:
327,166,22989,2,8,P|384:183|386:203,1,50,8|0,0:0|0:0,0:0:0:0:
343,236,23822,1,8,0:0:0:0:
214,313,24655,1,4,0:0:0:0:
360,166,27989,5,0,0:0:0:0:
360,166,28822,1,8,0:0:0:0:
260,53,29655,2,0,P|204:68|189:89,1,50
161,117,30489,1,8,0:0:0:0:
40,205,31322,5,0,0:0:0:0:
125,327,32155,1,8,0:0:0:0:
200,197,32989,2,0,P|209:237|201:276,1,50
205,320,33822,1,8,0:0:0:0:
355,316,34655,5,0,0:0:0:0:
446,197,35489,1,8,0:0:0:0:
296,207,36322,2,0,L|260:160,1,50
238,97,37155,1,8,0:0:0:0:
382,55,37989,1,4,0:0:0:0:
452,48,41322,5,0,0:0:0:0:
362,168,42155,1,8,0:0:0:0:
443,293,42989,2,0,P|406:328|375:337,1,50
341,291,43822,1,8,0:0:0:0:
192,310,44655,5,0,0:0:0:0:
192,310,45489,1,8,0:0:0:0:
90,199,46322,2,0,P|107:155|132:121,1,50
128,80,47155,1,8,0:0:0:0:
238,181,47989,5,0,0:0:0:0:
324,58,48822,1,8,0:0:0:0:
371,200,49655,2,0,P|419:177|446:148,1,50
467,124,50489,1,8,0:0:0:0:
478,273,51322,1,4,0:0:0:0:
65,50,54655,5,0,0:0:0:0:
47,199,55489,1,8,0:0:0:0:
177,125,56322,2,0,P|230:113|245:90,1,50
246,45,57155,1,8,0:0:0:0:
393,75,57989,5,0,0:0:0:0:
296,189,58822,1,8,0:0:0:0:
243,135,59239,2,0,P|218:114|220:68,2,50
218,205,60489,1,0,0:0:0:0:
272,255,60905,5,0,0:0:0:0:
314,317,61322,2,0,P|343:331|361:307,1,50,8|0,0:0|0:0,0:0:0:0:
363,248,62155,1,8,0:0:0:0:
301,204,62572,5,0,0:0:0:0:
228,185,62989,2,0,B|201:179|201:179|172:212,1,50,8|0,0:0|0:0,0:0:0:0:
148,260,63822,1,8,0:0:0:0:
86,219,64239,5,0,0:0:0:0:
79,144,64655,2,0,L|35:89,1,50,8|0,0:0|0:0,0:0:0:0:
93,45,65489,1,8,0:0:0:0:
167,54,65905,6,0,P|217:47|253:59,2,50,0|8|0,0:0|0:0|0:0,0:0:0:0:
202,120,67155,1,8,0:0:0:0:
345,75,67989,5,8,0:0:0:0:
345,75,68405,1,0,0:0:0:0:
415,48,68822,2,0,P|420:89|379:107,1,50,8|0,0:0|0:0,0:0:0:0:
449,161,69655,1,8,0:0:0:0:
449,161,70072,1,0,0:0:0:0:
451,236,70489,2,0,P|418:277|401:276,1,50,8|0,0:0|0:0,0:0:0:0:
359,311,71322,5,8,0:0:0:0:
359,311,71739,1,0,0:0:0:0:
284,322,72155,2,0,P|233:338|197:328,1,50,8|0,0:0|0:0,0:0:0:0:
163,323,72989,1,8,0:0:0:0:
52,221,73822,1,8,0:0:0:0:
222,72,75072,5,0,0:0:0:0:
295,55,75489,1,8,0:0:0:0:
369,57,75905,2,0,P|391:81|390:125,1,50
453,235,77155,1,8,0:0:0:0:
336,329,77989,6,0,P|299:337|255:318,1,50
214,319,78822,1,8,0:0:0:0:
258,175,79655,6,0,P|228:140|226:115,1,50
227,62,80489,1,8,0:0:0:0:
77,46,81322,6,0,L|40:99,1,50
48,162,82155,1,8,0:0:0:0:
105,300,82989,6,0,L|168:321,1,50
224,293,83822,1,8,0:0:0:0:
370,324,84655,6,0,B|393:324|393:324|421:283,1,50
441,233,85489,1,8,0:0:0:0:
291,233,86322,6,0,B|265:224|288:207|288:207|263:195|263:195|286:187|286:187,1,50
235,138,87155,1,8,0:0:0:0:
361,57,87989,5,0,0:0:0:0:
408,199,88822,1,8,0:0:0:0:
292,103,89655,2,0,L|240:120,1,50
169,108,90489,1,8,0:0:0:0:
45,193,91322,5,0,0:0:0:0:
45,193,92155,1,8,0:0:0:0:
140,308,92989,2,0,P|145:248|160:244,1,50
195,225,93822,1,8,0:0:0:0:
317,310,94655,5,0,0:0:0:0:
460,271,95489,1,8,0:0:0:0:
320,215,96322,2,0,P|377:198|379:178,1,50
334,144,97155,1,8,0:0:0:0:
204,68,97989,1,4,0:0:0:0:
60,48,101322,5,0,0:0:0:0:
107,191,102155,1,8,0:0:0:0:
185,63,102989,2,0,L|237:80,1,50
296,119,103822,1,8,0:0:0:0:
446,104,104655,5,0,0:0:0:0:
465,253,105489,1,8,0:0:0:0:
345,343,106322,2,0,P|340:283|325:279,1,50
312,237,107155,1,8,0:0:0:0:
187,320,107989,5,0,0:0:0:0:
45,273,108822,1,8,0:0:0:0:
185,218,109655,2,0,P|128:201|126:181,1,50
169,148,110489,1,8,0:0:0:0:
298,71,111322,1,4,0:0:0:0:
60,336,114655,5,0,0:0:0:0:
60,336,115489,1,8,0:0:0:0:
152,218,116322,2,0,P|208:216|216:230,1,50
267,234,117155,1,8,0:0:0:0:
411,194,117989,5,0,0:0:0:0:
358,53,118822,1,8,0:0:0:0:
290,186,119655,2,0,P|281:146|289:107,1,50
274,62,120489,1,8,0:0:0:0:
124,67,121322,5,0,0:0:0:0:
60,202,122155,1,8,0:0:0:0:
208,180,122989,2,0,L|244:227,1,50
276,284,123822,1,8,0:0:0:0:
133,329,124655,1,4,0:0:0:0:
447,50,127989,5,0,0:0:0:0:
465,199,128822,1,8,0:0:0:0:
465,199,129655,2,0,P|412:187|397:164,1,50
363,138,130489,1,8,0:0:0:0:
231,66,131322,6,0,P|178:91|168:114,1,50
144,145,132155,1,8,0:0:0:0:
215,169,132572,2,0,P|232:203|223:237,2,50
289,156,133822,1,0,0:0:0:0:
310,227,134239,5,0,0:0:0:0:
265,287,134655,2,0,P|236:301|218:277,1,50,8|0,0:0|0:0,0:0:0:0:
151,272,135489,1,8,0:0:0:0:
110,209,135905,5,0,0:0:0:0:
102,134,136322,2,0,B|84:121|84:121|114:111,1,50,8|0,0:0|0:0,0:0:0:0:
175,75,137155,1,8,0:0:0:0:
249,66,137572,5,0,0:0:0:0:
329,81,137989,2,0,L|377:115,1,50,8|0,0:0|0:0,0:0:0:0:
438,140,138822,1,8,0:0:0:0:
424,213,139239,6,0,P|401:235|361:233,2,50,0|8|0,0:0|0:0|0:0,0:0:0:0:
439,286,140489,1,8,0:0:0:0:
292,322,141322,5,8,0:0:0:0:
292,322,141739,1,0,0:0:0:0:
222,295,142155,2,0,P|179:303|158:288,1,50,8|0,0:0|0:0,0:0:0:0:
100,290,142989,1,8,0:0:0:0:
67,222,143405,1,0,0:0:0:0:
62,147,143822,2,0,P|86:130|124:113,1,50,8|0,0:0|0:0,0:0:0:0:
164,76,144655,5,8,0:0:0:0:
164,76,145072,1,0,0:0:0:0:
239,74,145489,2,0,P|304:103|321:100,1,50,8|0,0:0|0:0,0:0:0:0:
350,74,146322,1,8,0:0:0:0:
436,196,147155,1,8,0:0:0:0:
244,314,148405,5,8,0:0:0:0:
169,318,148822,1,8,0:0:0:0:
96,299,149239,2,0,P|58:294|62:252,1,50
175,199,150489,1,8,0:0:0:0:
147,51,151322,6,0,P|187:61|206:84,1,50
267,70,152155,1,8,0:0:0:0:
409,116,152989,6,0,P|405:150|377:176,1,50
360,228,153822,1,8,0:0:0:0:
223,289,154655,6,0,L|155:296,1,50
101,271,155489,1,8,0:0:0:0:
48,130,156322,6,0,L|111:109,1,50
168,98,157155,1,8,0:0:0:0:
315,69,157989,6,0,B|338:69|338:69|337:104,1,50
298,160,158822,1,8,0:0:0:0:
154,204,159655,6,0,B|128:213|151:230|151:230|126:242|126:242|149:250|149:250,1,50
128,309,160489,1,8,0:0:0:0:
276,328,161322,5,0,0:0:0:0:
379,219,162155,1,8,0:0:0:0:
229,230,162989,2,0,L|177:213,1,50
201,142,163822,1,8,0:0:0:0:
64,205,164655,5,0,0:0:0:0:
69,54,165489,1,8,0:0:0:0:
217,73,166322,2,0,P|241:77|280:94,1,50
332,52,167155,1,8,0:0:0:0:
453,140,167989,5,0,0:0:0:0:
453,140,168822,1,8,0:0:0:0:
305,164,169655,2,0,P|362:181|364:201,1,50
325,236,170489,1,8,0:0:0:0:
202,322,171322,5,0,0:0:0:0:
56,285,172155,1,8,0:0:0:0:
68,135,172989,2,0,B|68:108|68:108|103:108,1,50
156,71,173822,1,8,0:0:0:0:
304,54,174655,5,0,0:0:0:0:
452,78,175489,1,8,0:0:0:0:
352,189,176322,2,0,B|352:158|352:158|319:158,1,50
278,209,177155,1,8,0:0:0:0:
189,87,177989,5,0,0:0:0:0:
78,188,178822,1,8,0:0:0:0:
148,320,179655,2,0,P|213:320|231:306,1,50
266,297,180489,1,8,0:0:0:0:
140,214,181322,5,0,0:0:0:0:
140,214,182155,1,8,0:0:0:0:
56,89,182989,2,0,P|87:69|130:76,1,50
172,51,183822,1,8,0:0:0:0:
321,51,184655,5,0,0:0:0:0:
429,155,185489,1,8,0:0:0:0:
429,155,186322,2,0,P|416:206|403:206,1,50
410,271,187155,1,8,0:0:0:0:
259,271,187989,5,0,0:0:0:0:
259,271,188822,1,8,0:0:0:0:
259,271,189655,2,0,P|191:302|174:303,1,50
142,312,190489,1,8,0:0:0:0:
88,171,191322,6,0,P|149:96|251:97,1,200
290,72,210072,5,0,0:0:0:0:
217,55,210489,1,8,0:0:0:0:
143,57,210905,2,0,P|121:81|122:125,1,50
59,235,212155,1,8,0:0:0:0:
176,328,212989,6,0,P|213:336|257:317,1,50
298,319,213822,1,8,0:0:0:0:
254,175,214655,6,0,P|284:140|286:115,1,50
285,62,215489,1,8,0:0:0:0:
435,46,216322,6,0,L|472:99,1,50
464,162,217155,1,8,0:0:0:0:
407,300,217989,6,0,L|344:321,1,50
288,293,218822,1,8,0:0:0:0:
283,143,219655,6,0,B|283:113|283:113|232:102,1,50
198,71,220489,1,8,0:0:0:0:
77,159,221322,6,0,B|103:150|80:133|80:133|105:121|105:121|82:113|82:113,1,50
164,141,222155,1,8,0:0:0:0:
276,239,222989,5,0,0:0:0:0:
94,267,223822,1,8,0:0:0:0:
231,327,224655,2,0,L|286:329,1,50
356,324,225489,1,8,0:0:0:0:
454,210,226322,5,0,0:0:0:0:
457,208,227155,1,8,0:0:0:0:
443,58,227989,2,0,P|400:51|368:62,1,50
319,62,228822,1,8,0:0:0:0:
169,70,229655,5,0,0:0:0:0:
46,156,230489,1,8,0:0:0:0:
188,217,231322,2,0,P|131:200|129:180,1,50
173,147,232155,1,8,0:0:0:0:
301,69,232989,5,0,0:0:0:0:
437,131,233822,1,8,0:0:0:0:
426,281,234655,2,0,P|384:319|374:313,1,50
328,332,235489,1,8,0:0:0:0:
183,295,236322,5,0,0:0:0:0:
51,222,237155,1,8,0:0:0:0:
51,222,237989,2,0,P|55:183|80:191,1,50
130,172,238822,1,8,0:0:0:0:
225,56,239655,5,4,0:0:0:0:
443,308,242989,5,0,0:0:0:0:
424,159,243822,1,8,0:0:0:0:
301,245,244655,2,0,P|268:194|222:198,2,100,0|8|4,0:0|0:0|0:0,0:0:0:0:
