osu file format v14

[General]
AudioFilename: audio.mp3
AudioLeadIn: 0
PreviewTime: -1
Countdown: 1
SampleSet: None
StackLeniency: 0.7
Mode: 0
LetterboxInBreaks: 0
WidescreenStoryboard: 1

[Editor]
DistanceSpacing: 0.5
BeatDivisor: 8
GridSize: 8
TimelineZoom: 1

[Metadata]
Title:Look at this Graph
TitleUnicode:Look at this Graph
Artist:Nickelback
ArtistUnicode:Nickelback
Creator:SpitsLife
Version:Look at this Stream
Source:
Tags:
BeatmapID:1268493
BeatmapSetID:600282

[Difficulty]
HPDrainRate:5
CircleSize:4
OverallDifficulty:8.5
ApproachRate:9.2
SliderMultiplier:1.4
SliderTickRate:1

[Events]
//Background and Video events
0,0,"look at this graph.jpg",0,0
//Break Periods
//Storyboard Layer 0 (Background)
//Storyboard Layer 1 (Fail)
//Storyboard Layer 2 (Pass)
//Storyboard Layer 3 (Foreground)
//Storyboard Sound Samples

[TimingPoints]
375.718309859155,825.286206896551,4,1,0,100,1,0
2026,-50,4,1,0,100,0,0
2851,-50,4,1,0,100,0,0

[HitObjects]
240,0,375,5,0,0:0:0:0:
311,7,478,1,0,0:0:0:0:
375,40,581,1,0,0:0:0:0:
422,94,684,1,0,0:0:0:0:
447,161,787,1,0,0:0:0:0:
446,233,890,1,0,0:0:0:0:
419,300,993,1,0,0:0:0:0:
370,352,1097,1,0,0:0:0:0:
306,383,1200,5,0,0:0:0:0:
234,389,1303,1,0,0:0:0:0:
165,369,1406,1,0,0:0:0:0:
108,325,1509,1,0,0:0:0:0:
71,263,1612,1,0,0:0:0:0:
59,193,1716,1,0,0:0:0:0:
72,122,1819,1,0,0:0:0:0:
111,62,1922,1,0,0:0:0:0:
168,19,2025,5,0,0:0:0:0:
240,0,2129,1,0,0:0:0:0:
311,7,2232,1,0,0:0:0:0:
375,40,2335,1,0,0:0:0:0:
422,94,2438,1,0,0:0:0:0:
447,161,2541,1,0,0:0:0:0:
446,233,2644,1,0,0:0:0:0:
419,300,2747,1,0,0:0:0:0:
370,352,2851,5,0,0:0:0:0:
306,383,2954,1,0,0:0:0:0:
234,389,3057,1,0,0:0:0:0:
165,369,3160,1,0,0:0:0:0:
108,325,3263,1,0,0:0:0:0:
71,263,3366,1,0,0:0:0:0:
59,193,3470,1,0,0:0:0:0:
72,122,3573,1,0,0:0:0:0:
111,62,3676,5,0,0:0:0:0:
168,19,3779,1,0,0:0:0:0:
240,0,3883,1,0,0:0:0:0:
311,7,3986,1,0,0:0:0:0:
375,40,4089,1,0,0:0:0:0:
422,94,4192,1,0,0:0:0:0:
447,161,4295,1,0,0:0:0:0:
446,233,4398,1,0,0:0:0:0:
419,300,4501,5,0,0:0:0:0:
370,352,4605,1,0,0:0:0:0:
306,383,4708,1,0,0:0:0:0:
234,389,4811,1,0,0:0:0:0:
165,369,4914,1,0,0:0:0:0:
108,325,5017,1,0,0:0:0:0:
71,263,5120,1,0,0:0:0:0:
59,193,5224,1,0,0:0:0:0:
72,122,5327,5,0,0:0:0:0:
111,62,5430,1,0,0:0:0:0:
168,19,5533,1,0,0:0:0:0:
240,0,5636,1,0,0:0:0:0:
311,7,5739,1,0,0:0:0:0:
375,40,5842,1,0,0:0:0:0:
422,94,5945,1,0,0:0:0:0:
447,161,6048,1,0,0:0:0:0:
446,233,6151,5,0,0:0:0:0:
419,300,6254,1,0,0:0:0:0:
370,352,6358,1,0,0:0:0:0:
306,383,6461,1,0,0:0:0:0:
234,389,6564,1,0,0:0:0:0:
165,369,6667,1,0,0:0:0:0:
108,325,6770,1,0,0:0:0:0:
71,263,6873,1,0,0:0:0:0:
59,193,6977,5,0,0:0:0:0:
72,122,7080,1,0,0:0:0:0:
111,62,7183,1,0,0:0:0:0:
168,19,7286,1,0,0:0:0:0:
240,0,7390,1,0,0:0:0:0:
311,7,7493,1,0,0:0:0:0:
375,40,7596,1,0,0:0:0:0:
422,94,7699,1,0,0:0:0:0:
447,161,7802,5,0,0:0:0:0:
446,233,7905,1,0,0:0:0:0:
419,300,8008,1,0,0:0:0:0:
370,352,8112,1,0,0:0:0:0:
306,383,8215,1,0,0:0:0:0:
234,389,8318,1,0,0:0:0:0:
165,369,8421,1,0,0:0:0:0:
108,325,8524,1,0,0:0:0:0:
71,263,8627,5,0,0:0:0:0:
59,193,8731,1,0,0:0:0:0:
72,122,8834,1,0,0:0:0:0:
111,62,8937,1,0,0:0:0:0:
168,19,9040,1,4,0:0:0:0:
