osu file format v14

[General]
AudioFilename: audio.mp3
AudioLeadIn: 0
PreviewTime: -1
Countdown: 1
SampleSet: None
StackLeniency: 0.7
Mode: 0
LetterboxInBreaks: 0
WidescreenStoryboard: 0

[Editor]
DistanceSpacing: 0.2
BeatDivisor: 4
GridSize: 4
TimelineZoom: 1

[Metadata]
Title:Dab
TitleUnicode:Dab
Artist:Nick India
ArtistUnicode:Nick India
Creator:Muukeh
Version:dab
Source:
Tags:
BeatmapID:1452181
BeatmapSetID:686078

[Difficulty]
HPDrainRate:6
CircleSize:4
OverallDifficulty:7.8
ApproachRate:8.8
SliderMultiplier:1
SliderTickRate:1

[Events]
//Background and Video events
Video,0,"Nick India - Dab.mp4"
0,0,"dabdab.png",0,0
//Break Periods
//Storyboard Layer 0 (Background)
//Storyboard Layer 1 (Fail)
//Storyboard Layer 2 (Pass)
//Storyboard Layer 3 (Foreground)
//Storyboard Sound Samples

[TimingPoints]
385,379.746835443038,4,3,0,30,1,0
2758,379.746835443038,4,3,0,30,1,0

[HitObjects]
256,192,385,12,0,2378,0:0:0:0:
212,160,2758,6,0,L|224:212,1,50
228,224,3042,1,0,0:0:0:0:
364,100,3327,1,0,0:0:0:0:
68,44,3517,1,0,0:0:0:0:
92,208,3897,6,0,L|84:268,1,50
72,340,4276,1,0,0:0:0:0:
272,132,4466,1,0,0:0:0:0:
220,264,4846,2,0,L|280:272,1,50
348,304,5226,2,0,P|396:308|436:272,1,100
440,200,5795,5,0,0:0:0:0:
240,348,5985,2,0,P|248:304|228:248,1,100
140,176,6555,1,0,0:0:0:0:
140,176,6935,1,0,0:0:0:0:
372,236,7125,1,0,0:0:0:0:
100,336,7314,1,0,0:0:0:0:
304,340,7884,5,0,0:0:0:0:
48,216,8074,1,0,0:0:0:0:
48,216,8264,2,0,P|40:168|64:112,1,100
216,72,8833,6,0,L|236:132,1,50
288,252,9213,1,0,0:0:0:0:
336,152,9403,1,0,0:0:0:0:
220,300,9593,2,0,P|208:264|208:236,1,50
308,40,9973,1,0,0:0:0:0:
428,252,10163,1,0,0:0:0:0:
192,104,10352,6,0,P|164:100|124:108,1,50
304,336,10732,2,0,P|332:340|368:332,1,50
444,288,11112,1,0,0:0:0:0:
168,200,11302,1,0,0:0:0:0:
112,264,11492,2,0,L|124:316,1,50
440,140,11871,6,0,L|384:124,1,50
80,56,12251,1,0,0:0:0:0:
208,364,12441,2,0,L|268:348,1,50
480,292,12821,1,0,0:0:0:0:
24,232,13011,1,0,0:0:0:0:
328,40,13201,1,0,0:0:0:0:
264,160,13390,5,0,0:0:0:0:
264,164,13438,1,0,0:0:0:0:
264,168,13485,1,0,0:0:0:0:
264,172,13533,1,0,0:0:0:0:
264,176,13580,1,0,0:0:0:0:
192,280,13770,5,0,0:0:0:0:
272,264,13897,1,0,0:0:0:0:
348,244,14023,1,0,0:0:0:0:
460,96,14340,1,0,0:0:0:0:
432,120,14435,1,0,0:0:0:0:
424,156,14530,1,0,0:0:0:0:
448,340,14720,1,0,0:0:0:0:
284,128,14909,6,0,P|256:120|220:124,1,50
40,276,15289,2,0,P|76:276|104:264,1,50
156,228,15574,1,0,0:0:0:0:
232,252,15669,2,0,L|248:304,1,50
328,136,16049,1,0,0:0:0:0:
156,364,16239,1,0,0:0:0:0:
72,160,16428,6,0,P|68:132|72:108,1,50
404,80,16808,1,0,0:0:0:0:
416,112,16903,1,0,0:0:0:0:
412,144,16998,1,0,0:0:0:0:
288,328,17188,2,0,P|288:296|300:268,1,50
64,220,17568,2,0,P|72:248|72:276,1,50
408,256,17947,6,0,P|408:228|416:200,1,50
144,48,18327,2,0,L|160:100,1,50
240,356,18707,1,0,0:0:0:0:
304,64,18897,1,0,0:0:0:0:
56,324,19087,1,0,0:0:0:0:
420,232,19276,1,0,0:0:0:0:
80,88,19466,5,0,0:0:0:0:
96,168,19593,1,0,0:0:0:0:
156,116,19720,1,0,0:0:0:0:
24,144,19846,2,0,P|24:188|56:232,1,100
68,232,20273,2,0,L|88:232,3,12.5
420,192,20606,1,0,0:0:0:0:
236,124,20795,1,0,0:0:0:0:
216,200,20890,1,0,0:0:0:0:
200,276,20985,6,0,L|256:264,1,50
456,216,21365,1,0,0:0:0:0:
120,72,21555,2,0,P|116:156|128:184,1,100
256,360,22125,1,0,0:0:0:0:
320,280,22251,1,0,0:0:0:0:
280,200,22378,1,0,0:0:0:0:
344,120,22504,6,0,B|392:120|392:120|436:156,1,100
216,276,23264,2,0,B|188:232|188:232|192:176,1,100
228,36,24023,1,0,0:0:0:0:
256,192,24783,12,0,29340,0:0:0:0:
