osu file format v14

[General]
AudioFilename: audio.mp3
AudioLeadIn: 0
PreviewTime: -1
Countdown: 1
SampleSet: Normal
StackLeniency: 0.7
Mode: 0
LetterboxInBreaks: 0
WidescreenStoryboard: 0

[Editor]
DistanceSpacing: 0.8
BeatDivisor: 8
GridSize: 32
TimelineZoom: 1

[Metadata]
Title:Davy Jones
TitleUnicode:Davy Jones
Artist:Nichtcore
ArtistUnicode:Nichtcore
Creator:chri34d7
Version:Normal
Source:
Tags:
BeatmapID:1420168
BeatmapSetID:671725

[Difficulty]
HPDrainRate:5
CircleSize:5
OverallDifficulty:5
ApproachRate:5
SliderMultiplier:1.40000000596046
SliderTickRate:1

[Events]
//Background and Video events
//Break Periods
//Storyboard Layer 0 (Background)
//Storyboard Layer 1 (Fail)
//Storyboard Layer 2 (Pass)
//Storyboard Layer 3 (Foreground)
//Storyboard Sound Samples

[TimingPoints]
1053.23424203542,303.030303030303,4,1,0,100,1,0

[HitObjects]
32,160,958,1,0,0:0:0:0:
192,224,1375,1,0,0:0:0:0:
160,32,1905,1,0,0:0:0:0:
192,288,2644,1,0,0:0:0:0:
192,192,3818,1,0,0:0:0:0:
192,192,4519,1,0,0:0:0:0:
352,256,4992,2,0,P|256:224|160:160,3,210.000000894069
160,192,8060,1,0,0:0:0:0:
448,32,8969,1,0,0:0:0:0:
192,128,9689,1,0,0:0:0:0:
384,128,10182,1,0,0:0:0:0:
128,128,10863,1,0,0:0:0:0:
128,128,11469,1,0,0:0:0:0:
32,96,12530,1,0,0:0:0:0:
320,128,13325,1,0,0:0:0:0:
128,128,13856,1,0,0:0:0:0:
192,128,15106,1,0,0:0:0:0:
256,96,16166,1,0,0:0:0:0:
0,128,16848,1,0,0:0:0:0:
384,96,17909,1,0,0:0:0:0:
96,128,18666,1,0,0:0:0:0:
256,96,19916,1,0,0:0:0:0:
256,96,20182,1,0,0:0:0:0:
256,96,20522,1,0,0:0:0:0:
192,96,21697,1,0,0:0:0:0:
96,96,22341,1,0,0:0:0:0:
512,96,23439,1,0,0:0:0:0:
256,96,24121,1,0,0:0:0:0:
128,96,25333,1,0,0:0:0:0:
224,288,25939,1,0,0:0:0:0:
288,96,26545,1,0,0:0:0:0:
128,160,27757,1,0,0:0:0:0:
352,128,28401,1,0,0:0:0:0:
96,160,29121,2,0,P|320:160|320:96,1,262.500001117586
224,160,31242,1,0,0:0:0:0:
288,128,32378,1,0,0:0:0:0:
0,128,33136,1,0,0:0:0:0:
448,128,34310,1,0,0:0:0:0:
352,128,34613,1,0,0:0:0:0:
224,128,34954,1,0,0:0:0:0:
256,160,36659,1,0,0:0:0:0:
416,96,37682,1,0,0:0:0:0:
160,96,38401,1,0,0:0:0:0:
352,128,39538,1,0,0:0:0:0:
128,128,40182,1,0,0:0:0:0:
416,96,41015,1,0,0:0:0:0:
192,128,41621,1,0,0:0:0:0:
352,96,42075,1,0,0:0:0:0:
160,128,42568,1,0,0:0:0:0:
256,96,43856,1,0,0:0:0:0:
352,96,44954,1,0,0:0:0:0:
128,96,45598,1,0,0:0:0:0:
288,96,46772,1,0,0:0:0:0:
288,96,47416,1,0,0:0:0:0:
160,96,48666,1,0,0:0:0:0:
256,96,48969,1,0,0:0:0:0:
384,96,49272,1,0,0:0:0:0:
160,96,49878,1,0,0:0:0:0:
384,96,50485,1,0,0:0:0:0:
192,96,51053,1,0,0:0:0:0:
256,96,52265,1,0,0:0:0:0:
256,96,52833,1,0,0:0:0:0:
320,96,53553,1,0,0:0:0:0:
320,96,54045,1,0,0:0:0:0:
96,96,54651,1,0,0:0:0:0:
320,64,55219,1,0,0:0:0:0:
128,96,56318,1,0,0:0:0:0:
352,96,56962,1,0,0:0:0:0:
128,160,59651,1,0,0:0:0:0:
128,160,59878,1,0,0:0:0:0:
128,160,60371,1,0,0:0:0:0:
128,160,60901,1,0,0:0:0:0:
128,160,61318,1,0,0:0:0:0:
128,160,61697,1,0,0:0:0:0:
128,160,62075,1,0,0:0:0:0:
128,160,62492,1,0,0:0:0:0:
128,160,62871,1,0,0:0:0:0:
128,160,63212,1,0,0:0:0:0:
128,160,63515,1,0,0:0:0:0:
128,160,63894,1,0,0:0:0:0:
128,160,64272,1,0,0:0:0:0:
128,160,64651,1,0,0:0:0:0:
128,160,64992,1,0,0:0:0:0:
128,160,65333,1,0,0:0:0:0:
128,160,65712,1,0,0:0:0:0:
128,160,66091,1,0,0:0:0:0:
128,160,66432,1,0,0:0:0:0:
128,160,66810,1,0,0:0:0:0:
128,160,67151,1,0,0:0:0:0:
128,160,67568,1,0,0:0:0:0:
128,160,67909,1,0,0:0:0:0:
128,160,68250,1,0,0:0:0:0:
128,160,68666,1,0,0:0:0:0:
128,160,69007,1,0,0:0:0:0:
128,160,69386,1,0,0:0:0:0:
128,160,69765,1,0,0:0:0:0:
128,160,70182,1,0,0:0:0:0:
128,160,70522,1,0,0:0:0:0:
128,160,70901,1,0,0:0:0:0:
128,160,71204,1,0,0:0:0:0:
128,160,71621,1,0,0:0:0:0:
128,160,72000,1,0,0:0:0:0:
128,160,72303,1,0,0:0:0:0:
128,160,72682,1,0,0:0:0:0:
128,160,73022,1,0,0:0:0:0:
128,160,73439,1,0,0:0:0:0:
128,160,73780,1,0,0:0:0:0:
128,160,74121,1,0,0:0:0:0:
128,160,74462,1,0,0:0:0:0:
128,160,74878,1,0,0:0:0:0:
128,160,75182,1,0,0:0:0:0:
128,160,75598,1,0,0:0:0:0:
128,160,75977,1,0,0:0:0:0:
128,160,76318,1,0,0:0:0:0:
128,160,76697,1,0,0:0:0:0:
128,160,77075,1,0,0:0:0:0:
128,160,77454,1,0,0:0:0:0:
128,160,77795,1,0,0:0:0:0:
128,160,78174,1,0,0:0:0:0:
128,160,78553,1,0,0:0:0:0:
448,128,79386,2,0,B|192:256|288:192|384:256|352:256,1,262.500001117586
224,160,80371,1,0,0:0:0:0:
96,64,80863,1,0,0:0:0:0:
320,128,81545,1,0,0:0:0:0:
32,96,82303,1,0,0:0:0:0:
96,96,82454,1,0,0:0:0:0:
160,96,82606,1,0,0:0:0:0:
256,96,83704,1,0,0:0:0:0:
320,96,84538,1,0,0:0:0:0:
320,96,84841,1,0,0:0:0:0:
32,128,85636,1,0,0:0:0:0:
160,96,85977,1,0,0:0:0:0:
448,96,86735,1,0,0:0:0:0:
320,160,87075,1,0,0:0:0:0:
96,96,88250,1,0,0:0:0:0:
352,96,88932,1,0,0:0:0:0:
224,96,89310,1,0,0:0:0:0:
480,160,90030,1,0,0:0:0:0:
352,128,90409,1,0,0:0:0:0:
96,160,91128,1,0,0:0:0:0:
160,160,91318,1,0,0:0:0:0:
192,128,91469,1,0,0:0:0:0:
448,32,92227,1,0,0:0:0:0:
320,64,92568,1,0,0:0:0:0:
64,160,93325,1,0,0:0:0:0:
192,128,93666,1,0,0:0:0:0:
448,160,94386,1,0,0:0:0:0:
320,160,94765,1,0,0:0:0:0:
160,160,95182,1,0,0:0:0:0:
96,96,95901,1,0,0:0:0:0:
256,128,96318,1,0,0:0:0:0:
288,96,96924,1,0,0:0:0:0:
32,160,97682,1,0,0:0:0:0:
160,128,98022,1,0,0:0:0:0:
416,128,98742,1,0,0:0:0:0:
288,128,99121,1,0,0:0:0:0:
64,32,99803,1,0,0:0:0:0:
128,64,99992,1,0,0:0:0:0:
160,64,100144,1,0,0:0:0:0:
224,96,100371,1,0,0:0:0:0:
256,128,101280,1,0,0:0:0:0:
416,96,102113,1,0,0:0:0:0:
288,128,102492,1,0,0:0:0:0:
32,128,103212,1,0,0:0:0:0:
160,128,103591,1,0,0:0:0:0:
416,96,104348,1,0,0:0:0:0:
288,128,104727,1,0,0:0:0:0:
32,96,105447,1,0,0:0:0:0:
256,128,106015,1,0,0:0:0:0:
480,64,106697,1,0,0:0:0:0:
352,96,107038,1,0,0:0:0:0:
128,192,107682,1,0,0:0:0:0:
256,128,108060,1,0,0:0:0:0:
512,96,108742,1,0,0:0:0:0:
448,96,108894,1,0,0:0:0:0:
384,96,109045,1,0,0:0:0:0:
96,160,109841,1,0,0:0:0:0:
224,128,110182,1,0,0:0:0:0:
480,96,110863,1,0,0:0:0:0:
320,96,111280,1,0,0:0:0:0:
224,352,112038,1,0,0:0:0:0:
256,192,112530,1,0,0:0:0:0:
192,32,112985,1,0,0:0:0:0:
96,256,113666,1,0,0:0:0:0:
160,160,114007,1,0,0:0:0:0:
288,128,114386,1,0,0:0:0:0:
320,64,114803,1,0,0:0:0:0:
288,64,115788,1,0,0:0:0:0:
288,64,116128,1,0,0:0:0:0:
32,128,116886,1,0,0:0:0:0:
160,96,117265,1,0,0:0:0:0:
416,96,118022,1,0,0:0:0:0:
64,128,119159,1,0,0:0:0:0:
64,128,119424,1,0,0:0:0:0:
416,160,120371,1,0,0:0:0:0:
320,160,120598,1,0,0:0:0:0:
96,96,121280,1,0,0:0:0:0:
192,128,121583,1,0,0:0:0:0:
480,128,122341,1,0,0:0:0:0:
320,128,122757,1,0,0:0:0:0:
224,128,125409,1,0,0:0:0:0:
0,128,125977,1,0,0:0:0:0:
192,96,126545,1,0,0:0:0:0:
384,128,127075,1,0,0:0:0:0:
256,288,127644,1,0,0:0:0:0:
224,64,128250,1,0,0:0:0:0:
64,160,128818,1,0,0:0:0:0:
288,128,129424,1,0,0:0:0:0:
480,96,129954,1,0,0:0:0:0:
384,96,130257,1,0,0:0:0:0:
288,96,130560,1,0,0:0:0:0:
64,128,131166,1,0,0:0:0:0:
480,64,132303,1,0,0:0:0:0:
128,160,133325,1,0,0:0:0:0:
416,64,134121,1,0,0:0:0:0:
32,96,135144,1,0,0:0:0:0:
128,96,135447,1,0,0:0:0:0:
192,96,135674,1,0,0:0:0:0:
448,128,136356,1,0,0:0:0:0:
128,160,137189,1,0,0:0:0:0:
320,128,137757,1,0,0:0:0:0:
320,96,138288,1,0,0:0:0:0:
128,160,139575,1,0,0:0:0:0:
320,128,140788,1,0,0:0:0:0:
96,192,141394,1,0,0:0:0:0:
256,32,142038,1,0,0:0:0:0:
384,288,142833,1,0,0:0:0:0:
160,128,144386,1,0,0:0:0:0:
64,64,144727,1,0,0:0:0:0:
160,96,145030,1,0,0:0:0:0:
352,128,145560,1,0,0:0:0:0:
352,128,146204,1,0,0:0:0:0:
160,128,146772,1,0,0:0:0:0:
160,96,147871,1,0,0:0:0:0:
352,128,148401,1,0,0:0:0:0:
320,128,149841,1,0,0:0:0:0:
384,128,150409,1,0,0:0:0:0:
160,96,151053,1,0,0:0:0:0:
256,128,152265,1,0,0:0:0:0:
256,128,152719,1,0,0:0:0:0:
288,128,153553,1,0,0:0:0:0:
288,128,153704,1,0,0:0:0:0:
288,128,153818,1,0,0:0:0:0:
288,128,153969,1,0,0:0:0:0:
288,128,154083,1,0,0:0:0:0:
288,128,154272,1,0,0:0:0:0:
288,128,154424,1,0,0:0:0:0:
288,128,154575,1,0,0:0:0:0:
288,128,154727,1,0,0:0:0:0:
288,128,154878,1,0,0:0:0:0:
288,128,155030,1,0,0:0:0:0:
288,128,155219,1,0,0:0:0:0:
288,128,155371,1,0,0:0:0:0:
288,128,155560,1,0,0:0:0:0:
288,128,155712,1,0,0:0:0:0:
288,128,155863,1,0,0:0:0:0:
288,128,156053,1,0,0:0:0:0:
288,128,156204,1,0,0:0:0:0:
288,128,156356,1,0,0:0:0:0:
288,128,156507,1,0,0:0:0:0:
288,128,156697,1,0,0:0:0:0:
288,128,156848,1,0,0:0:0:0:
288,128,157038,1,0,0:0:0:0:
288,128,157113,1,0,0:0:0:0:
