osu file format v14

[General]
AudioFilename: audio.mp3
AudioLeadIn: 0
PreviewTime: 159470
Countdown: 0
SampleSet: Soft
StackLeniency: 0
Mode: 0
LetterboxInBreaks: 0
WidescreenStoryboard: 0

[Editor]
Bookmarks: 15050,27850,40650,53450,66250,79050,91850,104650,117450,130250,143050,160088,171382,182676
DistanceSpacing: 1
BeatDivisor: 4
GridSize: 4
TimelineZoom: 1.7

[Metadata]
Title:Shukusai no Elementaria
TitleUnicode:祝祭のエレメンタリア
Artist:Ni-Sokkususu
ArtistUnicode:にーそっくすす
Creator:Pata-Mon
Version:Pata-Mon
Source:精霊使いの剣舞
Tags:Blade Dance of Elementalers Shukusai no Elementalia
BeatmapID:1009333
BeatmapSetID:472332

[Difficulty]
HPDrainRate:4
CircleSize:3.5
OverallDifficulty:8
ApproachRate:9.3
SliderMultiplier:2
SliderTickRate:1

[Events]
//Background and Video events
0,0,"BG.jpg",0,0
//Break Periods
2,157265,159534
//Storyboard Layer 0 (Background)
//Storyboard Layer 1 (Fail)
//Storyboard Layer 2 (Pass)
//Storyboard Layer 3 (Foreground)
//Storyboard Sound Samples

[TimingPoints]
2250,400,4,2,1,30,1,0
2250,-125,4,2,1,30,0,0
13450,-83.3333333333333,4,2,1,70,0,0
14250,-83.3333333333333,4,2,1,5,0,0
14650,-66.6666666666667,4,2,1,70,0,0
15050,-90.9090909090909,4,2,1,70,0,0
27850,-100,4,2,1,70,0,0
64650,-125,4,2,1,70,0,0
65050,-100,4,2,1,70,0,0
65850,-66.6666666666667,4,2,1,70,0,0
66250,-90.9090909090909,4,2,1,70,0,1
79050,-90.9090909090909,4,2,1,70,0,0
85450,-90.9090909090909,4,2,1,70,0,0
91850,-100,4,2,1,70,0,0
97450,-125,4,2,1,70,0,0
97850,-100,4,2,1,70,0,0
115850,-125,4,2,1,70,0,0
116250,-100,4,2,1,70,0,0
117050,-66.6666666666667,4,2,1,70,0,0
117450,-90.9090909090909,4,2,1,70,0,1
130250,-125,4,2,1,70,0,0
135050,-125,4,2,1,70,0,0
136650,-125,4,2,1,70,0,0
141450,-125,4,2,1,70,0,0
143050,-80,4,2,1,70,0,0
157265,352.941176470588,4,2,1,70,1,0
160088,-90.9090909090909,4,2,1,70,0,1
171382,-80,4,2,1,70,0,1
182676,-80,4,2,1,70,0,0

[Colours]
Combo1 : 101,137,195
Combo2 : 167,125,188
Combo3 : 241,235,249
Combo4 : 234,88,124
Combo5 : 247,236,131

[HitObjects]
256,210,2250,5,8,0:0:0:0:
376,210,2450,2,0,P|415:203|450:184,1,80,2|8,0:0|0:0,0:0:0:0:
256,210,2850,2,0,P|262:249|281:284,1,80,2|8,0:0|0:0,0:0:0:0:
256,90,3250,2,0,P|216:96|181:115,1,80,2|8,0:0|0:0,0:0:0:0:
376,90,3650,2,0,P|369:50|350:15,1,80,2|8,0:0|0:0,0:0:0:0:
450,184,4050,6,0,P|415:203|375:209,1,80,2|8,0:0|0:0,0:0:0:0:
350,16,4450,2,0,P|369:50|375:90,1,80,2|8,0:0|0:0,0:0:0:0:
182,116,4850,2,0,P|216:96|256:90,1,80,2|8,0:0|0:0,0:0:0:0:
282,284,5250,2,0,P|262:249|256:209,1,80,2|8,0:0|0:0,0:0:0:0:
256,90,5650,6,0,P|221:70|181:64,1,80,2|8,0:0|0:0,0:0:0:0:
376,210,6050,2,0,P|410:229|450:235,1,80,2|8,0:0|0:0,0:0:0:0:
256,210,6450,2,0,P|236:244|230:284,1,80,2|8,0:0|0:0,0:0:0:0:
376,90,6850,2,0,P|395:55|401:15,1,80,2|8,0:0|0:0,0:0:0:0:
182,64,7250,5,2,0:0:0:0:
182,64,7450,1,8,0:0:0:0:
150,204,7650,1,2,0:0:0:0:
150,204,7850,1,8,0:0:0:0:
288,162,8050,1,2,0:0:0:0:
288,162,8250,1,8,0:0:0:0:
150,204,8450,1,2,0:0:0:0:
288,162,8650,5,4,0:0:0:0:
150,204,9450,5,4,0:0:0:0:
182,64,10250,5,4,0:0:0:0:
150,204,11050,5,4,0:0:0:0:
288,162,11850,5,4,0:0:0:0:
150,204,12650,5,4,0:0:0:0:
288,162,13050,1,4,0:0:0:0:
150,204,13450,6,0,B|146:212|146:212|154:216|154:216|150:224|150:224|158:228|158:228|154:236|154:236|162:240|162:240|158:248|158:248|166:252|166:252|166:260|166:260|174:260|174:260|174:268|174:268|182:268|182:268|182:276|182:276|190:276|190:276|190:284|190:284|198:284|198:284|202:292|202:292|210:288|210:288|214:296|214:296|222:292|222:292|226:300|226:300|234:296|234:296|238:304|238:304|246:300|246:300|252:306|252:306|258:300|258:300|264:306|264:306|270:300|270:300|276:306|276:306|282:300|282:300|288:306|288:306|294:300|294:300|302:304|302:304|306:296|306:296|314:300|314:300|318:292|318:292|326:296|326:296|330:288|330:288|338:292|338:292|342:284|342:284|350:284|350:284|350:276|350:276|358:276|358:276|358:268|358:268|366:268|366:268|366:260|366:260|374:260|374:260|374:252|374:252|350:232|366:188,1,479.999985351563
366,188,14650,6,0,B|345:233|390:266|390:266|421:287|452:277|482:305|475:340|452:348,1,225.000008583069
368,350,15050,5,2,0:0:0:0:
319,324,15150,1,0,0:0:0:0:
285,280,15250,1,8,0:0:0:0:
269,227,15350,1,0,0:0:0:0:
273,172,15450,2,0,L|285:118,3,55.0000016784668,2|0|8|0,0:0|0:0|0:0|0:0,0:0:0:0:
285,280,15850,5,2,0:0:0:0:
294,334,15950,1,0,0:0:0:0:
256,373,16050,1,8,0:0:0:0:
201,363,16150,1,0,0:0:0:0:
177,313,16250,2,0,L|122:321,3,55.0000016784668,2|0|8|0,0:0|0:0|0:0|0:0,0:0:0:0:
294,334,16650,6,0,P|290:279|264:231,1,110.000003356934,2|8,0:0|0:0,0:0:0:0:
223,194,16950,1,0,0:0:0:0:
180,159,17050,2,0,P|164:136|153:111,1,55.0000016784668,2|0,0:0|0:0,0:0:0:0:
264,232,17250,2,0,P|279:254|290:279,1,55.0000016784668,8|0,0:0|0:0,0:0:0:0:
180,159,17450,6,0,P|153:111|150:56,1,110.000003356934,2|8,0:0|0:0,0:0:0:0:
195,25,17750,1,0,0:0:0:0:
248,40,17850,2,0,P|275:35|301:27,1,55.0000016784668,2|0,0:0|0:0,0:0:0:0:
150,57,18050,2,0,P|122:61|96:69,1,55.0000016784668,8|0,0:0|0:0,0:0:0:0:
301,27,18250,5,2,0:0:0:0:
349,39,18350,1,0,0:0:0:0:
385,72,18450,1,8,0:0:0:0:
402,118,18550,1,0,0:0:0:0:
392,172,18650,2,0,L|351:209,3,55.0000016784668,2|0|8|0,0:0|0:0|0:0|0:0,0:0:0:0:
385,72,19050,5,2,0:0:0:0:
402,118,19150,1,0,0:0:0:0:
392,172,19250,1,8,0:0:0:0:
351,209,19350,1,0,0:0:0:0:
296,215,19450,2,0,L|308:268,3,55.0000016784668,2|0|8|0,0:0|0:0|0:0|0:0,0:0:0:0:
274,123,19850,6,0,P|220:110|165:105,1,110.000003356934,2|8,0:0|0:0,0:0:0:0:
122,140,20150,1,0,0:0:0:0:
68,153,20250,2,0,P|40:152|13:148,1,55.0000016784668,2|0,0:0|0:0,0:0:0:0:
165,105,20450,2,0,P|193:106|220:110,1,55.0000016784668,8|0,0:0|0:0,0:0:0:0:
68,153,20650,6,0,P|75:207|98:257,1,110.000003356934,2|8,0:0|0:0,0:0:0:0:
144,288,20950,1,0,0:0:0:0:
198,295,21050,1,2,0:0:0:0:
198,295,21250,1,8,0:0:0:0:
198,295,21450,5,2,0:0:0:0:
144,288,21550,1,0,0:0:0:0:
98,257,21650,1,8,0:0:0:0:
75,206,21750,1,0,0:0:0:0:
85,152,21850,2,0,L|59:103,3,55.0000016784668,2|0|8|0,0:0|0:0|0:0|0:0,0:0:0:0:
98,257,22250,5,2,0:0:0:0:
144,288,22350,1,0,0:0:0:0:
198,295,22450,1,8,0:0:0:0:
251,282,22550,1,0,0:0:0:0:
305,285,22650,2,0,L|345:322,3,55.0000016784668,2|0|8|0,0:0|0:0|0:0|0:0,0:0:0:0:
446,250,23050,6,0,P|451:195|445:140,1,110.000003356934,2|8,0:0|0:0,0:0:0:0:
408,99,23350,1,0,0:0:0:0:
365,64,23450,2,0,P|362:36|362:9,1,55.0000016784668,2|0,0:0|0:0,0:0:0:0:
309,166,23650,2,0,P|306:193|306:220,1,55.0000016784668,8|0,0:0|0:0,0:0:0:0:
445,141,23850,6,0,P|450:195|445:250,1,110.000003356934,2|8,0:0|0:0,0:0:0:0:
411,292,24150,1,0,0:0:0:0:
356,291,24250,2,0,P|350:263|349:236,1,55.0000016784668,2|0,0:0|0:0,0:0:0:0:
445,141,24450,2,0,P|450:168|451:195,1,55.0000016784668,8|0,0:0|0:0,0:0:0:0:
356,291,24650,5,2,0:0:0:0:
411,292,24750,1,0,0:0:0:0:
456,322,24850,1,8,0:0:0:0:
475,373,24950,1,0,0:0:0:0:
456,322,25050,2,0,L|472:269,3,55.0000016784668,2|0|8|0,0:0|0:0|0:0|0:0,0:0:0:0:
356,291,25450,5,2,0:0:0:0:
302,302,25550,1,0,0:0:0:0:
248,288,25650,1,8,0:0:0:0:
216,242,25750,1,0,0:0:0:0:
248,288,25850,2,0,L|246:342,3,55.0000016784668,2|0|8|0,0:0|0:0|0:0|0:0,0:0:0:0:
180,199,26250,6,0,P|173:144|178:89,1,110.000003356934,2|8,0:0|0:0,0:0:0:0:
206,41,26550,1,0,0:0:0:0:
257,20,26650,2,0,P|284:20|311:27,1,55.0000016784668,2|0,0:0|0:0,0:0:0:0:
179,90,26850,2,0,P|151:89|124:82,1,55.0000016784668,8|0,0:0|0:0,0:0:0:0:
282,188,27050,6,0,P|254:187|227:180,1,55.0000016784668,2|0,0:0|0:0,0:0:0:0:
257,20,27250,2,0,P|284:20|311:27,1,55.0000016784668,2|0,0:0|0:0,0:0:0:0:
179,90,27450,2,0,P|151:89|124:82,1,55.0000016784668,2|0,0:0|0:0,0:0:0:0:
179,90,27850,5,4,0:3:0:0:
329,90,28050,2,0,P|326:114|320:139,1,50,0|0,0:3|0:3,0:3:0:0:
179,90,28250,2,0,P|170:139|178:188,1,100,4|0,0:3|0:3,0:3:0:0:
321,139,28650,1,4,0:3:0:0:
179,188,28850,1,0,0:3:0:0:
321,139,29050,1,4,0:3:0:0:
203,284,29250,6,0,P|184:237|179:188,1,100,0|4,0:3|0:3,0:3:0:0:
371,288,29650,2,0,P|366:337|347:383,1,100,0|4,0:3|0:3,0:3:0:0:
321,139,30050,1,0,0:3:0:0:
467,173,30250,1,4,0:3:0:0:
371,288,30450,1,0,0:3:0:0:
467,173,30650,1,4,0:3:0:0:
371,288,30850,2,0,L|338:295,1,33.3333333333333,0|0,0:3|0:3,0:3:0:0:
152,321,31050,5,4,0:3:0:0:
63,199,31250,2,0,L|65:149,1,50,0|0,0:3|0:3,0:3:0:0:
202,217,31450,2,0,P|251:216|300:207,1,100,4|0,0:3|0:3,0:3:0:0:
508,306,31850,2,0,P|458:305|409:296,1,100,4|0,0:3|0:3,0:3:0:0:
202,217,32250,1,4,0:3:0:0:
409,296,32450,6,0,P|458:305|507:305,1,100,0|4,0:3|0:3,0:3:0:0:
269,351,32850,1,0,0:3:0:0:
202,217,33050,1,4,0:3:0:0:
202,217,33250,1,0,0:3:0:0:
269,351,33450,1,4,0:3:0:0:
202,217,33650,1,0,0:3:0:0:
307,110,33850,2,0,P|356:101|406:101,1,100,4|0,0:3|0:3,0:3:0:0:
202,217,34250,5,4,0:3:0:0:
307,110,34450,2,0,P|331:103|356:101,1,50,0|0,0:3|0:3,0:3:0:0:
202,217,34650,1,4,0:3:0:0:
202,217,34850,1,0,0:3:0:0:
307,110,35050,1,4,0:3:0:0:
202,217,35250,1,0,0:3:0:0:
347,255,35450,1,4,0:3:0:0:
307,110,35650,6,0,P|356:101|406:101,1,100,0|4,0:3|0:3,0:3:0:0:
202,217,36050,1,0,0:3:0:0:
347,255,36250,2,0,P|351:304|348:354,1,100,4|0,0:3|0:3,0:3:0:0:
202,217,36650,2,0,P|197:167|200:117,1,100,4|0,0:3|0:3,0:3:0:0:
347,255,37050,2,0,P|351:304|348:354,1,100,4|0,0:3|0:3,0:3:0:0:
201,117,37450,5,4,0:3:0:0:
347,255,37650,1,0,0:3:0:0:
300,112,37850,2,0,P|250:108|201:117,1,100,4|0,0:3|0:3,0:3:0:0:
94,223,38250,1,4,0:3:0:0:
201,117,38450,1,0,0:3:0:0:
201,117,38650,1,4,0:3:0:0:
94,223,38850,1,0,0:3:0:0:
330,194,39050,5,4,0:3:0:0:
201,117,39250,1,0,0:3:0:0:
437,88,39450,1,4,0:3:0:0:
330,194,39650,1,0,0:3:0:0:
94,223,39850,1,4,0:3:0:0:
201,117,40050,1,0,0:3:0:0:
223,300,40250,1,4,0:3:0:0:
94,223,40450,1,0,0:3:0:0:
223,300,40650,5,4,0:3:0:0:
330,194,40850,1,0,0:3:0:0:
373,168,40950,1,0,0:3:0:0:
330,194,41050,2,0,P|379:200|429:198,1,100,4|0,0:3|0:3,0:3:0:0:
201,117,41450,1,4,0:3:0:0:
330,194,41650,2,0,P|379:200|429:198,1,100,0|4,0:3|0:3,0:3:0:0:
201,117,42050,6,0,P|151:114|101:121,1,100,0|4,0:3|0:3,0:3:0:0:
330,194,42450,1,0,0:3:0:0:
201,117,42650,1,4,0:3:0:0:
201,117,42850,1,0,0:3:0:0:
330,194,43050,2,0,P|327:243|316:292,1,100,4|0,0:3|0:3,0:3:0:0:
153,381,43450,2,0,P|155:331|166:282,1,100,4|0,0:3|0:3,0:3:0:0:
330,194,43850,5,4,0:3:0:0:
201,117,44050,1,0,0:3:0:0:
251,122,44150,1,0,0:3:0:0:
201,117,44250,1,4,0:3:0:0:
201,117,44450,1,0,0:3:0:0:
330,194,44650,1,4,0:3:0:0:
181,213,44850,2,0,P|182:163|200:116,1,100,0|4,0:3|0:3,0:3:0:0:
271,332,45250,6,0,P|226:355|177:362,1,100,0|4,0:3|0:3,0:3:0:0:
66,261,45650,1,0,0:3:0:0:
145,133,45850,1,4,0:3:0:0:
66,261,46050,1,0,0:3:0:0:
290,170,46250,1,4,0:3:0:0:
145,133,46450,1,0,0:3:0:0:
334,149,46650,2,0,P|313:162|289:170,1,50,4|0,0:3|0:3,0:3:0:0:
145,133,46850,2,0,P|121:140|100:154,1,50,0|0,0:3|0:3,0:3:0:0:
290,170,47050,5,4,0:3:0:0:
145,133,47250,1,0,0:3:0:0:
100,154,47350,1,0,0:3:0:0:
145,133,47450,1,4,0:3:0:0:
145,133,47650,1,0,0:3:0:0:
290,170,47850,1,4,0:3:0:0:
186,278,48050,2,0,P|136:282|87:271,1,100,0|4,0:3|0:3,0:3:0:0:
290,170,48450,6,0,P|339:165|388:176,1,100,0|4,0:3|0:3,0:3:0:0:
186,278,48850,1,0,0:3:0:0:
290,170,49050,1,4,0:3:0:0:
290,170,49250,1,0,0:3:0:0:
332,314,49450,1,4,0:3:0:0:
290,170,49650,1,0,0:3:0:0:
332,314,49850,2,0,P|381:323|430:321,1,100,4|0,0:3|0:3,0:3:0:0:
290,170,50250,5,4,0:3:0:0:
248,26,50450,1,0,0:3:0:0:
198,21,50550,1,0,0:3:0:0:
248,26,50650,1,4,0:3:0:0:
290,170,50850,1,0,0:3:0:0:
198,21,51050,1,4,0:3:0:0:
198,21,51250,1,0,0:3:0:0:
290,170,51450,1,4,0:3:0:0:
198,21,51650,1,0,0:3:0:0:
290,170,51850,5,4,0:3:0:0:
290,170,52050,1,0,0:3:0:0:
149,223,52250,1,4,0:3:0:0:
290,170,52450,1,0,0:3:0:0:
164,88,52650,1,4,0:3:0:0:
290,170,52850,1,0,0:3:0:0:
164,88,53050,1,4,0:3:0:0:
149,223,53250,1,0,0:3:0:0:
73,50,53450,6,0,P|121:62|163:88,1,100,4|0,0:3|0:3,0:3:0:0:
275,305,53850,1,4,0:3:0:0:
149,223,54050,2,0,P|182:186|226:162,1,100,0|4,0:3|0:3,0:3:0:0:
275,305,54450,1,0,0:3:0:0:
241,78,54650,2,0,P|290:75|339:84,1,100,4|0,0:3|0:3,0:3:0:0:
275,305,55050,6,0,P|225:307|176:298,1,100,4|0,0:3|0:3,0:3:0:0:
400,222,55450,1,4,0:3:0:0:
340,85,55650,2,0,P|290:76|241:78,1,100,0|4,0:3|0:3,0:3:0:0:
400,222,56050,1,0,0:3:0:0:
275,305,56250,2,0,P|225:307|176:298,1,100,4|0,0:3|0:3,0:3:0:0:
28,148,56650,6,0,P|44:100|53:51,1,100,4|0,0:3|0:3,0:3:0:0:
24,298,57050,1,4,0:3:0:0:
176,298,57250,2,0,P|184:248|201:201,1,100,0|4,0:3|0:3,0:3:0:0:
24,298,57650,1,0,0:3:0:0:
226,125,57850,2,0,L|325:117,1,100,4|0,0:3|0:3,0:3:0:0:
170,264,58250,6,0,L|70:256,1,100,4|0,0:3|0:3,0:3:0:0:
226,125,58650,1,4,0:3:0:0:
282,264,58850,2,0,L|381:256,1,100,0|4,0:3|0:3,0:3:0:0:
226,125,59250,1,0,0:3:0:0:
170,264,59450,2,0,L|70:256,1,100,4|0,0:3|0:3,0:3:0:0:
357,159,59850,6,0,L|380:256,1,100,4|0,0:3|0:3,0:3:0:0:
208,140,60250,1,4,0:3:0:0:
380,256,60450,2,0,L|479:240,1,100,0|4,0:3|0:3,0:3:0:0:
285,372,60850,1,0,0:3:0:0:
479,240,61050,2,0,P|465:192|460:142,1,100,4|0,0:3|0:3,0:3:0:0:
251,63,61450,6,0,B|160:64|79:95|79:95|103:96,1,200,4|4,0:3|0:3,0:3:0:0:
251,63,62050,1,0,0:3:0:0:
79,95,62250,2,0,B|102:96|102:96|143:166|154:263,1,200,4|4,0:3|0:3,0:3:0:0:
155,264,63050,5,4,0:3:0:0:
155,264,64650,6,0,L|155:344,1,80,2|0,0:0|0:0,0:0:0:0:
85,187,65050,6,0,L|78:137,1,50,2|0,0:0|0:0,0:0:0:0:
225,148,65250,2,0,L|231:98,1,50,2|0,0:0|0:0,0:0:0:0:
155,6,65450,1,2,0:0:0:0:
155,6,65850,6,0,B|145:95|145:95|168:144|168:144|159:224,1,225.000008583069
67,171,66250,5,4,0:3:0:0:
248,72,66450,2,0,P|302:71|357:78,1,110.000003356934,0|4,0:3|0:3,0:3:0:0:
494,170,66850,1,0,0:3:0:0:
338,226,67050,1,4,0:3:0:0:
387,383,67250,1,0,0:3:0:0:
338,226,67450,1,4,0:3:0:0:
387,383,67650,1,0,0:3:0:0:
226,347,67850,5,4,0:3:0:0:
226,347,68050,1,0,0:3:0:0:
338,226,68250,2,0,P|388:203|442:196,1,110.000003356934,4|0,0:3|0:3,0:3:0:0:
226,347,68650,2,0,B|150:305|150:305|144:282,1,110.000003356934,4|0,0:3|0:3,0:3:0:0:
168,175,68950,1,0,0:3:0:0:
220,193,69050,2,0,P|233:139|235:84,1,110.000003356934,4|0,0:3|0:3,0:3:0:0:
41,248,69450,5,4,0:3:0:0:
41,248,69650,1,0,0:3:0:0:
220,193,69850,1,4,0:3:0:0:
41,248,70050,1,0,0:3:0:0:
220,193,70250,2,0,P|274:196|328:210,2,110.000003356934,4|0|4,0:3|0:3|0:3,0:3:0:0:
220,193,70850,1,0,0:3:0:0:
449,172,71050,5,4,0:3:0:0:
402,330,71250,1,0,0:3:0:0:
449,172,71450,1,4,0:3:0:0:
402,330,71650,1,0,0:3:0:0:
288,210,71850,2,0,B|240:176|240:176|189:169,1,110.000003356934,4|0,0:3|0:3,0:3:0:0:
189,350,72150,2,0,B|239:343|239:343|287:309,1,110.000003356934,4|0,0:3|0:3,0:3:0:0:
120,260,72450,1,4,0:3:0:0:
359,260,72650,5,4,0:3:0:0:
359,260,72850,1,0,0:3:0:0:
286,111,73050,1,4,0:3:0:0:
286,111,73250,1,0,0:3:0:0:
511,43,73450,2,0,P|463:15|410:3,1,110.000003356934,4|0,0:3|0:3,0:3:0:0:
507,208,73850,1,4,0:3:0:0:
511,43,74050,1,0,0:3:0:0:
507,208,74250,5,4,0:3:0:0:
366,122,74450,1,0,0:3:0:0:
511,43,74650,1,4,0:3:0:0:
366,122,74850,1,0,0:3:0:0:
507,207,75050,2,0,P|502:262|480:312,1,110.000003356934,4|0,0:3|0:3,0:3:0:0:
379,269,75350,1,0,0:3:0:0:
345,312,75450,2,0,P|290:313|235:320,1,110.000003356934,4|0,0:3|0:3,0:3:0:0:
40,362,75850,5,4,0:3:0:0:
40,362,76050,1,0,0:3:0:0:
165,154,76250,2,0,L|173:264,1,110.000003356934,4|0,0:3|0:3,0:3:0:0:
17,79,76650,1,4,0:3:0:0:
17,79,76850,1,0,0:3:0:0:
165,154,77050,1,4,0:3:0:0:
165,154,77250,1,0,0:3:0:0:
340,60,77450,6,0,B|381:51|381:51|448:48,1,110.000003356934,4|0,0:3|0:3,0:3:0:0:
340,257,77850,2,0,B|299:266|299:266|231:268,1,110.000003356934,4|0,0:3|0:3,0:3:0:0:
340,60,78250,2,0,B|381:51|381:51|448:48,1,110.000003356934,4|0,0:3|0:3,0:3:0:0:
449,192,78550,2,0,B|381:189|381:189|340:180,1,110.000003356934,4|0,0:3|0:3,0:3:0:0:
209,120,78850,1,4,0:3:0:0:
449,192,79050,5,4,0:0:0:0:
449,192,79850,5,4,0:0:0:0:
449,192,80650,5,4,0:0:0:0:
449,192,81450,5,4,0:0:0:0:
256,37,81650,1,4,0:0:0:0:
63,192,81850,1,4,0:0:0:0:
63,192,82250,5,4,0:0:0:0:
63,192,83050,5,4,0:0:0:0:
63,192,83850,5,4,0:0:0:0:
63,192,84650,5,4,0:0:0:0:
256,37,84850,1,4,0:0:0:0:
449,192,85050,1,4,0:0:0:0:
449,192,85450,5,2,0:0:0:0:
455,246,85550,1,0,0:0:0:0:
437,298,85650,1,8,0:0:0:0:
395,334,85750,1,0,0:0:0:0:
340,337,85850,2,0,L|285:345,3,55.0000016784668,2|0|8|0,0:0|0:0|0:0|0:0,0:0:0:0:
437,298,86250,5,2,0:0:0:0:
455,246,86350,1,0,0:0:0:0:
449,192,86450,1,8,0:0:0:0:
416,147,86550,1,0,0:0:0:0:
363,131,86650,2,0,L|336:82,3,55.0000016784668,2|0|8|0,0:0|0:0|0:0|0:0,0:0:0:0:
212,93,87050,5,2,0:0:0:0:
280,7,87250,1,8,0:0:0:0:
246,50,87350,1,0,0:0:0:0:
212,93,87450,2,0,L|207:147,1,55.0000016784668,2|0,0:0|0:0,0:0:0:0:
331,137,87650,2,0,L|335:82,1,55.0000016784668,8|0,0:0|0:0,0:0:0:0:
207,147,87850,5,2,0:0:0:0:
243,249,88050,1,8,0:0:0:0:
225,198,88150,1,0,0:0:0:0:
207,147,88250,2,0,L|212:93,1,55.0000016784668,2|0,0:0|0:0,0:0:0:0:
243,249,88450,2,0,L|238:303,1,55.0000016784668,8|0,0:0|0:0,0:0:0:0:
207,147,88650,5,2,0:0:0:0:
225,198,88750,1,0,0:0:0:0:
243,249,88850,1,8,0:0:0:0:
261,300,88950,1,0,0:0:0:0:
279,351,89050,2,0,P|305:356|333:357,1,55.0000016784668,2|0,0:0|0:0,0:0:0:0:
243,249,89250,2,0,P|216:243|188:242,1,55.0000016784668,8|0,0:0|0:0,0:0:0:0:
366,253,89450,5,2,0:0:0:0:
407,216,89550,1,0,0:0:0:0:
431,166,89650,1,8,0:0:0:0:
421,111,89750,1,0,0:0:0:0:
384,70,89850,2,0,P|356:65|329:65,1,55.0000016784668,2|0,0:0|0:0,0:0:0:0:
203,127,90050,2,0,P|230:131|257:131,1,55.0000016784668,8|0,0:0|0:0,0:0:0:0:
145,35,90250,5,2,0:0:0:0:
37,55,90450,1,8,0:0:0:0:
91,45,90550,1,0,0:0:0:0:
145,35,90650,2,0,P|172:39|199:39,1,55.0000016784668,2|0,0:0|0:0,0:0:0:0:
355,35,90850,2,0,P|327:39|300:39,1,55.0000016784668,8|0,0:0|0:0,0:0:0:0:
250,124,91050,6,0,L|250:179,1,55.0000016784668,2|0,0:0|0:0,0:0:0:0:
400,179,91250,2,0,L|400:124,1,55.0000016784668,2|0,0:0|0:0,0:0:0:0:
325,278,91450,1,2,0:0:0:0:
325,278,91850,5,4,0:3:0:0:
400,124,92050,2,0,L|400:174,1,50,0|0,0:3|0:3,0:3:0:0:
325,278,92250,1,4,0:3:0:0:
325,278,92450,1,0,0:3:0:0:
400,124,92650,1,4,0:3:0:0:
325,278,92850,1,0,0:3:0:0:
325,278,93050,1,4,0:3:0:0:
400,124,93250,6,0,L|400:224,1,100,0|4,0:3|0:3,0:3:0:0:
262,63,93650,1,0,0:3:0:0:
400,124,93850,1,4,0:3:0:0:
262,63,94050,1,0,0:3:0:0:
400,124,94250,1,4,0:3:0:0:
278,212,94450,1,0,0:3:0:0:
278,212,94650,2,0,P|228:213|178:206,1,100,4|0,0:3|0:3,0:3:0:0:
68,104,95050,5,4,0:3:0:0:
211,59,95250,2,0,L|258:43,1,50,0|0,0:3|0:3,0:3:0:0:
68,104,95450,2,0,P|77:152|80:202,1,100,4|0,0:3|0:3,0:3:0:0:
211,59,95850,1,4,0:3:0:0:
178,205,96050,2,0,P|180:254|190:303,1,100,0|4,0:3|0:3,0:3:0:0:
68,104,96450,5,4,0:3:0:0:
68,104,97450,6,0,B|107:101|146:115|146:115|159:110|159:110|183:119,1,120,0|0,0:3|0:3,0:3:0:0:
157,195,97850,6,0,P|161:219|169:243,1,50,2|0,0:0|0:0,0:0:0:0:
283,168,98050,2,0,P|291:144|295:119,1,50,2|2,0:0|0:0,0:0:0:0:
170,243,98250,5,4,0:3:0:0:
296,120,98450,1,0,0:3:0:0:
283,168,98550,1,0,0:3:0:0:
296,120,98650,2,0,P|308:168|335:210,1,100,4|0,0:3|0:3,0:3:0:0:
463,290,99050,1,4,0:3:0:0:
330,360,99250,1,0,0:3:0:0:
336,210,99450,1,4,0:3:0:0:
232,375,99650,6,0,P|281:372|330:359,1,100,0|4,0:3|0:3,0:3:0:0:
336,210,100050,1,0,0:3:0:0:
163,226,100250,2,0,L|163:326,1,100,4|0,0:3|0:3,0:3:0:0:
336,210,100650,1,4,0:3:0:0:
163,326,100850,1,0,0:3:0:0:
336,210,101050,2,0,L|336:110,1,100,4|0,0:3|0:3,0:3:0:0:
163,326,101450,5,4,0:3:0:0:
309,252,101650,1,0,0:3:0:0:
336,210,101750,1,0,0:3:0:0:
309,252,101850,2,0,P|303:202|308:152,1,100,4|0,0:3|0:3,0:3:0:0:
479,35,102250,1,4,0:3:0:0:
333,70,102450,2,0,P|283:67|233:58,1,100,0|4,0:3|0:3,0:3:0:0:
479,35,102850,5,4,0:3:0:0:
479,35,103250,1,2,0:0:0:0:
333,70,103450,1,2,0:0:0:0:
349,219,103650,1,2,0:0:0:0:
333,70,103850,1,2,0:0:0:0:
479,35,104050,1,2,0:0:0:0:
333,70,104250,1,2,0:0:0:0:
349,219,104450,1,2,0:0:0:0:
479,35,104650,6,0,P|487:84|488:134,1,100,4|0,0:3|0:3,0:3:0:0:
349,219,105050,1,4,0:3:0:0:
333,70,105250,2,0,P|283:63|233:64,1,100,0|4,0:3|0:3,0:3:0:0:
85,91,105650,1,0,0:3:0:0:
141,229,105850,2,0,P|190:235|240:234,1,100,4|0,0:3|0:3,0:3:0:0:
85,91,106250,6,0,P|59:134|47:182,1,100,4|0,0:3|0:3,0:3:0:0:
233,64,106650,1,4,0:3:0:0:
317,187,106850,2,0,P|304:235|279:278,1,100,0|4,0:3|0:3,0:3:0:0:
233,64,107250,1,0,0:3:0:0:
85,91,107450,2,0,P|59:134|47:182,1,100,4|0,0:3|0:3,0:3:0:0:
233,64,107850,6,0,P|282:67|332:66,1,100,4|0,0:3|0:3,0:3:0:0:
494,44,108250,1,4,0:3:0:0:
472,192,108450,2,0,P|422:195|372:194,1,100,0|4,0:3|0:3,0:3:0:0:
211,172,108850,1,0,0:3:0:0:
233,320,109050,2,0,P|282:323|332:322,1,100,4|0,0:3|0:3,0:3:0:0:
211,172,109450,6,0,P|161:168|111:169,1,100,4|0,0:3|0:3,0:3:0:0:
233,320,109850,2,0,P|282:323|332:322,1,100,4|0,0:3|0:3,0:3:0:0:
433,186,110250,2,0,P|455:142|469:94,1,100,4|0,0:3|0:3,0:3:0:0:
396,27,110550,1,0,0:3:0:0:
360,62,110650,2,0,L|260:50,1,100,4|0,0:3|0:3,0:3:0:0:
78,12,111050,6,0,P|65:60|63:110,1,100,4|0,0:3|0:3,0:3:0:0:
163,222,111450,1,4,0:3:0:0:
262,109,111650,2,0,P|308:89|356:77,1,100,0|4,0:3|0:3,0:3:0:0:
506,92,112050,1,0,0:3:0:0:
357,268,112250,2,0,P|308:255|262:236,1,100,4|0,0:3|0:3,0:3:0:0:
357,78,112650,6,0,B|428:93|486:117|486:117|498:180,1,200,4|4,0:3|0:3,0:3:0:0:
357,78,113250,1,0,0:3:0:0:
498,181,113450,2,0,B|485:117|485:117|455:185|389:206,1,200,4|4,0:3|0:3,0:3:0:0:
96,140,114250,5,4,0:3:0:0:
96,140,115850,6,0,L|96:220,1,80,2|0,0:0|0:0,0:0:0:0:
191,41,116250,6,0,L|241:34,1,50,2|0,0:0|0:0,0:0:0:0:
230,181,116450,2,0,L|280:187,1,50,2|0,0:0|0:0,0:0:0:0:
372,111,116650,1,2,0:0:0:0:
372,111,117050,6,0,B|384:213|384:213|361:262|361:262|368:329,1,225.000008583069
462,289,117450,5,4,0:3:0:0:
280,187,117650,2,0,P|226:186|171:193,1,110.000003356934,0|4,0:3|0:3,0:3:0:0:
44,299,118050,1,0,0:3:0:0:
1,94,118250,2,0,P|55:93|110:100,1,110.000003356934,4|0,0:3|0:3,0:3:0:0:
381,125,118650,2,0,P|326:132|271:131,1,110.000003356934,4|0,0:3|0:3,0:3:0:0:
488,0,119050,5,4,0:3:0:0:
381,125,119250,1,0,0:3:0:0:
488,0,119450,1,4,0:3:0:0:
381,125,119650,1,0,0:3:0:0:
423,290,119850,2,0,P|453:244|468:191,1,110.000003356934,4|0,0:3|0:3,0:3:0:0:
381,125,120150,1,0,0:3:0:0:
338,159,120250,2,0,P|285:143|237:116,1,110.000003356934,4|0,0:3|0:3,0:3:0:0:
104,19,120650,5,4,0:3:0:0:
104,19,120850,1,0,0:3:0:0:
269,13,121050,2,0,P|262:67|238:116,1,110.000003356934,4|0,0:3|0:3,0:3:0:0:
24,95,121450,1,4,0:3:0:0:
24,95,121650,1,0,0:3:0:0:
133,218,121850,2,0,P|178:249|231:262,1,110.000003356934,4|0,0:3|0:3,0:3:0:0:
386,163,122250,5,4,0:3:0:0:
231,263,122450,1,0,0:3:0:0:
386,163,122650,1,4,0:3:0:0:
231,263,122850,1,0,0:3:0:0:
295,106,123050,2,0,B|312:106|312:106|386:163,1,110.000003356934,4|0,0:3|0:3,0:3:0:0:
231,263,123350,2,0,B|212:171|212:171|219:156,1,110.000003356934,4|0,0:3|0:3,0:3:0:0:
360,293,123650,1,4,0:3:0:0:
221,76,123850,5,4,0:3:0:0:
231,263,124050,1,0,0:3:0:0:
221,76,124250,2,0,P|275:81|326:102,1,110.000003356934,4|0,0:3|0:3,0:3:0:0:
105,183,124650,2,0,P|50:177|0:156,2,110.000003356934,4|0|4,0:3|0:3|0:3,0:3:0:0:
105,183,125250,1,0,0:3:0:0:
326,102,125450,5,4,0:3:0:0:
245,302,125650,1,0,0:3:0:0:
326,102,125850,1,4,0:3:0:0:
245,302,126050,1,0,0:3:0:0:
455,251,126250,2,0,B|441:166|441:166|426:147,1,110.000003356934,4|0,0:3|0:3,0:3:0:0:
326,102,126550,1,0,0:3:0:0:
340,155,126650,2,0,B|308:167|308:167|233:151,1,110.000003356934,4|0,0:3|0:3,0:3:0:0:
441,24,127050,5,4,0:3:0:0:
340,155,127250,1,0,0:3:0:0:
160,98,127450,2,0,P|145:152|140:206,1,110.000003356934,4|0,0:3|0:3,0:3:0:0:
321,47,127850,2,0,P|335:100|340:154,1,110.000003356934,4|0,0:3|0:3,0:3:0:0:
141,207,128250,1,4,0:3:0:0:
141,207,128450,1,0,0:3:0:0:
321,47,128650,5,4,0:3:0:0:
141,207,128850,1,0,0:3:0:0:
321,47,129050,1,4,0:3:0:0:
141,207,129250,1,0,0:3:0:0:
324,278,129450,2,0,B|295:293|295:293|218:288,1,110.000003356934,4|0,0:3|0:3,0:3:0:0:
342,186,129750,2,0,B|371:171|371:171|448:176,1,110.000003356934,4|0,0:3|0:3,0:3:0:0:
324,278,130050,1,4,0:3:0:0:
449,177,130250,6,0,L|409:173,1,40,8|0,0:0|0:0,0:0:0:0:
432,254,130450,2,0,L|392:250,5,40,0|0|8|0|0|0,0:0|0:0|0:0|0:0|0:0|0:0,0:0:0:0:
449,177,131050,6,0,L|409:173,1,40,8|0,0:0|0:0,0:0:0:0:
432,254,131250,2,0,L|392:250,5,40,0|0|8|0|0|0,0:0|0:0|0:0|0:0|0:0|0:0,0:0:0:0:
449,177,131850,6,0,L|369:170,1,80,8|0,0:0|0:0,0:0:0:0:
409,175,132150,1,0,0:0:0:0:
449,177,132250,2,0,L|488:180,1,40,8|0,0:0|0:0,0:0:0:0:
369,171,132450,2,0,L|329:167,1,40
489,180,132650,6,0,L|409:173,1,80,8|0,0:0|0:0,0:0:0:0:
369,171,132950,1,0,0:0:0:0:
329,168,133050,2,0,L|289:164,1,40,8|0,0:0|0:0,0:0:0:0:
409,174,133250,2,0,L|448:177,1,40
289,165,133450,6,0,L|249:161,1,40,8|0,0:0|0:0,0:0:0:0:
272,242,133650,2,0,L|232:238,5,40,0|0|8|0|0|0,0:0|0:0|0:0|0:0|0:0|0:0,0:0:0:0:
289,165,134250,6,0,L|249:161,1,40,8|0,0:0|0:0,0:0:0:0:
272,242,134450,2,0,L|232:238,5,40,0|0|8|0|0|0,0:0|0:0|0:0|0:0|0:0|0:0,0:0:0:0:
289,165,135050,5,12,0:0:0:0:
289,165,135450,1,12,0:0:0:0:
289,165,135850,5,12,0:0:0:0:
289,165,136050,1,4,0:0:0:0:
289,165,136250,1,12,0:0:0:0:
289,165,136650,5,8,0:0:0:0:
368,155,136850,1,0,0:0:0:0:
289,165,137050,2,0,L|269:157,7,20,8|0|0|0|0|0|0|0,0:0|0:0|0:0|0:0|0:0|0:0|0:0|0:0,0:0:0:0:
368,155,137450,5,8,0:0:0:0:
289,165,137650,1,0,0:0:0:0:
368,155,137850,2,0,L|387:163,7,20,8|0|0|0|0|0|0|0,0:0|0:0|0:0|0:0|0:0|0:0|0:0|0:0,0:0:0:0:
289,165,138250,5,8,0:0:0:0:
289,165,138450,1,0,0:0:0:0:
368,155,138650,2,0,L|387:163,7,20,8|0|0|0|0|0|0|0,0:0|0:0|0:0|0:0|0:0|0:0|0:0|0:0,0:0:0:0:
289,165,139050,5,8,0:0:0:0:
289,165,139250,1,0,0:0:0:0:
210,175,139450,2,0,L|190:167,7,20,8|0|0|0|0|0|0|0,0:0|0:0|0:0|0:0|0:0|0:0|0:0|0:0,0:0:0:0:
112,177,139850,5,8,0:0:0:0:
191,167,140050,1,0,0:0:0:0:
190,167,140250,2,0,L|210:175,7,20,8|0|0|0|0|0|0|0,0:0|0:0|0:0|0:0|0:0|0:0|0:0|0:0,0:0:0:0:
112,177,140650,5,8,0:0:0:0:
191,167,140850,1,0,0:0:0:0:
112,177,141050,2,0,L|92:169,7,20,8|0|0|0|0|0|0|0,0:0|0:0|0:0|0:0|0:0|0:0|0:0|0:0,0:0:0:0:
191,167,141450,5,8,0:0:0:0:
14,179,141850,1,8,0:0:0:0:
191,167,142250,5,8,0:0:0:0:
102,173,142450,1,0,0:0:0:0:
280,161,142650,1,8,0:0:0:0:
102,173,142850,1,8,0:0:0:0:
280,161,143050,5,2,0:0:0:0:
341,149,143150,1,0,0:0:0:0:
391,112,143250,2,0,L|401:50,1,62.5,8|0,0:0|0:0,0:0:0:0:
341,149,143450,1,2,0:0:0:0:
280,161,143550,1,0,0:0:0:0:
230,198,143650,2,0,L|219:259,1,62.5,8|0,0:0|0:0,0:0:0:0:
341,149,143850,5,2,0:0:0:0:
280,161,143950,1,0,0:0:0:0:
220,142,144050,2,0,L|159:154,1,62.5,8|0,0:0|0:0,0:0:0:0:
280,161,144250,1,2,0:0:0:0:
341,149,144350,1,0,0:0:0:0:
401,168,144450,2,0,L|462:156,1,62.5,8|0,0:0|0:0,0:0:0:0:
220,142,144650,6,0,L|159:154,1,62.5,2|0,0:0|0:0,0:0:0:0:
401,168,144850,2,0,L|462:156,1,62.5,8|0,0:0|0:0,0:0:0:0:
220,142,145050,2,0,L|159:154,1,62.5,2|0,0:0|0:0,0:0:0:0:
401,168,145250,2,0,L|462:156,1,62.5,8|0,0:0|0:0,0:0:0:0:
220,142,145450,6,0,L|159:154,5,62.5,2|0|8|0|2|0,0:0|0:0|0:0|0:0|0:0|0:0,0:0:0:0:
401,168,146050,2,0,L|462:156,1,62.5,8|0,0:0|0:0,0:0:0:0:
220,142,146250,5,2,0:0:0:0:
187,88,146350,1,0,0:0:0:0:
124,82,146450,2,0,L|62:72,1,62.5,8|0,0:0|0:0,0:0:0:0:
187,88,146650,1,2,0:0:0:0:
220,142,146750,1,0,0:0:0:0:
283,148,146850,2,0,L|344:157,1,62.5,8|0,0:0|0:0,0:0:0:0:
187,88,147050,5,2,0:0:0:0:
220,142,147150,1,0,0:0:0:0:
209,203,147250,2,0,L|242:257,1,62.5,8|0,0:0|0:0,0:0:0:0:
220,142,147450,1,2,0:0:0:0:
187,88,147550,1,0,0:0:0:0:
126,71,147650,2,0,L|93:17,1,62.5,8|0,0:0|0:0,0:0:0:0:
209,203,147850,6,0,L|242:257,1,62.5,2|0,0:0|0:0,0:0:0:0:
126,71,148050,2,0,L|93:17,1,62.5,8|0,0:0|0:0,0:0:0:0:
209,203,148250,2,0,L|242:257,1,62.5,2|0,0:0|0:0,0:0:0:0:
126,71,148450,2,0,L|93:17,1,62.5,8|0,0:0|0:0,0:0:0:0:
242,257,148650,6,0,L|209:203,1,62.5,2|0,0:0|0:0,0:0:0:0:
126,71,148850,2,0,L|159:125,1,62.5,8|0,0:0|0:0,0:0:0:0:
274,310,149050,2,0,L|241:256,1,62.5,2|0,0:0|0:0,0:0:0:0:
159,125,149250,2,0,L|192:179,1,62.5,8|0,0:0|0:0,0:0:0:0:
93,17,149450,5,2,0:0:0:0:
155,10,149550,1,0,0:0:0:0:
207,44,149650,2,0,L|269:51,1,62.5,8|0,0:0|0:0,0:0:0:0:
241,256,149850,1,2,0:0:0:0:
179,263,149950,1,0,0:0:0:0:
127,229,150050,2,0,L|64:221,1,62.5,8|0,0:0|0:0,0:0:0:0:
269,51,150250,6,0,L|207:44,1,62.5,2|0,0:0|0:0,0:0:0:0:
423,115,150450,2,0,L|360:122,1,62.5,8|0,0:0|0:0,0:0:0:0:
207,44,150650,2,0,L|269:51,1,62.5,2|0,0:0|0:0,0:0:0:0:
360,122,150850,2,0,L|423:115,1,62.5,8|0,0:0|0:0,0:0:0:0:
207,44,151050,6,0,L|145:37,1,62.5,2|0,0:0|0:0,0:0:0:0:
76,125,151250,2,0,L|13:132,1,62.5,8|0,0:0|0:0,0:0:0:0:
145,37,151450,1,2,0:0:0:0:
145,37,151550,1,0,0:0:0:0:
207,44,151650,1,8,0:0:0:0:
207,44,151750,1,0,0:0:0:0:
76,125,151850,6,0,L|13:132,1,62.5,2|0,0:0|0:0,0:0:0:0:
227,209,152050,2,0,L|164:202,1,62.5,8|0,0:0|0:0,0:0:0:0:
315,131,152250,1,2,0:0:0:0:
343,188,152350,1,0,0:0:0:0:
337,250,152450,1,8,0:0:0:0:
301,301,152550,1,0,0:0:0:0:
227,209,152650,5,2,0:0:0:0:
164,202,152750,1,0,0:0:0:0:
101,195,152850,2,0,L|38:188,3,62.5,8|0|2|0,0:0|0:0|0:0|0:0,0:0:0:0:
227,209,153250,2,0,L|290:216,1,62.5,8|0,0:0|0:0,0:0:0:0:
101,195,153450,6,0,L|38:188,1,62.5,2|0,0:0|0:0,0:0:0:0:
227,209,153650,2,0,L|290:216,1,62.5,8|0,0:0|0:0,0:0:0:0:
101,195,153850,2,0,L|38:188,1,62.5,2|0,0:0|0:0,0:0:0:0:
227,209,154050,2,0,L|290:216,1,62.5,8|0,0:0|0:0,0:0:0:0:
101,303,154250,5,2,0:0:0:0:
70,249,154350,1,0,0:0:0:0:
132,249,154450,1,8,0:0:0:0:
101,195,154550,1,0,0:0:0:0:
132,141,154650,1,2,0:0:0:0:
163,195,154750,1,0,0:0:0:0:
194,141,154850,1,8,0:0:0:0:
163,87,154950,1,0,0:0:0:0:
194,33,155050,5,2,0:0:0:0:
225,87,155150,1,0,0:0:0:0:
194,141,155250,1,2,0:0:0:0:
163,195,155350,1,0,0:0:0:0:
194,141,155450,1,2,0:0:0:0:
258,130,160088,6,0,P|236:180|232:235,1,110.000003356934,4|0,0:3|0:3,0:3:0:0:
325,371,160441,1,4,0:3:0:0:
403,226,160617,1,0,0:3:0:0:
314,53,160794,2,0,P|260:38|206:34,1,110.000003356934,4|0,0:3|0:3,0:3:0:0:
403,226,161147,2,0,P|456:240|510:244,1,110.000003356934,4|0,0:3|0:3,0:3:0:0:
260,144,161500,5,4,0:3:0:0:
297,304,161676,1,0,0:3:0:0:
358,111,161853,2,0,P|303:114|250:129,1,110.000003356934,4|0,0:3|0:3,0:3:0:0:
58,278,162206,2,0,B|108:328|108:328|146:336,1,110.000003356934,4|0,0:3|0:3,0:3:0:0:
254,353,162470,1,0,0:3:0:0:
306,335,162559,2,0,B|332:310|332:310|351:238,1,110.000003356934,4|0,0:3|0:3,0:3:0:0:
146,185,162912,5,4,0:3:0:0:
213,35,163088,1,0,0:3:0:0:
355,120,163265,2,0,P|319:161|272:189,1,110.000003356934,4|0,0:3|0:3,0:3:0:0:
213,35,163617,1,4,0:3:0:0:
272,189,163794,2,0,L|260:298,1,110.000003356934,0|4,0:3|0:3,0:3:0:0:
97,328,164147,1,0,0:3:0:0:
153,128,164323,6,0,P|205:110|259:103,1,110.000003356934,4|0,0:3|0:3,0:3:0:0:
412,255,164676,1,4,0:3:0:0:
248,275,164853,1,0,0:3:0:0:
413,155,165029,2,0,P|464:170|500:211,1,110.000003356934,4|0,0:3|0:3,0:3:0:0:
494,322,165294,2,0,B|448:349|448:349|337:336,1,165.000005035401,4|4,0:3|0:3,0:3:0:0:
262,128,165735,5,4,0:3:0:0:
166,263,165912,1,0,0:3:0:0:
323,217,166088,2,0,P|299:167|261:127,1,110.000003356934,4|0,0:3|0:3,0:3:0:0:
112,199,166441,2,0,P|74:238|50:288,2,110.000003356934,4|0|4,0:3|0:3|0:3,0:3:0:0:
208,334,166970,1,0,0:3:0:0:
350,186,167147,5,4,0:3:0:0:
196,244,167323,1,0,0:3:0:0:
355,288,167500,1,4,0:3:0:0:
252,159,167676,1,0,0:3:0:0:
260,324,167853,2,0,P|312:339|367:342,1,110.000003356934,4|0,0:3|0:3,0:3:0:0:
460,284,168117,1,0,0:3:0:0:
434,235,168206,2,0,P|429:180|438:126,1,110.000003356934,4|0,0:3|0:3,0:3:0:0:
295,17,168559,5,4,0:3:0:0:
287,181,168735,1,0,0:3:0:0:
148,59,168912,2,0,P|93:63|40:79,1,110.000003356934,4|0,0:3|0:3,0:3:0:0:
180,202,169265,2,0,P|234:197|287:181,1,110.000003356934,4|0,0:3|0:3,0:3:0:0:
436,71,169617,1,4,0:3:0:0:
419,235,169794,1,0,0:3:0:0:
299,51,169970,5,4,0:3:0:0:
305,271,170147,1,0,0:3:0:0:
150,77,170323,5,4,0:3:0:0:
204,323,170500,1,0,0:3:0:0:
46,117,170676,6,0,B|62:93|62:93|141:73,1,110.000003356934,4|0,0:3|0:3,0:3:0:0:
141,253,170941,2,0,B|62:232|62:232|46:208,1,110.000003356934,4|0,0:3|0:3,0:3:0:0:
217,163,171206,1,4,0:3:0:0:
312,323,171382,5,4,0:3:0:0:
404,159,171559,1,0,0:3:0:0:
217,163,171735,2,0,P|155:172|100:201,1,125,4|0,0:3|0:3,0:3:0:0:
312,323,172088,1,4,0:3:0:0:
404,159,172265,1,0,0:3:0:0:
246,260,172441,1,4,0:3:0:0:
432,245,172617,1,0,0:3:0:0:
260,100,172794,6,0,B|214:115|214:115|166:174,1,125,4|0,0:3|0:3,0:3:0:0:
406,219,173147,1,4,0:3:0:0:
327,49,173323,1,0,0:3:0:0:
171,196,173500,2,0,P|108:193|48:175,1,125,4|0,0:3|0:3,0:3:0:0:
10,56,173765,1,0,0:3:0:0:
59,17,173853,2,0,B|86:9|86:9|108:54|84:102,1,125,4|0,0:3|0:3,0:3:0:0:
1,280,174206,5,4,0:3:0:0:
171,196,174382,1,0,0:3:0:0:
199,381,174559,2,0,P|149:343|111:293,1,125,4|0,0:3|0:3,0:3:0:0:
234,102,174912,1,4,0:3:0:0:
377,221,175088,2,0,P|339:270|289:308,1,125,0|4,0:3|0:3,0:3:0:0:
111,293,175441,1,0,0:3:0:0:
234,44,175617,5,4,0:3:0:0:
380,353,175794,1,4,0:3:0:0:
397,47,175970,5,4,0:3:0:0:
212,351,176147,1,4,0:3:0:0:
94,127,176323,6,0,B|112:99|112:99|200:77,1,125,4|0,0:3|0:3,0:3:0:0:
200,280,176588,2,0,B|111:256|111:256|93:229,1,125,4|0,0:3|0:3,0:3:0:0:
286,178,176853,1,4,0:3:0:0:
1,178,177029,5,4,0:3:0:0:
103,335,177206,1,0,0:3:0:0:
169,160,177382,2,0,B|134:115|134:115|67:98,1,125,4|0,0:3|0:3,0:3:0:0:
224,307,177735,2,0,B|283:278|283:278|310:225,1,125,4|0,0:3|0:3,0:3:0:0:
72,207,178088,1,4,0:3:0:0:
146,379,178265,1,0,0:3:0:0:
172,107,178441,5,4,0:3:0:0:
411,175,178617,1,0,0:3:0:0:
139,23,178794,5,4,0:3:0:0:
387,46,178970,1,0,0:3:0:0:
184,229,179147,6,0,P|121:232|61:218,1,125,4|0,0:3|0:3,0:3:0:0:
1,108,179412,1,0,0:3:0:0:
26,51,179500,2,0,P|86:36|148:40,1,125,4|0,0:3|0:3,0:3:0:0:
293,315,179853,5,4,0:3:0:0:
351,3,180029,1,4,0:3:0:0:
473,298,180206,5,4,0:3:0:0:
243,44,180382,1,4,0:3:0:0:
229,378,180559,5,4,0:3:0:0:
403,86,180735,1,4,0:3:0:0:
121,229,180912,5,4,0:3:0:0:
444,181,181088,1,4,0:3:0:0:
137,351,181265,5,4,0:3:0:0:
78,328,181353,1,4,0:3:0:0:
38,280,181441,1,4,0:3:0:0:
15,221,181529,1,4,0:3:0:0:
68,189,181617,5,4,0:3:0:0:
105,138,181706,1,4,0:3:0:0:
120,77,181794,2,0,P|117:56|114:35,2,41.6666666666667,4|4|4,0:3|0:3|0:3,0:3:0:0:
211,60,181970,5,4,0:3:0:0:
301,339,182235,1,4,0:3:0:0:
211,60,182500,1,4,0:3:0:0:
129,248,182676,5,2,0:0:0:0:
70,225,182764,1,0,0:0:0:0:
33,173,182853,2,0,P|24:142|25:111,1,62.5,8|0,0:0|0:0,0:0:0:0:
272,133,183029,1,2,0:0:0:0:
331,156,183117,1,0,0:0:0:0:
368,208,183206,2,0,P|376:238|375:269,1,62.5,8|0,0:0|0:0,0:0:0:0:
160,125,183382,5,2,0:0:0:0:
183,66,183470,1,0,0:0:0:0:
235,29,183559,2,0,P|265:20|296:21,1,62.5,8|0,0:0|0:0,0:0:0:0:
275,268,183735,1,2,0:0:0:0:
252,327,183823,1,0,0:0:0:0:
200,364,183912,2,0,P|169:372|138:371,1,62.5,8|0,0:0|0:0,0:0:0:0:
256,154,184088,5,2,0:0:0:0:
313,130,184176,1,0,0:0:0:0:
375,133,184264,2,0,P|405:137|433:152,1,62.5,8|0,0:0|0:0,0:0:0:0:
178,246,184441,1,2,0:0:0:0:
121,270,184529,1,0,0:0:0:0:
59,267,184617,2,0,P|28:262|0:247,1,62.5,8|0,0:0|0:0,0:0:0:0:
227,99,184794,5,2,0:0:0:0:
256,154,184882,1,0,0:0:0:0:
269,215,184971,2,0,L|269:277,1,62.5,8|0,0:0|0:0,0:0:0:0:
76,138,185147,1,2,0:0:0:0:
55,197,185235,1,0,0:0:0:0:
65,260,185324,2,0,L|65:322,1,62.5,8|0,0:0|0:0,0:0:0:0:
256,154,185500,5,2,0:0:0:0:
227,99,185588,1,0,0:0:0:0:
183,53,185677,2,0,P|152:45|121:42,1,62.5,8|0,0:0|0:0,0:0:0:0:
191,283,185853,1,2,0:0:0:0:
252,290,185941,1,0,0:0:0:0:
314,284,186029,2,0,P|342:270|365:249,1,62.5,8|0,0:0|0:0,0:0:0:0:
121,168,186206,5,2,0:0:0:0:
80,215,186294,1,0,0:0:0:0:
62,275,186383,2,0,P|57:305|61:336,1,62.5,8|0,0:0|0:0,0:0:0:0:
268,192,186559,1,2,0:0:0:0:
309,145,186647,1,0,0:0:0:0:
327,85,186736,2,0,P|331:54|327:23,1,62.5,8|0,0:0|0:0,0:0:0:0:
181,259,186912,6,0,P|203:280|231:295,1,62.5,2|0,0:0|0:0,0:0:0:0:
125,85,187088,2,0,P|102:63|74:48,1,62.5,8|0,0:0|0:0,0:0:0:0:
268,192,187264,1,2,0:0:0:0:
309,145,187353,1,0,0:0:0:0:
327,85,187441,2,0,P|328:64|329:43,2,41.6666666666667,8|0|0,0:0|0:0|0:0,0:0:0:0:
404,256,187617,6,0,P|417:283|423:314,1,62.5,2|0,0:0|0:0,0:0:0:0:
185,295,187794,2,0,P|171:322|165:353,1,62.5,8|0,0:0|0:0,0:0:0:0:
309,145,187970,1,2,0:0:0:0:
265,99,188059,1,0,0:0:0:0:
209,70,188147,2,0,P|188:67|167:67,2,41.6666666666667,8|0|0,0:0|0:0|0:0,0:0:0:0:
74,173,188323,5,2,0:0:0:0:
68,235,188412,1,0,0:0:0:0:
85,294,188500,2,0,P|101:320|122:343,1,62.5,8|0,0:0|0:0,0:0:0:0:
374,274,188676,1,2,0:0:0:0:
380,212,188765,1,0,0:0:0:0:
363,153,188853,2,0,P|346:126|325:103,1,62.5,8|0,0:0|0:0,0:0:0:0:
248,334,189029,5,2,0:0:0:0:
300,368,189118,1,0,0:0:0:0:
360,384,189206,2,0,P|391:384|421:377,1,62.5,8|0,0:0|0:0,0:0:0:0:
232,215,189382,1,2,0:0:0:0:
180,181,189471,1,0,0:0:0:0:
120,165,189559,2,0,P|88:164|58:171,1,62.5,8|0,0:0|0:0,0:0:0:0:
309,215,189735,5,2,0:0:0:0:
338,159,189823,1,0,0:0:0:0:
394,186,189912,2,0,P|398:216|392:247,1,62.5,8|0,0:0|0:0,0:0:0:0:
188,105,190088,1,2,0:0:0:0:
159,49,190176,1,0,0:0:0:0:
103,76,190265,2,0,P|98:106|104:137,1,62.5,8|0,0:0|0:0,0:0:0:0:
347,68,190441,5,2,0:0:0:0:
409,60,190529,1,0,0:0:0:0:
468,81,190617,1,8,0:0:0:0:
508,130,190706,1,0,0:0:0:0:
394,186,190794,5,2,0:0:0:0:
401,247,190882,1,0,0:0:0:0:
437,297,190970,1,8,0:0:0:0:
493,324,191059,1,0,0:0:0:0:
328,288,191147,6,0,L|265:282,1,62.5,4|0,0:3|0:3,0:3:0:0:
53,211,191323,2,0,L|115:205,1,62.5,4|0,0:3|0:3,0:3:0:0:
348,134,191500,2,0,L|285:128,1,62.5,4|0,0:3|0:3,0:3:0:0:
33,57,191676,2,0,L|95:51,1,62.5,4|0,0:3|0:3,0:3:0:0:
347,9,191853,5,4,0:3:0:0:
407,24,191941,1,4,0:3:0:0:
456,71,192029,1,4,0:3:0:0:
474,143,192117,1,4,0:3:0:0:
441,218,192206,1,4,0:3:0:0:
363,258,192294,1,4,0:3:0:0:
272,233,192382,1,4,0:3:0:0:
222,146,192470,1,4,0:3:0:0:
187,28,192559,6,0,L|145:21,2,41.6666666666667,4|4|4,0:3|0:3|0:3,0:3:0:0:
348,134,192735,2,0,L|389:127,2,41.6666666666667,4|4|4,0:3|0:3|0:3,0:3:0:0:
132,173,192912,2,0,L|90:166,2,41.6666666666667,4|4|4,0:3|0:3|0:3,0:3:0:0:
293,279,193088,2,0,L|334:272,2,41.6666666666667,4|4|4,0:3|0:3|0:3,0:3:0:0:
238,64,193264,6,0,P|214:43|187:28,1,62.5,4|0,0:3|0:3,0:3:0:0:
202,287,193441,2,0,P|195:317|196:348,1,62.5,4|0,0:3|0:3,0:3:0:0:
414,207,193617,2,0,P|443:196|470:180,1,62.5,4|0,0:3|0:3,0:3:0:0:
