osu file format v14

[General]
AudioFilename: audio.mp3
AudioLeadIn: 0
PreviewTime: 116722
Countdown: 0
SampleSet: Soft
StackLeniency: 0.2
Mode: 0
LetterboxInBreaks: 0
WidescreenStoryboard: 0

[Editor]
Bookmarks: 169350
DistanceSpacing: 1.2
BeatDivisor: 4
GridSize: 16
TimelineZoom: 1.8

[Metadata]
Title:Shukusai no Elementalia
TitleUnicode:祝祭のエルメンタルア
Artist:Ni-Sokkususu
ArtistUnicode:にーそっくすす
Creator:Sakurauchi Riko
Version:Original
Source:精霊使いの剣舞
Tags:phyloukz kneesocks claire rouge seirei tsukai no blade dance of the elementalers
BeatmapID:1918003
BeatmapSetID:918496

[Difficulty]
HPDrainRate:5
CircleSize:4
OverallDifficulty:9
ApproachRate:9.7
SliderMultiplier:2
SliderTickRate:1

[Events]
//Background and Video events
0,0,"background.png",0,0
//Break Periods
2,130371,132876
//Storyboard Layer 0 (Background)
//Storyboard Layer 1 (Fail)
//Storyboard Layer 2 (Pass)
//Storyboard Layer 3 (Foreground)
//Storyboard Sound Samples

[TimingPoints]
571,400,4,2,1,60,1,0
1971,-200,4,2,1,5,0,0
2171,-200,4,2,1,40,0,0
8571,-200,4,2,1,50,0,0
10171,-125,4,2,1,70,0,0
11771,-100,4,2,1,80,0,0
12571,-83.3333333333333,4,2,1,90,0,0
13371,-66.6666666666667,4,2,1,40,0,0
14571,-66.6666666666667,4,2,1,70,0,0
14971,-66.6666666666667,4,2,1,80,0,0
27771,-100,4,2,1,60,0,0
38971,-100,4,2,1,80,0,0
40571,-100,4,2,1,60,0,0
62971,-100,4,2,1,40,0,0
64571,-142.857142857143,4,2,1,60,0,0
64971,-100,4,2,1,60,0,0
65071,-76.9230769230769,4,2,1,60,0,0
65171,-62.5,4,2,1,60,0,0
65271,-52.6315789473684,4,2,1,60,0,0
65371,-45.4545454545455,4,2,1,60,0,0
65771,-62.5,4,2,1,70,0,0
66171,-66.6666666666667,4,2,1,80,0,1
78971,-100,4,2,1,70,0,0
85371,-66.6666666666667,4,2,1,80,0,1
91371,-66.6666666666667,4,2,1,80,0,0
91771,-100,4,2,1,60,0,0
101371,-100,4,2,1,80,0,0
103771,-100,4,2,1,40,0,0
104571,-100,4,2,1,60,0,0
114171,-100,4,2,1,40,0,0
115771,-142.857142857143,4,2,1,40,0,0
116171,-100,4,2,1,40,0,0
116271,-76.9230769230769,4,2,1,40,0,0
116371,-62.5,4,2,1,40,0,0
116471,-52.6315789473684,4,2,1,40,0,0
116571,-45.4545454545455,4,2,1,40,0,0
116971,-62.5,4,2,1,70,0,0
117371,-66.6666666666667,4,2,1,80,0,1
130171,-66.6666666666667,4,2,1,80,0,0
133371,-66.6666666666667,4,2,1,70,0,0
136771,-100,4,2,1,70,0,0
137371,-66.6666666666667,4,2,1,70,0,0
137571,-100,4,2,1,70,0,0
139771,-66.6666666666667,4,2,1,70,0,0
139971,-100,4,2,1,70,0,0
140571,-66.6666666666667,4,2,1,70,0,0
140771,-100,4,2,1,70,0,0
141371,-66.6666666666667,4,2,1,70,0,0
142971,-66.6666666666667,4,2,1,80,0,0
157174,352.941176470588,4,2,1,40,1,0
159997,-66.6666666666667,4,2,1,80,0,1
164938,-62.5,4,2,1,80,0,0
165644,-66.6666666666667,4,2,1,80,0,1
170585,-62.5,4,2,1,80,0,0
171291,-66.6666666666667,4,2,1,80,0,1
176232,-62.5,4,2,1,80,0,0
176938,-66.6666666666667,4,2,1,80,0,1
181879,-66.6666666666667,4,2,1,60,0,0
182585,-62.5,4,2,1,100,0,1
193526,-62.5,4,2,1,100,0,0

[Colours]
Combo1 : 95,103,124
Combo2 : 179,193,244
Combo3 : 173,185,132

[HitObjects]
256,192,571,12,0,1971,0:0:0:0:
145,168,2171,5,8,0:0:0:0:
145,168,2371,2,0,L|136:225,1,50,2|8,0:0|0:0,0:0:0:0:
367,168,2771,2,0,L|374:217,1,50,2|8,0:0|0:0,0:0:0:0:
255,29,3171,2,0,L|255:150,1,100,2|2,0:0|0:0,0:0:0:0:
304,267,3771,5,8,0:0:0:0:
304,267,3971,2,0,L|241:255,1,50,2|8,0:0|0:0,0:0:0:0:
206,365,4371,1,2,0:0:0:0:
206,365,4571,2,0,L|269:353,1,50,8|2,0:0|0:0,0:0:0:0:
255,205,4971,2,0,L|255:256,1,50,8|2,0:0|0:0,0:0:0:0:
145,216,5371,5,8,0:0:0:0:
145,216,5571,2,0,L|135:163,1,50,2|8,0:0|0:0,0:0:0:0:
367,216,5971,2,0,L|377:163,1,50,2|8,0:0|0:0,0:0:0:0:
255,355,6371,2,0,L|255:234,1,100,2|2,0:0|0:0,0:0:0:0:
205,119,6971,5,8,0:0:0:0:
205,119,7171,2,0,L|268:131,1,50,2|8,0:0|0:0,0:0:0:0:
304,19,7571,1,2,0:0:0:0:
304,19,7771,2,0,L|241:31,1,50,8|2,0:0|0:0,0:0:0:0:
255,178,8171,2,0,L|255:127,1,50,8|2,0:0|0:0,0:0:0:0:
70,368,8571,5,0,1:0:0:0:
112,274,8771,1,2,0:0:0:0:
147,302,8971,1,8,0:0:0:0:
124,138,9171,1,2,0:0:0:0:
442,16,9371,5,0,1:0:0:0:
400,110,9571,1,2,0:0:0:0:
365,82,9771,1,8,0:0:0:0:
388,246,9971,1,2,0:0:0:0:
35,74,10171,6,0,B|133:48|133:48|201:81,1,160,0|8,1:0|0:0,0:0:0:0:
477,310,10971,2,0,B|379:336|379:336|311:303,1,160,0|8,1:0|0:0,0:0:0:0:
270,49,11771,6,0,L|241:146,1,100,0|0,1:0|0:0,0:0:0:0:
242,335,12171,2,0,L|270:237,1,100,0|0,1:0|0:0,0:0:0:0:
0,177,12571,6,0,L|132:205,1,119.999996337891,0|0,1:0|0:0,0:0:0:0:
511,206,12971,2,0,L|379:178,1,119.999996337891,0|0,1:0|0:0,0:0:0:0:
255,348,13371,6,0,B|253:294|215:225|152:257|101:200|151:105|220:108|256:154|256:154|307:103|379:125|400:210|361:273|321:221|276:249|279:294|263:296|268:320|268:320,1,600.000022888185
59,51,14571,5,4,1:0:0:0:
59,51,14971,5,0,1:0:0:0:
126,18,15071,1,0,0:0:0:0:
196,43,15171,1,2,0:0:0:0:
212,116,15271,1,0,0:0:0:0:
309,160,15371,5,8,0:0:0:0:
333,137,15471,1,0,0:0:0:0:
320,164,15571,1,2,0:0:0:0:
321,139,15671,1,0,0:0:0:0:
321,150,15771,5,0,1:0:0:0:
254,117,15871,1,0,0:0:0:0:
184,142,15971,1,2,0:0:0:0:
168,215,16071,1,0,0:0:0:0:
84,261,16171,5,8,0:0:0:0:
60,238,16271,1,0,0:0:0:0:
72,263,16371,1,2,0:0:0:0:
72,240,16471,1,0,0:0:0:0:
167,311,16571,6,0,B|243:303|243:303|316:366,1,150.000005722046,0|2,1:0|0:0,0:0:0:0:
369,316,16871,1,0,0:0:0:0:
417,366,16971,1,8,0:0:0:0:
457,340,17071,1,0,0:0:0:0:
493,351,17171,1,2,0:0:0:0:
512,342,17271,1,0,0:0:0:0:
432,251,17371,6,0,L|458:166,1,75.0000028610231,0|0,1:0|0:0,0:0:0:0:
295,58,17571,2,0,L|313:155,1,75.0000028610231,2|0,0:0|0:0,0:0:0:0:
167,201,17771,1,8,0:0:0:0:
213,208,17871,1,0,0:0:0:0:
257,217,17971,2,0,L|348:235,1,75.0000028610231,2|0,0:0|0:0,0:0:0:0:
272,66,18171,5,0,1:0:0:0:
197,54,18271,1,0,0:0:0:0:
122,42,18371,1,2,0:0:0:0:
47,31,18471,1,0,0:0:0:0:
63,139,18571,1,8,0:0:0:0:
103,128,18671,1,0,0:0:0:0:
68,129,18771,1,2,0:0:0:0:
101,139,18871,1,0,0:0:0:0:
82,139,18971,5,0,1:0:0:0:
91,213,19071,1,0,0:0:0:0:
100,287,19171,1,2,0:0:0:0:
109,361,19271,1,0,0:0:0:0:
201,326,19371,5,8,0:0:0:0:
213,286,19471,1,0,0:0:0:0:
212,322,19571,1,2,0:0:0:0:
202,294,19671,1,0,0:0:0:0:
280,228,19771,6,0,B|353:221|353:221|430:277,1,150.000005722046,0|2,1:0|0:0,0:0:0:0:
484,124,20071,1,0,0:0:0:0:
435,184,20171,2,0,L|324:192,1,75.0000028610231,8|0,0:0|0:0,0:0:0:0:
171,138,20371,1,2,0:0:0:0:
130,74,20471,1,0,0:0:0:0:
157,17,20571,5,0,1:0:0:0:
205,8,20671,1,0,0:0:0:0:
238,39,20771,1,2,0:0:0:0:
227,68,20871,1,0,0:0:0:0:
204,74,20971,1,8,0:0:0:0:
204,74,21171,1,2,0:0:0:0:
406,274,21371,5,0,1:0:0:0:
332,260,21471,1,0,0:0:0:0:
262,288,21571,1,2,0:0:0:0:
233,357,21671,1,0,0:0:0:0:
118,303,21771,5,8,0:0:0:0:
158,296,21871,1,0,0:0:0:0:
126,296,21971,1,2,0:0:0:0:
149,305,22071,1,0,0:0:0:0:
135,302,22171,5,0,1:0:0:0:
126,227,22271,1,0,0:0:0:0:
114,152,22371,1,2,0:0:0:0:
103,77,22471,1,0,0:0:0:0:
206,28,22571,5,8,0:0:0:0:
196,66,22671,1,0,0:0:0:0:
207,60,22771,1,2,0:0:0:0:
197,36,22871,1,0,0:0:0:0:
304,49,22971,6,0,P|383:62|424:115,1,150.000005722046,0|2,1:0|0:0,0:0:0:0:
324,216,23271,1,0,0:0:0:0:
264,169,23371,2,0,P|307:141|357:147,1,75.0000028610231,8|0,0:0|0:0,0:0:0:0:
421,318,23571,2,0,P|378:290|328:296,1,75.0000028610231,2|0,0:0|0:0,0:0:0:0:
151,340,23771,5,0,1:0:0:0:
77,324,23871,1,0,0:0:0:0:
37,260,23971,1,2,0:0:0:0:
44,185,24071,1,0,0:0:0:0:
102,137,24171,2,0,L|201:159,1,75.0000028610231,8|0,0:0|0:0,0:0:0:0:
355,288,24371,2,0,L|256:310,1,75.0000028610231,2|0,0:0|0:0,0:0:0:0:
346,10,24571,5,4,1:0:0:0:
418,30,24671,1,0,0:0:0:0:
431,103,24771,1,2,0:0:0:0:
373,151,24871,1,0,0:0:0:0:
307,115,24971,5,8,0:0:0:0:
256,170,25071,1,0,0:0:0:0:
322,205,25171,1,2,0:0:0:0:
373,151,25271,1,0,0:0:0:0:
169,193,25371,5,4,1:0:0:0:
123,252,25471,1,0,0:0:0:0:
144,323,25571,1,2,0:0:0:0:
83,367,25671,1,0,0:0:0:0:
23,321,25771,5,8,0:0:0:0:
46,249,25871,1,0,0:0:0:0:
123,252,25971,1,2,0:0:0:0:
144,323,26071,1,0,0:0:0:0:
216,342,26171,5,0,1:0:0:0:
288,362,26271,1,0,0:0:0:0:
360,382,26371,2,0,L|446:342,1,75.0000028610231,2|0,0:0|0:0,0:0:0:0:
369,87,26571,5,8,0:0:0:0:
347,158,26671,1,0,0:0:0:0:
325,229,26771,2,0,L|350:332,1,75.0000028610231,2|0,0:0|0:0,0:0:0:0:
199,126,26971,5,0,1:0:0:0:
180,50,27071,1,0,0:0:0:0:
122,102,27171,5,0,1:0:0:0:
103,29,27271,1,0,0:0:0:0:
49,81,27371,5,4,1:0:0:0:
457,274,27771,5,0,1:0:0:0:
346,341,27971,1,2,0:0:0:0:
297,329,28071,1,2,0:0:0:0:
255,357,28171,2,0,L|154:335,1,100,8|2,0:0|0:0,0:0:0:0:
101,143,28571,1,0,1:0:0:0:
170,195,28771,1,0,0:0:0:0:
67,220,28971,1,8,0:0:0:0:
289,101,29171,6,0,B|342:105|363:161|363:161|406:113|465:131,1,200,2|2,0:0|0:0,0:0:0:0:
282,184,29771,2,0,P|287:236|262:281,1,100,10|0,0:0|0:0,0:0:0:0:
38,318,30171,1,0,1:0:0:0:
93,252,30371,1,0,0:0:0:0:
111,362,30571,1,8,0:0:0:0:
265,277,30771,2,0,L|329:266,1,50
393,256,30971,5,0,1:0:0:0:
306,143,31171,1,2,0:0:0:0:
298,93,31271,1,2,0:0:0:0:
255,66,31371,2,0,L|179:153,1,100,8|2,0:0|0:0,0:0:0:0:
388,170,31771,1,0,1:0:0:0:
393,256,31971,1,0,0:0:0:0:
476,179,32171,1,8,0:0:0:0:
265,277,32371,6,0,B|166:331|171:237|71:283,1,200,2|2,0:0|0:0,0:0:0:0:
210,208,32971,1,10,0:0:0:0:
94,119,33171,2,0,L|76:62,1,50
54,0,33371,1,0,1:0:0:0:
260,74,33571,2,0,L|239:136,1,50,2|0,0:0|0:0,0:0:0:0:
410,140,33771,2,0,L|379:46,1,100,10|0,0:0|0:0,0:0:0:0:
260,74,34171,5,0,1:0:0:0:
263,235,34371,1,2,0:0:0:0:
310,218,34471,1,2,0:0:0:0:
346,251,34571,2,0,L|449:269,1,100,8|2,0:0|0:0,0:0:0:0:
292,313,34971,1,0,1:0:0:0:
230,369,35171,1,0,0:0:0:0:
336,383,35371,1,8,0:0:0:0:
134,243,35571,6,0,B|87:268|38:244|38:244|49:303|6:344,1,200,2|2,0:0|0:0,0:0:0:0:
89,170,36171,2,0,P|48:142|32:82,1,100,10|0,0:0|0:0,0:0:0:0:
273,140,36571,1,0,1:0:0:0:
219,204,36771,1,0,0:0:0:0:
200,102,36971,1,8,0:0:0:0:
318,301,37171,2,0,L|384:311,1,50
443,321,37371,5,0,1:0:0:0:
394,185,37571,1,2,0:0:0:0:
401,135,37671,1,2,0:0:0:0:
444,110,37771,2,0,L|428:3,1,100,8|2,0:0|0:0,0:0:0:0:
336,231,38171,1,0,1:0:0:0:
256,292,38371,1,0,0:0:0:0:
154,282,38571,1,8,0:0:0:0:
96,203,38771,1,0,0:0:0:0:
287,38,38971,5,0,1:0:0:0:
376,70,39171,1,2,0:0:0:0:
176,124,39371,5,0,1:0:0:0:
46,84,39571,1,2,0:0:0:0:
6,272,39771,5,0,1:0:0:0:
213,206,39971,1,2,0:0:0:0:
512,333,40171,5,0,1:0:0:0:
290,272,40371,1,2,0:0:0:0:
253,363,40571,5,0,1:0:0:0:
135,287,40771,1,2,0:0:0:0:
119,239,40871,1,2,0:0:0:0:
80,206,40971,2,0,L|122:95,1,100,8|2,0:0|0:0,0:0:0:0:
302,77,41371,1,0,1:0:0:0:
244,140,41571,1,0,0:0:0:0:
226,37,41771,1,8,0:0:0:0:
322,257,41971,6,0,B|409:313|422:216|516:271,1,200,2|2,0:0|0:0,0:0:0:0:
374,188,42571,2,0,P|378:149|422:109,1,100,10|0,0:0|0:0,0:0:0:0:
275,0,42971,1,0,1:0:0:0:
345,49,43171,1,0,0:0:0:0:
235,76,43371,1,8,0:0:0:0:
177,220,43571,2,0,L|114:236,1,50
55,254,43771,5,0,1:0:0:0:
172,363,43971,1,2,0:0:0:0:
220,349,44071,1,2,0:0:0:0:
251,310,44171,2,0,L|356:337,1,100,8|2,0:0|0:0,0:0:0:0:
402,154,44571,1,0,1:0:0:0:
334,202,44771,1,0,0:0:0:0:
436,230,44971,1,8,0:0:0:0:
238,50,45171,6,0,B|189:71|144:37|144:37|153:98|97:139,1,200,2|2,0:0|0:0,0:0:0:0:
78,240,45771,1,8,0:0:0:0:
158,213,45971,1,0,0:0:0:0:
127,376,46171,1,2,1:2:0:0:
137,354,46271,1,0,0:0:0:0:
142,327,46371,1,0,0:0:0:0:
286,300,46571,1,10,0:0:0:0:
324,345,46671,1,2,0:0:0:0:
380,364,46771,1,2,0:0:0:0:
439,366,46871,1,2,0:0:0:0:
493,340,46971,5,0,1:0:0:0:
403,242,47171,1,2,0:0:0:0:
416,193,47271,1,2,0:0:0:0:
461,172,47371,2,0,L|421:71,1,100,8|2,0:0|0:0,0:0:0:0:
216,33,47771,1,0,1:0:0:0:
271,99,47971,1,0,0:0:0:0:
295,0,48171,1,8,0:0:0:0:
187,218,48371,6,0,B|83:268|97:179|-6:221,1,200,2|2,0:0|0:0,0:0:0:0:
214,304,48971,2,0,P|257:279|277:227,1,100,10|0,0:0|0:0,0:0:0:0:
281,66,49371,1,0,1:0:0:0:
351,104,49571,1,0,0:0:0:0:
261,143,49771,1,8,0:0:0:0:
459,22,49971,2,0,L|545:44,1,50
387,2,50171,5,4,1:0:0:0:
162,108,50371,1,2,0:0:0:0:
113,95,50471,1,2,0:0:0:0:
65,81,50571,2,0,L|-49:45,1,100,8|2,0:0|0:0,0:0:0:0:
261,143,50971,5,4,1:0:0:0:
269,250,51171,1,0,0:0:0:0:
361,320,51371,1,8,0:0:0:0:
477,302,51571,1,0,0:0:0:0:
483,51,51771,5,0,1:0:0:0:
440,149,51971,1,2,0:0:0:0:
296,80,52171,5,0,1:0:0:0:
361,320,52371,1,2,0:0:0:0:
0,114,52571,5,0,1:0:0:0:
200,213,52771,1,2,0:0:0:0:
483,51,52971,5,0,1:0:0:0:
248,145,53171,1,2,0:0:0:0:
255,384,53371,6,0,B|323:312|323:312|274:207,1,200,2|8,1:2|0:0,0:0:0:0:
361,320,53971,2,0,L|304:204,1,100,2|0,0:0|1:0,0:0:0:0:
166,204,54371,1,0,0:0:0:0:
357,238,54571,2,0,L|407:338,1,100,10|0,0:0|0:0,0:0:0:0:
289,112,54971,6,0,B|236:131|236:131|143:99|143:99|77:120,1,200,2|8,1:2|0:0,0:0:0:0:
159,68,55571,2,0,L|59:102,1,100,2|0,0:0|1:0,0:0:0:0:
79,0,55971,1,0,0:0:0:0:
140,182,56171,1,10,0:0:0:0:
149,241,56271,1,0,0:0:0:0:
131,298,56371,1,0,0:0:0:0:
86,338,56471,1,0,0:0:0:0:
26,345,56571,6,0,B|0:300|0:300|164:331,1,200,2|8,1:2|0:0,0:0:0:0:
32,280,57171,2,0,L|172:305,1,100,2|0,0:0|1:0,0:0:0:0:
282,325,57571,1,0,0:0:0:0:
502,180,57771,2,0,L|364:200,1,100,10|0,0:0|0:0,0:0:0:0:
250,131,58171,6,0,B|307:183|307:183|446:162,1,200,2|8,1:2|0:0,0:0:0:0:
304,209,58771,2,0,L|403:194,1,100,2|0,0:0|1:0,0:0:0:0:
336,95,59171,1,0,0:0:0:0:
382,225,59371,2,0,L|284:240,1,100,10|0,0:0|0:0,0:0:0:0:
170,342,59771,5,2,1:2:0:0:
157,318,59871,1,0,0:0:0:0:
133,321,59971,1,0,0:0:0:0:
125,345,60071,1,0,0:0:0:0:
148,362,60171,5,8,0:0:0:0:
197,352,60271,1,0,0:0:0:0:
213,305,60371,1,2,0:0:0:0:
190,261,60471,1,0,0:0:0:0:
140,250,60571,5,0,1:0:0:0:
122,230,60671,1,0,0:0:0:0:
134,207,60771,1,0,0:0:0:0:
157,211,60871,1,0,0:0:0:0:
162,234,60971,5,10,0:0:0:0:
131,272,61071,1,0,0:0:0:0:
75,271,61171,1,0,0:0:0:0:
30,222,61271,1,0,0:0:0:0:
41,149,61371,6,0,B|83:113|83:113|174:126|174:126|230:80,1,200,2|8,1:2|0:0,0:0:0:0:
386,120,61971,2,0,B|245:99|245:99|187:149,1,200,2|0,0:0|0:0,0:0:0:0:
180,376,62571,1,8,0:0:0:0:
237,358,62671,1,0,0:0:0:0:
273,309,62771,1,0,0:0:0:0:
287,250,62871,1,0,0:0:0:0:
274,191,62971,5,2,1:2:0:0:
179,160,63571,1,2,0:0:0:0:
90,140,64171,1,2,0:0:0:0:
116,320,64571,6,0,P|146:297|196:297,1,69.9999978637696,2|0,1:2|0:0,0:0:0:0:
340,335,64971,6,0,L|379:323,1,25,0|0,3:0|3:0,3:0:0:0:
384,360,65071,2,0,L|416:320,1,32.4999985122681,0|0,3:0|3:0,3:0:0:0:
442,333,65171,2,0,L|452:286,1,40,0|0,3:0|3:0,3:0:0:0:
448,264,65271,2,0,L|416:227,1,47.4999987316132,0|0,3:0|3:0,3:0:0:0:
412,198,65371,2,0,L|342:188,1,55.0000016784668,0|0,3:0|3:0,3:0:0:0:
318,230,65471,1,0,3:0:0:0:
318,230,65771,6,0,B|289:200|314:146|314:146|372:119|372:119|391:76|363:35,1,240,4|0,1:0|0:0,0:0:0:0:
200,179,66171,5,2,1:2:0:0:
129,205,66271,1,0,0:0:0:0:
62,171,66371,2,0,L|35:93,1,75.0000028610231,2|0,0:0|0:0,0:0:0:0:
22,312,66571,2,0,L|-4:401,1,75.0000028610231,8|0,0:0|0:0,0:0:0:0:
217,309,66771,5,2,0:0:0:0:
285,340,66871,1,0,0:0:0:0:
312,325,66971,5,2,1:2:0:0:
382,351,67071,1,0,0:0:0:0:
446,312,67171,1,2,0:0:0:0:
458,237,67271,1,0,0:0:0:0:
408,180,67371,2,0,P|386:150|379:101,1,75.0000028610231,10|0,0:0|0:0,0:0:0:0:
315,0,67571,2,0,P|286:34|281:91,1,75.0000028610231,2|0,0:0|0:0,0:0:0:0:
162,156,67771,5,0,1:0:0:0:
88,143,67871,1,0,0:0:0:0:
14,130,67971,2,0,L|-9:57,1,75.0000028610231,2|0,0:0|0:0,0:0:0:0:
185,145,68171,1,10,0:0:0:0:
239,196,68271,1,0,0:0:0:0:
235,270,68371,1,2,0:0:0:0:
175,316,68471,1,0,0:0:0:0:
101,303,68571,6,0,P|64:286|-3:303,1,75.0000028610231,2|0,1:2|0:0,0:0:0:0:
51,362,68771,1,0,0:0:0:0:
245,344,68871,2,0,P|278:330|303:295,1,75.0000028610231,2|8,0:0|0:0,0:0:0:0:
334,232,69071,1,0,0:0:0:0:
407,216,69171,1,2,0:0:0:0:
461,267,69271,1,0,0:0:0:0:
301,299,69371,6,0,P|271:272|260:221,1,75.0000028610231,0|0,1:0|0:0,0:0:0:0:
368,11,69571,1,2,0:0:0:0:
356,85,69671,1,0,0:0:0:0:
346,158,69771,2,0,L|331:246,1,75.0000028610231,10|0,0:0|0:0,0:0:0:0:
130,75,69971,2,0,L|143:149,1,75.0000028610231,2|0,0:0|0:0,0:0:0:0:
19,271,70171,5,2,1:2:0:0:
64,330,70271,1,0,0:0:0:0:
138,341,70371,2,0,P|173:326|238:339,1,75.0000028610231,2|0,0:0|0:0,0:0:0:0:
389,253,70571,1,8,0:0:0:0:
459,226,70671,1,0,0:0:0:0:
495,160,70771,1,2,0:0:0:0:
488,85,70871,1,0,0:0:0:0:
432,34,70971,6,0,L|322:53,1,75.0000028610231,2|0,1:2|0:0,0:0:0:0:
272,61,71171,2,0,L|381:73,1,75.0000028610231,2|0,0:0|0:0,0:0:0:0:
206,154,71371,2,0,L|96:173,1,75.0000028610231,10|0,0:0|0:0,0:0:0:0:
48,179,71571,2,0,L|157:191,1,75.0000028610231,2|0,0:0|0:0,0:0:0:0:
360,330,71771,5,2,1:2:0:0:
226,282,72071,5,2,1:2:0:0:
118,372,72371,5,2,1:2:0:0:
118,372,72571,6,0,L|98:281,1,75.0000028610231,0|0,1:0|0:0,0:0:0:0:
48,179,72771,1,2,0:0:0:0:
37,217,72871,1,0,0:0:0:0:
0,97,72971,5,10,0:0:0:0:
59,142,73071,1,0,0:0:0:0:
133,132,73171,1,2,0:0:0:0:
178,69,73271,1,0,0:0:0:0:
256,66,73371,2,0,L|278:150,1,75.0000028610231,2|0,1:2|0:0,0:0:0:0:
394,372,73571,2,0,L|414:281,1,75.0000028610231,2|0,0:0|0:0,0:0:0:0:
232,223,73771,1,8,0:0:0:0:
306,217,73871,1,0,0:0:0:0:
380,208,73971,2,0,L|500:197,1,75.0000028610231,2|0,0:0|0:0,0:0:0:0:
379,17,74171,6,0,P|345:5|289:21,1,75.0000028610231,2|0,1:2|0:0,0:0:0:0:
133,132,74371,2,0,P|167:144|223:128,1,75.0000028610231,2|0,0:0|0:0,0:0:0:0:
2,71,74571,1,10,0:0:0:0:
12,145,74671,1,0,0:0:0:0:
37,172,74771,5,2,0:0:0:0:
47,246,74871,1,0,0:0:0:0:
96,304,74971,6,0,L|196:320,1,75.0000028610231,2|0,1:2|0:0,0:0:0:0:
221,255,75171,1,0,0:0:0:0:
405,373,75271,2,0,L|309:385,1,75.0000028610231,2|8,0:0|0:0,0:0:0:0:
266,192,75471,1,0,0:0:0:0:
239,121,75571,1,2,0:0:0:0:
284,58,75671,1,0,0:0:0:0:
389,121,75771,6,0,L|314:131,1,75.0000028610231,0|0,1:0|0:0,0:0:0:0:
466,221,75971,1,2,0:0:0:0:
511,155,76071,1,0,0:0:0:0:
503,79,76171,2,0,P|491:47|451:16,1,75.0000028610231,10|0,0:0|0:0,0:0:0:0:
386,235,76371,2,0,P|398:267|438:298,1,75.0000028610231,2|0,0:0|0:0,0:0:0:0:
165,320,76571,5,2,1:2:0:0:
110,268,76671,1,0,0:0:0:0:
70,281,76771,5,2,0:0:0:0:
144,281,76871,1,0,0:0:0:0:
198,229,76971,1,8,0:0:0:0:
194,154,77071,1,0,0:0:0:0:
147,94,77171,2,0,L|61:81,1,75.0000028610231,2|0,0:0|0:0,0:0:0:0:
294,183,77371,6,0,P|315:147|321:100,1,75.0000028610231,2|0,1:2|0:0,0:0:0:0:
493,312,77571,2,0,P|472:276|466:229,1,75.0000028610231,2|0,0:0|0:0,0:0:0:0:
304,104,77771,2,0,P|296:141|277:173,1,75.0000028610231,10|0,0:0|0:0,0:0:0:0:
449,249,77971,2,0,P|457:286|477:318,1,75.0000028610231,2|0,0:0|0:0,0:0:0:0:
273,353,78171,6,0,B|225:327|225:327|105:357,1,150.000005722046,2|0,1:2|0:0,0:0:0:0:
78,182,78471,2,0,B|119:154|119:154|128:176|128:176|156:173|156:173|153:223,1,150.000005722046,2|0,1:2|0:0,0:0:0:0:
214,5,78771,2,0,L|142:23,1,75.0000028610231,2|0,1:2|0:0,0:0:0:0:
321,170,78971,5,2,1:2:0:0:
391,180,79071,1,2,0:0:0:0:
463,190,79171,1,2,0:0:0:0:
422,219,79271,5,0,0:0:0:0:
418,169,79371,1,0,0:0:0:0:
438,129,79471,1,0,0:0:0:0:
418,95,79571,1,0,0:0:0:0:
433,72,79671,1,0,0:0:0:0:
298,131,79771,5,2,1:2:0:0:
223,129,79871,1,2,0:0:0:0:
174,72,79971,1,2,0:0:0:0:
222,83,80071,5,0,0:0:0:0:
198,126,80171,1,0,0:0:0:0:
149,132,80271,1,0,0:0:0:0:
147,171,80371,1,0,0:0:0:0:
123,191,80471,1,0,0:0:0:0:
260,359,80571,5,2,1:2:0:0:
309,307,80671,1,2,0:0:0:0:
305,238,80771,1,2,0:0:0:0:
262,225,80871,1,2,0:0:0:0:
236,250,80971,1,2,0:0:0:0:
243,279,81071,1,2,0:0:0:0:
489,303,81271,5,0,0:0:0:0:
456,265,81371,2,0,L|404:268,1,50,0|0,1:0|0:0,0:0:0:0:
99,341,81571,2,0,L|166:336,1,50,0|0,1:0|0:0,0:0:0:0:
250,126,81771,5,0,1:0:0:0:
212,69,81871,1,0,0:0:0:0:
164,54,81971,1,0,0:0:0:0:
123,62,82071,1,0,0:0:0:0:
254,151,82171,5,2,1:2:0:0:
323,180,82271,1,2,0:0:0:0:
395,161,82371,1,2,0:0:0:0:
350,138,82471,5,0,0:0:0:0:
350,188,82571,1,0,0:0:0:0:
384,224,82671,1,0,0:0:0:0:
366,263,82771,1,0,0:0:0:0:
378,292,82871,1,0,0:0:0:0:
204,339,82971,5,2,1:2:0:0:
128,328,83071,1,2,0:0:0:0:
52,316,83171,1,2,0:0:0:0:
85,352,83271,5,0,0:0:0:0:
109,308,83371,1,0,0:0:0:0:
88,262,83471,1,0,0:0:0:0:
124,242,83571,1,0,0:0:0:0:
117,212,83671,1,0,0:0:0:0:
52,144,83771,6,0,P|85:118|160:125,1,100,0|2,1:0|0:0,0:0:0:0:
167,101,84071,1,2,0:0:0:0:
207,123,84171,1,2,0:0:0:0:
257,104,84271,1,2,0:0:0:0:
297,136,84371,1,2,0:0:0:0:
357,98,84471,1,2,0:0:0:0:
461,35,84571,5,0,1:0:0:0:
427,118,84671,1,0,0:0:0:0:
481,167,84771,5,0,1:0:0:0:
440,111,84871,1,0,0:0:0:0:
461,209,84971,5,0,1:0:0:0:
121,292,85371,5,0,1:0:0:0:
195,302,85471,1,0,0:0:0:0:
269,313,85571,1,2,0:0:0:0:
342,325,85671,1,0,0:0:0:0:
328,208,85771,5,8,0:0:0:0:
317,249,85871,1,0,0:0:0:0:
317,217,85971,1,2,0:0:0:0:
330,241,86071,1,0,0:0:0:0:
324,232,86171,5,0,1:0:0:0:
398,219,86271,1,0,0:0:0:0:
418,146,86371,1,2,0:0:0:0:
369,88,86471,1,0,0:0:0:0:
289,22,86571,5,8,0:0:0:0:
329,15,86671,1,0,0:0:0:0:
294,12,86771,1,2,0:0:0:0:
320,24,86871,1,0,0:0:0:0:
228,111,86971,6,0,B|185:139|185:139|72:105,1,150.000005722046,0|2,1:0|0:0,0:0:0:0:
56,36,87271,1,0,0:0:0:0:
125,88,87371,1,8,0:0:0:0:
135,139,87471,1,0,0:0:0:0:
111,209,87571,2,0,P|92:242|100:293,1,75.0000028610231,2|0,0:0|0:0,0:0:0:0:
241,359,87771,6,0,B|263:340|277:316|278:265|197:256|196:316,1,150.000005722046,0|2,1:0|0:0,0:0:0:0:
358,343,88071,1,0,0:0:0:0:
400,301,88171,2,0,L|487:321,1,75.0000028610231,8|0,0:0|0:0,0:0:0:0:
328,162,88371,2,0,L|241:182,1,75.0000028610231,2|0,0:0|0:0,0:0:0:0:
22,297,88571,5,4,1:0:0:0:
94,278,88671,1,0,0:0:0:0:
147,331,88771,1,2,0:0:0:0:
219,313,88871,1,0,0:0:0:0:
167,258,88971,5,8,0:0:0:0:
94,278,89071,1,0,0:0:0:0:
39,226,89171,1,2,0:0:0:0:
61,154,89271,1,0,0:0:0:0:
207,118,89371,5,4,1:0:0:0:
254,178,89471,1,0,0:0:0:0:
328,162,89571,1,2,0:0:0:0:
350,88,89671,1,0,0:0:0:0:
300,31,89771,5,8,0:0:0:0:
374,19,89871,1,0,0:0:0:0:
423,75,89971,1,2,0:0:0:0:
350,88,90071,1,0,0:0:0:0:
328,162,90171,5,0,1:0:0:0:
303,232,90271,1,0,0:0:0:0:
276,302,90371,2,0,L|173:314,1,75.0000028610231,2|0,0:0|0:0,0:0:0:0:
32,207,90571,5,8,0:0:0:0:
106,196,90671,1,0,0:0:0:0:
180,188,90771,2,0,L|215:95,1,75.0000028610231,2|0,0:0|0:0,0:0:0:0:
352,289,90971,5,0,1:0:0:0:
402,351,91071,1,0,0:0:0:0:
427,279,91171,5,0,1:0:0:0:
477,344,91271,1,0,0:0:0:0:
327,359,91371,5,4,1:0:0:0:
107,10,91771,5,0,1:0:0:0:
55,123,91971,1,2,0:0:0:0:
62,172,92071,1,2,0:0:0:0:
106,196,92171,2,0,L|88:304,1,100,8|2,0:0|0:0,0:0:0:0:
274,270,92571,1,0,1:0:0:0:
315,338,92771,1,0,0:0:0:0:
211,319,92971,1,8,0:0:0:0:
475,276,93171,6,0,L|493:172,2,100,2|0|2,0:0|1:0|0:0,0:0:0:0:
294,59,93771,2,0,L|208:125,1,100,10|0,0:0|0:0,0:0:0:0:
55,123,94171,1,0,1:0:0:0:
31,47,94371,1,0,0:0:0:0:
126,86,94571,1,8,0:0:0:0:
196,233,94771,2,0,L|178:286,1,50
155,356,94971,5,0,1:0:0:0:
287,349,95171,1,2,0:0:0:0:
336,346,95271,1,2,0:0:0:0:
372,311,95371,2,0,L|481:348,1,100,8|2,0:0|0:0,0:0:0:0:
459,207,95771,1,0,1:0:0:0:
261,136,95971,2,0,L|296:32,1,100,0|8,0:0|0:0,0:0:0:0:
372,311,96371,5,0,1:0:0:0:
63,123,97371,6,0,P|128:111|186:170,1,150
109,188,97771,2,0,L|91:244,3,50
153,323,98171,5,0,1:0:0:0:
319,285,98371,1,2,0:0:0:0:
305,236,98471,1,2,0:0:0:0:
258,217,98571,2,0,L|289:116,1,100,8|2,0:0|0:0,0:0:0:0:
441,134,98971,1,0,1:0:0:0:
468,60,99171,1,0,0:0:0:0:
375,90,99371,1,8,0:0:0:0:
184,143,99571,6,0,B|133:125|122:71|122:71|75:114|9:92,1,200,2|2,0:0|0:0,0:0:0:0:
213,57,100171,2,0,P|252:31|306:35,1,100,10|0,0:0|0:0,0:0:0:0:
414,217,100571,1,0,1:0:0:0:
350,268,100771,1,0,0:0:0:0:
455,290,100971,1,8,0:0:0:0:
158,325,101171,2,0,L|175:387,1,50
137,249,101371,5,4,1:0:0:0:
52,112,101571,1,2,0:0:0:0:
44,161,101671,1,2,0:0:0:0:
37,210,101771,2,0,L|18:314,1,100,8|2,0:0|0:0,0:0:0:0:
69,34,102171,5,0,1:0:0:0:
297,153,102371,2,0,L|407:130,1,100,0|8,0:0|0:0,0:0:0:0:
206,172,102771,5,4,1:0:0:0:
471,141,103771,6,0,B|473:192|473:192|414:205,1,100,2|2,0:0|0:0,0:0:0:0:
394,290,104171,2,0,B|344:300|344:300|346:351,1,100,2|2,0:0|0:0,0:0:0:0:
212,234,104571,6,0,B|133:253|133:253|96:236|96:236|11:255,1,200,2|8,1:2|0:0,0:0:0:0:
136,272,105171,2,0,L|233:247,1,100,2|0,0:0|1:0,0:0:0:0:
37,158,105571,1,0,0:0:0:0:
250,260,105771,2,0,L|151:285,1,100,10|0,0:0|0:0,0:0:0:0:
388,117,106171,6,0,B|424:173|424:173|391:324,1,200,2|8,1:2|0:0,0:0:0:0:
453,181,106771,2,0,L|392:84,1,100,2|0,0:0|1:0,0:0:0:0:
512,88,107171,1,0,0:0:0:0:
339,193,107371,1,10,0:0:0:0:
279,192,107471,1,0,0:0:0:0:
231,155,107571,1,0,0:0:0:0:
218,96,107671,1,0,0:0:0:0:
247,43,107771,6,0,B|296:75|296:75|125:118,1,200,2|8,1:2|0:0,0:0:0:0:
321,88,108371,2,0,L|423:64,1,100,2|0,0:0|1:0,0:0:0:0:
247,43,108771,1,0,0:0:0:0:
446,83,108971,2,0,L|348:105,1,100,10|0,0:0|0:0,0:0:0:0:
87,159,109371,6,0,B|65:301|65:301|28:235,1,200,2|8,1:2|0:0,0:0:0:0:
57,336,109971,2,0,L|-1:229,1,100,2|0,0:0|1:0,0:0:0:0:
87,159,110371,1,0,0:0:0:0:
233,263,110571,1,10,0:0:0:0:
288,239,110671,1,0,0:0:0:0:
347,245,110771,1,0,0:0:0:0:
398,275,110871,1,0,0:0:0:0:
420,330,110971,5,2,1:2:0:0:
392,325,111071,1,0,0:0:0:0:
406,302,111171,1,0,0:0:0:0:
433,313,111271,1,0,0:0:0:0:
424,353,111371,5,8,0:0:0:0:
406,302,111471,1,0,0:0:0:0:
390,248,111571,1,2,0:0:0:0:
372,188,111671,1,0,0:0:0:0:
350,120,111771,5,0,1:0:0:0:
340,160,111871,1,0,0:0:0:0:
372,188,111971,1,0,0:0:0:0:
382,150,112071,1,0,0:0:0:0:
310,130,112171,5,10,0:0:0:0:
238,113,112271,1,0,0:0:0:0:
166,96,112371,1,0,0:0:0:0:
9,278,112571,6,0,B|106:306|106:306|200:249,1,200,2|8,1:2|0:0,0:0:0:0:
81,135,113171,1,2,0:0:0:0:
72,85,113271,1,0,0:0:0:0:
118,102,113371,2,0,L|244:86,1,100,0|0,1:0|0:0,0:0:0:0:
468,151,113771,1,8,0:0:0:0:
454,209,113871,1,0,0:0:0:0:
412,252,113971,1,0,0:0:0:0:
356,274,114071,1,0,0:0:0:0:
296,269,114171,5,2,1:2:0:0:
254,180,114771,1,2,0:0:0:0:
217,89,115371,1,2,0:0:0:0:
201,234,115771,2,0,P|232:253|278:253,1,69.9999978637696,0|0,1:0|0:0,0:0:0:0:
486,249,116171,6,0,L|459:229,1,25,0|0,3:0|3:0,3:0:0:0:
441,271,116271,2,0,L|416:231,1,32.4999985122681,0|0,3:0|3:0,3:0:0:0:
389,237,116371,2,0,L|379:175,1,40,0|0,3:0|3:0,3:0:0:0:
385,182,116471,2,0,L|410:130,1,47.4999987316132,0|0,3:0|3:0,3:0:0:0:
423,141,116571,2,0,L|486:118,1,55.0000016784668,0|0,3:0|3:0,3:0:0:0:
470,74,116671,1,0,3:0:0:0:
470,74,116971,2,0,B|439:109|394:94|394:94|355:37|355:37|298:18|257:64,1,240,4|0,1:0|0:0,0:0:0:0:
84,109,117371,5,2,1:2:0:0:
65,181,117471,1,0,0:0:0:0:
48,254,117571,2,0,L|27:339,1,75.0000028610231,2|0,0:0|0:0,0:0:0:0:
192,217,117771,2,0,P|146:219|108:249,1,75.0000028610231,8|0,0:0|0:0,0:0:0:0:
275,319,117971,1,2,0:0:0:0:
342,352,118071,1,0,0:0:0:0:
370,338,118171,5,2,1:2:0:0:
438,369,118271,1,0,0:0:0:0:
502,329,118371,1,2,0:0:0:0:
509,254,118471,1,0,0:0:0:0:
452,204,118571,2,0,P|435:180|432:114,1,75.0000028610231,10|0,0:2|0:0,0:0:0:0:
257,125,118771,1,2,0:0:0:0:
327,149,118871,1,0,0:0:0:0:
314,77,118971,6,0,L|298:-1,1,75.0000028610231,0|0,1:0|0:0,0:0:0:0:
135,88,119171,2,0,L|127:163,1,75.0000028610231,2|0,0:0|0:0,0:0:0:0:
98,314,119371,5,10,0:0:0:0:
172,301,119471,1,0,0:0:0:0:
200,320,119571,5,2,0:0:0:0:
273,305,119671,1,0,0:0:0:0:
345,287,119771,2,0,P|321:247|265:231,1,75.0000028610231,2|0,1:2|0:0,0:0:0:0:
225,249,119971,1,0,0:0:0:0:
202,232,120071,5,2,0:0:0:0:
169,163,120171,1,8,0:0:0:0:
213,102,120271,1,0,0:0:0:0:
286,102,120371,1,2,0:0:0:0:
323,165,120471,1,0,0:0:0:0:
444,188,120571,6,0,P|476:175|511:127,1,75.0000028610231,0|0,1:0|0:0,0:0:0:0:
323,38,120771,1,2,0:0:0:0:
248,38,120871,1,0,0:0:0:0:
227,10,120971,5,10,0:0:0:0:
152,10,121071,1,0,0:0:0:0:
111,73,121171,2,0,L|67:143,1,75.0000028610231,2|0,0:0|0:0,0:0:0:0:
125,330,121371,5,2,1:2:0:0:
183,282,121471,1,0,0:0:0:0:
193,212,121571,2,0,P|183:174|140:137,1,75.0000028610231,2|0,0:0|0:0,0:0:0:0:
197,308,121771,1,8,0:0:0:0:
270,321,121871,1,0,0:0:0:0:
296,300,121971,5,2,0:0:0:0:
370,291,122071,1,0,0:0:0:0:
411,228,122171,2,0,L|399:147,1,75.0000028610231,2|0,1:2|0:0,0:0:0:0:
434,68,122371,2,0,L|419:162,1,75.0000028610231,2|0,0:0|0:0,0:0:0:0:
257,162,122571,2,0,L|174:172,1,75.0000028610231,10|0,0:0|0:0,0:0:0:0:
85,138,122771,2,0,L|168:148,1,75.0000028610231,2|0,0:0|0:0,0:0:0:0:
304,55,122971,5,2,1:2:0:0:
284,183,123271,5,2,1:2:0:0:
270,321,123571,5,2,1:2:0:0:
270,321,123771,6,0,P|294:304|345:302,1,75.0000028610231,0|0,1:0|0:0,0:0:0:0:
457,201,123971,1,2,0:0:0:0:
383,216,124071,1,0,0:0:0:0:
360,191,124171,5,10,0:0:0:0:
284,183,124271,1,0,0:0:0:0:
235,126,124371,1,2,0:0:0:0:
242,51,124471,1,0,0:0:0:0:
302,6,124571,6,0,L|391:21,1,75.0000028610231,2|0,1:2|0:0,0:0:0:0:
143,201,124771,1,2,0:0:0:0:
69,187,124871,1,0,0:0:0:0:
52,156,124971,5,8,0:0:0:0:
108,204,125071,1,0,0:0:0:0:
108,279,125171,2,0,P|95:317|53:348,1,75.0000028610231,2|0,0:0|0:0,0:0:0:0:
252,313,125371,1,2,1:2:0:0:
325,303,125471,1,0,0:0:0:0:
400,294,125571,1,2,0:0:0:0:
474,286,125671,1,0,0:0:0:0:
459,313,125771,5,10,0:0:0:0:
404,264,125871,1,0,0:0:0:0:
421,191,125971,1,2,0:0:0:0:
369,137,126071,1,0,0:0:0:0:
313,85,126171,6,0,L|220:72,1,75.0000028610231,2|0,1:2|0:0,0:0:0:0:
200,9,126371,1,0,0:0:0:0:
120,150,126471,2,0,L|204:135,1,75.0000028610231,2|8,0:0|0:0,0:0:0:0:
285,261,126671,1,0,0:0:0:0:
272,334,126771,1,2,0:0:0:0:
208,373,126871,1,0,0:0:0:0:
83,363,126971,6,0,P|58:337|9:328,1,75.0000028610231,0|0,1:0|0:0,0:0:0:0:
103,176,127171,1,2,0:0:0:0:
175,196,127271,1,0,0:0:0:0:
189,223,127371,5,10,0:0:0:0:
257,192,127471,1,0,0:0:0:0:
276,119,127571,1,2,0:0:0:0:
294,46,127671,1,0,0:0:0:0:
365,22,127771,6,0,L|444:-2,1,75.0000028610231,2|0,1:2|0:0,0:0:0:0:
490,172,127971,2,0,L|407:150,1,75.0000028610231,2|0,0:0|0:0,0:0:0:0:
224,66,128171,1,8,0:0:0:0:
165,18,128271,1,0,0:0:0:0:
93,39,128371,2,0,L|3:66,1,75.0000028610231,2|0,0:0|0:0,0:0:0:0:
99,309,128571,5,2,1:2:0:0:
164,271,128671,1,0,0:0:0:0:
175,196,128771,1,2,0:0:0:0:
164,172,128871,1,0,0:0:0:0:
265,321,128971,5,10,0:0:0:0:
338,308,129071,1,0,0:0:0:0:
411,295,129171,1,2,0:0:0:0:
429,314,129271,1,0,0:0:0:0:
304,153,129371,6,0,B|307:108|345:78|345:78|324:110|330:145,1,150.000005722046,2|0,1:2|0:0,0:0:0:0:
509,327,129671,2,0,P|489:264|415:216,1,150.000005722046,2|0,1:2|0:0,0:0:0:0:
196,204,129971,2,0,P|183:245|151:281,1,75.0000028610231,2|0,1:2|0:0,0:0:0:0:
12,39,130171,5,4,1:0:0:0:
61,133,133371,5,0,0:0:0:0:
133,151,133471,1,0,0:0:0:0:
204,172,133571,1,2,0:0:0:0:
177,136,133671,5,0,0:0:0:0:
135,198,133771,1,0,0:0:0:0:
161,237,133871,1,0,0:0:0:0:
161,279,133971,1,2,0:0:0:0:
179,303,134071,1,0,0:0:0:0:
300,247,134171,5,0,0:0:0:0:
362,204,134271,1,0,0:0:0:0:
436,205,134371,1,2,0:0:0:0:
399,228,134471,5,0,0:0:0:0:
426,162,134571,1,0,0:0:0:0:
411,108,134671,1,0,0:0:0:0:
450,87,134771,1,2,0:0:0:0:
438,58,134871,1,0,0:0:0:0:
333,72,134971,6,0,P|291:68|255:42,1,75.0000028610231,4|0,1:0|0:0,0:0:0:0:
163,28,135171,1,2,0:0:0:0:
193,19,135271,1,0,0:0:0:0:
168,129,135371,6,0,P|126:125|90:99,1,75.0000028610231,4|0,1:0|0:0,0:0:0:0:
18,174,135571,1,2,0:0:0:0:
31,146,135671,1,0,0:0:0:0:
102,235,135771,5,4,1:0:0:0:
122,318,135871,1,0,0:0:0:0:
281,282,135971,5,2,0:0:0:0:
192,255,136071,1,0,0:0:0:0:
212,346,136171,5,4,1:0:0:0:
449,148,136571,6,0,L|341:176,1,75.0000028610231,8|0,0:0|0:0,0:0:0:0:
377,167,136771,2,0,L|328:178,1,50,2|0,0:0|0:0,0:0:0:0:
232,28,136971,6,0,L|265:13,1,25,8|0,3:2|3:0,3:0:0:0:
241,71,137071,2,0,L|284:72,1,25,0|0,3:0|3:0,3:0:0:0:
228,113,137171,2,0,L|262:137,1,25,2|0,3:0|3:0,3:0:0:0:
194,143,137271,2,0,L|213:181,1,25,0|0,3:0|3:0,3:0:0:0:
155,67,137371,6,0,L|65:47,1,75.0000028610231,8|0,0:0|0:0,0:0:0:0:
81,50,137571,2,0,L|24:37,1,50,2|0,0:0|0:0,0:0:0:0:
5,214,137771,6,0,L|22:253,1,25,8|0,3:2|3:0,3:0:0:0:
47,207,137871,2,0,L|45:245,1,25,0|0,3:0|3:0,3:0:0:0:
91,218,137971,2,0,L|76:253,1,25,2|0,3:0|3:0,3:0:0:0:
126,241,138071,2,0,L|98:271,1,25,0|0,3:0|3:0,3:0:0:0:
46,318,138171,6,0,P|61:337|72:380,1,50,8|0,0:0|0:0,0:0:0:0:
211,229,138371,2,0,P|208:262|193:289,1,50,2|0,0:0|0:0,0:0:0:0:
362,301,138571,6,0,L|351:336,1,25,8|0,3:2|3:0,3:0:0:0:
405,313,138671,2,0,L|405:347,1,25,0|0,3:0|3:0,3:0:0:0:
449,303,138771,2,0,L|465:345,1,25,2|0,3:0|3:0,3:0:0:0:
481,273,138871,2,0,L|507:299,1,25,0|0,3:0|3:0,3:0:0:0:
409,225,138971,6,0,P|412:192|427:165,1,50,8|0,0:0|0:0,0:0:0:0:
304,365,139171,2,0,P|289:346|278:303,1,50,2|0,0:0|0:0,0:0:0:0:
211,229,139371,1,8,0:0:0:0:
237,192,139471,1,0,0:0:0:0:
243,147,139571,2,0,L|280:144,1,25,2|0,3:0|3:0,3:0:0:0:
227,106,139671,2,0,L|262:94,1,25,0|0,3:0|3:0,3:0:0:0:
155,161,139771,6,0,P|117:156|83:124,1,75.0000028610231,8|0,0:0|0:0,0:0:0:0:
89,133,139971,2,0,P|81:110|58:86,1,50,2|0,0:0|0:0,0:0:0:0:
325,16,140171,6,0,L|320:54,1,25,8|0,3:2|3:0,3:0:0:0:
368,21,140271,2,0,L|363:59,1,25,0|0,3:0|3:0,3:0:0:0:
412,28,140371,2,0,L|407:66,1,25,2|0,3:0|3:0,3:0:0:0:
458,34,140471,2,0,L|453:72,1,25,0|0,3:0|3:0,3:0:0:0:
421,130,140571,6,0,P|405:150|400:208,1,75.0000028610231,8|0,0:0|0:0,0:0:0:0:
397,197,140771,2,0,P|413:216|421:239,1,50,2|0,0:0|0:0,0:0:0:0:
285,287,140971,6,0,L|290:325,1,25,8|0,3:2|3:0,3:0:0:0:
242,292,141071,2,0,L|247:330,1,25,0|0,3:0|3:0,3:0:0:0:
198,299,141171,2,0,L|203:337,1,25,2|0,3:0|3:0,3:0:0:0:
152,305,141271,2,0,L|157:343,1,25,0|0,3:0|3:0,3:0:0:0:
107,237,141371,6,0,P|102:290|64:238,1,150.000005722046,12|2,0:0|0:0,0:0:0:0:
153,171,141671,1,0,0:0:0:0:
285,287,141771,2,0,P|306:320|365:334,1,75.0000028610231,8|0,0:0|0:0,0:0:0:0:
421,239,141971,2,0,P|380:244|344:278,1,75.0000028610231,2|0,0:0|0:0,0:0:0:0:
475,148,142171,5,8,0:0:0:0:
407,123,142271,1,0,0:0:0:0:
399,75,142371,1,2,0:0:0:0:
353,61,142471,1,0,0:0:0:0:
330,34,142571,1,8,0:0:0:0:
177,0,142771,1,2,0:0:0:0:
105,137,142971,5,0,1:0:0:0:
179,148,143071,1,0,0:0:0:0:
206,137,143171,2,0,L|218:226,2,75.0000028610231,2|0|8,0:0|0:0|1:0,0:0:0:0:
244,35,143471,1,0,0:0:0:0:
271,24,143571,2,0,L|283:113,2,75.0000028610231,2|0|0,0:0|0:0|1:0,0:0:0:0:
425,90,143871,5,0,0:0:0:0:
436,164,143971,2,0,P|398:160|360:127,1,75.0000028610231,2|0,0:0|0:0,0:0:0:0:
150,74,144171,1,8,1:0:0:0:
75,69,144271,1,0,0:0:0:0:
31,130,144371,1,2,0:0:0:0:
34,156,144471,1,0,0:0:0:0:
90,212,144571,6,0,L|102:302,1,75.0000028610231,0|0,1:0|0:0,0:0:0:0:
264,265,144771,2,0,L|187:242,1,75.0000028610231,2|0,0:0|0:0,0:0:0:0:
301,351,144971,1,8,1:0:0:0:
354,297,145071,1,0,0:0:0:0:
406,243,145171,1,2,0:0:0:0:
402,213,145271,1,0,0:0:0:0:
455,159,145371,6,0,L|444:73,1,75.0000028610231,0|0,1:0|0:0,0:0:0:0:
291,31,145571,2,0,L|377:57,1,75.0000028610231,2|0,0:0|0:0,0:0:0:0:
271,168,145771,2,0,L|230:130,1,37.5000014305115,8|0,1:0|3:0,3:0:0:0:
234,195,145871,2,0,L|216:144,1,37.5000014305115,0|0,3:0|3:0,3:0:0:0:
189,207,145971,2,0,L|185:163,1,37.5000014305115,2|0,3:2|3:0,3:0:0:0:
145,196,146071,2,0,L|164:144,1,37.5000014305115,0|0,3:0|3:0,3:0:0:0:
189,93,146171,5,4,1:0:0:0:
152,27,146271,1,0,0:0:0:0:
77,20,146371,1,2,0:0:0:0:
58,41,146471,1,0,0:0:0:0:
259,73,146571,5,8,1:0:0:0:
331,53,146671,1,0,0:0:0:0:
403,34,146771,1,2,0:0:0:0:
422,55,146871,1,0,0:0:0:0:
381,189,146971,6,0,L|355:277,1,75.0000028610231,4|0,1:0|0:0,0:0:0:0:
493,366,147171,2,0,L|467:286,1,75.0000028610231,2|0,0:0|0:0,0:0:0:0:
274,293,147371,1,8,1:0:0:0:
202,316,147471,1,0,0:0:0:0:
182,290,147571,5,2,0:0:0:0:
109,269,147671,1,0,0:0:0:0:
35,255,147771,6,0,L|6:161,1,75.0000028610231,4|0,1:0|0:0,0:0:0:0:
114,35,147971,2,0,L|91:106,1,75.0000028610231,2|0,0:0|0:0,0:0:0:0:
381,332,148171,2,0,L|352:238,1,75.0000028610231,12|0,1:0|0:0,0:0:0:0:
179,102,148371,2,0,L|156:173,1,75.0000028610231,2|0,0:0|0:0,0:0:0:0:
433,237,148571,5,4,1:0:0:0:
466,170,148671,1,0,0:0:0:0:
449,96,148771,1,6,0:0:0:0:
473,87,148871,1,0,0:0:0:0:
369,162,148971,5,12,1:0:0:0:
293,151,149071,1,0,0:0:0:0:
219,140,149171,2,0,L|169:135,1,37.5000014305115,2|0,3:0|3:0,3:0:0:0:
196,119,149271,2,0,L|146:114,1,37.5000014305115,0|0,3:0|3:0,3:0:0:0:
179,102,149371,5,0,1:0:0:0:
64,354,149571,1,2,0:0:0:0:
73,314,149671,1,0,0:0:0:0:
138,277,149771,2,0,L|123:203,1,75.0000028610231,12|0,1:0|0:0,0:0:0:0:
278,253,149971,1,2,0:0:0:0:
352,262,150071,1,0,0:0:0:0:
426,271,150171,6,0,L|535:286,1,75.0000028610231,0|0,1:0|0:0,0:0:0:0:
418,88,150371,1,2,0:0:0:0:
341,95,150471,1,0,0:0:0:0:
307,161,150571,1,12,1:0:0:0:
320,190,150671,1,0,0:0:0:0:
266,40,150771,5,2,0:0:0:0:
191,51,150871,1,0,0:0:0:0:
117,66,150971,2,0,L|17:84,1,75.0000028610231,4|0,1:0|0:0,0:0:0:0:
58,247,151171,2,0,L|79:153,1,75.0000028610231,2|0,0:0|0:0,0:0:0:0:
180,294,151371,5,8,1:0:0:0:
162,366,151471,1,0,0:0:0:0:
235,349,151571,1,2,0:0:0:0:
252,366,151671,1,0,0:0:0:0:
324,347,151771,2,0,L|344:255,1,75.0000028610231,0|0,1:0|0:0,0:0:0:0:
367,131,151971,1,2,0:0:0:0:
441,121,152071,1,0,0:0:0:0:
467,118,152171,5,8,1:0:0:0:
409,161,152271,1,0,0:0:0:0:
338,136,152371,1,2,0:0:0:0:
315,64,152471,1,0,0:0:0:0:
211,0,152571,5,4,1:0:0:0:
186,70,152671,1,0,0:0:0:0:
164,141,152771,1,2,0:0:0:0:
138,155,152871,1,0,0:0:0:0:
223,223,152971,6,0,L|307:248,1,75.0000028610231,8|0,1:0|0:0,0:0:0:0:
512,311,153171,1,2,0:0:0:0:
439,330,153271,1,0,0:0:0:0:
428,357,153371,5,4,1:0:0:0:
427,282,153471,1,0,0:0:0:0:
369,237,153571,1,2,0:0:0:0:
294,244,153671,1,0,0:0:0:0:
179,166,153771,2,0,P|176:131|209:79,1,75.0000028610231,8|0,1:0|0:0,0:0:0:0:
346,25,153971,1,2,0:0:0:0:
363,98,154071,1,0,0:0:0:0:
388,114,154171,5,4,1:0:0:0:
323,152,154271,1,0,0:0:0:0:
248,141,154371,1,2,0:0:0:0:
191,95,154471,1,0,0:0:0:0:
119,117,154571,1,12,1:0:0:0:
110,191,154671,1,0,0:0:0:0:
169,237,154771,1,2,0:0:0:0:
239,212,154871,1,0,0:0:0:0:
198,62,154971,5,12,1:0:0:0:
93,94,155071,1,0,0:0:0:0:
79,210,155171,5,12,1:0:0:0:
161,275,155271,1,0,0:0:0:0:
247,342,155371,5,12,1:0:0:0:
334,99,157174,5,0,1:0:0:0:
334,99,157526,1,0,0:0:0:0:
334,99,157703,5,0,1:0:0:0:
334,99,158056,1,0,1:0:0:0:
411,84,158409,1,0,1:0:0:0:
165,9,158585,5,8,0:0:0:0:
151,90,158938,1,8,0:0:0:0:
138,171,159291,1,8,0:0:0:0:
165,9,159468,5,10,0:0:0:0:
151,90,159644,1,10,0:0:0:0:
138,171,159821,1,2,0:0:0:0:
10,320,159997,5,2,1:2:0:0:
77,288,160085,1,0,0:0:0:0:
150,303,160174,2,0,P|179:325|224:331,1,75.0000028610231,2|0,0:0|0:0,0:0:0:0:
377,265,160350,2,0,P|340:271|310:293,1,75.0000028610231,8|0,0:0|0:0,0:0:0:0:
504,373,160526,1,2,0:0:0:0:
490,298,160615,1,0,0:0:0:0:
450,286,160703,5,2,1:2:0:0:
435,213,160791,1,0,0:0:0:0:
421,139,160879,1,2,0:0:0:0:
353,104,160968,1,0,0:0:0:0:
283,75,161056,2,0,L|269:-8,1,75.0000028610231,10|0,0:0|0:0,0:0:0:0:
449,119,161232,2,0,L|469:230,1,75.0000028610231,2|0,0:0|0:0,0:0:0:0:
187,282,161409,5,0,1:0:0:0:
115,304,161497,1,0,0:0:0:0:
44,287,161585,2,0,P|14:257|-2:212,1,75.0000028610231,2|0,0:0|0:0,0:0:0:0:
104,14,161762,1,10,0:0:0:0:
92,87,161850,1,0,0:0:0:0:
118,119,161938,5,2,0:0:0:0:
107,193,162026,1,0,0:0:0:0:
177,167,162115,2,0,L|266:138,1,75.0000028610231,2|0,1:2|0:0,0:0:0:0:
283,75,162291,1,0,0:0:0:0:
361,227,162379,2,0,P|318:226|284:200,1,75.0000028610231,2|8,0:0|0:0,0:0:0:0:
472,131,162556,1,0,0:0:0:0:
489,203,162644,1,2,0:0:0:0:
504,277,162732,1,0,0:0:0:0:
394,363,162821,6,0,L|303:390,1,75.0000028610231,0|0,1:0|0:0,0:0:0:0:
79,334,162997,1,2,0:0:0:0:
56,262,163085,1,0,0:0:0:0:
24,235,163174,5,10,0:0:0:0:
63,171,163262,1,0,0:0:0:0:
137,162,163350,1,2,0:0:0:0:
214,158,163438,1,0,0:0:0:0:
289,152,163526,2,0,L|317:76,1,75.0000028610231,2|0,1:2|0:0,0:0:0:0:
419,292,163703,2,0,L|391:368,1,75.0000028610231,2|0,0:0|0:0,0:0:0:0:
168,92,163879,5,8,0:0:0:0:
197,22,163968,1,0,0:0:0:0:
271,18,164056,1,2,0:0:0:0:
314,81,164144,1,0,0:0:0:0:
289,152,164232,6,0,L|200:160,1,75.0000028610231,2|0,1:2|0:0,0:0:0:0:
43,40,164409,2,0,L|132:32,1,75.0000028610231,2|0,1:2|0:0,0:0:0:0:
336,210,164585,2,0,P|362:173|363:135,1,75.0000028610231,2|0,1:2|0:0,0:0:0:0:
90,309,164762,2,0,P|95:345|118:374,1,75.0000028610231,2|0,1:2|0:0,0:0:0:0:
512,248,164938,6,0,P|452:248|409:341,1,160,2|0,1:2|0:0,0:0:0:0:
336,210,165203,2,0,P|364:139|314:81,1,160,2|0,1:2|0:0,0:0:0:0:
91,124,165468,2,0,L|191:137,1,80,2|0,1:2|0:0,0:0:0:0:
469,51,165644,5,0,1:0:0:0:
392,65,165732,1,0,0:0:0:0:
314,81,165821,2,0,L|230:68,1,75.0000028610231,2|0,0:0|0:0,0:0:0:0:
57,315,165997,1,10,0:0:0:0:
133,303,166085,1,0,0:0:0:0:
166,325,166174,5,2,0:0:0:0:
240,316,166262,1,0,0:0:0:0:
313,302,166350,2,0,L|414:282,1,75.0000028610231,2|0,1:2|0:0,0:0:0:0:
392,65,166526,2,0,L|369:147,1,75.0000028610231,2|0,0:0|0:0,0:0:0:0:
157,220,166703,1,8,0:0:0:0:
135,148,166791,1,0,0:0:0:0:
115,75,166879,2,0,L|92:-8,1,75.0000028610231,2|0,0:0|0:0,0:0:0:0:
82,205,167056,5,2,1:2:0:0:
157,220,167144,1,0,0:0:0:0:
208,166,167232,1,2,0:0:0:0:
281,182,167321,1,0,0:0:0:0:
314,157,167409,5,10,0:0:0:0:
368,207,167497,1,0,0:0:0:0:
441,194,167585,1,2,0:0:0:0:
477,127,167674,1,0,0:0:0:0:
450,57,167762,6,0,P|421:38|361:42,1,75.0000028610231,2|0,1:2|0:0,0:0:0:0:
323,81,167938,1,0,0:0:0:0:
441,194,168026,2,0,L|432:295,1,75.0000028610231,2|8,0:0|0:0,0:0:0:0:
185,318,168203,1,0,0:0:0:0:
246,275,168291,1,2,0:0:0:0:
319,287,168379,1,0,0:0:0:0:
269,378,168468,6,0,L|249:292,1,75.0000028610231,0|0,1:0|0:0,0:0:0:0:
45,198,168644,1,2,0:0:0:0:
69,123,168732,1,0,0:0:0:0:
48,85,168821,5,10,0:0:0:0:
101,33,168909,1,0,0:0:0:0:
175,37,168997,1,2,0:0:0:0:
227,90,169085,1,0,0:0:0:0:
221,165,169174,6,0,P|256:161|292:129,1,75.0000028610231,2|0,1:2|0:0,0:0:0:0:
442,40,169350,2,0,P|413:21|353:25,1,75.0000028610231,2|0,0:0|0:0,0:0:0:0:
345,274,169526,1,8,0:0:0:0:
352,198,169615,1,0,0:0:0:0:
380,167,169703,2,0,L|388:77,1,75.0000028610231,2|0,0:0|0:0,0:0:0:0:
417,302,169879,5,2,1:2:0:0:
357,346,169968,1,0,0:0:0:0:
285,322,170056,1,2,0:0:0:0:
316,300,170144,1,0,0:0:0:0:
172,277,170232,5,10,0:0:0:0:
102,244,170321,1,0,0:0:0:0:
32,274,170409,1,2,0:0:0:0:
62,295,170497,1,0,0:0:0:0:
184,168,170585,6,0,P|207:115|121:24,1,160,2|0,1:2|0:0,0:0:0:0:
0,63,170850,2,0,P|45:120|142:89,1,160,2|0,1:2|0:0,0:0:0:0:
339,41,171115,2,0,L|232:9,1,80,2|0,1:2|0:0,0:0:0:0:
316,300,171291,5,0,1:0:0:0:
397,286,171379,1,0,0:0:0:0:
477,272,171468,2,0,L|507:187,1,75.0000028610231,2|0,0:0|0:0,0:0:0:0:
236,313,171644,2,0,L|213:386,1,75.0000028610231,10|0,0:0|0:0,0:0:0:0:
89,215,171821,1,2,0:0:0:0:
65,136,171909,1,0,0:0:0:0:
28,113,171997,5,2,1:2:0:0:
45,32,172085,1,0,0:0:0:0:
126,14,172174,2,0,L|220:-1,1,75.0000028610231,2|0,0:0|0:0,0:0:0:0:
434,202,172350,1,8,0:0:0:0:
352,187,172438,1,0,0:0:0:0:
272,169,172526,2,0,L|178:154,1,75.0000028610231,2|0,0:0|0:0,0:0:0:0:
64,383,172703,5,2,1:2:0:0:
128,331,172791,1,0,0:0:0:0:
205,357,172879,1,2,0:0:0:0:
274,311,172968,1,0,0:0:0:0:
316,323,173056,5,10,0:0:0:0:
376,263,173144,1,0,0:0:0:0:
352,187,173232,1,2,0:0:0:0:
272,169,173321,1,0,0:0:0:0:
248,90,173409,6,0,P|265:51|303:25,1,75.0000028610231,2|0,1:2|0:0,0:0:0:0:
329,107,173585,1,0,0:0:0:0:
88,171,173674,2,0,L|7:157,1,75.0000028610231,2|8,0:0|0:0,0:0:0:0:
170,76,173850,1,0,0:0:0:0:
248,90,173938,1,2,0:0:0:0:
329,107,174026,1,0,0:0:0:0:
439,57,174115,6,0,L|457:-18,1,75.0000028610231,0|0,1:0|0:0,0:0:0:0:
448,230,174291,1,2,0:0:0:0:
431,309,174379,1,0,0:0:0:0:
453,349,174468,5,10,0:0:0:0:
373,369,174556,1,0,0:0:0:0:
305,321,174644,1,2,0:0:0:0:
282,244,174732,1,0,0:0:0:0:
201,224,174821,6,0,L|102:206,1,75.0000028610231,2|0,1:2|0:0,0:0:0:0:
0,384,174997,2,0,L|99:366,1,75.0000028610231,2|0,0:0|0:0,0:0:0:0:
176,141,175174,1,8,0:0:0:0:
215,68,175262,1,0,0:0:0:0:
296,60,175350,1,2,0:0:0:0:
359,112,175438,1,0,0:0:0:0:
362,195,175526,6,0,P|398:187|438:139,1,75.0000028610231,2|0,1:2|0:0,0:0:0:0:
96,135,175703,2,0,P|55:175|42:231,1,75.0000028610231,2|0,1:2|0:0,0:0:0:0:
426,162,175879,2,0,P|442:125|435:74,1,75.0000028610231,2|0,1:2|0:0,0:0:0:0:
102,294,176056,2,0,P|128:347|166:366,1,75.0000028610231,2|0,1:2|0:0,0:0:0:0:
267,153,176232,6,0,B|243:254|243:254|184:288,1,160,2|0,1:2|0:0,0:0:0:0:
187,94,176497,2,0,B|206:17|206:17|315:4,1,160,2|0,1:2|0:0,0:0:0:0:
475,81,176762,2,0,L|360:95,1,80,2|0,1:2|0:0,0:0:0:0:
17,166,176938,5,0,1:0:0:0:
98,176,177026,1,0,0:0:0:0:
180,186,177115,2,0,L|280:200,1,75.0000028610231,2|0,0:0|0:0,0:0:0:0:
412,362,177291,1,10,0:0:0:0:
401,280,177379,1,0,0:0:0:0:
365,251,177468,5,2,0:0:0:0:
381,170,177556,1,0,0:0:0:0:
395,90,177644,2,0,L|411:3,1,75.0000028610231,2|0,1:2|0:0,0:0:0:0:
254,196,177821,2,0,L|238:283,1,75.0000028610231,2|0,0:0|0:0,0:0:0:0:
6,41,177997,1,8,0:0:0:0:
83,14,178085,1,0,0:0:0:0:
159,45,178174,2,0,P|177:72|184:121,1,75.0000028610231,2|0,0:0|0:0,0:0:0:0:
187,330,178350,5,2,1:2:0:0:
268,340,178438,1,0,0:0:0:0:
317,274,178526,1,2,0:0:0:0:
399,286,178615,1,0,0:0:0:0:
412,328,178703,5,10,0:0:0:0:
358,257,178791,1,0,0:0:0:0:
381,170,178879,1,2,0:0:0:0:
464,143,178968,1,0,0:0:0:0:
475,57,179056,6,0,P|451:22|407:5,1,75.0000028610231,2|0,1:2|0:0,0:0:0:0:
395,90,179232,1,0,0:0:0:0:
224,142,179321,2,0,L|136:166,1,75.0000028610231,2|8,0:0|0:0,0:0:0:0:
0,55,179497,1,0,0:0:0:0:
81,65,179585,1,2,0:0:0:0:
163,75,179674,1,0,0:0:0:0:
208,236,179762,6,0,L|234:326,1,75.0000028610231,0|0,1:0|0:0,0:0:0:0:
295,83,179938,2,0,L|269:-7,1,75.0000028610231,2|0,1:2|0:0,0:0:0:0:
195,249,180115,2,0,L|221:339,1,75.0000028610231,2|0,1:2|0:0,0:0:0:0:
282,96,180291,2,0,L|256:6,1,75.0000028610231,2|0,1:2|0:0,0:0:0:0:
12,279,180468,6,0,L|107:293,1,75.0000028610231,2|0,1:2|0:0,0:0:0:0:
487,339,180644,2,0,L|392:325,1,75.0000028610231,2|0,1:2|0:0,0:0:0:0:
30,264,180821,2,0,L|125:278,1,75.0000028610231,0|0,1:0|0:0,0:0:0:0:
505,324,180997,2,0,L|410:310,1,75.0000028610231,2|0,1:2|0:0,0:0:0:0:
58,88,181174,5,2,3:2:0:0:
137,12,181262,1,0,3:0:0:0:
247,8,181350,1,2,3:2:0:0:
340,65,181438,1,0,3:0:0:0:
396,158,181526,5,2,3:2:0:0:
362,263,181615,1,0,3:0:0:0:
253,278,181703,1,2,3:2:0:0:
184,191,181791,1,0,3:0:0:0:
204,160,181879,5,2,1:2:0:0:
204,160,182144,1,2,1:2:0:0:
204,160,182409,1,2,1:2:0:0:
129,260,182585,5,0,1:0:0:0:
210,270,182673,1,0,0:0:0:0:
292,282,182762,1,2,0:0:0:0:
352,226,182850,1,0,0:0:0:0:
454,282,182938,5,8,0:0:0:0:
454,323,183026,1,0,0:0:0:0:
463,294,183115,1,2,0:0:0:0:
445,313,183203,1,0,0:0:0:0:
455,305,183291,5,0,1:0:0:0:
370,303,183379,1,0,0:0:0:0:
352,226,183468,1,2,0:0:0:0:
333,145,183556,1,0,0:0:0:0:
221,98,183644,5,8,0:0:0:0:
163,157,183732,1,0,0:0:0:0:
120,120,183821,1,2,0:0:0:0:
77,141,183909,1,0,0:0:0:0:
0,132,183997,6,0,P|44:150|60:266,1,160,0|2,1:0|0:0,0:0:0:0:
117,312,184262,1,0,0:0:0:0:
164,307,184350,1,8,0:0:0:0:
177,256,184438,1,0,0:0:0:0:
251,243,184526,1,2,0:0:0:0:
263,169,184615,1,0,0:0:0:0:
415,82,184703,5,0,1:0:0:0:
452,146,184791,1,0,0:0:0:0:
410,208,184879,1,2,0:0:0:0:
335,192,184968,1,0,0:0:0:0:
321,118,185056,2,0,P|292:98|235:97,1,80,8|0,0:0|0:0,0:0:0:0:
404,285,185232,2,0,P|440:283|475:253,1,80,2|0,0:0|0:0,0:0:0:0:
117,312,185409,5,0,1:0:0:0:
40,280,185497,1,0,0:0:0:0:
12,202,185585,1,2,0:0:0:0:
49,128,185673,1,0,0:0:0:0:
153,123,185762,5,8,0:0:0:0:
171,169,185850,1,0,0:0:0:0:
167,131,185938,1,2,0:0:0:0:
155,160,186026,1,0,0:0:0:0:
162,147,186115,5,0,1:0:0:0:
233,188,186203,1,0,0:0:0:0:
314,173,186291,1,2,0:0:0:0:
360,105,186379,1,0,0:0:0:0:
464,87,186468,5,8,0:0:0:0:
512,154,186556,1,0,0:0:0:0:
468,190,186645,1,2,0:0:0:0:
481,236,186733,1,0,0:0:0:0:
484,318,186821,6,0,P|457:335|434:399,1,80,0|0,1:0|0:0,0:0:0:0:
244,330,186997,2,0,P|280:353|344:348,1,80,2|0,0:0|0:0,0:0:0:0:
162,147,187173,1,8,3:2:0:0:
91,102,187262,1,0,3:0:0:0:
16,137,187350,1,2,3:0:0:0:
6,217,187438,2,0,L|0:268,1,40,0|0,3:0|3:0,0:0:0:0:
67,353,187526,6,0,L|79:250,1,80,0|0,1:0|0:0,0:0:0:0:
249,33,187703,2,0,L|241:113,1,80,2|0,0:0|0:0,0:0:0:0:
352,327,187879,1,8,3:2:0:0:
425,367,187968,1,0,3:0:0:0:
500,332,188056,1,2,3:0:0:0:
510,248,188144,2,0,L|517:197,1,40,0|0,3:0|3:0,0:0:0:0:
373,145,188232,5,0,1:0:0:0:
288,180,188321,1,0,0:0:0:0:
206,146,188409,1,2,0:0:0:0:
167,66,188497,1,0,0:0:0:0:
16,242,188585,5,12,0:0:0:0:
67,253,188673,1,0,0:0:0:0:
28,254,188762,1,2,0:0:0:0:
57,247,188850,1,0,0:0:0:0:
44,252,188938,5,0,1:0:0:0:
103,318,189026,1,0,0:0:0:0:
192,304,189115,1,2,0:0:0:0:
280,290,189203,1,0,0:0:0:0:
346,68,189291,5,12,0:0:0:0:
360,18,189379,1,0,0:0:0:0:
360,63,189468,1,2,0:0:0:0:
347,27,189556,1,0,0:0:0:0:
412,141,189644,6,0,P|374:156|325:153,1,80,0|0,1:0|0:0,0:0:0:0:
158,15,189821,1,2,0:0:0:0:
196,97,189909,1,0,0:0:0:0:
143,170,189997,1,8,0:0:0:0:
55,158,190085,1,0,0:0:0:0:
31,71,190173,2,0,P|73:71|107:86,1,80,2|0,0:0|0:0,0:0:0:0:
284,372,190350,5,0,1:0:0:0:
372,355,190438,1,0,0:0:0:0:
460,337,190526,1,2,0:0:0:0:
499,247,190615,1,0,0:0:0:0:
313,71,190703,5,8,0:0:0:0:
265,179,190791,1,0,0:0:0:0:
350,261,190879,1,2,0:0:0:0:
406,152,190968,1,0,0:0:0:0:
233,4,191056,6,0,L|120:23,1,80,0|0,1:0|0:0,0:0:0:0:
422,168,191232,2,0,L|532:152,1,80,2|0,1:2|0:0,0:0:0:0:
248,17,191409,2,0,L|135:34,1,80,0|0,1:0|0:0,0:0:0:0:
437,181,191585,2,0,L|547:164,1,80,2|0,1:2|0:0,0:0:0:0:
142,357,191762,5,0,3:0:0:0:
63,300,191850,1,0,3:0:0:0:
67,202,191938,1,2,3:0:0:0:
153,157,192026,1,0,3:0:0:0:
237,207,192115,1,0,3:0:0:0:
327,170,192203,1,0,3:0:0:0:
333,72,192291,1,0,3:0:0:0:
248,17,192379,1,0,3:0:0:0:
189,156,192468,6,0,L|209:227,2,53.3333333333333,0|0|0,3:0|3:0|3:0,0:0:0:0:
1,131,192644,2,0,L|16:78,2,53.3333333333333,2|0|0,3:2|3:0|3:0,0:0:0:0:
234,310,192821,1,0,3:0:0:0:
302,321,192879,1,0,3:0:0:0:
370,333,192938,1,0,3:0:0:0:
438,346,192997,2,0,L|504:361,2,53.3333333333333,0|0|0,3:2|3:0|3:0,0:0:0:0:
392,122,193173,6,0,L|498:105,1,80,2|0,3:0|3:0,0:0:0:0:
120,262,193350,2,0,L|22:279,1,80,2|0,3:0|3:0,0:0:0:0:
255,43,193526,5,4,1:0:0:0:
