osu file format v14

[General]
AudioFilename: Shukusai no Elementalia.mp3
AudioLeadIn: 0
PreviewTime: 116790
Countdown: 1
SampleSet: Soft
StackLeniency: 0.7
Mode: 0
LetterboxInBreaks: 1
WidescreenStoryboard: 0

[Editor]
DistanceSpacing: 1.5
BeatDivisor: 4
GridSize: 8
TimelineZoom: 1.8

[Metadata]
Title:Shukusai no Elementalia
TitleUnicode:祝祭のエルメンタルア
Artist:Ni-Sokkususu
ArtistUnicode:にーそっくすす
Creator:NextNaix
Version:N Ass
Source:精霊使いの剣舞
Tags:kneesocks claire rouge seirei tsukai no blade dance of the elementalers rs_fadeaway
BeatmapID:662527
BeatmapSetID:294741

[Difficulty]
HPDrainRate:4
CircleSize:4.2
OverallDifficulty:7
ApproachRate:9.5
SliderMultiplier:2.2
SliderTickRate:1

[Events]
//Background and Video events
0,0,"BG (2).jpg",0,0
//Break Periods
//Storyboard Layer 0 (Background)
//Storyboard Layer 1 (Fail)
//Storyboard Layer 2 (Pass)
//Storyboard Layer 3 (Foreground)
//Storyboard Sound Samples

[TimingPoints]
590,400,4,2,0,100,1,0
81990,-50,4,2,0,100,0,0
82190,-100,4,2,0,100,0,0
116390,-50,4,2,0,100,0,0
116790,-66.6666666666667,4,2,0,100,0,0
131790,-100,4,2,0,100,0,0
157208,352.941176470588,4,2,0,100,1,0
159458,-66.6666666666667,4,2,0,100,0,0

[HitObjects]
256,192,590,12,8,2190,0:0:0:0:
144,24,2390,5,0,0:0:0:0:
248,124,2590,2,0,P|204:168|144:156,1,110,8|0,0:0|0:0,0:0:0:0:
0,133,2990,1,8,0:0:0:0:
159,165,3190,1,0,0:0:0:0:
64,241,3390,2,0,P|52:297|80:345,1,110,8|0,0:0|0:0,0:0:0:0:
236,211,3790,2,0,P|248:154|220:106,1,110,8|0,0:0|0:0,0:0:0:0:
72,39,4190,2,0,B|20:63|20:63|88:87,1,110,8|0,0:0|0:0,0:0:0:0:
224,110,4590,2,0,P|320:102|380:66,1,165,2|0,0:0|0:0,0:0:0:0:
428,2,4990,2,0,P|415:55|456:92,1,110,2|4,0:0|0:0,0:0:0:0:
394,292,5390,6,0,P|394:229|336:181,1,110,8|0,0:0|0:0,0:0:0:0:
365,193,5790,2,0,P|364:255|422:302,1,110,8|0,0:0|0:0,0:0:0:0:
240,345,6190,2,0,P|240:282|182:234,1,110,8|0,0:0|0:0,0:0:0:0:
211,246,6590,2,0,P|210:308|268:355,1,110,8|0,0:0|0:0,0:0:0:0:
338,361,6990,5,8,0:0:0:0:
267,169,7190,1,0,0:0:0:0:
101,255,7390,2,0,B|233:243,1,110,8|0,0:0|0:0,0:0:0:0:
267,169,7790,2,0,B|215:140|215:140|77:151,1,165,2|0,0:0|0:0,0:0:0:0:
12,156,8190,2,0,P|62:173|109:147,1,110,2|4,0:0|0:0,0:0:0:0:
296,48,8590,6,0,P|345:88|349:155,1,110,8|0,0:0|0:0,0:0:0:0:
210,245,8990,1,0,0:0:0:0:
354,131,9190,1,0,0:0:0:0:
276,351,9390,2,0,P|341:365|396:335,1,110,8|0,0:0|0:0,0:0:0:0:
354,131,9790,1,0,0:0:0:0:
276,351,9990,1,0,0:0:0:0:
133,296,10190,2,0,P|77:311|16:251,1,110,8|0,0:0|0:0,0:0:0:0:
221,102,10590,1,0,0:0:0:0:
133,296,10790,1,0,0:0:0:0:
329,141,10990,2,0,P|346:196|325:249,1,110,8|0,0:0|0:0,0:0:0:0:
256,348,11390,1,0,0:0:0:0:
256,192,11590,1,0,0:0:0:0:
112,248,11790,5,10,0:0:0:0:
84,344,11990,1,0,0:0:0:0:
228,98,12190,5,10,0:0:0:0:
200,274,12390,1,0,0:0:0:0:
368,24,12590,5,10,0:0:0:0:
292,224,12790,1,0,0:0:0:0:
492,46,12990,5,10,0:0:0:0:
276,326,13190,1,0,0:0:0:0:
256,192,13390,12,0,14290,0:0:0:0:
256,188,14590,5,14,0:0:0:0:
256,188,14990,5,8,0:0:0:0:
304,232,15090,1,0,0:0:0:0:
368,228,15190,1,2,0:0:0:0:
408,176,15290,1,0,0:0:0:0:
380,116,15390,5,8,0:0:0:0:
400,124,15490,1,0,0:0:0:0:
420,124,15590,1,2,0:0:0:0:
440,116,15690,1,0,0:0:0:0:
460,100,15790,6,0,P|472:76|476:44,1,55,10|0,0:0|0:0,0:0:0:0:
330,44,15990,2,0,L|254:58,1,55,2|0,0:0|0:0,0:0:0:0:
263,65,16190,5,8,0:0:0:0:
248,75,16290,1,0,0:0:0:0:
232,80,16390,1,2,0:0:0:0:
216,82,16490,1,0,0:0:0:0:
151,37,16590,2,0,P|167:97|131:185,1,110,10|2,0:0|0:0,0:0:0:0:
99,238,16890,1,0,0:0:0:0:
147,302,16990,2,0,P|207:318|235:306,2,55,10|0|0,0:0|0:0|0:0,0:0:0:0:
296,268,17290,1,0,0:0:0:0:
300,264,17390,6,0,B|336:256|364:252|376:256|376:256|404:292,1,110,10|2,0:0|0:0,0:0:0:0:
404,172,17690,1,0,0:0:0:0:
408,176,17790,2,0,L|484:184,1,55,10|0,0:0|0:0,0:0:0:0:
385,74,17990,2,0,L|331:83,1,55,2|0,0:0|0:0,0:0:0:0:
298,137,18190,1,8,0:0:0:0:
238,169,18290,1,0,0:0:0:0:
174,161,18390,1,2,0:0:0:0:
122,121,18490,1,0,0:0:0:0:
118,137,18590,1,8,0:0:0:0:
106,149,18690,1,0,0:0:0:0:
90,157,18790,1,2,0:0:0:0:
74,157,18890,1,0,0:0:0:0:
0,141,18990,6,0,P|0:170|20:204,1,55,10|0,0:0|0:0,0:0:0:0:
84,316,19190,2,0,P|90:292|85:247,1,55,2|0,0:0|0:0,0:0:0:0:
273,210,19390,1,10,0:0:0:0:
237,186,19490,1,0,0:0:0:0:
193,186,19590,1,2,0:0:0:0:
153,206,19690,1,0,0:0:0:0:
89,261,19790,6,0,P|69:201|93:145,1,110,10|2,0:0|0:0,0:0:0:0:
153,206,20090,1,0,0:0:0:0:
189,230,20190,1,10,0:0:0:0:
233,230,20290,1,0,0:0:0:0:
273,210,20390,1,2,0:0:0:0:
288,108,20490,1,0,0:0:0:0:
252,81,20590,2,0,P|236:133|248:157,1,55,10|0,0:0|0:0,0:0:0:0:
119,54,20790,2,0,P|119:27|106:-10,1,55,10|0,0:0|0:0,0:0:0:0:
18,143,20990,2,0,P|14:197|39:253,1,110,10|2,0:0|0:0,0:0:0:0:
262,211,21390,5,10,0:0:0:0:
230,275,21490,1,0,0:0:0:0:
162,295,21590,1,2,0:0:0:0:
90,291,21690,1,0,0:0:0:0:
34,247,21790,5,10,0:0:0:0:
22,259,21890,1,0,0:0:0:0:
14,275,21990,1,2,0:0:0:0:
10,291,22090,1,0,0:0:0:0:
0,380,22190,2,0,P|37:378|67:358,1,55,10|0,0:0|0:0,0:0:0:0:
127,318,22390,2,0,P|166:322|194:339,1,55,2|0,0:0|0:0,0:0:0:0:
263,359,22590,5,8,0:0:0:0:
275,351,22690,1,0,0:0:0:0:
291,347,22790,1,2,0:0:0:0:
307,347,22890,1,0,0:0:0:0:
395,377,22990,2,0,P|380:326|395:261,1,110,10|2,0:0|0:0,0:0:0:0:
465,187,23290,1,0,0:0:0:0:
470,109,23390,2,0,P|465:77|438:52,2,55,2|0|2,0:0|0:0|0:0,0:0:0:0:
308,84,23690,1,0,0:0:0:0:
304,80,23790,6,0,P|272:116|184:124,1,110,10|2,0:0|0:0,0:0:0:0:
140,228,24090,1,0,0:0:0:0:
144,232,24190,2,0,P|140:272|128:296,1,55,10|0,0:0|0:0,0:0:0:0:
40,192,24390,2,0,P|40:156|56:116,1,55,2|0,0:0|0:0,0:0:0:0:
112,84,24590,5,8,0:0:0:0:
152,80,24690,1,0,0:0:0:0:
188,92,24790,1,2,0:0:0:0:
220,112,24890,1,0,0:0:0:0:
244,144,24990,5,8,0:0:0:0:
200,200,25090,1,0,0:0:0:0:
212,272,25190,1,2,0:0:0:0:
276,304,25290,1,0,0:0:0:0:
344,280,25390,6,0,L|428:288,1,55,10|0,0:0|0:0,0:0:0:0:
480,176,25590,2,0,L|412:180,1,55,2|0,0:0|0:0,0:0:0:0:
348,200,25790,5,8,0:0:0:0:
316,196,25890,1,0,0:0:0:0:
236,204,25990,5,2,0:0:0:0:
200,200,26090,1,0,0:0:0:0:
116,216,26190,6,0,P|68:192|100:152,1,110,8|0,0:0|0:0,0:0:0:0:
133,85,26490,1,0,0:0:0:0:
161,97,26590,1,2,0:0:0:0:
235,81,26690,1,2,0:0:0:0:
251,57,26790,1,0,0:0:0:0:
333,39,26890,1,0,0:0:0:0:
353,59,26990,5,2,0:0:0:0:
324,144,27090,5,0,0:0:0:0:
338,230,27190,5,2,0:0:0:0:
408,285,27290,5,0,0:0:0:0:
495,303,27390,5,14,0:0:0:0:
72,120,27790,6,0,P|144:88|188:112,1,110,2|0,0:0|0:0,0:0:0:0:
196,164,28090,1,0,0:0:0:0:
270,148,28190,2,0,P|300:88|299:38,1,110,2|0,0:0|0:0,0:0:0:0:
169,96,28590,1,2,0:0:0:0:
40,52,28790,1,0,0:0:0:0:
137,296,28990,1,2,0:0:0:0:
270,148,29190,1,0,0:0:0:0:
412,251,29390,6,0,P|356:278|287:254,1,110,2|0,0:0|0:0,0:0:0:0:
47,174,29790,2,0,P|108:203|169:178,1,110,2|0,0:0|0:0,0:0:0:0:
340,72,30190,1,2,0:0:0:0:
412,251,30390,1,0,0:0:0:0:
242,324,30590,2,0,B|229:266|229:266|237:189,1,110,2|0,0:0|0:0,0:0:0:0:
88,324,30990,5,6,0:0:0:0:
72,156,31190,1,2,0:0:0:0:
68,128,31290,1,0,0:0:0:0:
64,100,31390,1,2,0:0:0:0:
80,204,31590,1,0,0:0:0:0:
188,0,31790,1,2,0:0:0:0:
176,156,31990,1,0,0:0:0:0:
329,40,32190,1,2,0:0:0:0:
253,240,32390,1,0,0:0:0:0:
337,328,32590,6,0,L|465:336,1,110,2|0,0:0|0:0,0:0:0:0:
419,154,32990,2,0,L|291:170,1,110,2|0,0:0|0:0,0:0:0:0:
227,346,33390,1,2,0:0:0:0:
213,93,33590,1,0,0:0:0:0:
21,133,33790,2,0,B|134:113|110:224|247:196,1,220,2|6,0:0|0:0,0:0:0:0:
79,277,34390,5,2,0:0:0:0:
147,305,34490,1,0,0:0:0:0:
91,349,34590,2,0,P|135:377|207:341,1,110,2|0,0:0|0:0,0:0:0:0:
352,131,34990,1,2,0:0:0:0:
310,298,35190,1,0,0:0:0:0:
116,42,35390,1,2,0:0:0:0:
143,227,35590,1,0,0:0:0:0:
352,131,35790,2,0,P|380:199|352:235,1,110,2|0,0:0|0:0,0:0:0:0:
133,136,36190,2,0,P|101:76|133:28,1,110,2|0,0:0|0:0,0:0:0:0:
424,48,36590,5,2,0:0:0:0:
364,225,36790,1,2,0:0:0:0:
462,332,36990,2,0,B|396:314|396:314|357:325|357:325|319:305|319:305|232:313,1,220,2|6,0:0|0:0,0:0:0:0:
45,345,37590,1,0,0:0:0:0:
45,345,37790,2,0,P|41:281|85:233,1,110,2|0,0:0|0:0,0:0:0:0:
245,107,38190,2,0,P|249:171|205:218,1,110,2|0,0:0|0:0,0:0:0:0:
74,72,38590,1,2,0:0:0:0:
223,206,38790,1,0,0:0:0:0:
352,49,38990,5,8,0:0:0:0:
406,230,39190,1,0,0:0:0:0:
459,24,39390,1,8,0:0:0:0:
453,299,39590,1,0,0:0:0:0:
257,246,39790,1,8,0:0:0:0:
511,200,39990,1,0,0:0:0:0:
381,22,40190,1,8,0:0:0:0:
453,299,40390,2,0,P|404:322|352:307,1,110,0|6,0:0|0:0,0:0:0:0:
263,78,40790,1,2,0:0:0:0:
231,142,40890,1,0,0:0:0:0:
187,86,40990,2,0,B|127:86|127:86|69:113,1,110,2|0,0:0|0:0,0:0:0:0:
192,322,41390,5,2,0:0:0:0:
325,234,41590,1,0,0:0:0:0:
18,282,41790,2,0,P|67:318|146:310,1,110,2|0,0:0|0:0,0:0:0:0:
81,107,42190,1,2,0:0:0:0:
114,321,42390,1,0,0:0:0:0:
254,42,42590,1,2,0:0:0:0:
198,310,42790,1,0,0:0:0:0:
388,2,42990,5,2,0:0:0:0:
436,302,43190,1,0,0:0:0:0:
310,157,43390,2,0,P|418:213|418:345,1,220,2|6,0:0|0:0,0:0:0:0:
211,277,43990,1,0,0:0:0:0:
259,289,44090,1,0,0:0:0:0:
303,277,44190,1,2,0:0:0:0:
261,84,44390,1,0,0:0:0:0:
128,227,44590,2,0,P|119:303|144:334,1,110,2|0,0:0|0:0,0:0:0:0:
303,277,44990,1,2,0:0:0:0:
186,170,45190,2,0,P|116:145|62:172,1,110,0|2,0:0|0:0,0:0:0:0:
136,327,45590,5,0,0:0:0:0:
303,277,45790,1,2,0:0:0:0:
128,227,45990,1,0,0:0:0:0:
257,372,46190,1,2,0:0:0:0:
313,174,46390,1,0,0:0:0:0:
197,75,46590,2,0,P|125:95|93:155,1,110,2|0,0:0|0:0,0:0:0:0:
316,272,46990,6,0,P|336:216|304:168,1,110,6|0,0:0|0:0,0:0:0:0:
256,224,47290,1,0,0:0:0:0:
200,176,47390,2,0,P|179:232|211:280,1,110,2|0,0:0|0:0,0:0:0:0:
98,351,47790,2,0,P|26:345|-3:311,1,110,2|0,0:0|0:0,0:0:0:0:
200,176,48190,1,2,0:0:0:0:
342,132,48390,1,0,0:0:0:0:
136,121,48590,2,0,P|120:185|148:233,1,110,2|0,0:0|0:0,0:0:0:0:
408,184,48990,2,0,P|424:120|396:72,1,110,2|0,2:0|0:0,0:0:0:0:
136,121,49390,5,2,0:0:0:0:
406,82,49590,1,0,0:0:0:0:
464,304,49790,2,0,P|392:296|428:176,1,220,2|6,0:0|0:0,0:0:0:0:
229,21,50390,5,0,0:0:0:0:
193,85,50490,1,0,0:0:0:0:
265,85,50590,2,0,B|289:202,1,110,2|0,0:0|0:0,0:0:0:0:
273,371,50990,2,0,P|244:301|255:266,1,110,2|0,0:0|0:0,0:0:0:0:
438,192,51390,2,0,B|318:192,1,110,2|0,0:0|0:0,0:0:0:0:
180,192,51790,5,10,0:0:0:0:
328,192,51990,1,0,0:0:0:0:
92,192,52190,1,10,0:0:0:0:
416,192,52390,1,0,0:0:0:0:
112,268,52590,1,10,0:0:0:0:
392,112,52790,1,0,0:0:0:0:
164,352,52990,1,10,0:0:0:0:
336,28,53190,1,0,0:0:0:0:
112,116,53390,6,0,P|164:176|76:288,1,220
48,196,53990,1,0,0:0:0:0:
214,306,54190,2,0,P|269:305|319:274,1,110,2|0,0:0|0:0,0:0:0:0:
240,167,54590,2,0,P|225:108|257:36,1,110,2|0,0:0|0:0,0:0:0:0:
475,85,54990,6,0,P|419:148|298:109,1,220
159,25,55590,1,0,0:0:0:0:
240,167,55790,2,0,P|250:227|216:283,1,110,2|0,0:0|0:0,0:0:0:0:
3,68,56190,5,2,0:0:0:0:
11,140,56290,1,0,0:0:0:0:
71,180,56390,1,2,0:0:0:0:
143,168,56490,1,0,0:0:0:0:
83,100,56590,2,0,P|143:72|239:176,1,220,2|0,0:0|0:0,0:0:0:0:
199,334,57190,1,2,0:0:0:0:
340,143,57390,2,0,P|286:138|239:165,1,110,2|0,0:0|0:0,0:0:0:0:
199,334,57790,5,2,0:0:0:0:
267,318,57890,1,0,0:0:0:0:
335,302,57990,1,2,0:0:0:0:
403,286,58090,1,0,0:0:0:0:
471,265,58190,2,0,P|411:214|340:316,1,220,2|0,0:0|0:0,0:0:0:0:
53,203,58790,2,0,P|121:255|182:145,1,220,2|0,0:0|0:0,0:3:0:0:
54,23,59390,6,0,P|75:70|74:146,1,110,2|0,0:0|0:0,0:0:0:0:
46,288,59790,1,2,0:0:0:0:
201,368,59990,1,0,0:0:0:0:
72,280,60190,1,2,0:0:0:0:
191,168,60390,1,0,0:0:0:0:
298,312,60590,6,0,L|246:297,1,55,10|0,0:0|0:0,0:0:0:0:
398,282,60790,2,0,L|425:234,1,55,2|0,0:0|0:0,0:0:0:0:
304,139,60990,6,0,P|323:165|363:182,1,55,10|0,0:0|0:0,0:0:0:0:
406,49,61190,2,0,P|377:43|329:63,1,55,2|0,0:0|0:0,0:0:0:0:
219,88,61390,5,10,0:0:0:0:
190,113,61490,1,0,0:0:0:0:
182,149,61590,1,0,0:0:0:0:
193,188,61690,1,0,0:0:0:0:
227,207,61790,1,10,0:0:0:0:
265,207,61890,1,0,0:0:0:0:
301,223,61990,1,0,0:0:0:0:
327,251,62090,1,0,0:0:0:0:
339,286,62190,6,0,P|344:316|379:351,1,55,10|0,0:0|0:0,0:0:0:0:
456,253,62390,2,0,P|462:226|455:200,1,55,10|0,0:0|0:0,0:0:0:0:
326,37,62590,5,8,0:0:0:0:
289,113,62690,5,8,0:0:0:0:
355,166,62790,5,8,0:0:0:0:
428,129,62890,5,8,0:0:0:0:
406,49,62990,5,12,0:0:0:0:
165,358,64590,6,0,P|181:330|185:290,1,55,10|0,0:0|0:0,0:0:0:0:
244,192,64790,2,0,P|232:124|216:104,1,55,10|0,0:0|0:0,0:0:0:0:
122,138,64990,5,8,0:0:0:0:
142,218,65090,5,8,0:0:0:0:
210,266,65190,5,8,0:0:0:0:
294,270,65290,5,8,0:0:0:0:
366,234,65390,5,12,0:0:0:0:
149,52,65590,5,0,0:0:0:0:
219,366,65790,1,8,0:0:0:0:
67,220,65990,1,0,0:0:0:0:
405,280,66190,2,0,P|421:232|405:176,1,110,8|0,0:0|0:0,0:0:0:0:
372,136,66490,5,0,0:0:0:0:
384,124,66590,1,10,0:0:0:0:
412,72,66690,1,0,0:0:0:0:
368,16,66790,1,2,0:0:0:0:
300,40,66890,1,0,0:0:0:0:
277,138,66990,2,0,B|229:179|176:167,1,110,10|2,0:0|0:0,0:0:0:0:
78,92,67290,5,0,0:0:0:0:
78,92,67390,2,0,B|69:138|69:138|85:215,1,110,10|2,0:0|0:0,0:0:0:0:
63,325,67690,1,0,0:0:0:0:
63,325,67790,2,0,B|202:307,1,110,10|2,0:0|0:0,0:0:0:0:
244,291,68090,1,0,0:0:0:0:
304,327,68190,1,10,0:0:0:0:
372,299,68290,1,0,0:0:0:0:
388,231,68390,1,2,0:0:0:0:
336,179,68490,1,0,0:0:0:0:
340,175,68590,6,0,P|310:137|250:133,1,110,10|2,0:0|0:0,0:0:0:0:
117,179,68890,2,0,P|160:213|238:172,1,110,2|0,0:0|0:0,0:0:0:0:
198,0,69190,2,0,L|182:60,1,55,2|0,0:0|0:0,0:0:0:0:
178,88,69390,5,10,0:0:0:0:
174,128,69490,1,0,0:0:0:0:
182,164,69590,1,2,0:0:0:0:
210,188,69690,1,0,0:0:0:0:
264,172,69790,2,0,P|303:222|304:268,1,110,10|2,0:0|0:0,0:0:0:0:
151,279,70090,1,0,0:0:0:0:
151,283,70190,2,0,P|192:319|183:402,2,110,10|2|10,0:0|0:0|0:0,0:0:0:0:
0,164,70790,5,0,0:0:0:0:
264,108,70990,1,8,0:0:0:0:
154,317,71190,1,0,0:0:0:0:
111,61,71390,1,8,0:0:0:0:
124,356,71590,1,0,0:0:0:0:
343,230,71790,6,0,P|399:258|455:222,1,110,2|0,0:0|0:0,0:0:0:0:
316,144,72090,2,0,P|267:166|252:217,1,110,2|0,0:0|0:0,0:0:0:0:
154,317,72390,2,0,L|238:309,1,55,2|0,0:0|0:0,0:0:0:0:
290,301,72590,5,8,0:0:0:0:
306,297,72690,1,0,0:0:0:0:
318,289,72790,1,0,0:0:0:0:
330,277,72890,1,0,0:0:0:0:
353,250,72990,5,10,0:0:0:0:
73,126,73190,1,0,0:0:0:0:
208,311,73390,2,0,P|156:327|104:310,2,110,8|0|8,0:0|0:0|0:0,0:0:0:0:
456,287,73990,5,0,0:0:0:0:
154,238,74190,1,8,0:0:0:0:
361,59,74390,1,0,0:0:0:0:
391,351,74590,2,0,P|443:387|507:367,1,110,8|0,0:0|0:0,0:0:0:0:
361,59,74990,6,0,P|361:123|313:151,1,110,2|0,0:0|0:0,0:0:0:0:
229,174,75290,6,0,P|228:110|274:80,1,110,2|0,0:0|0:0,0:0:0:0:
371,230,75590,2,0,L|319:282,1,55,2|0,0:0|0:0,0:0:0:0:
275,314,75790,5,10,0:0:0:0:
203,318,75890,1,0,0:0:0:0:
159,262,75990,1,0,0:0:0:0:
187,198,76090,1,0,0:0:0:0:
256,177,76190,5,10,0:0:0:0:
259,159,76290,1,0,0:0:0:0:
263,141,76390,1,0,0:0:0:0:
266,124,76490,1,0,0:0:0:0:
270,106,76590,2,0,P|221:78|148:108,2,110,10|0|10,0:0|0:0|0:0,0:0:0:0:
66,41,77190,5,0,0:0:0:0:
33,176,77390,1,8,0:0:0:0:
38,10,77590,1,0,0:0:0:0:
108,300,77790,1,8,0:0:0:0:
367,79,77990,1,0,0:0:0:0:
435,201,78190,6,0,P|424:266|359:317,1,110,10|0,0:0|0:0,0:0:0:0:
293,344,78490,2,0,P|234:358|170:322,1,110,10|0,0:0|0:0,0:0:0:0:
64,156,78790,2,0,L|152:168,1,55,10|0,0:0|0:0,0:0:0:0:
128,176,78990,5,10,0:0:0:0:
140,188,79090,1,0,0:0:0:0:
156,196,79190,1,0,0:0:0:0:
172,200,79290,1,0,0:0:0:0:
216,204,79390,5,0,0:0:0:0:
208,160,79490,1,0,0:0:0:0:
216,116,79590,1,0,0:0:0:0:
244,84,79690,1,0,0:0:0:0:
293,80,79790,5,10,0:0:0:0:
301,108,79890,1,0,0:0:0:0:
309,132,79990,1,0,0:0:0:0:
317,156,80090,1,0,0:0:0:0:
325,180,80190,5,0,0:0:0:0:
309,248,80290,1,0,0:0:0:0:
333,316,80390,1,0,0:0:0:0:
405,336,80490,1,0,0:0:0:0:
465,288,80590,2,0,P|377:264|329:296,1,110,10|0,0:0|0:0,0:0:0:0:
237,182,80890,1,0,0:0:0:0:
253,163,80990,2,0,L|243:86,1,55,2|0,0:0|0:0,0:0:0:0:
243,74,81290,5,0,0:0:0:0:
242,72,81390,2,0,L|250:-3,1,55,10|0,0:0|0:0,0:0:0:0:
164,109,81590,2,0,L|169:54,1,55,2|0,0:0|0:0,0:0:0:0:
86,145,81790,2,0,L|96:46,1,55,10|0,0:0|0:0,0:0:0:0:
1,287,81990,2,0,L|14:176,1,110,2|0,0:0|0:0,0:0:0:0:
156,203,82190,5,10,0:0:0:0:
151,283,82290,1,0,0:0:0:0:
216,333,82390,1,0,0:0:0:0:
298,313,82490,1,0,0:0:0:0:
355,253,82590,2,0,P|392:236|440:258,1,55
512,330,82790,2,0,P|478:331|450:317,1,55
355,253,82990,5,10,0:0:0:0:
315,181,83090,1,0,0:0:0:0:
347,105,83190,1,0,0:0:0:0:
427,81,83290,1,0,0:0:0:0:
483,9,83390,2,0,P|451:-3|411:17,1,55
285,43,83590,2,0,P|267:72|265:115,1,55
355,253,83790,6,0,P|279:269|239:237,1,110,10|0,0:0|0:0,0:0:0:0:
184,196,84090,1,0,0:0:0:0:
104,184,84190,1,0,0:0:0:0:
40,236,84290,1,0,0:0:0:0:
48,316,84390,1,0,0:0:0:0:
120,360,84490,1,0,0:0:0:0:
200,344,84590,2,0,P|249:344|276:362,1,55,10|0,0:0|0:0,0:0:0:0:
355,253,84790,2,0,P|390:267|445:251,1,55,10|0,0:0|0:0,0:0:0:0:
512,156,84990,1,12,0:0:0:0:
512,156,85390,5,8,0:0:0:0:
492,220,85490,1,0,0:0:0:0:
444,268,85590,1,0,0:0:0:0:
384,296,85690,1,0,0:0:0:0:
320,296,85790,2,0,P|288:284|268:264,1,55,8|0,0:0|0:0,0:0:0:0:
197,165,85990,2,0,P|160:150|126:150,1,55
81,312,86190,5,8,0:0:0:0:
137,344,86290,1,0,0:0:0:0:
201,348,86390,1,0,0:0:0:0:
265,332,86490,1,0,0:0:0:0:
320,296,86590,2,8,L|296:221,1,55,8|0,0:0|0:0,0:0:0:0:
359,124,86790,2,0,L|381:189,1,55
429,51,86990,6,0,P|353:19|301:43,1,110,8|0,0:0|0:0,0:0:0:0:
212,82,87290,1,0,0:0:0:0:
276,118,87390,2,0,P|292:158|292:182,1,55,8|0,0:0|0:0,0:0:0:0:
456,324,87690,5,0,0:0:0:0:
428,328,87790,2,0,B|364:316|352:304|352:304|292:312,1,110,8|0,0:0|0:0,0:0:0:0:
292,312,88090,1,0,0:0:0:0:
224,284,88190,5,8,0:0:0:0:
188,288,88290,1,0,0:0:0:0:
120,260,88390,5,0,0:0:0:0:
88,264,88490,1,0,0:0:0:0:
16,260,88590,5,8,0:0:0:0:
24,236,88690,1,0,0:0:0:0:
32,212,88790,1,0,0:0:0:0:
40,188,88890,1,0,0:0:0:0:
100,164,88990,5,8,0:0:0:0:
108,140,89090,1,0,0:0:0:0:
116,112,89190,1,0,0:0:0:0:
124,84,89290,1,0,0:0:0:0:
184,52,89390,5,8,0:0:0:0:
212,68,89490,1,0,0:0:0:0:
244,72,89590,1,0,0:0:0:0:
276,64,89690,1,0,0:0:0:0:
336,24,89790,5,8,0:0:0:0:
368,20,89890,1,0,0:0:0:0:
400,28,89990,1,0,0:0:0:0:
428,44,90090,1,0,0:0:0:0:
476,110,90190,6,0,L|476:226,1,110,8|0,0:0|0:0,0:0:0:0:
412,260,90490,1,0,0:0:0:0:
348,228,90590,1,8,0:0:0:0:
348,156,90690,1,0,0:0:0:0:
292,108,90790,1,2,0:0:0:0:
224,124,90890,1,0,0:0:0:0:
200,192,90990,6,0,P|176:228|136:248,1,55,10|0,0:0|0:0,0:0:0:0:
72,80,91190,2,0,P|80:48|104:20,1,55,8|0,0:0|0:0,0:0:0:0:
296,32,91390,5,12,0:0:0:0:
296,32,91790,6,0,P|228:68|212:124,1,110,2|0,0:0|0:0,0:0:0:0:
296,113,92090,1,0,0:0:0:0:
296,113,92190,2,0,L|305:-23,1,110,2|0,0:0|0:0,0:0:0:0:
245,260,92590,2,0,P|337:264|365:244,2,110,2|0|2,0:0|0:0|0:0,0:0:0:0:
103,85,93190,5,0,0:0:0:0:
245,260,93390,1,2,0:0:0:0:
339,60,93590,1,0,0:0:0:0:
245,260,93790,1,2,0:0:0:0:
64,86,93990,1,0,0:0:0:0:
245,260,94190,1,2,0:0:0:0:
343,36,94390,1,0,0:0:0:0:
153,60,94590,2,0,P|225:20|285:40,1,110,2|0,0:0|0:0,0:0:0:0:
231,183,94990,6,0,P|247:243|307:263,1,110,2|0,0:0|0:0,0:0:0:0:
371,265,95290,1,0,0:0:0:0:
371,261,95390,2,0,P|355:201|295:181,1,110,2|0,0:0|0:0,0:0:0:0:
61,247,95790,1,2,0:0:0:0:
203,336,95990,2,0,P|268:353|319:325,1,110,0|2,0:0|0:0,0:0:0:0:
256,136,96390,6,0,B|256:24|256:24|256:152,1,220
256,156,96990,5,2,0:0:0:0:
256,168,97190,5,2,0:0:0:0:
256,180,97390,5,2,0:0:0:0:
256,192,97590,5,2,0:0:0:0:
256,204,97790,5,2,0:0:0:0:
300,216,97890,1,2,0:0:0:0:
344,220,97990,1,2,0:0:0:0:
388,216,98090,1,2,0:0:0:0:
432,208,98190,1,6,0:0:0:0:
353,46,98390,6,0,P|379:7|414:0,1,55
388,130,98590,2,0,P|323:137|278:92,1,110,2|0,0:0|0:0,0:0:0:0:
41,169,98990,1,2,0:0:0:0:
223,173,99190,2,0,P|230:253|193:297,1,110,0|2,0:0|0:0,0:0:0:0:
336,344,99590,5,0,0:0:0:0:
384,328,99790,1,2,0:0:0:0:
324,224,99990,1,0,0:0:0:0:
172,164,100190,1,2,0:0:0:0:
208,228,100390,1,0,0:0:0:0:
452,88,100590,1,2,0:0:0:0:
304,264,100790,1,0,0:0:0:0:
80,144,100990,2,0,P|72:92|116:60,1,110,2|0,0:0|0:0,0:0:0:0:
256,276,101390,6,0,L|256:160,1,110,2|0,0:0|0:0,0:0:0:0:
207,335,101690,1,0,0:0:0:0:
207,335,101790,2,0,P|255:355|319:311,1,110,2|0,0:0|0:0,0:0:0:0:
404,104,102190,1,2,0:0:0:0:
472,345,102390,1,0,0:0:0:0:
175,229,102590,1,2,0:0:0:0:
404,104,102790,6,0,B|437:47|400:-24,2,110,0|0|2,0:0|0:0|0:0,0:0:0:0:
372,152,103390,5,2,0:0:0:0:
304,188,103590,1,2,0:0:0:0:
216,196,103790,1,2,0:0:0:0:
116,153,103990,1,2,0:0:0:0:
32,28,104190,1,2,0:0:0:0:
28,60,104390,1,2,0:0:0:0:
24,92,104590,2,0,B|39:144|-5:164|-5:164|-21:220|10:268|76:259,1,220,2|0,0:0|0:0,0:0:0:0:
215,114,105190,2,0,B|230:70|288:67|328:109|328:109|323:157|373:169,1,220,2|0,0:0|0:0,0:0:0:0:
420,104,105790,5,2,0:0:0:0:
476,148,105890,1,0,0:0:0:0:
480,220,105990,1,0,0:0:0:0:
428,268,106090,1,0,0:0:0:0:
356,252,106190,2,0,B|291:289|260:221|260:221|202:274|135:178,1,220,2|2,0:0|0:0,0:0:0:0:
352,153,106790,2,0,B|407:191|356:251|356:251|422:280|392:332,1,220,2|2,0:0|0:0,0:0:0:0:
324,360,107390,5,2,0:0:0:0:
280,304,107490,1,0,0:0:0:0:
316,244,107590,1,0,0:0:0:0:
388,260,107690,1,0,0:0:0:0:
392,332,107790,5,2,0:0:0:0:
339,310,107890,1,0,0:0:0:0:
340,254,107990,1,0,0:0:0:0:
396,237,108090,1,0,0:0:0:0:
427,285,108190,5,2,0:0:0:0:
381,290,108290,1,0,0:0:0:0:
359,251,108390,1,0,0:0:0:0:
391,217,108490,1,0,0:0:0:0:
432,238,108590,5,2,0:0:0:0:
402,259,108690,1,0,0:0:0:0:
371,241,108790,1,0,0:0:0:0:
379,205,108890,1,0,0:0:0:0:
416,203,108990,5,2,0:0:0:0:
403,229,109090,1,0,0:0:0:0:
374,229,109190,1,0,0:0:0:0:
366,201,109290,1,0,0:0:0:0:
390,185,109390,2,0,P|434:144|490:149,2,110,2|0|2,0:0|0:0|0:0,0:0:0:0:
189,206,109990,5,0,0:0:0:0:
57,134,110190,1,2,0:0:0:0:
301,75,110390,1,0,0:0:0:0:
29,170,110590,1,2,0:0:0:0:
301,75,110790,5,0,0:0:0:0:
229,14,110990,2,0,B|178:115|283:155|221:239,1,220,2|2,0:0|0:0,0:0:0:0:
188,328,111590,2,0,P|264:260|360:308,1,220,2|2,0:0|0:0,0:0:0:0:
288,360,112190,5,2,0:0:0:0:
284,348,112290,1,0,0:0:0:0:
280,336,112390,1,2,0:0:0:0:
276,324,112490,1,0,0:0:0:0:
272,312,112590,5,2,0:0:0:0:
244,292,112690,1,0,0:0:0:0:
212,280,112790,1,2,0:0:0:0:
180,280,112890,1,0,0:0:0:0:
152,264,112990,5,2,0:0:0:0:
144,232,113090,1,0,0:0:0:0:
152,200,113190,1,2,0:0:0:0:
172,176,113290,1,0,0:0:0:0:
172,144,113390,5,2,0:0:0:0:
148,120,113490,1,0,0:0:0:0:
140,88,113590,1,2,0:0:0:0:
152,56,113690,1,0,0:0:0:0:
176,32,113790,6,0,B|228:24|228:24|284:60,1,110,2|0,0:0|0:0,0:0:0:0:
256,192,114190,12,0,115390,0:0:0:0:
104,84,115790,5,2,0:0:0:0:
112,228,115990,1,0,0:0:0:0:
249,300,116190,2,0,P|297:284|313:256,1,55,2|0,0:0|0:0,0:0:0:0:
453,320,116390,2,0,P|415:268|364:255,1,110,2|0,0:0|0:0,0:0:0:0:
380,120,116590,2,0,P|328:152|320:208,1,110,14|0,0:0|0:0,0:0:0:0:
296,280,116790,5,2,0:0:0:0:
94,306,116990,2,0,P|67:242|119:172,1,165.000006294251,8|0,0:0|0:0,0:0:0:0:
184,208,117290,1,0,0:0:0:0:
252,184,117390,2,0,P|272:104|256:56,1,82.5000031471254,8|0,0:0|0:0,0:0:0:0:
236,40,117590,1,0,0:0:0:0:
160,40,117690,1,0,0:0:0:0:
120,104,117790,2,0,P|144:156|212:172,1,82.5000031471254,8|0,0:0|0:0,0:0:0:0:
260,184,117990,6,0,P|336:184|388:256,2,165.000006294251,0|8|0,0:0|0:0|0:0,0:0:0:0:
96,296,118590,1,8,0:0:0:0:
304,28,118790,1,0,0:0:0:0:
284,228,118990,5,8,0:0:0:0:
348,264,119090,1,0,0:0:0:0:
424,260,119190,1,0,0:0:0:0:
488,224,119290,1,0,0:0:0:0:
508,152,119390,6,0,B|484:116|484:116|400:160,1,82.5000031471254,8|0,0:0|0:0,0:0:0:0:
380,164,119590,1,0,0:0:0:0:
312,132,119690,1,0,0:0:0:0:
244,164,119790,2,0,P|280:240|380:176,1,165.000006294251,8|0,0:0|0:0,0:0:0:0:
388,48,120090,2,0,B|324:128|264:64|264:64|208:76|200:92,1,165.000006294251,8|0,0:0|0:0,0:0:0:0:
72,80,120390,2,0,P|88:120|60:200,1,82.5000031471254,8|0,0:0|0:0,0:0:0:0:
32,212,120590,5,8,0:0:0:0:
32,288,120690,1,0,0:0:0:0:
96,324,120790,1,0,0:0:0:0:
164,296,120890,1,0,0:0:0:0:
236,304,120990,2,0,P|296:332|320:376,2,82.5000031471254,8|0|0,0:0|0:0|0:0,0:0:0:0:
168,336,121290,5,0,0:0:0:0:
124,276,121390,2,0,P|144:224|68:144,2,165.000006294251,8|0|8,0:0|0:0|0:0,0:0:0:0:
320,92,121990,5,0,0:0:0:0:
280,152,122090,1,0,0:0:0:0:
352,156,122190,2,0,P|300:220|328:296,1,165.000006294251,8|0,0:0|0:0,0:0:0:0:
284,356,122490,1,0,0:0:0:0:
360,356,122590,2,0,P|392:292|340:224,1,165.000006294251,8|0,0:0|0:0,0:0:0:0:
272,256,122890,1,0,0:0:0:0:
276,180,122990,6,0,P|236:108|128:132,1,165.000006294251,8|0,0:0|0:0,0:0:0:0:
168,256,123290,6,0,P|207:328|315:304,1,165.000006294251,8|0,0:0|0:0,0:0:0:0:
412,260,123590,2,0,P|436:204|408:140,1,82.5000031471254,8|0,0:0|0:0,0:0:0:0:
412,112,123790,5,8,0:0:0:0:
352,68,123890,1,0,0:0:0:0:
280,52,123990,1,0,0:0:0:0:
204,56,124090,1,0,0:0:0:0:
136,96,124190,2,0,L|56:260,1,165.000006294251,8|0,0:0|0:0,0:0:0:0:
4,192,124490,1,0,0:0:0:0:
24,164,124590,6,0,P|76:120|180:140,1,165.000006294251,8|0,0:0|0:0,0:0:0:0:
240,168,124890,1,0,0:0:0:0:
268,152,124990,2,0,P|308:88|296:-4,1,165.000006294251,8|0,0:0|0:0,0:0:0:0:
89,46,125390,5,8,0:0:0:0:
197,350,125590,1,0,0:0:0:0:
4,192,125790,1,8,0:0:0:0:
320,252,125990,1,0,0:0:0:0:
148,124,126190,2,0,P|56:96|-16:180,1,165.000006294251,8|0,0:0|0:0,0:0:0:0:
80,256,126490,2,0,L|76:76,1,165.000006294251,8|0,0:0|0:0,0:0:0:0:
160,24,126790,2,0,P|200:40|264:16,1,82.5000031471254,8|0,0:0|0:0,0:0:0:0:
312,36,126990,5,8,0:0:0:0:
368,84,127090,1,0,0:0:0:0:
360,156,127190,1,0,0:0:0:0:
292,184,127290,1,0,0:0:0:0:
252,244,127390,2,0,P|248:312|288:352,1,82.5000031471254,8|0,0:0|0:0,0:0:0:0:
400,368,127590,2,0,P|404:300|364:260,1,82.5000031471254
292,184,127790,2,0,P|276:132|340:36,2,165.000006294251,8|0|8,0:0|0:0|0:0,0:0:0:0:
152,52,128390,5,0,0:0:0:0:
129,335,128590,1,8,0:0:0:0:
364,287,128790,1,0,0:0:0:0:
21,241,128990,1,8,0:0:0:0:
240,31,129190,1,0,0:0:0:0:
229,346,129390,6,0,P|309:346|369:250,1,165.000006294251,8|0,0:0|0:0,0:0:0:0:
210,133,129690,2,0,P|202:217|270:257,1,165.000006294251,8|0,0:0|0:0,0:0:0:0:
356,193,129990,5,8,0:0:0:0:
52,200,130190,5,10,0:0:0:0:
88,236,130290,1,0,0:0:0:0:
136,248,130390,1,0,0:0:0:0:
184,240,130490,1,0,0:0:0:0:
216,212,130590,5,0,0:0:0:0:
224,196,130690,1,0,0:0:0:0:
236,184,130790,1,0,0:0:0:0:
248,176,130890,1,0,0:0:0:0:
200,172,130990,5,10,0:0:0:0:
152,156,131090,1,0,0:0:0:0:
116,120,131190,1,0,0:0:0:0:
96,76,131290,1,0,0:0:0:0:
112,68,131390,5,0,0:0:0:0:
128,60,131490,1,0,0:0:0:0:
144,52,131590,1,0,0:0:0:0:
160,44,131690,1,0,0:0:0:0:
234,11,131790,6,0,P|274:43|338:47,1,110,10|0,0:0|0:0,0:0:0:0:
467,103,132090,1,0,0:0:0:0:
463,107,132190,2,0,P|459:167|483:187,1,55,2|0,0:0|0:0,0:0:0:0:
442,320,132490,5,0,0:0:0:0:
438,316,132590,2,0,P|354:332|330:380,1,110,2|2,0:0|0:0,0:0:0:0:
226,351,132890,1,0,0:0:0:0:
226,351,132990,2,0,L|226:283,1,55,10|0,0:0|0:0,0:0:0:0:
300,116,133190,2,0,L|300:188,1,55,2|0,0:0|0:0,0:0:0:0:
296,180,133390,5,10,0:0:0:0:
288,188,133490,1,0,0:0:0:0:
280,196,133590,1,0,0:0:0:0:
272,204,133690,1,0,0:0:0:0:
264,212,133790,5,0,0:0:0:0:
232,220,133890,1,0,0:0:0:0:
200,224,133990,1,0,0:0:0:0:
168,224,134090,1,0,0:0:0:0:
136,216,134190,5,10,0:0:0:0:
132,224,134290,1,0,0:0:0:0:
128,232,134390,1,0,0:0:0:0:
124,240,134490,1,0,0:0:0:0:
120,248,134590,5,0,0:0:0:0:
92,232,134690,1,0,0:0:0:0:
64,212,134790,1,0,0:0:0:0:
44,184,134890,1,0,0:0:0:0:
36,152,134990,6,0,L|44:76,1,55,10|0,0:0|0:0,0:0:0:0:
232,92,135190,2,0,L|312:80,1,55,10|0,0:0|0:0,0:0:0:0:
248,292,135390,2,0,L|260:348,1,55,10|0,0:0|0:0,0:0:0:0:
64,312,135590,2,0,L|8:324,1,55,10|0,0:0|0:0,0:0:0:0:
36,152,135790,5,2,0:0:0:0:
84,84,135890,5,0,0:0:0:0:
160,48,135990,5,2,0:0:0:0:
244,40,136090,5,0,0:0:0:0:
324,60,136190,5,2,0:0:0:0:
144,300,136590,5,0,0:0:0:0:
32,64,136790,1,2,0:0:0:0:
216,132,136990,6,0,L|236:172,1,27.5
248,112,137090,6,0,L|252:148,1,27.5
284,100,137190,6,0,L|272:148,1,27.5
320,100,137290,6,0,L|288:140,1,27.5
356,108,137390,5,0,0:0:0:0:
408,216,137590,5,2,0:0:0:0:
280,296,137790,6,0,L|260:256,1,27.5
248,316,137890,6,0,L|244:280,1,27.5
212,328,137990,6,0,L|224:280,1,27.5
176,328,138090,6,0,L|208:288,1,27.5
140,320,138190,5,0,0:0:0:0:
56,144,138390,5,2,0:0:0:0:
168,40,138590,6,0,L|133:67,1,27.5
194,67,138690,6,0,L|159:78,1,27.5
213,99,138790,6,0,L|163:97,1,27.5
220,135,138890,6,0,L|174:112,1,27.5
220,171,138990,5,0,0:0:0:0:
184,336,139190,1,2,0:0:0:0:
246,224,139390,6,0,L|286:243,1,27.5
259,189,139490,6,0,L|284:215,1,27.5
278,157,139590,6,0,L|299:202,1,27.5
308,135,139690,6,0,L|308:186,1,27.5
339,118,139790,5,0,0:0:0:0:
268,344,139990,5,2,0:0:0:0:
176,276,140190,6,0,L|192:300,8,27.5
104,96,140790,5,2,0:0:0:0:
204,48,140990,6,0,L|164:52,8,27.5
232,288,141590,5,2,0:0:0:0:
252,356,141690,1,0,0:0:0:0:
304,304,141790,2,0,L|380:284,1,55,2|0,0:0|0:0,0:0:0:0:
372,108,141990,2,0,L|360:192,1,55,2|0,0:0|0:0,0:0:0:0:
300,224,142190,5,2,0:0:0:0:
224,196,142290,1,0,0:0:0:0:
288,144,142390,1,2,0:0:0:0:
300,224,142490,1,0,0:0:0:0:
224,196,142590,2,0,B|168:176|168:176|116:160,1,110,2|0,0:0|0:0,0:0:0:0:
80,76,142990,5,8,0:0:0:0:
248,196,143190,1,0,0:0:0:0:
264,20,143390,5,8,0:0:0:0:
276,268,143590,1,0,0:0:0:0:
480,60,143790,5,8,0:0:0:0:
192,336,143990,1,0,0:0:0:0:
116,60,144190,5,8,0:0:0:0:
296,144,144390,1,0,0:0:0:0:
160,64,144590,5,8,0:0:0:0:
320,204,144790,1,0,0:0:0:0:
204,68,144990,5,8,0:0:0:0:
344,264,145190,1,0,0:0:0:0:
244,72,145390,5,8,0:0:0:0:
368,320,145590,1,0,0:0:0:0:
284,76,145790,5,8,0:0:0:0:
388,376,145990,1,0,0:0:0:0:
204,212,146190,5,10,0:0:0:0:
160,220,146290,1,0,0:0:0:0:
116,212,146390,1,2,0:0:0:0:
80,184,146490,1,0,0:0:0:0:
36,188,146590,1,10,0:0:0:0:
8,224,146690,1,0,0:0:0:0:
4,268,146790,1,2,0:0:0:0:
32,304,146890,1,0,0:0:0:0:
76,308,146990,5,10,0:0:0:0:
116,320,147090,1,0,0:0:0:0:
152,344,147190,1,2,0:0:0:0:
196,336,147290,1,0,0:0:0:0:
232,312,147390,1,10,0:0:0:0:
256,276,147490,1,0,0:0:0:0:
268,232,147590,1,2,0:0:0:0:
248,192,147690,1,0,0:0:0:0:
252,148,147790,2,0,B|272:116|296:108|312:108|312:108|372:128,1,110,10|2,0:0|0:0,0:0:0:0:
192,304,148190,5,8,0:0:0:0:
344,120,148390,1,0,0:0:0:0:
432,336,148590,1,8,0:0:0:0:
248,136,148790,1,0,0:0:0:0:
88,348,148990,2,0,L|120:232,1,110,8|0,0:0|0:0,0:0:0:0:
152,92,149390,5,2,0:0:0:0:
136,168,149490,1,2,0:0:0:0:
117,241,149590,2,0,L|88:355,2,110,2|0|0,0:0|0:0|0:0,0:0:0:0:
43,111,150190,6,0,L|167:83,1,110,2|2,0:0|0:0,0:0:0:0:
227,71,150490,1,2,0:0:0:0:
303,55,150590,1,2,0:0:0:0:
348,303,150790,5,2,0:0:0:0:
333,221,150890,1,2,0:0:0:0:
321,139,150990,1,2,0:0:0:0:
387,35,151190,5,2,0:0:0:0:
414,210,151390,5,2,0:0:0:0:
333,221,151490,1,2,0:0:0:0:
257,233,151590,1,2,0:0:0:0:
180,246,151690,1,2,0:0:0:0:
103,259,151790,1,2,0:0:0:0:
348,303,151990,5,2,0:0:0:0:
55,196,152190,5,2,0:0:0:0:
131,188,152290,1,2,0:0:0:0:
195,144,152390,1,2,0:0:0:0:
223,72,152490,1,2,0:0:0:0:
191,0,152590,2,0,P|143:40|135:68,1,55,10|0,0:0|0:0,0:0:0:0:
108,161,152790,2,0,P|104:201|116:225,1,55,2|0,0:0|0:0,0:0:0:0:
152,329,152990,5,10,0:0:0:0:
192,329,153090,1,0,0:0:0:0:
232,325,153190,1,2,0:0:0:0:
268,313,153290,1,0,0:0:0:0:
288,281,153390,5,10,0:0:0:0:
312,249,153490,1,0,0:0:0:0:
344,229,153590,1,2,0:0:0:0:
384,225,153690,1,0,0:0:0:0:
364,193,153790,5,10,0:0:0:0:
356,157,153890,1,0,0:0:0:0:
360,117,153990,1,2,0:0:0:0:
376,81,154090,1,0,0:0:0:0:
392,45,154190,6,0,L|472:21,1,55,10|0,0:0|0:0,0:0:0:0:
200,49,154390,2,0,L|172:-7,1,55,10|0,0:0|0:0,0:0:0:0:
180,221,154590,2,0,L|104:249,1,55,10|0,0:0|0:0,0:0:0:0:
368,225,154790,2,0,L|392:293,1,55,10|0,0:0|0:0,0:0:0:0:
200,49,154990,5,2,0:0:0:0:
111,78,155090,5,0,0:0:0:0:
112,174,155190,5,2,0:0:0:0:
202,204,155290,5,0,0:0:0:0:
262,124,155390,5,14,0:0:0:0:
84,96,157208,6,0,P|60:156|100:196,1,110,10|0,0:0|0:0,0:0:0:0:
224,128,157560,1,0,0:0:0:0:
134,279,157737,2,0,P|46:283|14:247,1,110
244,312,158090,2,0,P|284:216|204:120,1,220
60,104,158619,5,8,0:0:0:0:
16,342,158972,1,8,0:0:0:0:
244,312,159325,1,8,0:0:0:0:
107,228,159502,5,0,0:0:0:0:
304,97,159678,1,8,0:0:0:0:
75,94,159855,1,0,0:0:0:0:
264,176,160031,2,0,P|344:176|392:92,2,165.000006294251,8|0|8,0:0|0:0|0:0,0:0:0:0:
75,94,160560,1,0,0:0:0:0:
136,336,160737,1,8,0:0:0:0:
48,66,160913,1,0,0:0:0:0:
304,97,161090,1,8,0:0:0:0:
0,150,161266,1,0,0:0:0:0:
0,150,161619,5,0,0:0:0:0:
175,7,161796,1,8,0:0:0:0:
204,322,161972,1,0,0:0:0:0:
316,136,162149,2,0,P|318:49|251:6,1,165.000006294251,8|0,0:0|0:0,0:0:0:0:
124,64,162413,2,0,P|121:150|188:193,1,165.000006294251,8|0,0:0|0:0,0:0:0:0:
268,200,162678,2,0,L|260:292,1,82.5000031471254,8|0,0:0|0:0,0:0:0:0:
257,318,162855,1,8,0:0:0:0:
199,103,163031,5,0,0:0:0:0:
251,360,163208,1,8,0:0:0:0:
20,152,163384,1,0,0:0:0:0:
268,200,163560,2,0,P|352:212|424:140,2,165.000006294251,8|0|8,0:0|0:0|0:0,0:0:0:0:
20,152,164090,5,0,0:0:0:0:
320,77,164266,1,8,0:0:0:0:
285,302,164443,1,0,0:0:0:0:
228,6,164619,1,8,0:0:0:0:
60,312,164796,1,0,0:0:0:0:
84,168,164972,2,0,L|108:-16,1,165.000006294251,8|0,0:0|0:0,0:0:0:0:
1,201,165237,2,0,P|109:245|153:221,1,165.000006294251,8|0,0:0|0:0,0:0:0:0:
218,116,165502,2,0,L|250:344,1,165.000006294251,8|0,0:0|0:0,0:0:0:0:
250,326,165855,5,0,0:0:0:0:
451,258,166031,1,8,0:0:0:0:
145,227,166208,1,0,0:0:0:0:
371,372,166384,2,0,P|479:364|483:256,2,165.000006294251,8|0|8,0:0|0:0|0:0,0:0:0:0:
249,61,166913,5,0,0:0:0:0:
178,270,167090,1,8,0:0:0:0:
127,99,167266,1,0,0:0:0:0:
201,291,167443,1,8,0:0:0:0:
0,223,167619,1,0,0:0:0:0:
254,361,167796,6,0,P|290:281|234:217,1,165.000006294251,8|0,0:0|0:0,0:0:0:0:
184,152,168060,2,0,P|120:184|32:148,1,165.000006294251,8|0,0:0|0:0,0:0:0:0:
108,70,168325,2,0,L|124:258,1,165.000006294251,8|8,0:0|0:0,0:0:0:0:
127,275,168678,5,0,0:0:0:0:
344,160,168855,1,8,0:0:0:0:
408,344,169031,1,0,0:0:0:0:
436,119,169208,1,8,0:0:0:0:
351,341,169384,1,0,0:0:0:0:
351,341,169737,5,0,0:0:0:0:
125,315,169913,1,8,0:0:0:0:
319,257,170090,1,0,0:0:0:0:
31,294,170266,1,8,0:0:0:0:
402,286,170443,1,0,0:0:0:0:
87,231,170619,2,0,P|131:123|211:151,1,165.000006294251,8|0,0:0|0:0,0:0:0:0:
208,37,170884,2,0,P|272:133|204:184,1,165.000006294251,8|0,0:0|0:0,0:0:0:0:
330,225,171149,2,0,P|218:258|189:178,1,165.000006294251,8|0,0:0|0:0,0:0:0:0:
16,64,171502,5,0,0:0:0:0:
422,167,171678,1,8,0:0:0:0:
36,103,171855,1,0,0:0:0:0:
480,69,172031,1,8,0:0:0:0:
56,139,172208,2,0,L|220:136,2,165.000006294251,0|8|0,0:0|0:0|0:0,0:0:0:0:
349,111,172737,5,8,0:0:0:0:
35,294,172913,1,0,0:0:0:0:
389,108,173090,1,8,0:0:0:0:
104,358,173266,1,0,0:0:0:0:
284,20,173443,2,0,P|364:48|348:112,1,165.000006294251,8|0,0:0|0:0,0:0:0:0:
365,250,173708,2,0,P|450:230|428:173,1,165.000006294251,8|0,0:0|0:0,0:0:0:0:
286,178,173972,2,0,L|96:178,1,165.000006294251,8|0,0:0|0:0,0:0:0:0:
44,340,174325,5,0,0:0:0:0:
88,6,174502,1,8,0:0:0:0:
78,349,174678,1,0,0:0:0:0:
0,63,174855,1,8,0:0:0:0:
114,358,175031,2,0,L|134:186,2,165.000006294251,0|8|0,0:0|0:0|0:0,0:0:0:0:
269,45,175560,1,8,0:0:0:0:
268,351,175737,1,0,0:0:0:0:
371,65,175913,1,8,0:0:0:0:
230,365,176090,1,0,0:0:0:0:
42,215,176266,2,0,P|62:143|162:95,1,165.000006294251,8|0,0:0|0:0,0:0:0:0:
407,136,176531,2,0,L|235:168,1,165.000006294251
365,323,176796,2,0,P|443:338|508:291,1,165.000006294251,8|0,0:0|0:0,0:0:0:0:
160,360,177149,5,0,0:0:0:0:
242,38,177325,1,8,0:0:0:0:
257,364,177502,1,0,0:0:0:0:
211,11,177678,2,0,L|199:195,2,165.000006294251,8|0|8,0:0|0:0|0:0,0:0:0:0:
35,249,178208,5,0,0:0:0:0:
381,215,178384,1,8,0:0:0:0:
5,224,178560,1,0,0:0:0:0:
428,134,178737,1,8,0:0:0:0:
257,10,178913,1,0,0:0:0:0:
326,318,179090,2,0,P|245:377|155:357,1,165.000006294251,8|0,0:0|0:0,0:0:0:0:
5,224,179355,2,0,P|85:272|161:240,1,165.000006294251,8|0,0:0|0:0,0:0:0:0:
413,187,179619,2,0,L|239:168,1,165.000006294251,8|0,0:0|0:0,0:0:0:0:
5,224,179972,5,0,0:0:0:0:
432,202,180149,1,8,0:0:0:0:
0,258,180325,1,0,0:0:0:0:
458,215,180502,1,8,0:0:0:0:
157,118,180678,2,0,P|133:30|33:18,1,165.000006294251,0|8,0:0|0:0,0:0:0:0:
74,297,181031,5,0,0:0:0:0:
255,311,181208,2,0,P|288:389|316:402,1,82.5000031471254,8|0,0:0|0:0,0:0:0:0:
333,245,181384,2,0,P|383:288|395:318,1,82.5000031471254,8|0,0:0|0:0,0:0:0:0:
180,243,181560,2,0,P|165:299|175:338,1,82.5000031471254,8|0,0:0|0:0,0:0:0:0:
307,147,181737,2,0,P|364:154|392:176,1,82.5000031471254,8|0,0:0|0:0,0:0:0:0:
92,88,181913,6,0,P|48:176|92:240,1,165.000006294251,8|0,0:0|0:0,0:0:0:0:
220,159,182178,2,0,P|264:235|236:315,1,165.000006294251,8|0,0:0|0:0,0:0:0:0:
120,352,182443,2,0,P|60:340|36:288,1,110.000004196167,8|0,0:0|0:0,0:0:0:0:
36,224,182619,5,8,0:0:0:0:
80,152,182708,1,0,0:0:0:0:
148,100,182796,1,2,0:0:0:0:
236,80,182884,1,0,0:0:0:0:
318,105,182972,6,0,P|362:125|474:73,1,165.000006294251,8|2,0:0|0:0,0:0:0:0:
376,21,183237,1,0,0:0:0:0:
286,19,183325,2,0,P|254:42|234:111,1,82.5000031471254,8|0,0:0|0:0,0:0:0:0:
212,188,183502,2,0,P|200:252|224:292,1,82.5000031471254,2|0,0:0|0:0,0:0:0:0:
271,334,183678,6,0,L|89:298,1,165.000006294251,8|2,0:0|0:0,0:0:0:0:
27,210,183943,1,0,0:0:0:0:
101,154,184031,2,0,P|117:94|39:12,1,165.000006294251,8|2,0:0|0:0,0:0:0:0:
0,136,184296,1,0,0:0:0:0:
27,210,184384,6,0,P|68:240|123:232,1,82.5000031471254,8|0,0:0|0:0,0:0:0:0:
189,178,184560,2,0,P|241:178|281:198,1,82.5000031471254,2|0,0:0|0:0,0:0:0:0:
329,295,184737,6,0,P|361:222|439:213,1,165.000006294251,8|2,0:0|0:0,0:0:0:0:
419,306,185002,1,0,0:0:0:0:
329,295,185090,2,0,L|227:317,1,82.5000031471254,8|0,0:0|0:0,0:0:0:0:
154,347,185266,2,0,L|57:337,1,82.5000031471254,2|0,0:0|0:0,0:0:0:0:
2,265,185443,6,0,P|-17:189|21:106,1,165.000006294251,8|2,0:0|0:0,0:0:0:0:
103,116,185708,1,0,0:0:0:0:
118,29,185796,2,0,P|200:1|295:55,1,165.000006294251,8|2,0:0|0:0,0:0:0:0:
293,112,186060,1,0,0:0:0:0:
373,107,186149,6,0,P|401:183|365:279,1,165.000006294251,8|2,0:0|0:0,0:0:0:0:
284,345,186413,1,0,0:0:0:0:
368,353,186502,2,0,P|428:345|468:305,1,82.5000031471254,8|0,0:0|0:0,0:0:0:0:
500,235,186678,2,0,P|508:181|482:130,1,82.5000031471254,2|0,0:0|0:0,0:0:0:0:
373,107,186855,6,0,L|190:134,1,165.000006294251,8|2,0:0|0:0,0:0:0:0:
103,116,187119,1,0,0:0:0:0:
15,66,187207,2,0,P|-1:103|7:143,3,82.5000031471254,10|0|10|0,0:0|0:0|0:0|0:0,0:0:0:0:
79,188,187560,5,8,0:0:0:0:
134,260,187649,1,0,0:0:0:0:
159,339,187737,1,2,0:0:0:0:
238,310,187825,1,0,0:0:0:0:
328,317,187913,2,0,P|372:326|428:308,3,82.5000031471254,10|0|10|0,0:0|0:0|0:0|0:0,0:0:0:0:
266,85,188266,6,0,B|222:85|222:85|182:101,1,82.5000031471254,8|0,0:0|0:0,0:0:0:0:
0,246,188443,1,2,0:0:0:0:
0,246,188619,2,0,B|42:244|42:244|93:261,1,82.5000031471254,8|0,0:0|0:0,0:0:0:0:
328,317,188796,1,2,0:0:0:0:
328,317,188972,2,0,P|316:253|292:225,1,82.5000031471254,8|0,0:0|0:0,0:0:0:0:
104,110,189149,1,2,0:0:0:0:
104,110,189325,2,0,L|220:94,1,82.5000031471254,8|0,0:0|0:0,0:0:0:0:
421,43,189502,1,2,0:0:0:0:
421,43,189678,6,0,P|471:102|419:159,1,165.000006294251,8|2,0:0|0:0,0:0:0:0:
95,345,190031,6,0,P|44:285|97:229,1,165.000006294251,8|2,0:0|0:0,0:0:0:0:
421,41,190384,2,0,L|402:216,1,165.000006294251,8|2,0:0|0:0,0:0:0:0:
120,203,190737,2,0,L|96:25,1,165.000006294251,8|2,0:0|0:0,0:0:0:0:
352,187,191090,6,0,P|368:226|364:280,1,82.5000031471254,8|0,0:0|0:0,0:0:0:0:
192,340,191266,2,0,P|144:336|108:300,1,82.5000031471254,2|0,0:0|0:0,0:0:0:0:
60,248,191443,5,8,0:0:0:0:
56,160,191531,1,0,0:0:0:0:
80,80,191619,1,2,0:0:0:0:
156,36,191707,1,0,0:0:0:0:
244,48,191796,6,0,P|264:96|264:132,1,82.5000031471254,10|0,0:0|0:0,0:0:0:0:
436,192,191972,6,0,P|388:211|351:211,1,82.5000031471254,2|0,0:0|0:0,0:0:0:0:
284,376,192149,6,0,P|264:328|264:291,1,82.5000031471254,10|0,0:0|0:0,0:0:0:0:
96,236,192325,6,0,P|143:216|180:216,1,82.5000031471254,2|0,0:0|0:0,0:0:0:0:
264,125,192502,6,0,L|280:185,2,55.0000020980836,10|0|0,0:0|0:0|0:0,0:0:0:0:
376,70,192678,6,0,L|396:6,2,55.0000020980836,2|0|0,0:0|0:0|0:0,0:0:0:0:
436,192,192855,6,0,L|380:204,2,55.0000020980836,10|0|0,0:0|0:0|0:0,0:0:0:0:
277,278,193031,6,0,L|353:286,2,55.0000020980836,2|0|0,0:0|0:0|0:0,0:0:0:0:
173,215,193207,5,10,0:0:0:0:
471,106,193384,5,2,0:0:0:0:
21,30,193560,5,14,0:0:0:0:
