osu file format v14

[General]
AudioFilename: audio.mp3
AudioLeadIn: 0
PreviewTime: 116722
Countdown: 0
SampleSet: Normal
StackLeniency: 0.2
Mode: 0
LetterboxInBreaks: 0
WidescreenStoryboard: 0

[Editor]
DistanceSpacing: 0.4
BeatDivisor: 8
GridSize: 4
TimelineZoom: 1.8

[Metadata]
Title:Shukusai no Elementalia
TitleUnicode:祝祭のエルメンタルア
Artist:Ni-Sokkususu
ArtistUnicode:にーそっくすす
Creator:Jounzan
Version:Webabu
Source:精霊使いの剣舞
Tags:kneesocks claire rouge seirei tsukai no blade dance of the elementalers
BeatmapID:1393271
BeatmapSetID:657779

[Difficulty]
HPDrainRate:6
CircleSize:4
OverallDifficulty:9
ApproachRate:9.6
SliderMultiplier:2
SliderTickRate:1

[Events]
//Background and Video events
0,0,"bgwr.jpg",0,0
//Break Periods
//Storyboard Layer 0 (Background)
//Storyboard Layer 1 (Fail)
//Storyboard Layer 2 (Pass)
//Storyboard Layer 3 (Foreground)
//Storyboard Sound Samples

[TimingPoints]
571,400,4,1,0,60,1,0
14971,-66.6666666666667,4,1,0,60,0,0
16571,-50,4,1,0,60,0,0
18171,-66.6666666666667,4,1,0,60,0,0
19771,-40,4,1,0,60,0,0
20971,-45.2488687782805,4,1,0,60,0,0
21371,-66.6666666666667,4,1,0,60,0,0
22971,-50,4,1,0,60,0,0
24571,-66.6666666666667,4,1,0,60,0,0
26171,-40,4,1,0,60,0,0
27771,-100,4,1,0,60,0,0
38971,-50,4,1,0,60,0,0
40571,-76.9230769230769,4,1,0,60,0,0
46171,-50,4,1,0,60,0,0
47171,-76.9230769230769,4,1,0,60,0,0
50171,-66.6666666666667,4,1,0,60,0,0
51771,-50,4,1,0,60,0,0
51971,-100,4,1,0,60,0,0
52171,-50,4,1,0,60,0,0
52371,-100,4,1,0,60,0,0
52571,-50,4,1,0,60,0,0
53371,-100,4,1,0,60,0,0
62971,-1000,4,1,0,60,0,0
64571,-100,4,1,0,60,0,0
65371,-40,4,1,0,60,0,0
66171,-40,4,1,0,60,0,1
78971,-66.6666666666667,4,1,0,60,0,0
80571,-50,4,1,0,60,0,0
82171,-66.6666666666667,4,1,0,60,0,0
83771,-40,4,1,0,60,0,0
85371,-66.6666666666667,4,1,0,60,0,0
86971,-50,4,1,0,60,0,0
88571,-66.6666666666667,4,1,0,60,0,0
90171,-40,4,1,0,60,0,0
91771,-100,4,1,0,60,0,0
101371,-50,4,1,0,60,0,0
104371,-100,4,1,0,60,0,0
114171,-1000,4,1,0,60,0,0
116571,-40,4,1,0,60,0,0
117371,-40,4,1,0,60,0,1
130171,-100,4,1,0,60,0,0
134971,-50,4,1,0,60,0,0
136571,-100,4,1,0,60,0,0
141371,-50,4,1,0,60,0,0
147971,-45.4545454545455,4,1,0,60,0,0
148171,-41.6666666666667,4,1,0,60,0,0
148371,-38.4615384615385,4,1,0,60,0,0
148571,-35.7142857142857,4,1,0,60,0,0
148771,-50,4,1,0,60,0,0
149371,-41.6666666666667,4,1,0,60,0,0
157174,352.941176470588,4,1,0,60,1,0
159997,-40,4,1,0,60,0,1
170585,-40,4,1,0,60,0,0
171291,-33.3333333333333,4,1,0,60,0,1
176232,-33.3333333333333,4,1,0,60,0,0
176938,-28.5714285714286,4,1,0,60,0,1
181879,-28.5714285714286,4,1,0,60,0,0
182585,-28.5714285714286,4,1,0,60,0,1
191762,-1000,4,1,0,60,0,1
191850,-10,4,1,0,60,0,1
192468,-28.5714285714286,4,1,0,60,0,1
193526,-28.5714285714286,4,1,0,60,0,0

[Colours]
Combo1 : 255,0,255
Combo2 : 255,0,128

[HitObjects]
7,207,14971,6,0,L|82:196,1,75.0000028610231
79,184,15171,2,0,L|6:197,1,75.0000028610231
170,190,15371,5,0,0:0:0:0:
251,231,15471,1,0,0:0:0:0:
322,195,15571,1,0,0:0:0:0:
391,219,15671,1,0,0:0:0:0:
492,140,15771,6,0,L|417:129,1,75.0000028610231
420,117,15971,2,0,L|493:130,1,75.0000028610231
347,105,16171,5,0,0:0:0:0:
317,110,16271,1,0,0:0:0:0:
287,116,16371,1,0,0:0:0:0:
257,121,16471,1,0,0:0:0:0:
21,153,16571,6,0,B|127:141|110:207|224:185,1,200
212,321,16871,1,0,0:0:0:0:
223,262,16971,1,0,0:0:0:0:
199,309,17071,1,0,0:0:0:0:
201,266,17171,2,0,P|214:319|206:368,1,100
460,204,17371,6,0,L|356:225,1,100
286,222,17571,1,0,0:0:0:0:
361,223,17671,2,0,L|465:244,1,100
223,181,17871,5,0,0:0:0:0:
147,222,17971,1,0,0:0:0:0:
86,190,18071,1,0,0:0:0:0:
83,288,18171,6,0,L|93:383,1,75.0000028610231
108,362,18371,2,0,L|98:267,1,75.0000028610231
149,142,18571,5,0,0:0:0:0:
156,108,18671,1,0,0:0:0:0:
146,80,18771,1,0,0:0:0:0:
151,42,18871,1,0,0:0:0:0:
219,207,18971,6,0,L|229:302,1,75.0000028610231
244,281,19171,2,0,L|234:186,1,75.0000028610231
330,21,19371,5,0,0:0:0:0:
340,86,19471,1,0,0:0:0:0:
323,164,19571,1,0,0:0:0:0:
335,242,19671,1,0,0:0:0:0:
481,183,19771,6,0,P|521:92|384:44,1,250
175,176,20071,2,0,P|141:67|246:23,1,250
336,271,20371,1,0,0:0:0:0:
279,326,20471,1,0,0:0:0:0:
204,323,20571,1,0,0:0:0:0:
137,290,20671,1,0,0:0:0:0:
66,281,20771,1,0,0:0:0:0:
7,320,20871,1,0,0:0:0:0:
7,320,20971,6,0,L|338:270,1,331.500012772179
462,100,21371,6,0,L|365:74,1,75.0000028610231
386,94,21571,2,0,L|483:120,1,75.0000028610231
315,68,21771,5,0,0:0:0:0:
259,94,21871,1,0,0:0:0:0:
222,160,21971,1,0,0:0:0:0:
231,238,22071,1,0,0:0:0:0:
319,343,22171,6,0,L|391:362,1,75.0000028610231
394,348,22372,2,0,L|321:328,1,75.0000028610231
466,321,22571,5,0,0:0:0:0:
466,276,22671,1,0,0:0:0:0:
443,236,22771,1,0,0:0:0:0:
398,228,22871,1,0,0:0:0:0:
255,118,22971,6,0,B|139:104|176:178|55:177,1,200
218,218,23271,1,0,0:0:0:0:
263,238,23371,1,0,0:0:0:0:
230,204,23471,1,0,0:0:0:0:
245,251,23571,2,0,P|250:289|238:363,1,100
413,190,23771,6,0,L|296:175,1,100
496,181,23971,1,0,0:0:0:0:
413,190,24071,2,0,L|313:202,1,100
183,161,24271,5,0,0:0:0:0:
113,189,24371,1,0,0:0:0:0:
38,168,24471,1,0,0:0:0:0:
176,244,24571,6,0,L|186:339,1,75.0000028610231
201,318,24771,2,0,L|191:223,1,75.0000028610231
265,85,24971,5,0,0:0:0:0:
300,94,25071,1,0,0:0:0:0:
312,135,25171,1,0,0:0:0:0:
287,168,25271,1,0,0:0:0:0:
367,276,25371,6,0,L|357:371,1,75.0000028610231
342,350,25571,2,0,L|352:255,1,75.0000028610231
247,174,25771,5,0,0:0:0:0:
193,126,25871,1,0,0:0:0:0:
206,49,25971,1,0,0:0:0:0:
281,27,26071,1,0,0:0:0:0:
510,83,26171,6,0,P|467:177|316:172,1,250
0,130,26471,2,0,P|43:224|194:219,1,250
225,31,26771,5,0,0:0:0:0:
178,88,26871,1,0,0:0:0:0:
205,163,26971,1,0,0:0:0:0:
266,215,27071,1,0,0:0:0:0:
292,289,27171,1,0,0:0:0:0:
243,348,27271,1,0,0:0:0:0:
243,348,27371,1,0,0:0:0:0:
247,323,27771,6,0,L|362:342,1,100
345,339,28071,1,0,0:0:0:0:
351,346,28171,2,0,L|461:338,1,100
286,207,28571,1,0,0:0:0:0:
323,141,28771,2,0,B|423:133|406:197|518:189,1,200
485,201,29271,1,0,0:0:0:0:
473,228,29371,6,0,P|469:277|475:342,1,100
472,327,29671,1,0,0:0:0:0:
479,335,29771,2,0,L|360:346,1,100
261,262,30171,1,0,0:0:0:0:
196,305,30371,1,0,0:0:0:0:
77,260,30571,1,0,0:0:0:0:
12,303,30771,1,0,0:0:0:0:
168,213,30971,6,0,P|170:161|158:85,1,100
164,113,31271,1,0,0:0:0:0:
172,118,31371,2,0,L|44:131,1,100
260,52,31771,1,0,0:0:0:0:
328,14,31971,2,0,P|403:51|421:179,1,200
459,151,32471,1,0,0:0:0:0:
488,163,32571,6,0,P|497:218|487:291,1,100
493,261,32871,1,0,0:0:0:0:
502,269,32971,2,0,L|395:281,1,100
199,207,33371,1,0,0:0:0:0:
295,362,33571,1,0,0:0:0:0:
320,168,33771,1,0,0:0:0:0:
274,226,33971,1,0,0:0:0:0:
40,117,34171,6,0,L|173:124,1,100
139,122,34471,1,0,0:0:0:0:
147,129,34571,2,0,P|152:194|149:257,1,100
257,80,34971,1,0,0:0:0:0:
334,55,35171,2,0,P|333:123|345:284,1,200
362,227,35671,1,0,0:0:0:0:
394,227,35771,6,0,P|396:281|394:350,1,100
395,326,36071,1,0,0:0:0:0:
403,334,36171,2,0,L|286:341,1,100
240,255,36571,1,0,0:0:0:0:
283,154,36771,1,0,0:0:0:0:
187,167,36971,1,0,0:0:0:0:
342,240,37171,1,0,0:0:0:0:
305,57,37371,6,0,L|183:32,1,100
207,36,37671,1,0,0:0:0:0:
211,44,37771,2,0,L|91:67,1,100
221,181,38171,1,0,0:0:0:0:
159,223,38371,2,0,P|64:227|37:341,1,200
57,341,38871,1,0,0:0:0:0:
94,332,38971,6,0,L|363:302,1,200
328,223,39271,1,0,0:0:0:0:
285,159,39371,2,0,L|142:5,1,200
79,86,39671,1,0,0:0:0:0:
46,155,39771,2,0,B|26:203|26:203|31:264,1,100
204,218,39971,2,0,B|186:172|186:172|137:133,1,100
99,304,40171,2,0,B|264:275|198:397|393:366,1,300
431,184,40571,5,0,0:0:0:0:
352,208,40771,1,0,0:0:0:0:
352,208,40871,1,0,0:0:0:0:
352,208,40971,2,0,P|343:149|351:70,1,129.999994049073
221,30,41371,1,0,0:0:0:0:
154,62,41571,2,0,L|10:77,1,129.999994049073
127,208,41971,1,0,0:0:0:0:
98,201,42071,1,0,0:0:0:0:
67,193,42171,6,0,P|57:266|76:327,1,129.999994049073
72,319,42471,1,0,0:0:0:0:
79,327,42571,2,0,L|217:303,1,129.999994049073
357,219,42971,1,0,0:0:0:0:
193,124,43171,1,0,0:0:0:0:
240,219,43371,1,0,0:0:0:0:
302,115,43571,1,0,0:0:0:0:
89,10,43771,6,0,P|79:67|111:159,1,129.999994049073
66,159,44071,1,0,0:0:0:0:
71,200,44171,2,0,L|87:344,1,129.999994049073
207,165,44571,1,0,0:0:0:0:
265,219,44771,2,0,B|389:195|367:308|518:279,1,259.999988098145
483,258,45271,1,0,0:0:0:0:
486,227,45371,6,0,P|478:154|494:86,1,129.999994049073
489,99,45671,1,0,0:0:0:0:
496,105,45771,2,0,L|329:119,1,129.999994049073
234,29,46171,6,0,B|226:80|226:80|237:140,1,100
285,182,46371,2,0,B|293:233|293:233|284:280,1,100
227,326,46571,1,0,0:0:0:0:
141,285,46671,1,0,0:0:0:0:
57,338,46771,1,0,0:0:0:0:
47,311,46871,1,0,0:0:0:0:
32,279,46971,6,0,L|234:327,1,200
259,308,47271,1,0,0:0:0:0:
297,313,47371,6,0,P|311:247|283:163,1,129.999994049073
119,24,47771,1,0,0:0:0:0:
41,30,47971,2,0,P|3:116|40:302,1,259.999988098145
46,261,48471,1,0,0:0:0:0:
73,276,48571,6,0,L|216:298,1,129.999994049073
201,295,48871,1,0,0:0:0:0:
206,300,48971,2,0,L|334:280,1,129.999994049073
328,119,49371,1,0,0:0:0:0:
425,141,49571,1,0,0:0:0:0:
264,186,49771,1,0,0:0:0:0:
299,32,49971,1,0,0:0:0:0:
330,39,50071,1,0,0:0:0:0:
364,20,50171,6,0,P|453:53|471:184,1,225.000008583069
499,200,50571,1,0,0:0:0:0:
297,154,50771,1,0,0:0:0:0:
126,188,50971,2,0,P|37:221|19:352,1,225.000008583069
48,357,51371,1,0,0:0:0:0:
48,357,51571,1,0,0:0:0:0:
242,355,51771,6,0,L|232:227,1,100
283,247,51971,6,0,L|210:259,1,50
233,255,52171,6,0,L|243:127,1,100
192,147,52371,6,0,L|265:159,1,50
318,37,52571,6,0,B|334:84|334:84|325:143,1,100
102,194,52771,2,0,B|94:144|94:144|110:97,1,100
353,248,52971,2,0,B|360:297|360:297|344:344,1,100
361,350,53171,2,0,B|377:303|377:303|369:253,1,100
279,117,53371,5,0,0:0:0:0:
244,117,53471,1,0,0:0:0:0:
217,139,53571,1,0,0:0:0:0:
212,173,53671,1,0,0:0:0:0:
206,207,53771,1,0,0:0:0:0:
178,228,53871,1,0,0:0:0:0:
143,230,53971,5,0,0:0:0:0:
179,204,54071,1,0,0:0:0:0:
223,210,54171,1,0,0:0:0:0:
250,245,54271,1,0,0:0:0:0:
247,289,54371,1,0,0:0:0:0:
216,322,54471,1,0,0:0:0:0:
171,329,54571,5,0,0:0:0:0:
109,295,54671,1,0,0:0:0:0:
100,225,54771,1,0,0:0:0:0:
144,170,54871,1,0,0:0:0:0:
197,34,54971,6,0,L|230:161,1,100
292,101,55371,1,0,0:0:0:0:
118,266,55571,2,0,L|143:169,1,100
72,169,55971,1,0,0:0:0:0:
326,260,56171,5,0,0:0:0:0:
252,248,56271,1,0,0:0:0:0:
200,302,56371,1,0,0:0:0:0:
229,371,56471,1,0,0:0:0:0:
408,290,56571,6,0,L|392:170,1,100
408,290,56971,1,0,0:0:0:0:
342,33,57171,2,0,L|326:153,1,100
342,33,57571,1,0,0:0:0:0:
500,196,57771,5,0,0:0:0:0:
262,228,57971,1,0,0:0:0:0:
469,273,58171,2,0,P|472:206|320:135,1,250
288,144,58771,1,0,0:0:0:0:
354,314,58971,2,0,P|351:264|362:190,1,100
238,340,59371,1,0,0:0:0:0:
228,264,59571,1,0,0:0:0:0:
28,209,59771,5,0,0:0:0:0:
69,225,59871,1,0,0:0:0:0:
113,217,59971,1,0,0:0:0:0:
137,179,60071,1,0,0:0:0:0:
204,111,60171,5,0,0:0:0:0:
249,58,60271,1,0,0:0:0:0:
318,56,60371,1,0,0:0:0:0:
374,97,60471,1,0,0:0:0:0:
487,246,60571,5,0,0:0:0:0:
427,298,60671,1,0,0:0:0:0:
360,259,60771,1,0,0:0:0:0:
373,183,60871,1,0,0:0:0:0:
454,171,60971,5,0,0:0:0:0:
416,247,61071,5,0,0:0:0:0:
320,292,61171,5,0,0:0:0:0:
199,291,61271,5,0,0:0:0:0:
7,223,61371,6,0,L|105:205,1,100
29,307,61771,1,0,0:0:0:0:
106,205,61971,2,0,B|289:225,1,150
309,172,62371,1,0,0:0:0:0:
387,185,62471,1,0,0:0:0:0:
407,261,62571,1,0,0:0:0:0:
354,315,62671,1,0,0:0:0:0:
280,292,62771,5,0,0:0:0:0:
257,303,62871,1,0,0:0:0:0:
256,331,62971,2,0,L|331:342,1,75
399,293,64571,5,0,0:0:0:0:
398,271,64671,1,0,0:0:0:0:
357,185,64771,5,0,0:0:0:0:
358,207,64871,1,0,0:0:0:0:
429,115,64971,5,0,0:0:0:0:
371,101,65071,1,0,0:0:0:0:
419,132,65171,1,0,0:0:0:0:
384,88,65271,1,0,0:0:0:0:
497,12,65371,6,0,L|492:75,1,62.5
492,74,65771,5,0,0:0:0:0:
492,74,66171,6,0,P|432:67|363:89,1,125
370,263,66371,2,0,P|429:280|491:273,1,125
331,173,66571,1,0,0:0:0:0:
258,209,66671,1,0,0:0:0:0:
172,172,66771,1,0,0:0:0:0:
61,192,66871,1,0,0:0:0:0:
133,194,66971,6,0,L|302:214,1,125
455,158,67171,2,0,L|286:178,1,125
219,56,67371,6,0,P|302:66|340:115,1,125
329,263,67571,2,0,P|280:300|218:299,1,125
15,111,67771,6,0,B|140:98|101:200|266:176,1,250
429,153,68071,1,0,0:0:0:0:
497,110,68171,2,0,P|447:74|386:82,1,125
411,244,68371,2,0,P|471:237|512:191,1,125
330,167,68571,2,0,L|341:320,1,125
239,357,68771,5,0,0:0:0:0:
178,271,68871,1,0,0:0:0:0:
253,170,68971,1,0,0:0:0:0:
234,22,69071,5,0,0:0:0:0:
255,60,69171,1,0,0:0:0:0:
240,93,69271,1,0,0:0:0:0:
240,93,69371,6,0,P|378:82|444:185,1,250
512,286,69671,1,0,0:0:0:0:
456,341,69771,2,0,L|332:350,1,125
227,280,69971,1,0,0:0:0:0:
156,317,70071,1,0,0:0:0:0:
39,246,70171,2,0,P|23:189|40:110,1,125
239,33,70371,2,0,P|255:92|244:154,1,125
174,120,70571,1,0,0:0:0:0:
129,135,70671,1,0,0:0:0:0:
107,201,70771,1,0,0:0:0:0:
147,270,70871,1,0,0:0:0:0:
250,349,70971,6,0,L|406:328,1,125
127,333,71171,2,0,L|250:349,1,125
148,209,71371,6,0,L|-8:188,1,125
473,192,71571,2,0,L|349:208,1,125
21,62,71771,5,0,0:0:0:0:
254,87,72071,5,0,0:0:0:0:
491,62,72371,5,0,0:0:0:0:
480,157,72571,6,0,B|348:133|380:251|218:223,1,250
152,155,72871,1,0,0:0:0:0:
93,104,72971,2,0,P|77:155|99:236,1,125
251,346,73171,2,0,P|265:285|249:226,1,125
31,315,73371,2,0,L|173:308,1,125
372,88,73571,5,0,0:0:0:0:
298,65,73671,1,0,0:0:0:0:
229,99,73771,1,0,0:0:0:0:
154,90,73871,1,0,0:0:0:0:
154,90,73971,2,0,P|138:147|160:215,1,125
386,163,74171,6,0,L|249:189,1,125
430,366,74371,2,0,L|468:232,1,125
230,264,74571,1,0,0:0:0:0:
255,346,74671,1,0,0:0:0:0:
344,355,74771,1,0,0:0:0:0:
272,325,74871,1,0,0:0:0:0:
175,358,74971,1,0,0:0:0:0:
128,338,75071,1,0,0:0:0:0:
162,374,75171,1,0,0:0:0:0:
146,324,75271,1,0,0:0:0:0:
176,335,75371,1,0,0:0:0:0:
129,362,75471,1,0,0:0:0:0:
153,345,75571,2,0,P|140:271|164:197,1,125
50,58,75771,6,0,P|104:129|274:109,1,250
371,193,76071,1,0,0:0:0:0:
461,240,76171,2,0,P|401:227|299:265,1,125
214,334,76371,2,0,P|153:346|92:333,1,125
87,349,76571,2,0,P|147:362|208:349,1,125
341,253,76771,2,0,P|401:240|462:253,1,125
267,281,76971,5,0,0:0:0:0:
280,202,77071,1,0,0:0:0:0:
241,97,77171,1,0,0:0:0:0:
229,20,77271,1,0,0:0:0:0:
143,140,77371,6,0,L|-10:164,1,125
377,149,77571,2,0,L|530:173,1,125
55,252,77771,6,0,L|208:276,1,125
462,253,77971,2,0,L|309:277,1,125
262,372,78171,5,0,0:0:0:0:
237,195,78471,5,0,0:0:0:0:
247,26,78771,5,0,0:0:0:0:
456,74,78971,6,0,L|451:178,1,75.0000028610231
436,147,79171,2,0,L|439:72,1,75.0000028610231
436,224,79371,5,0,0:0:0:0:
391,218,79471,1,0,0:0:0:0:
350,237,79571,1,0,0:0:0:0:
350,281,79671,1,0,0:0:0:0:
260,295,79771,6,0,L|265:399,1,75.0000028610231
280,368,79971,2,0,L|276:293,1,75.0000028610231
274,187,80171,5,0,0:0:0:0:
221,133,80271,1,0,0:0:0:0:
146,123,80371,1,0,0:0:0:0:
87,169,80471,1,0,0:0:0:0:
0,252,80571,6,0,B|104:230|69:323|182:303,1,200
281,266,80871,2,0,B|385:244|350:337|463:317,1,200
463,317,81271,5,0,0:0:0:0:
483,243,81371,2,0,P|485:196|487:125,1,100
252,170,81571,2,0,P|250:123|248:52,1,100
16,154,81771,1,0,0:0:0:0:
11,98,81871,1,0,0:0:0:0:
29,149,81971,1,0,0:0:0:0:
22,99,82071,1,0,0:0:0:0:
99,117,82171,6,0,L|182:110,1,75.0000028610231
174,128,82371,2,0,L|99:134,1,75.0000028610231
85,210,82571,5,0,0:0:0:0:
163,219,82671,1,0,0:0:0:0:
213,282,82771,1,0,0:0:0:0:
212,358,82871,1,0,0:0:0:0:
481,229,82971,6,0,L|398:222,1,75.0000028610231
406,240,83171,2,0,L|480:246,1,75.0000028610231
375,150,83371,5,0,0:0:0:0:
323,160,83471,1,0,0:0:0:0:
294,205,83571,1,0,0:0:0:0:
298,257,83671,1,0,0:0:0:0:
493,150,83771,6,0,P|409:34|292:55,1,250
181,39,84071,2,0,P|61:44|2:148,1,250
34,218,84371,1,0,0:0:0:0:
64,203,84471,1,0,0:0:0:0:
88,218,84571,6,0,B|150:205|150:205|234:239,1,125
281,363,84771,2,0,B|338:339|338:339|400:352,1,125
512,261,84971,1,0,0:0:0:0:
512,261,85171,1,0,0:0:0:0:
255,97,85371,6,0,L|263:8,1,75.0000028610231
277,24,85571,2,0,L|269:113,1,75.0000028610231
217,183,85771,5,0,0:0:0:0:
167,220,85871,1,0,0:0:0:0:
99,240,85971,1,0,0:0:0:0:
21,229,86071,1,0,0:0:0:0:
139,132,86171,6,0,L|131:43,1,75.0000028610231
117,59,86371,2,0,L|125:148,1,75.0000028610231
167,220,86571,5,0,0:0:0:0:
235,264,86671,1,0,0:0:0:0:
305,277,86771,1,0,0:0:0:0:
356,267,86871,1,0,0:0:0:0:
511,143,86971,6,0,B|385:116|432:217|266:182,1,200
305,96,87271,1,0,0:0:0:0:
289,41,87371,1,0,0:0:0:0:
318,64,87471,1,0,0:0:0:0:
276,74,87571,2,0,P|221:86|161:74,1,100
65,147,87771,6,0,L|85:252,1,100
87,320,87971,1,0,0:0:0:0:
83,245,88071,2,0,L|101:146,1,100
169,247,88271,5,0,0:0:0:0:
245,298,88371,1,0,0:0:0:0:
305,258,88471,1,0,0:0:0:0:
439,322,88571,6,0,L|312:334,1,75.0000028610231
366,347,88771,2,0,L|493:335,1,75.0000028610231
491,223,88971,5,0,0:0:0:0:
414,192,89071,1,0,0:0:0:0:
344,226,89171,1,0,0:0:0:0:
275,206,89271,1,0,0:0:0:0:
86,178,89371,6,0,L|213:190,1,75.0000028610231
159,203,89571,2,0,L|32:191,1,75.0000028610231
44,74,89771,5,0,0:0:0:0:
113,53,89871,1,0,0:0:0:0:
182,95,89971,1,0,0:0:0:0:
261,79,90071,1,0,0:0:0:0:
370,36,90171,6,0,P|490:71|478:198,1,250
13,317,90471,2,0,P|22:200|135:173,1,250
404,180,90771,5,0,0:0:0:0:
337,148,90871,1,0,0:0:0:0:
271,192,90971,1,0,0:0:0:0:
235,264,91071,1,0,0:0:0:0:
169,307,91171,1,0,0:0:0:0:
100,274,91271,1,0,0:0:0:0:
100,274,91371,1,0,0:0:0:0:
80,305,91771,6,0,L|72:195,1,100
72,205,92071,1,0,0:0:0:0:
81,211,92171,2,0,L|85:108,1,100
164,276,92571,1,0,0:0:0:0:
191,202,92771,2,0,B|294:220|269:140|396:166,1,200
362,184,93271,1,0,0:0:0:0:
371,205,93371,6,0,P|379:262|370:335,1,100
376,304,93671,1,0,0:0:0:0:
384,311,93771,2,0,L|257:308,1,100
133,345,94171,1,0,0:0:0:0:
65,364,94371,1,0,0:0:0:0:
68,220,94571,1,0,0:0:0:0:
0,201,94771,1,0,0:0:0:0:
194,165,94971,6,0,P|199:116|191:25,1,100
197,65,95271,1,0,0:0:0:0:
205,72,95371,2,0,L|344:80,1,100
491,189,95771,1,0,0:0:0:0:
459,115,95971,2,0,P|461:136|459:257,1,100
464,336,96371,1,0,0:0:0:0:
464,336,97371,1,0,0:0:0:0:
380,321,97571,1,0,0:0:0:0:
281,357,97771,1,0,0:0:0:0:
249,341,97871,1,0,0:0:0:0:
214,339,97971,1,0,0:0:0:0:
179,344,98071,1,0,0:0:0:0:
179,344,98171,6,0,P|178:277|174:222,1,100
175,244,98471,1,0,0:0:0:0:
184,250,98571,2,0,L|312:243,1,100
175,134,98971,1,0,0:0:0:0:
246,106,99171,2,0,P|345:120|458:119,1,200
412,145,99671,1,0,0:0:0:0:
433,173,99771,6,0,P|364:177|320:187,1,100
512,61,100171,1,0,0:0:0:0:
415,291,100371,1,0,0:0:0:0:
389,84,100571,5,0,0:0:0:0:
512,219,100771,1,0,0:0:0:0:
339,178,100971,5,0,0:0:0:0:
447,159,101171,1,0,0:0:0:0:
211,34,101371,6,0,P|224:143|224:241,1,200
263,325,101671,1,0,0:0:0:0:
295,350,101771,2,0,P|294:291|297:220,1,100
151,247,101971,2,0,P|152:296|151:346,1,100
224,233,102171,2,0,P|225:133|237:33,1,200
114,44,102471,1,0,0:0:0:0:
39,19,102571,2,0,P|43:74|43:134,1,100
32,242,102771,5,0,0:0:0:0:
32,242,103171,1,0,0:0:0:0:
107,214,103371,1,0,0:0:0:0:
177,251,103571,1,0,0:0:0:0:
253,274,103771,1,0,0:0:0:0:
326,241,103971,1,0,0:0:0:0:
401,214,104171,1,0,0:0:0:0:
475,242,104371,1,0,0:0:0:0:
494,69,104571,5,0,0:0:0:0:
472,89,104671,1,0,0:0:0:0:
443,98,104771,1,0,0:0:0:0:
413,97,104871,1,0,0:0:0:0:
384,88,104971,1,0,0:0:0:0:
359,70,105071,1,0,0:0:0:0:
331,58,105171,5,0,0:0:0:0:
291,36,105271,1,0,0:0:0:0:
246,31,105371,1,0,0:0:0:0:
201,37,105471,1,0,0:0:0:0:
163,61,105571,1,0,0:0:0:0:
139,99,105671,1,0,0:0:0:0:
137,143,105771,5,0,0:0:0:0:
167,211,105871,1,0,0:0:0:0:
234,243,105971,1,0,0:0:0:0:
307,225,106071,1,0,0:0:0:0:
383,233,106171,6,0,P|388:291|384:348,1,100
427,178,106571,1,0,0:0:0:0:
255,134,106771,2,0,P|253:84|257:34,1,100
184,158,107171,1,0,0:0:0:0:
21,232,107371,5,0,0:0:0:0:
94,215,107471,1,0,0:0:0:0:
165,237,107571,1,0,0:0:0:0:
211,295,107671,1,0,0:0:0:0:
281,324,107771,6,0,L|392:303,1,100
263,221,108171,1,0,0:0:0:0:
493,188,108371,2,0,L|382:167,1,100
490,75,108771,1,0,0:0:0:0:
263,23,108971,1,0,0:0:0:0:
258,62,109071,1,0,0:0:0:0:
270,99,109171,1,0,0:0:0:0:
264,138,109271,1,0,0:0:0:0:
264,138,109371,6,0,B|139:112|167:227|22:200,1,250
62,227,109971,1,0,0:0:0:0:
188,296,110171,2,0,P|121:289|78:335,1,100
313,346,110571,2,0,P|380:339|423:385,1,100
288,244,110971,5,0,0:0:0:0:
264,211,111071,1,0,0:0:0:0:
273,172,111171,1,0,0:0:0:0:
305,149,111271,1,0,0:0:0:0:
364,96,111371,5,0,0:0:0:0:
432,127,111471,1,0,0:0:0:0:
452,199,111571,1,0,0:0:0:0:
411,261,111671,1,0,0:0:0:0:
193,264,111771,5,0,0:0:0:0:
155,193,111871,1,0,0:0:0:0:
181,116,111971,1,0,0:0:0:0:
250,76,112071,1,0,0:0:0:0:
310,223,112171,5,0,0:0:0:0:
278,301,112271,5,0,0:0:0:0:
186,352,112371,5,0,0:0:0:0:
70,341,112471,5,0,0:0:0:0:
56,187,112571,6,0,L|172:194,1,100
248,202,112971,1,0,0:0:0:0:
200,180,113071,1,0,0:0:0:0:
155,192,113171,2,0,P|59:232|79:331,1,200
282,160,113771,5,0,0:0:0:0:
360,167,113871,1,0,0:0:0:0:
404,228,113971,1,0,0:0:0:0:
403,302,114071,1,0,0:0:0:0:
348,355,114171,6,0,L|274:351,1,75
208,293,115771,5,0,0:0:0:0:
227,288,115871,1,0,0:0:0:0:
108,289,115971,5,0,0:0:0:0:
127,294,116071,1,0,0:0:0:0:
36,214,116171,5,0,0:0:0:0:
50,240,116271,1,0,0:0:0:0:
27,221,116371,1,0,0:0:0:0:
41,242,116471,1,0,0:0:0:0:
15,139,116571,6,0,L|28:51,1,62.5
24,77,116971,1,0,0:0:0:0:
24,77,117371,6,0,P|12:142|36:206,1,125
252,226,117571,2,0,P|270:166|257:106,1,125
140,144,117771,1,0,0:0:0:0:
114,213,117871,1,0,0:0:0:0:
167,267,117971,6,0,L|30:315,1,125
295,343,118171,2,0,L|432:391,1,125
481,284,118371,1,0,0:0:0:0:
407,301,118471,1,0,0:0:0:0:
351,239,118571,6,0,P|338:189|357:115,1,125
160,24,118771,2,0,P|176:83|163:144,1,125
482,28,118971,6,0,B|347:1|394:126|234:103,1,250
212,258,119271,1,0,0:0:0:0:
145,301,119371,2,0,P|85:310|34:353,1,125
35,149,119571,2,0,P|75:197|159:217,1,125
291,258,119771,2,0,L|440:235,1,125
494,48,119971,5,0,0:0:0:0:
398,151,120071,1,0,0:0:0:0:
262,151,120171,1,0,0:0:0:0:
32,255,120271,5,0,0:0:0:0:
89,293,120371,1,0,0:0:0:0:
159,272,120471,1,0,0:0:0:0:
244,344,120571,6,0,P|255:284|233:221,1,125
127,83,120771,1,0,0:0:0:0:
48,94,120871,1,0,0:0:0:0:
40,173,120971,2,0,P|86:196|177:188,1,125
284,33,121171,2,0,P|234:97|232:164,1,125
444,139,121371,2,0,P|430:78|388:33,1,125
281,235,121571,2,0,L|422:233,1,125
458,328,121771,5,0,0:0:0:0:
321,312,121871,1,0,0:0:0:0:
187,346,121971,1,0,0:0:0:0:
51,324,122071,1,0,0:0:0:0:
14,212,122171,6,0,L|164:199,1,125
263,212,122371,2,0,L|138:201,1,125
501,55,122571,6,0,L|351:42,1,125
158,47,122771,2,0,L|282:36,1,125
490,197,122971,5,0,0:0:0:0:
252,324,123271,5,0,0:0:0:0:
22,197,123571,5,0,0:0:0:0:
40,41,123771,6,0,P|100:131|243:124,1,250
274,67,124071,1,0,0:0:0:0:
245,223,124171,2,0,P|239:289|259:362,1,125
447,373,124371,2,0,P|460:312|453:250,1,125
245,223,124571,6,0,L|86:261,1,125
6,319,124771,2,0,L|165:357,1,125
28,188,124971,1,0,0:0:0:0:
102,180,125071,1,0,0:0:0:0:
169,147,125171,1,0,0:0:0:0:
192,75,125271,1,0,0:0:0:0:
192,75,125371,6,0,P|185:130|204:213,1,125
415,86,125571,2,0,P|367:45|310:21,1,125
332,207,125771,2,0,L|381:353,1,125
296,327,125971,1,0,0:0:0:0:
219,341,126071,1,0,0:0:0:0:
143,325,126171,1,0,0:0:0:0:
116,344,126271,1,0,0:0:0:0:
128,313,126371,1,0,0:0:0:0:
109,323,126471,1,0,0:0:0:0:
114,281,126571,1,0,0:0:0:0:
87,300,126671,1,0,0:0:0:0:
98,266,126771,1,0,0:0:0:0:
82,277,126871,1,0,0:0:0:0:
14,126,126971,6,0,B|164:78|102:242|268:198,1,250
203,96,127271,1,0,0:0:0:0:
285,36,127371,2,0,P|305:90|287:177,1,125
314,375,127571,2,0,P|294:321|312:234,1,125
501,212,127771,6,0,L|368:204,1,125
502,19,127971,2,0,L|377:26,1,125
446,118,128171,1,0,0:0:0:0:
350,98,128271,1,0,0:0:0:0:
261,125,128371,1,0,0:0:0:0:
170,106,128471,1,0,0:0:0:0:
97,43,128571,6,0,P|77:104|110:177,1,125
83,365,128771,2,0,P|100:306|80:248,1,125
65,46,128971,2,0,P|62:106|112:172,1,125
115,359,129171,2,0,P|116:297|80:247,1,125
19,196,129371,5,0,0:0:0:0:
259,213,129671,5,0,0:0:0:0:
493,196,129971,5,0,0:0:0:0:
404,61,130171,6,0,L|339:57,1,50
279,75,130371,1,0,0:0:0:0:
110,131,130571,2,0,L|175:127,1,50
235,145,130771,1,0,0:0:0:0:
339,222,130971,1,0,0:0:0:0:
294,215,131071,1,0,0:0:0:0:
250,225,131171,1,0,0:0:0:0:
206,215,131271,1,0,0:0:0:0:
206,215,131371,2,0,L|210:284,1,50
204,338,131571,1,0,0:0:0:0:
32,115,131771,5,0,0:0:0:0:
116,83,131971,1,0,0:0:0:0:
160,89,132071,1,0,0:0:0:0:
240,129,132271,1,0,0:0:0:0:
283,119,132371,1,0,0:0:0:0:
243,141,132471,1,0,0:0:0:0:
286,151,132571,2,0,P|290:197|289:235,1,50
312,215,132771,1,0,0:0:0:0:
323,241,132871,2,0,P|324:216|327:191,1,50
396,155,133071,1,0,0:0:0:0:
425,167,133171,1,0,0:0:0:0:
454,156,133271,1,0,0:0:0:0:
500,217,133371,6,0,L|493:281,1,50
491,340,133571,1,0,0:0:0:0:
12,217,133771,2,0,L|19:281,1,50
21,340,133971,1,0,0:0:0:0:
256,216,134171,1,0,0:0:0:0:
251,171,134271,1,0,0:0:0:0:
257,126,134371,1,0,0:0:0:0:
252,81,134471,1,0,0:0:0:0:
252,81,134571,2,0,L|323:86,1,50
379,89,134771,1,0,0:0:0:0:
507,305,134971,6,0,L|240:328,1,200
5,305,135271,2,0,L|272:328,1,200
247,227,135571,1,0,0:0:0:0:
227,196,135671,1,0,0:0:0:0:
249,172,135771,2,0,P|261:204|248:274,1,100
245,95,135971,2,0,P|233:46|247:0,1,100
301,127,136171,2,0,L|177:135,1,100
124,138,136371,1,0,0:0:0:0:
465,192,136571,5,0,0:0:0:0:
388,214,136771,1,0,0:0:0:0:
365,211,136837,1,0,0:0:0:0:
341,207,136904,1,0,0:0:0:0:
317,204,136971,1,0,0:0:0:0:
242,219,137171,1,0,0:0:0:0:
219,223,137237,1,0,0:0:0:0:
195,226,137304,1,0,0:0:0:0:
171,229,137371,1,0,0:0:0:0:
103,193,137571,1,0,0:0:0:0:
27,212,137771,1,0,0:0:0:0:
23,189,137837,1,0,0:0:0:0:
19,165,137904,1,0,0:0:0:0:
15,141,137971,1,0,0:0:0:0:
11,118,138037,1,0,0:0:0:0:
7,94,138104,1,0,0:0:0:0:
4,70,138171,5,0,0:0:0:0:
83,82,138371,1,0,0:0:0:0:
144,32,138571,1,0,0:0:0:0:
166,36,138637,1,0,0:0:0:0:
189,38,138704,1,0,0:0:0:0:
212,40,138771,1,0,0:0:0:0:
234,42,138837,1,0,0:0:0:0:
257,45,138904,1,0,0:0:0:0:
280,48,138971,1,0,0:0:0:0:
358,30,139171,1,0,0:0:0:0:
420,77,139371,1,0,0:0:0:0:
425,99,139437,1,0,0:0:0:0:
431,121,139504,1,0,0:0:0:0:
435,143,139571,1,0,0:0:0:0:
376,201,139771,5,0,0:0:0:0:
442,244,139971,1,0,0:0:0:0:
440,267,140037,1,0,0:0:0:0:
437,290,140104,1,0,0:0:0:0:
435,313,140171,1,0,0:0:0:0:
369,362,140371,1,0,0:0:0:0:
367,339,140438,1,0,0:0:0:0:
364,316,140505,1,0,0:0:0:0:
362,293,140571,1,0,0:0:0:0:
286,321,140771,1,0,0:0:0:0:
219,284,140971,1,0,0:0:0:0:
196,287,141037,1,0,0:0:0:0:
172,290,141104,1,0,0:0:0:0:
148,293,141171,1,0,0:0:0:0:
125,296,141237,1,0,0:0:0:0:
101,299,141304,1,0,0:0:0:0:
101,299,141371,6,0,P|58:233|81:119,1,200
403,38,141671,2,0,P|449:123|423:217,1,200
212,123,141971,5,0,0:0:0:0:
243,55,142071,1,0,0:0:0:0:
320,70,142171,1,0,0:0:0:0:
336,142,142271,1,0,0:0:0:0:
265,179,142371,1,0,0:0:0:0:
267,170,142471,1,0,0:0:0:0:
269,159,142571,2,0,P|280:203|268:273,1,100
274,256,142771,2,0,P|263:212|275:142,1,100
509,234,142971,6,0,B|323:184|408:372|222:337,1,300
245,311,143371,1,0,0:0:0:0:
280,317,143471,1,0,0:0:0:0:
285,354,143571,2,0,P|229:371|178:337,1,100
104,244,143771,1,0,0:0:0:0:
69,250,143871,1,0,0:0:0:0:
64,287,143971,2,0,P|120:304|171:270,1,100
200,229,144171,2,0,L|187:114,1,100
211,129,144371,2,0,L|199:228,1,100
62,130,144571,6,0,B|248:80|163:268|349:233,1,300
282,257,144971,2,0,P|271:302|290:359,1,100
298,224,145171,2,0,P|309:179|290:122,1,100
431,189,145371,2,0,B|245:139|330:327|144:292,1,300
188,266,145771,1,0,0:0:0:0:
161,279,145871,1,0,0:0:0:0:
131,281,145971,1,0,0:0:0:0:
101,273,146071,1,0,0:0:0:0:
5,359,146171,6,0,P|58:351|114:357,1,100
145,197,146371,1,0,0:0:0:0:
90,145,146471,1,0,0:0:0:0:
16,177,146571,2,0,P|69:169|125:175,1,100
200,87,146771,1,0,0:0:0:0:
255,35,146871,1,0,0:0:0:0:
329,67,146971,2,0,P|276:59|220:65,1,100
251,167,147171,1,0,0:0:0:0:
223,238,147271,1,0,0:0:0:0:
330,341,147371,6,0,P|277:349|221:343,1,100
230,336,147571,2,0,P|279:343|329:340,1,100
494,221,147771,6,0,L|391:259,1,100
479,179,147971,6,0,L|389:266,1,110.000003356934
427,138,148171,6,0,L|393:280,1,119.999996337891
358,132,148371,6,0,L|401:261,1,129.999994049073
292,164,148571,6,0,L|398:254,1,139.999995727539
356,295,148771,6,0,P|409:283|460:297,1,100
432,26,148971,5,0,0:0:0:0:
404,31,149037,1,0,0:0:0:0:
376,37,149104,1,0,0:0:0:0:
341,20,149171,1,0,0:0:0:0:
313,25,149237,1,0,0:0:0:0:
285,31,149304,1,0,0:0:0:0:
285,31,149371,6,0,P|273:99|301:168,1,119.999996337891
480,302,149571,2,0,P|492:234|464:165,1,119.999996337891
359,222,149771,1,0,0:0:0:0:
303,270,149871,1,0,0:0:0:0:
235,239,149971,1,0,0:0:0:0:
241,226,150071,1,0,0:0:0:0:
110,336,150171,6,0,L|247:322,1,119.999996337891
39,288,150371,1,0,0:0:0:0:
96,237,150471,1,0,0:0:0:0:
25,149,150571,2,0,L|144:161,1,119.999996337891
12,70,150771,1,0,0:0:0:0:
71,18,150871,1,0,0:0:0:0:
236,19,150971,6,0,P|227:73|241:149,1,119.999996337891
263,348,151171,2,0,P|272:288|262:229,1,119.999996337891
403,292,151371,1,0,0:0:0:0:
358,226,151471,1,0,0:0:0:0:
397,162,151571,2,0,P|454:183|519:177,1,119.999996337891
445,48,151771,2,0,B|306:18|360:171|180:130,1,239.999992675781
233,111,152071,1,0,0:0:0:0:
215,132,152171,1,0,0:0:0:0:
233,159,152271,1,0,0:0:0:0:
259,135,152371,2,0,P|254:178|264:264,1,119.999996337891
177,360,152571,5,0,0:0:0:0:
108,309,152671,1,0,0:0:0:0:
25,328,152771,2,0,P|29:272|22:188,1,119.999996337891
142,0,152971,2,0,P|140:124|151:259,1,239.999992675781
232,197,153271,1,0,0:0:0:0:
315,244,153371,2,0,P|323:124|321:4,1,239.999992675781
405,53,153671,1,0,0:0:0:0:
487,26,153771,2,0,P|486:82|497:151,1,119.999996337891
438,194,153971,1,0,0:0:0:0:
438,194,154071,1,0,0:0:0:0:
492,257,154171,5,0,0:0:0:0:
421,269,154271,1,0,0:0:0:0:
349,259,154371,1,0,0:0:0:0:
277,264,154471,1,0,0:0:0:0:
277,252,154571,5,0,0:0:0:0:
195,273,154671,1,0,0:0:0:0:
111,260,154771,1,0,0:0:0:0:
27,265,154871,1,0,0:0:0:0:
40,168,154971,5,0,0:0:0:0:
147,175,155071,5,0,0:0:0:0:
254,165,155171,5,0,0:0:0:0:
360,184,155271,5,0,0:0:0:0:
466,164,155371,5,0,0:0:0:0:
138,140,157174,5,0,0:0:0:0:
138,140,157526,1,0,0:0:0:0:
138,140,157703,1,0,0:0:0:0:
138,140,158056,1,0,0:0:0:0:
138,140,158409,1,0,0:0:0:0:
138,140,158585,5,0,0:0:0:0:
138,140,158938,1,0,0:0:0:0:
138,140,159291,1,0,0:0:0:0:
138,140,159468,1,0,0:0:0:0:
138,140,159644,1,0,0:0:0:0:
138,140,159997,6,0,P|121:197|150:273,1,125
239,204,160174,2,0,B|121:233|137:125|2:155,1,250
236,298,160438,5,0,0:0:0:0:
328,360,160526,2,0,P|345:303|315:226,1,125
206,5,160703,2,0,P|188:64|205:123,1,125
327,241,160879,6,0,L|451:249,1,125
205,123,161056,2,0,L|80:131,1,125
241,214,161232,5,0,0:0:0:0:
292,162,161321,1,0,0:0:0:0:
220,204,161409,2,0,P|247:344|347:336,1,250
439,164,161674,1,0,0:0:0:0:
494,241,161762,2,0,B|432:220|432:220|335:258,1,125
250,29,161938,2,0,B|309:43|309:43|370:22,1,125
234,109,162115,6,0,B|108:81|127:201|-33:162,1,250
221,220,162379,2,0,P|124:232|128:406,1,250
210,319,162644,2,0,L|358:345,1,125
477,245,162821,6,0,P|460:128|346:101,1,250
138,40,163085,1,0,0:0:0:0:
210,17,163174,2,0,P|242:72|222:149,1,125
19,245,163350,2,0,P|11:184|42:131,1,125
236,333,163526,2,0,L|77:353,1,125
265,202,163703,1,0,0:0:0:0:
331,249,163791,1,0,0:0:0:0:
390,200,163879,1,0,0:0:0:0:
461,237,163968,1,0,0:0:0:0:
501,216,164056,2,0,P|510:178|482:96,1,125
357,13,164232,6,0,L|220:102,1,125
357,371,164409,2,0,L|252:302,1,125
375,62,164585,2,0,L|225:84,1,125
375,322,164762,2,0,L|225:300,1,125
472,179,164938,5,0,0:0:0:0:
472,179,165203,5,0,0:0:0:0:
472,179,165468,5,0,0:0:0:0:
472,179,165644,6,0,B|341:174|384:286|215:268,1,250
202,98,165909,1,0,0:0:0:0:
202,98,165997,2,0,P|252:133|313:136,1,125
389,115,166174,2,0,P|435:74|453:15,1,125
291,97,166350,6,0,P|240:132|179:135,1,125
104,114,166527,2,0,P|57:73|39:14,1,125
0,227,166703,6,0,L|156:215,1,125
376,214,166879,2,0,L|500:223,1,125
265,312,167056,6,0,P|186:337|150:391,1,125
462,363,167232,2,0,P|417:320|357:307,1,125
105,172,167409,6,0,P|44:184|0:227,1,125
302,231,167585,2,0,P|257:188|197:175,1,125
244,31,167762,6,0,B|110:19|151:117|-25:98,1,250
316,67,168026,2,0,P|443:81|463:226,1,250
355,190,168291,1,0,0:0:0:0:
312,252,168379,1,0,0:0:0:0:
97,292,168468,6,0,P|142:182|260:175,1,250
246,300,168732,1,0,0:0:0:0:
313,336,168821,2,0,P|365:321|441:357,1,125
207,369,168997,2,0,P|155:354|79:390,1,125
246,300,169174,6,0,L|263:156,1,125
246,51,169350,2,0,L|260:175,1,125
133,129,169526,6,0,B|119:72|119:72|139:6,1,125
375,17,169703,2,0,B|394:80|394:80|380:137,1,125
489,241,169879,6,0,L|332:270,1,125
157,326,170056,2,0,L|280:349,1,125
0,107,170232,6,0,L|157:136,1,125
331,192,170409,2,0,L|208:214,1,125
442,79,170585,5,0,0:0:0:0:
442,79,170850,5,0,0:0:0:0:
442,79,171115,5,0,0:0:0:0:
442,79,171291,6,0,P|499:221|400:318,1,300.000011444092
288,184,171556,1,0,0:0:0:0:
263,114,171644,2,0,P|334:124|374:197,1,150.000005722046
91,77,171821,2,0,P|129:15|201:4,1,150.000005722046
173,225,171997,2,0,B|108:249|108:249|13:232,1,150.000005722046
240,272,172174,2,0,B|410:256|327:395|536:355,1,300.000011444092
427,244,172438,1,0,0:0:0:0:
488,191,172526,2,0,P|497:122|447:35,1,150.000005722046
238,30,172703,6,0,L|399:99,1,150.000005722046
100,89,172879,2,0,L|237:29,1,150.000005722046
167,353,173056,6,0,L|6:284,1,150.000005722046
305,294,173232,2,0,L|167:353,1,150.000005722046
316,176,173409,6,0,P|421:186|500:369,1,300.000011444092
218,125,173674,2,0,P|113:135|34:318,1,300.000011444092
300,40,173938,2,0,B|369:57|369:57|453:37,1,150.000005722046
415,338,174115,6,0,B|237:363|308:216|141:250,1,300.000011444092
351,233,174379,1,0,0:0:0:0:
437,252,174468,2,0,P|394:169|305:155,1,150.000005722046
177,40,174644,2,0,P|111:72|84:141,1,150.000005722046
13,321,174821,6,0,L|204:359,1,150.000005722046
432,328,174997,2,0,B|254:353|325:206|158:240,1,300.000011444092
259,149,175262,1,0,0:0:0:0:
191,113,175350,2,0,B|118:132|118:132|36:113,1,150.000005722046
265,37,175526,6,0,L|453:69,1,150.000005722046
418,45,175703,2,0,L|271:20,1,150.000005722046
265,37,175879,6,0,L|453:69,1,150.000005722046
418,45,176056,2,0,L|271:20,1,150.000005722046
497,11,176232,5,0,0:0:0:0:
497,11,176497,5,0,0:0:0:0:
497,11,176762,5,0,0:0:0:0:
497,11,176938,6,0,P|451:221|356:220,1,350.00000333786
373,99,177203,1,0,0:0:0:0:
379,256,177291,2,0,P|302:287|203:245,1,175.00000166893
12,175,177468,2,0,P|93:147|173:178,1,175.00000166893
170,330,177644,2,0,P|88:357|8:326,1,175.00000166893
72,36,177821,2,0,B|259:-15|184:183|424:159,1,350.00000333786
445,285,178085,1,0,0:0:0:0:
485,219,178174,2,0,P|503:145|439:56,1,175.00000166893
384,328,178350,6,0,L|146:355,1,175.00000166893
64,239,178526,2,0,L|302:266,1,175.00000166893
4,107,178703,6,0,P|70:131|177:94,1,175.00000166893
341,50,178879,2,0,P|421:20|504:45,1,175.00000166893
489,345,179056,6,0,P|323:282|331:116,1,350.00000333786
64,220,179321,2,0,P|230:157|222:-9,1,350.00000333786
273,342,179585,1,0,0:0:0:0:
205,294,179674,1,0,0:0:0:0:
140,342,179762,6,0,L|-57:351,1,175.00000166893
372,342,179938,2,0,L|569:351,1,175.00000166893
174,327,180115,2,0,L|-23:336,1,175.00000166893
336,320,180291,2,0,L|533:329,1,175.00000166893
202,308,180468,2,0,L|5:317,1,175.00000166893
310,299,180644,2,0,L|507:308,1,175.00000166893
223,286,180821,2,0,L|26:295,1,175.00000166893
292,283,180997,2,0,L|489:292,1,175.00000166893
467,184,181174,5,0,0:0:0:0:
379,185,181262,5,0,0:0:0:0:
293,167,181350,5,0,0:0:0:0:
205,168,181438,5,0,0:0:0:0:
128,198,181526,5,0,0:0:0:0:
40,199,181614,5,0,0:0:0:0:
17,112,181703,6,0,B|57:99|57:99|119:121,1,87.500000834465
14,103,181791,2,0,B|54:90|54:90|116:112,1,87.500000834465
6,95,181879,5,0,0:0:0:0:
243,29,182144,5,0,0:0:0:0:
506,95,182409,5,0,0:0:0:0:
245,157,182585,5,0,0:0:0:0:
175,160,182673,1,0,0:0:0:0:
105,146,182762,1,0,0:0:0:0:
37,162,182850,1,0,0:0:0:0:
105,173,182938,1,0,0:0:0:0:
170,148,183026,1,0,0:0:0:0:
236,170,183115,1,0,0:0:0:0:
305,167,183203,1,0,0:0:0:0:
371,144,183291,6,0,B|178:84|215:274|29:230,1,350.00000333786
58,312,183556,1,0,0:0:0:0:
83,327,183644,1,0,0:0:0:0:
104,311,183732,1,0,0:0:0:0:
121,328,183821,5,0,0:0:0:0:
186,302,183909,1,0,0:0:0:0:
252,333,183997,2,0,B|329:306|329:306|428:348,1,175.00000166893
330,233,184173,1,0,0:0:0:0:
314,156,184262,1,0,0:0:0:0:
327,77,184350,1,0,0:0:0:0:
279,25,184438,5,0,0:0:0:0:
299,136,184526,1,0,0:0:0:0:
284,233,184615,1,0,0:0:0:0:
159,223,184703,6,0,L|150:30,1,175.00000166893
232,101,184879,5,0,0:0:0:0:
61,98,184968,1,0,0:0:0:0:
150,48,185056,6,0,L|141:222,1,175.00000166893
54,364,185232,6,0,L|45:189,1,175.00000166893
156,314,185409,5,0,0:0:0:0:
227,281,185497,1,0,0:0:0:0:
290,322,185585,2,0,P|377:343|456:274,1,175.00000166893
399,232,185762,1,0,0:0:0:0:
452,172,185850,1,0,0:0:0:0:
448,93,185938,2,0,P|376:47|294:69,1,175.00000166893
205,26,186115,5,0,0:0:0:0:
173,95,186203,1,0,0:0:0:0:
207,162,186291,1,0,0:0:0:0:
286,175,186379,1,0,0:0:0:0:
277,324,186468,5,0,0:0:0:0:
309,255,186556,1,0,0:0:0:0:
275,188,186644,1,0,0:0:0:0:
196,175,186732,1,0,0:0:0:0:
0,285,186821,6,0,L|175:268,1,175.00000166893
512,95,186997,2,0,L|337:78,1,175.00000166893
235,11,187173,6,0,L|239:112,1,87.500000834465
227,11,187262,2,0,L|231:112,1,87.500000834465
220,10,187350,2,0,L|224:111,1,87.500000834465
214,10,187438,2,0,L|218:111,1,87.500000834465
204,11,187526,5,0,0:0:0:0:
187,85,187615,1,0,0:0:0:0:
202,168,187703,1,0,0:0:0:0:
194,249,187791,1,0,0:0:0:0:
166,268,187879,6,0,L|162:167,1,87.500000834465
174,268,187968,2,0,L|170:167,1,87.500000834465
181,269,188056,2,0,L|177:168,1,87.500000834465
187,269,188144,2,0,L|183:168,1,87.500000834465
197,266,188232,5,0,0:0:0:0:
266,241,188321,1,0,0:0:0:0:
336,270,188409,1,0,0:0:0:0:
332,346,188497,1,0,0:0:0:0:
332,346,188585,6,0,L|322:136,1,175.00000166893
135,46,188762,5,0,0:0:0:0:
63,21,188851,1,0,0:0:0:0:
0,58,188939,1,0,0:0:0:0:
3,129,189027,1,0,0:0:0:0:
70,166,189115,1,0,0:0:0:0:
137,127,189203,1,0,0:0:0:0:
137,127,189291,6,0,L|145:301,1,175.00000166893
246,155,189468,5,0,0:0:0:0:
243,102,189556,1,0,0:0:0:0:
159,34,189644,6,0,B|245:58|245:58|330:22,1,175.00000166893
361,133,189821,1,0,0:0:0:0:
441,139,189909,1,0,0:0:0:0:
482,202,189997,1,0,0:0:0:0:
466,280,190085,1,0,0:0:0:0:
331,219,190173,5,0,0:0:0:0:
251,219,190262,1,0,0:0:0:0:
212,289,190350,2,0,P|289:332|360:293,1,175.00000166893
362,145,190526,2,0,P|286:107|214:150,1,175.00000166893
20,116,190703,1,0,0:0:0:0:
27,185,190791,1,0,0:0:0:0:
88,217,190879,1,0,0:0:0:0:
157,207,190968,1,0,0:0:0:0:
20,116,191056,6,0,L|30:325,1,175.00000166893
492,116,191232,2,0,L|482:325,1,175.00000166893
28,290,191409,6,0,L|20:116,1,175.00000166893
483,290,191585,2,0,L|492:116,1,175.00000166893
233,188,191762,5,0,0:0:0:0:
161,159,191850,1,0,0:0:0:0:
96,200,191938,1,0,0:0:0:0:
163,234,192026,1,0,0:0:0:0:
236,211,192115,5,0,0:0:0:0:
328,153,192203,1,0,0:0:0:0:
431,200,192291,1,0,0:0:0:0:
333,269,192379,1,0,0:0:0:0:
233,107,192468,6,0,L|230:1,1,87.500000834465
243,107,192556,2,0,L|240:1,1,87.500000834465
252,108,192644,2,0,L|249:2,1,87.500000834465
260,107,192732,2,0,L|257:1,1,87.500000834465
254,121,192821,6,0,L|257:227,1,87.500000834465
244,121,192909,2,0,L|247:227,1,87.500000834465
230,119,192997,5,0,0:0:0:0:
153,188,193085,5,0,0:0:0:0:
39,188,193173,6,0,P|112:171|189:246,1,175.00000166893
321,182,193350,5,0,0:0:0:0:
398,251,193438,5,0,0:0:0:0:
512,251,193526,6,0,P|439:234|362:309,1,175.00000166893,0|0,0:0|2:0,0:0:0:0:
