osu file format v14

[General]
AudioFilename: audioHai hai hai.wav
AudioLeadIn: 0
PreviewTime: -1
Countdown: 1
SampleSet: Soft
StackLeniency: 0.7
Mode: 0
LetterboxInBreaks: 0
WidescreenStoryboard: 0

[Editor]
DistanceSpacing: 1.5
BeatDivisor: 4
GridSize: 4
TimelineZoom: 1.6

[Metadata]
Title:Blade Dance
TitleUnicode:精霊剣舞祭
Artist:Ni-Sokkususu
ArtistUnicode:にーそっくすす
Creator:snoopeh
Version:Jump, Bearizm, Jump!
Source:shaking my head that's a big jump over here
Tags:
BeatmapID:1203799
BeatmapSetID:568003

[Difficulty]
HPDrainRate:0
CircleSize:4.6
OverallDifficulty:6
ApproachRate:9.8
SliderMultiplier:1.4
SliderTickRate:1

[Events]
//Background and Video events
0,0,"maxresdefault.jpg",0,0
//Break Periods
//Storyboard Layer 0 (Background)
//Storyboard Layer 1 (Fail)
//Storyboard Layer 2 (Pass)
//Storyboard Layer 3 (Foreground)
//Storyboard Sound Samples

[TimingPoints]
295,285.7143,4,2,0,100,1,0
4009,-66.66666,4,2,0,100,0,0
14294,-100,4,2,0,100,0,0

[HitObjects]
220,40,286,5,0,0:0:0:0:
143,180,429,1,0,0:0:0:0:
284,114,571,1,0,0:0:0:0:
136,80,715,5,0,0:0:0:0:
236,196,857,2,0,L|312:192,1,75
196,276,1143,2,0,L|120:268,1,75
288,276,1429,6,0,B|292:316|292:316|288:352,2,75
248,132,1857,1,0,0:0:0:0:
88,232,2000,1,0,0:0:0:0:
216,284,2143,1,0,0:0:0:0:
152,132,2285,1,0,0:0:0:0:
140,292,2571,6,0,L|116:360,2,70
212,364,3000,1,0,0:0:0:0:
284,308,3143,2,0,P|296:272|300:232,1,75
228,204,3429,2,0,L|220:128,1,75
300,36,3715,5,0,0:0:0:0:
176,20,3857,1,0,0:0:0:0:
316,116,4000,2,0,B|356:120|356:120|392:112,1,75
420,192,4295,2,0,B|480:164|476:88,1,105.000016021731
340,52,4580,2,0,P|284:60|252:120,1,105.000016021731
488,28,4857,6,0,L|496:140,1,105
432,294,5143,2,0,B|444:260|444:260|420:184,1,105
377,67,5438,1,0,0:0:0:0:
328,196,5580,1,0,0:0:0:0:
266,122,5715,2,0,B|226:147|234:235,1,105.000016021731
208,384,6000,5,0,0:0:0:0:
320,288,6143,1,0,0:0:0:0:
132,256,6285,2,0,B|112:228|112:228|120:140,1,105
104,48,6580,2,0,B|37:71|37:71|20:101,1,105
216,40,6866,2,0,B|236:68|236:68|228:156,1,105
244,280,7143,5,0,0:0:0:0:
328,148,7285,1,0,0:0:0:0:
400,240,7429,2,0,B|428:272|428:272|436:352,1,105.000016021731
408,96,7715,2,0,P|352:56|296:56,1,105.000016021731
148,168,8000,2,0,L|268:160,1,105
120,276,8285,5,0,0:0:0:0:
64,120,8429,1,0,0:0:0:0:
36,248,8571,2,0,P|40:300|92:360,1,105
212,236,8857,2,0,B|228:204|228:204|200:112,1,105
68,48,9152,1,0,0:0:0:0:
424,116,9429,6,0,B|374:133|374:133|322:129,1,105
408,292,9724,1,0,0:0:0:0:
272,212,9866,1,0,0:0:0:0:
432,296,10009,2,0,P|452:260|456:188,1,105
432,48,10294,2,0,L|328:60,1,105
208,152,10580,5,0,0:0:0:0:
240,16,10724,1,0,0:0:0:0:
224,168,10866,2,0,P|236:204|236:284,1,105
192,360,11152,1,0,0:0:0:0:
333,327,11294,1,0,0:0:0:0:
172,328,11438,2,0,B|88:336|88:336|52:316,1,105
349,327,11724,6,0,L|461:327,1,105
460,204,12009,2,0,B|428:136|428:136|432:96,1,105
292,120,12294,1,0,0:0:0:0:
376,28,12438,1,0,0:0:0:0:
254,112,12580,2,0,L|204:213,1,105
128,164,12866,5,0,0:0:0:0:
152,28,13009,1,0,0:0:0:0:
208,206,13152,2,0,P|212:266|168:330,1,105
44,132,13438,2,0,P|32:96|52:24,1,105
240,228,13724,2,0,P|244:251|208:321,1,105
40,348,14009,5,0,0:0:0:0:
56,320,14294,2,0,L|132:324,1,75
220,300,14580,2,0,L|296:296,1,75
376,340,14866,1,0,0:0:0:0:
452,244,15009,2,0,P|460:208|464:168,1,75
412,96,15294,5,0,0:0:0:0:
324,184,15438,2,0,L|248:188,1,75
132,132,15724,2,0,P|116:96|108:60,1,75
248,212,16009,2,0,P|244:252|236:288,1,75
204,148,16294,5,0,0:0:0:0:
144,232,16580,6,0,B|104:228|104:228|68:236,1,75
132,132,16866,2,0,P|152:96|164:64,1,75
232,36,17152,1,0,0:0:0:0:
256,128,17294,2,0,L|332:132,1,75
400,76,17580,5,0,0:0:0:0:
448,196,17724,1,0,0:0:0:0:
320,80,17866,5,0,0:0:0:0:
504,152,18009,1,0,0:0:0:0:
480,28,18152,5,0,0:0:0:0:
388,240,18294,1,0,0:0:0:0:
454,322,18580,6,0,P|412:326|372:319,1,70
208,300,18866,1,0,0:0:0:0:
347,150,19009,1,0,0:0:0:0:
292,328,19152,1,0,0:0:0:0:
160,184,19294,1,0,0:0:0:0:
381,311,19438,1,0,0:0:0:0:
284,232,19580,6,0,P|292:196|296:156,1,75
332,364,19866,1,0,0:0:0:0:
140,272,20009,1,0,0:0:0:0:
188,372,20152,1,0,0:0:0:0:
256,240,20294,2,0,L|336:232,1,75
192,132,20580,2,0,L|244:86,1,70
75,256,20866,5,0,0:0:0:0:
212,317,21009,1,0,0:0:0:0:
129,127,21152,1,0,0:0:0:0:
47,268,21294,1,0,0:0:0:0:
223,180,21438,1,0,0:0:0:0:
29,125,21580,1,0,0:0:0:0:
72,341,21724,2,0,B|103:339|103:339|151:294,1,70
283,291,22009,6,0,P|323:303|351:323,2,75
183,299,22438,1,0,0:0:0:0:
48,180,22580,2,0,P|32:144|28:108,1,75
200,227,22866,2,0,P|195:264|184:299,1,75
148,144,23152,5,0,0:0:0:0:
148,144,23438,2,0,L|224:132,1,75
312,184,23724,2,0,P|352:168|380:144,1,75
428,56,24009,1,0,0:0:0:0:
424,216,24152,2,0,L|420:292,1,75
296,328,24438,5,0,0:0:0:0:
152,236,24580,1,0,0:0:0:0:
296,256,24724,1,0,0:0:0:0:
148,312,24866,2,0,P|136:352|132:384,1,75
232,208,25152,2,0,P|228:168|220:132,1,75
76,228,25438,5,0,0:0:0:0:
76,228,25724,2,0,L|0:236,1,75
160,140,26009,2,0,L|236:148,1,75
264,64,26294,1,0,0:0:0:0:
328,232,26438,2,0,P|336:195|348:160,1,75
500,208,26724,5,0,0:0:0:0:
424,372,26866,1,0,0:0:0:0:
392,184,27009,1,0,0:0:0:0:
512,336,27152,1,0,0:0:0:0:
324,312,27295,1,0,0:0:0:0:
464,152,27438,1,0,0:0:0:0:
464,152,27724,6,0,L|388:144,1,75
216,116,28009,1,0,0:0:0:0:
320,56,28152,1,0,0:0:0:0:
264,216,28294,1,0,0:0:0:0:
172,44,28438,1,0,0:0:0:0:
308,132,28580,1,0,0:0:0:0:
140,160,28724,6,0,P|102:117|104:80,1,70
80,232,29009,1,0,0:0:0:0:
180,283,29152,2,0,P|218:263|236:231,1,70
360,136,29438,2,0,L|344:212,1,75
224,72,29724,1,0,0:0:0:0:
340,230,29866,1,0,0:0:0:0:
356,39,30009,5,0,0:0:0:0:
232,184,30152,1,0,0:0:0:0:
376,124,30294,2,0,P|416:132|448:148,1,75
372,312,30580,2,0,B|356:324|356:324|296:304,1,70
188,232,30866,1,0,0:0:0:0:
264,368,31009,1,0,0:0:0:0:
156,352,31152,5,0,0:0:0:0:
288,232,31294,1,0,0:0:0:0:
120,348,31438,2,0,P|96:316|84:284,1,75
316,148,31724,2,0,P|312:188|300:220,1,75
36,232,32009,1,0,0:0:0:0:
36,232,32294,6,0,L|128:96,1,140
172,24,32724,1,0,0:0:0:0:
244,104,32866,2,0,B|252:72|252:72|308:44,1,70
396,124,33152,2,0,L|316:120,2,70
312,244,33580,1,0,0:0:0:0:
408,272,33724,2,0,P|407:224|384:188,1,70
336,339,34009,2,0,L|260:355,1,70
179,261,34294,2,0,L|251:277,1,70
92,199,34580,6,0,L|108:351,1,140
224,232,35009,1,0,0:0:0:0:
224,232,35152,2,0,L|236:160,1,70
296,40,35438,2,0,L|316:108,2,70
452,80,35866,1,0,0:0:0:0:
392,160,36009,2,0,L|468:148,1,70
288,208,36294,2,0,L|364:224,1,70
448,244,36580,2,0,B|456:272|440:316,1,70
316,356,36866,6,0,B|204:344|204:344|176:352,1,140
64,308,37294,1,0,0:0:0:0:
168,192,37438,2,0,P|160:228|148:262,1,70
312,240,37724,1,0,0:0:0:0:
260,136,37866,1,0,0:0:0:0:
436,168,38009,6,0,L|360:160,1,70
200,88,38294,1,0,0:0:0:0:
48,200,38438,2,0,B|57:158|77:126,1,70
160,28,38724,1,0,0:0:0:0:
300,48,38866,1,0,0:0:0:0:
136,144,39009,1,0,0:0:0:0:
277,167,39152,6,0,L|353:159,1,75
468,152,39438,1,0,0:0:0:0:
328,240,39580,1,0,0:0:0:0:
448,68,39724,5,0,0:0:0:0:
404,240,39866,1,0,0:0:0:0:
376,64,40009,5,0,0:0:0:0:
476,292,40152,1,0,0:0:0:0:
304,32,40294,5,0,0:0:0:0:
360,152,40580,5,0,0:0:0:0:
332,144,40652,1,0,0:0:0:0:
304,144,40723,1,0,0:0:0:0:
277,152,40794,1,0,0:0:0:0:
253,166,40866,2,0,B|208:184|208:184|164:168,1,70
64,40,41152,2,0,L|76:136,1,70
144,300,41438,6,0,L|152:224,1,75
260,60,41724,1,0,0:0:0:0:
264,92,41795,1,0,0:0:0:0:
288,112,41866,1,0,0:0:0:0:
320,108,41937,1,0,0:0:0:0:
348,92,42009,2,0,L|328:184,1,70
460,76,42294,1,0,0:0:0:0:
460,196,42438,6,0,L|364:316,1,140
188,168,42866,1,0,0:0:0:0:
220,172,42937,1,0,0:0:0:0:
244,192,43009,1,0,0:0:0:0:
256,220,43080,1,0,0:0:0:0:
252,252,43152,2,0,L|180:308,1,70
72,360,43438,1,0,0:0:0:0:
272,336,43580,6,0,B|312:332|312:332|382:350|382:350|420:348,1,150
504,244,44009,1,0,0:0:0:0:
508,212,44081,1,0,0:0:0:0:
504,180,44151,1,0,0:0:0:0:
492,152,44222,1,0,0:0:0:0:
468,132,44294,1,0,0:0:0:0:
296,92,44438,1,0,0:0:0:0:
468,40,44580,1,0,0:0:0:0:
416,208,44724,6,0,L|264:216,1,150
164,64,45152,1,0,0:0:0:0:
164,260,45294,1,0,0:0:0:0:
280,108,45438,1,0,0:0:0:0:
96,152,45580,1,0,0:0:0:0:
272,224,45724,2,0,P|282:261|286:301,1,75
119,77,46009,6,0,P|104:111|96:148,1,75
266,114,46294,1,0,0:0:0:0:
292,96,46366,1,0,0:0:0:0:
324,92,46437,1,0,0:0:0:0:
356,96,46508,1,0,0:0:0:0:
384,108,46580,2,0,P|419:127|440:164,1,70
492,276,46866,1,0,0:0:0:0:
332,184,47009,6,0,L|316:333,1,150
248,232,47438,1,0,0:0:0:0:
240,200,47509,1,0,0:0:0:0:
220,176,47580,1,0,0:0:0:0:
196,156,47652,1,0,0:0:0:0:
164,148,47724,2,0,L|140:244,1,70
24,320,48009,1,0,0:0:0:0:
38,209,48152,6,0,L|74:66,1,140
340,64,48580,1,0,0:0:0:0:
338,95,48652,1,0,0:0:0:0:
323,123,48723,1,0,0:0:0:0:
303,147,48794,1,0,0:0:0:0:
275,162,48865,1,0,0:0:0:0:
68,224,49009,1,0,0:0:0:0:
160,76,49152,1,0,0:0:0:0:
219,261,49294,6,0,L|367:241,1,150
476,188,49724,2,0,L|464:268,1,75
352,59,50009,2,0,L|359:133,1,75
373,288,50294,2,0,L|297:280,1,75
89,251,50580,5,0,0:0:0:0:
89,251,50866,1,0,0:0:0:0:
241,168,51009,1,0,0:0:0:0:
68,88,51152,1,0,0:0:0:0:
183,227,51294,5,0,0:0:0:0:
173,29,51438,1,0,0:0:0:0:
116,240,51580,6,0,L|124:316,1,75
33,202,51866,1,0,0:0:0:0:
204,300,52009,2,0,L|280:304,1,75
457,183,52294,2,0,L|381:191,1,75
375,359,52580,2,0,P|387:323|391:283,1,75
252,212,52866,5,0,0:0:0:0:
252,212,53152,1,0,0:0:0:0:
368,99,53295,1,0,0:0:0:0:
132,160,53438,1,0,0:0:0:0:
286,51,53580,1,0,0:0:0:0:
188,250,53723,1,0,0:0:0:0:
156,76,53866,6,0,L|172:0,1,75
336,144,54152,1,0,0:0:0:0:
240,236,54295,2,0,L|164:228,1,75
347,344,54580,2,0,P|338:308|320:276,1,75
255,145,54866,2,0,P|240:179|232:216,1,75
94,304,55152,6,0,L|244:320,1,150
101,228,55580,1,0,0:0:0:0:
191,110,55723,2,0,L|175:186,1,75
27,118,56009,2,0,L|20:44,1,75
127,128,56295,5,0,0:0:0:0:
156,138,56366,1,0,0:0:0:0:
187,140,56438,1,0,0:0:0:0:
218,136,56509,1,0,0:0:0:0:
248,128,56580,1,0,0:0:0:0:
252,159,56652,5,0,0:0:0:0:
250,190,56723,1,0,0:0:0:0:
234,217,56795,1,0,0:0:0:0:
218,244,56866,5,0,0:0:0:0:
249,244,56937,1,0,0:0:0:0:
280,240,57009,1,0,0:0:0:0:
310,230,57081,1,0,0:0:0:0:
338,217,57152,1,0,0:0:0:0:
364,200,57223,1,0,0:0:0:0:
387,179,57295,1,0,0:0:0:0:
403,152,57366,1,0,0:0:0:0:
416,123,57438,2,0,P|470:208|462:265,1,140
311,57,57866,5,0,0:0:0:0:
162,190,58009,1,0,0:0:0:0:
233,30,58152,5,0,0:0:0:0:
343,190,58295,1,0,0:0:0:0:
124,98,58438,6,0,P|68:172|73:230,1,140
214,282,58866,2,0,L|142:310,1,70
441,344,59152,6,0,L|429:232,1,112.5
417,212,59438,2,0,P|381:200|309:224,1,112.5
289,220,59723,6,0,P|253:212|221:192,1,75
123,124,60009,2,0,L|197:112,1,75
18,249,60295,1,0,0:0:0:0:
53,108,60438,1,0,0:0:0:0:
169,289,60580,2,0,P|133:281|93:277,1,75
171,179,60866,6,0,P|207:171|247:171,1,75
315,324,61152,2,0,L|307:248,1,75
380,96,61438,2,0,L|387:165,1,70
482,323,61723,2,0,L|474:247,1,75
488,124,62009,5,0,0:0:0:0:
488,124,62295,1,0,0:0:0:0:
298,65,62438,1,0,0:0:0:0:
489,35,62580,1,0,0:0:0:0:
317,156,62723,1,0,0:0:0:0:
484,20,62866,1,0,0:0:0:0:
392,168,63009,6,0,L|316:156,1,75
112,99,63295,1,0,0:0:0:0:
215,216,63438,1,0,0:0:0:0:
205,39,63580,1,0,0:0:0:0:
219,240,63723,2,0,L|231:316,1,75
44,325,64009,2,0,L|56:249,1,75
212,348,64295,6,0,B|252:344|252:344|324:360|324:360|360:356,1,150
477,316,64723,1,0,0:0:0:0:
382,181,64866,2,0,P|373:218|362:254,1,75
228,116,65152,2,0,P|228:152|237:189,1,75
168,23,65438,5,0,0:0:0:0:
336,82,65580,1,0,0:0:0:0:
93,76,65723,2,0,L|17:80,1,75
204,164,66009,2,0,L|278:160,1,75
102,260,66295,2,0,L|26:264,1,75
196,336,66580,5,0,0:0:0:0:
196,336,66866,1,0,0:0:0:0:
371,278,67009,1,0,0:0:0:0:
140,378,67152,1,0,0:0:0:0:
188,152,67295,1,0,0:0:0:0:
293,360,67438,1,0,0:0:0:0:
192,120,67580,6,0,L|204:44,1,75
404,62,67866,1,0,0:0:0:0:
180,140,68009,1,0,0:0:0:0:
480,336,68152,1,0,0:0:0:0:
236,40,68295,2,0,L|160:36,1,75
36,180,68580,2,0,L|112:176,1,75
512,4,68866,5,0,0:0:0:0:
0,384,69009,1,0,0:0:0:0:
512,300,69152,5,0,0:0:0:0:
0,76,69295,1,0,0:0:0:0:
348,384,69438,5,0,0:0:0:0:
124,0,69580,1,0,0:0:0:0:
116,384,69723,5,0,0:0:0:0:
352,0,69865,1,0,0:0:0:0:
0,284,70009,5,0,0:0:0:0:
512,76,70152,1,0,0:0:0:0:
0,0,70295,5,0,0:0:0:0:
512,384,70437,1,0,0:0:0:0:
0,116,70580,6,0,L|75:124,1,75
512,144,70866,2,0,L|438:156,1,75
0,384,71152,5,0,0:0:0:0:
512,0,71295,1,0,0:0:0:0:
232,384,71437,5,0,0:0:0:0:
0,0,71580,1,0,0:0:0:0:
512,384,71723,5,0,0:0:0:0:
0,184,71866,1,0,0:0:0:0:
512,156,72009,5,0,0:0:0:0:
0,0,72152,1,0,0:0:0:0:
88,384,72295,5,0,0:0:0:0:
412,0,72437,1,0,0:0:0:0:
392,384,72580,5,0,0:0:0:0:
60,0,72723,1,0,0:0:0:0:
332,144,72866,6,0,L|256:152,1,75
428,280,73152,2,0,L|503:288,1,75
308,376,73438,6,0,P|280:324|299:237,1,140
175,260,73866,1,0,0:0:0:0:
232,153,74009,2,0,L|144:156,1,70
65,335,74295,2,0,P|53:307|56:254,1,70
88,111,74580,6,0,L|77:185,2,70
144,248,75009,1,0,0:0:0:0:
211,156,75152,2,0,P|239:148|291:158,2,70
359,162,75723,5,0,0:0:0:0:
328,36,75866,1,0,0:0:0:0:
455,90,76009,2,0,B|483:108|483:108|490:176,1,70
411,270,76295,2,0,L|427:182,1,70
331,308,76580,2,0,B|295:315|295:315|235:288,1,70
109,152,76866,5,0,0:0:0:0:
224,343,77009,1,0,0:0:0:0:
315,203,77152,1,0,0:0:0:0:
111,325,77295,1,0,0:0:0:0:
232,114,77438,38,0,P|240:67|239:24,1,70
67,84,77723,1,0,0:0:0:0:
