osu file format v14

[General]
AudioFilename: audio.mp3
AudioLeadIn: 0
PreviewTime: 46525
Countdown: 0
SampleSet: Soft
StackLeniency: 0.4
Mode: 0
LetterboxInBreaks: 0
WidescreenStoryboard: 0

[Editor]
Bookmarks: 2888,3209,8022,10589,13156,18289,19894,23423,28557,33690,51658,56792,77327
DistanceSpacing: 1
BeatDivisor: 2
GridSize: 4
TimelineZoom: 1.8

[Metadata]
Title:Blade Dance
TitleUnicode:精霊剣舞祭
Artist:Ni-Sokkususu
ArtistUnicode:にーそっくすす
Creator:Affirmation
Version:Normal
Source:精霊使いの剣舞
Tags:Seirei Tsukai no Blade Dance Ending TV Size bladedance of elementalers anime Ibuki Kido Kana Yuuki Shizuka Ishigami Saori Oonishi Ai Kakuma 精霊剣舞祭<ブレイドダンス> Battle Irohas Djulus mugiwarasekai
BeatmapID:1442798
BeatmapSetID:680533

[Difficulty]
HPDrainRate:3
CircleSize:3.3
OverallDifficulty:4
ApproachRate:5.5
SliderMultiplier:1
SliderTickRate:1

[Events]
//Background and Video events
0,0,"BG.jpg",0,0
Video,0,"Video.avi"
//Break Periods
//Storyboard Layer 0 (Background)
//Storyboard Layer 1 (Fail)
//Storyboard Layer 2 (Pass)
//Storyboard Layer 3 (Foreground)
//Storyboard Sound Samples

[TimingPoints]
322,320.855614973262,4,2,11,35,1,0
322,-90.9090909090909,4,2,11,35,0,0
5455,-90.9090909090909,4,2,1,70,0,0
15723,-90.9090909090909,4,2,11,40,0,0
20215,-90.9090909090909,4,2,1,70,0,0
20856,-90.9090909090909,4,2,1,70,0,0
25990,-90.9090909090909,4,2,11,40,0,0
30482,-90.9090909090909,4,2,1,70,0,0
31124,-90.9090909090909,4,2,1,70,0,0
36257,-90.9090909090909,4,2,1,45,0,0
41391,-90.9090909090909,4,2,1,50,0,0
46525,-90.9090909090909,4,2,1,80,0,1
66418,-90.9090909090909,4,2,1,70,0,1
66658,-90.9090909090909,4,2,1,5,0,1
66739,-90.9090909090909,4,2,1,70,0,1
66979,-90.9090909090909,4,2,1,5,0,1
67059,-90.9090909090909,4,2,1,60,0,0
82461,-90.9090909090909,4,2,11,40,0,0
86311,-90.9090909090909,4,2,1,70,0,0
87273,-90.9090909090909,4,2,1,50,0,0
88076,-90.9090909090909,4,2,1,5,0,0

[Colours]
Combo1 : 60,117,251
Combo2 : 217,227,23
Combo3 : 198,14,243
Combo4 : 255,74,74
SliderBorder : 255,255,255
SliderTrackOverride : 0,0,0

[HitObjects]
96,184,322,6,0,P|147:201|200:188,1,110.000003356934,0|8,3:3|0:0,0:0:0:0:
243,163,803,1,0,0:0:0:0:
286,138,963,2,0,L|280:247,1,110.000003356934,0|8,3:3|0:0,0:0:0:0:
362,302,1605,2,0,P|378:249|364:196,2,110.000003356934,0|8|8,3:3|0:0|0:0,0:0:0:0:
274,345,2567,1,8,0:0:0:0:
192,289,2888,6,0,P|140:271|88:284,1,110.000003356934,0|8,3:3|0:0,0:0:0:0:
45,310,3370,1,0,0:0:0:0:
2,335,3530,2,0,L|7:225,1,110.000003356934,0|8,3:3|0:0,0:0:0:0:
91,171,4172,1,0,3:3:0:0:
140,83,4493,2,0,P|87:70|35:87,2,110.000003356934,8|8|8,0:0|0:0|0:0,0:0:0:0:
227,132,5455,6,0,P|279:145|331:128,1,110.000003356934,4|0,3:2|3:0,0:0:0:0:
372,100,5936,1,0,0:0:0:0:
414,74,6097,2,0,L|409:183,1,110.000003356934,8|0,0:0|3:0,0:0:0:0:
331,245,6739,2,0,L|333:299,1,55.0000016784668,0|8,3:0|0:0,0:0:0:0:
328,349,7059,2,0,P|380:362|432:345,2,110.000003356934,0|8|0,3:0|0:0|3:0,0:0:0:0:
242,298,8022,6,0,L|132:302,1,110.000003356934,4|0,3:2|3:0,0:0:0:0:
101,263,8503,1,0,0:0:0:0:
118,216,8664,2,0,P|131:163|114:111,1,110.000003356934,8|0,0:0|3:0,0:0:0:0:
184,42,9305,2,0,L|238:44,1,55.0000016784668,0|8,3:0|0:0,0:0:0:0:
274,79,9626,2,0,L|383:74,2,110.000003356934,0|8|0,3:0|0:0|3:0,0:0:0:0:
240,172,10589,6,0,L|349:176,1,110.000003356934,4|0,3:2|3:0,0:0:0:0:
394,154,11070,1,0,0:0:0:0:
434,180,11231,2,0,P|450:231|437:284,1,110.000003356934,8|0,0:0|3:0,0:0:0:0:
349,329,11872,2,0,L|294:326,1,55.0000016784668,0|8,3:0|0:0,0:0:0:0:
258,292,12193,2,0,L|148:296,2,110.000003356934,0|8|0,3:0|0:0|3:0,0:0:0:0:
317,212,13156,6,0,P|330:159|314:108,1,110.000003356934,4|0,3:2|3:0,0:0:0:0:
274,82,13637,1,0,0:0:0:0:
233,55,13797,2,0,L|123:59,1,110.000003356934,8|0,0:0|3:0,0:0:0:0:
70,143,14439,2,0,P|65:169|73:196,1,55.0000016784668,0|8,3:0|0:0,0:0:0:0:
103,235,14760,2,0,P|49:223|-1:242,1,110.000003356934,0|8,3:0|0:0,0:0:0:0:
57,323,15402,1,0,3:0:0:0:
157,319,15723,6,0,L|266:314,1,110.000003356934,4|8,3:2|0:0,0:0:0:0:
352,362,16364,2,0,P|365:310|348:258,1,110.000003356934,0|8,3:3|0:0,0:0:0:0:
317,219,16846,2,0,P|300:167|313:114,1,110.000003356934
343,75,17327,1,8,0:0:0:0:
253,32,17648,2,0,L|143:36,1,110.000003356934,8|8,0:0|0:0,0:0:0:0:
74,108,18289,6,0,P|90:159|77:212,1,110.000003356934,0|8,3:3|0:0,0:0:0:0:
28,298,18931,2,0,L|137:293,1,110.000003356934,0|8,3:3|0:0,0:0:0:0:
184,311,19413,2,0,P|170:258|187:206,1,110.000003356934,0|0,0:0|0:0,0:0:0:0:
223,173,19894,1,8,0:0:0:0:
269,261,20215,2,0,B|320:281|320:281|371:262,1,110.000003356934,0|8,3:0|0:0,0:0:0:0:
436,186,20856,6,0,L|431:76,1,110.000003356934,4|8,3:2|0:0,0:0:0:0:
390,47,21338,1,0,0:0:0:0:
345,69,21498,2,0,P|292:82|241:64,1,110.000003356934,0|8,3:0|0:0,0:0:0:0:
199,36,21979,2,0,P|147:17|95:31,1,110.000003356934,0|0,3:0|0:0,0:0:0:0:
59,66,22461,1,8,0:0:0:0:
143,118,22781,2,0,L|146:227,1,110.000003356934,8|8,0:0|0:0,0:0:0:0:
203,309,23423,6,0,P|254:290|306:304,1,110.000003356934,4|8,3:2|0:0,0:0:0:0:
347,333,23904,1,0,0:0:0:0:
384,365,24065,2,0,L|385:255,1,110.000003356934,0|8,3:0|0:0,0:0:0:0:
323,177,24707,2,0,L|322:122,1,55.0000016784668,0|0,3:0|3:0,0:0:0:0:
294,80,25027,2,0,P|346:93|397:75,2,110.000003356934,8|8|8,0:0|0:0|0:0,0:0:0:0:
206,33,25990,6,0,P|153:20|102:38,1,110.000003356934,4|8,3:2|0:0,0:0:0:0:
62,129,26632,2,0,L|65:238,1,110.000003356934,0|8,3:3|0:0,0:0:0:0:
51,286,27113,2,0,P|102:268|154:281,1,110.000003356934,0|0,0:0|0:0,0:0:0:0:
196,307,27594,1,8,0:0:0:0:
288,270,27915,2,0,L|285:161,1,110.000003356934,8|8,0:0|0:0,0:0:0:0:
211,94,28557,6,0,P|158:80|107:98,1,110.000003356934,0|8,3:3|0:2,0:0:0:0:
47,176,29199,2,0,L|50:285,1,110.000003356934,0|8,3:3|0:0,0:0:0:0:
85,320,29680,2,0,P|136:302|188:315,1,110.000003356934,0|0,0:0|0:0,0:0:0:0:
226,347,30161,1,8,0:2:0:0:
288,270,30482,2,0,L|287:215,2,55.0000016784668,0|0|8,3:0|3:0|0:0,0:0:0:0:
321,360,31124,6,0,P|373:378|424:362,1,110.000003356934,4|8,3:2|0:0,0:0:0:0:
455,324,31605,1,0,0:0:0:0:
485,285,31765,2,0,L|482:176,1,110.000003356934,0|8,3:0|0:0,0:0:0:0:
448,138,32247,2,0,P|396:155|345:140,1,110.000003356934,0|0,3:0|0:0,0:0:0:0:
313,102,32728,1,8,0:0:0:0:
224,146,33049,2,0,L|227:255,1,110.000003356934,8|8,0:0|0:0,0:0:0:0:
138,299,33690,6,0,L|135:190,1,110.000003356934,4|8,3:2|0:0,0:0:0:0:
91,164,34172,1,0,0:0:0:0:
47,138,34332,2,0,L|44:29,1,110.000003356934,0|8,3:0|0:0,0:0:0:0:
140,43,34974,2,0,P|167:51|194:49,1,55.0000016784668,0|0,3:0|3:0,0:0:0:0:
239,28,35295,2,0,L|348:35,2,110.000003356934,8|8|8,0:0|0:0|0:0,0:0:0:0:
256,126,36257,6,0,L|420:137,2,165.000005035401,4|0|0,3:2|3:0|3:0,0:0:0:0:
178,188,37541,1,0,3:0:0:0:
116,109,37862,2,0,P|84:154|80:208,2,110.000003356934,0|8|0,3:0|0:0|3:0,0:0:0:0:
194,48,38824,6,0,P|122:11|47:38,2,165.000005035401,4|0|4,3:2|3:0|3:2,0:0:0:0:
256,126,40108,1,0,3:0:0:0:
333,64,40428,2,0,L|442:56,2,110.000003356934,0|12|0,3:0|0:0|3:0,0:0:0:0:
256,126,41391,6,0,P|241:178|256:230,1,110.000003356934,4|0,3:2|3:0,0:0:0:0:
299,256,41872,2,0,L|408:248,1,110.000003356934,0|0,3:0|3:0,0:0:0:0:
451,273,42354,1,0,3:0:0:0:
383,345,42674,2,0,L|273:352,1,110.000003356934,0|0,3:0|3:0,0:0:0:0:
232,323,43156,2,0,P|179:308|127:323,1,110.000003356934,0|0,3:0|3:0,0:0:0:0:
86,352,43637,1,0,3:0:0:0:
34,267,43958,6,0,L|41:157,1,110.000003356934,4|0,3:2|3:0,0:0:0:0:
31,108,44439,2,0,P|83:122|135:107,1,110.000003356934,0|0,3:0|3:0,0:0:0:0:
180,85,44920,2,0,L|183:139,1,55.0000016784668,0|0,3:0|0:0,0:0:0:0:
214,178,45241,2,0,P|267:163|319:178,1,110.000003356934,4|0,3:2|3:0,0:0:0:0:
366,266,45883,1,8,0:0:0:0:
267,263,46204,1,8,0:0:0:0:
319,178,46525,6,0,P|333:125|319:73,1,110.000003356934,4|8,3:2|0:0,0:0:0:0:
232,28,47166,2,0,L|177:24,1,55.0000016784668,0|0,3:0|3:0,0:0:0:0:
137,54,47487,1,8,0:0:0:0:
96,82,47648,2,0,P|81:135|96:187,1,110.000003356934,4|0,3:2|3:0,0:0:0:0:
132,222,48129,1,8,0:0:0:0:
180,134,48450,2,0,L|235:130,1,55.0000016784668,0|0,3:0|3:0,0:0:0:0:
279,108,48771,1,8,0:0:0:0:
320,134,48931,6,0,P|335:186|319:238,1,110.000003356934,4|0,3:2|3:0,0:0:0:0:
286,275,49412,1,8,0:0:0:0:
196,317,49733,2,0,P|170:322|143:318,1,55.0000016784668,0|0,3:0|3:0,0:0:0:0:
102,290,50054,1,8,0:0:0:0:
62,261,50215,2,0,L|70:151,1,110.000003356934,4|0,3:2|3:0,0:0:0:0:
98,110,50696,2,0,P|126:106|152:111,1,55.0000016784668,8|0,0:0|3:0,0:0:0:0:
199,129,51017,2,0,L|203:74,2,55.0000016784668,8|0|8,0:0|3:0|0:0,0:0:0:0:
204,227,51658,6,0,L|314:223,1,110.000003356934,4|8,3:2|0:0,0:0:0:0:
378,299,52300,2,0,L|433:300,1,55.0000016784668,0|0,3:0|3:0,0:0:0:0:
462,259,52621,1,8,0:0:0:0:
440,214,52781,2,0,P|425:162|440:110,1,110.000003356934,4|0,3:2|3:0,0:0:0:0:
474,73,53263,1,8,0:0:0:0:
386,29,53584,2,0,P|359:24|332:27,1,55.0000016784668,0|0,3:0|3:0,0:0:0:0:
291,55,53904,1,8,0:0:0:0:
251,82,54065,6,0,P|200:97|148:82,1,110.000003356934,4|0,3:2|3:0,0:0:0:0:
110,50,54546,1,8,0:0:0:0:
52,129,54867,2,0,L|53:184,1,55.0000016784668,0|0,3:0|3:0,0:0:0:0:
29,227,55188,1,8,0:0:0:0:
55,268,55348,2,0,P|107:252|159:267,1,110.000003356934,4|0,3:2|3:0,0:0:0:0:
195,302,55830,2,0,L|250:301,1,55.0000016784668,8|0,0:0|3:0,0:0:0:0:
298,288,56150,1,8,0:0:0:0:
373,352,56471,1,8,0:0:0:0:
437,277,56792,5,4,3:2:0:0:
363,213,57113,2,0,P|358:185|362:158,1,55.0000016784668,8|0,0:0|0:0,0:0:0:0:
393,119,57434,2,0,P|397:91|393:64,1,55.0000016784668,0|0,3:0|0:0,0:0:0:0:
352,28,57755,1,8,0:0:0:0:
308,46,57916,2,0,L|198:42,1,110.000003356934,0|0,3:0|3:0,0:0:0:0:
152,59,58396,1,8,0:0:0:0:
199,146,58717,2,0,P|214:197|200:249,1,110.000003356934,8|8,0:0|0:0,0:0:0:0:
116,198,59359,5,4,3:2:0:0:
65,282,59680,2,0,P|60:309|64:336,1,55.0000016784668,8|0,0:0|0:0,0:0:0:0:
105,365,60001,2,0,L|160:364,1,55.0000016784668,0|0,3:0|0:0,0:0:0:0:
200,335,60321,1,8,0:0:0:0:
246,354,60482,2,0,P|298:368|349:352,1,110.000003356934,0|0,3:0|3:0,0:0:0:0:
384,317,60963,1,8,0:0:0:0:
297,269,61284,2,0,L|296:159,1,110.000003356934,8|8,0:0|0:0,0:0:0:0:
250,71,61926,6,0,P|198:86|146:72,1,110.000003356934,12|8,0:0|0:0,0:0:0:0:
106,43,62407,1,0,0:0:0:0:
60,65,62567,2,0,L|60:174,1,110.000003356934,8|8,0:0|0:0,0:0:0:0:
117,257,63209,2,0,P|168:241|220:255,1,110.000003356934,8|8,3:0|3:0,0:0:0:0:
257,290,63690,1,8,3:0:0:0:
294,324,63851,2,0,L|403:323,1,110.000003356934,0|0,3:0|3:0,0:0:0:0:
485,264,64493,5,4,3:2:0:0:
391,90,65134,2,0,P|386:63|391:36,2,55.0000016784668,4|0|0,3:2|3:0|3:0,0:0:0:0:
432,119,65616,1,6,0:0:0:0:
294,324,66418,2,0,L|184:317,1,110.000003356934,8|8,0:0|0:0,0:0:0:0:
103,261,67059,6,0,P|93:207|115:157,1,110.000003356934,4|8,3:2|0:0,0:0:0:0:
155,127,67541,1,0,0:0:0:0:
195,96,67701,2,0,L|191:41,2,55.0000016784668,0|0|8,3:0|3:0|0:0,0:0:0:0:
265,166,68343,2,0,L|319:169,1,55.0000016784668,0|0,0:3|3:0,0:0:0:0:
356,204,68664,2,0,P|360:231|356:258,1,55.0000016784668,8|0,0:0|0:0,0:0:0:0:
321,292,68985,2,0,L|211:285,1,110.000003356934,8|8,0:0|0:0,0:0:0:0:
126,234,69626,6,0,P|141:182|125:130,1,110.000003356934,0|8,3:0|0:0,0:0:0:0:
57,58,70268,2,0,L|2:61,2,55.0000016784668,0|0|8,3:0|3:0|0:0,0:0:0:0:
99,32,70749,2,0,L|208:38,1,110.000003356934,0|0,0:0|3:0,0:0:0:0:
243,75,71231,1,8,0:0:0:0:
326,23,71551,2,0,P|341:76|325:128,1,110.000003356934,8|8,0:0|0:0,0:0:0:0:
249,190,72193,6,0,P|233:242|247:294,1,110.000003356934,4|8,3:2|0:0,0:0:0:0:
288,322,72674,1,0,0:0:0:0:
328,349,72835,2,0,L|382:345,2,55.0000016784668,0|0|8,3:0|3:0|0:0,0:0:0:0:
356,253,73477,2,0,L|410:249,1,55.0000016784668,0|0,3:0|3:0,0:0:0:0:
447,216,73797,2,0,P|449:188|442:162,1,55.0000016784668,8|0,0:0|0:0,0:0:0:0:
404,129,74118,2,0,L|294:135,1,110.000003356934,8|8,0:0|0:0,0:0:0:0:
234,215,74760,6,0,L|124:208,1,110.000003356934,0|8,3:0|0:0,0:0:0:0:
34,163,75402,2,0,P|25:189|24:217,2,55.0000016784668,0|0|8,3:0|3:0|0:0,0:0:0:0:
67,126,75883,2,0,L|176:119,1,110.000003356934,0|0,0:0|3:0,0:0:0:0:
211,83,76364,1,8,0:0:0:0:
294,135,76685,2,0,L|404:129,1,110.000003356934,8|8,0:0|0:0,0:0:0:0:
437,222,77327,6,0,L|327:228,1,110.000003356934,12|8,3:2|0:0,0:0:0:0:
301,271,77808,1,0,0:0:0:0:
323,314,77969,2,0,L|377:310,2,55.0000016784668,12|0|8,0:0|0:0|0:0,0:0:0:0:
232,355,78610,2,0,L|177:351,1,55.0000016784668,12|0,0:0|0:0,0:0:0:0:
133,328,78931,2,0,P|127:301|133:274,1,55.0000016784668,8|0,0:0|0:0,0:0:0:0:
167,239,79252,2,0,P|182:186|165:134,1,110.000003356934,8|8,0:0|0:0,0:0:0:0:
110,51,79894,6,0,P|161:34|214:48,1,110.000003356934,12|8,3:2|0:0,0:0:0:0:
254,77,80375,1,0,0:0:0:0:
293,105,80535,2,0,L|289:160,2,55.0000016784668,12|0|8,0:0|0:0|0:0,0:0:0:0:
388,133,81177,2,0,L|384:188,1,55.0000016784668,12|0,0:0|0:0,0:0:0:0:
348,223,81498,2,0,L|352:278,1,55.0000016784668,8|0,0:0|0:0,0:0:0:0:
388,313,81819,2,0,L|278:305,1,110.000003356934,8|8,0:0|0:0,0:0:0:0:
199,246,82461,6,0,L|89:254,1,110.000003356934,4|0,3:2|0:0,0:0:0:0:
101,155,83102,2,0,L|211:147,1,110.000003356934,0|0,3:3|0:0,0:0:0:0:
290,207,83744,2,0,P|308:155|298:102,2,110.000003356934,0|0|0,3:3|0:0|0:0,0:0:0:0:
434,342,85027,6,0,P|416:290|426:237,1,110.000003356934,0|0,3:3|0:0,0:0:0:0:
481,154,85669,2,0,P|490:100|472:49,1,110.000003356934,0|0,3:3|0:0,0:0:0:0:
377,22,86311,2,0,L|322:26,1,55.0000016784668,8|0,0:2|3:2,0:0:0:0:
288,62,86632,2,0,L|233:58,1,55.0000016784668,8|0,0:2|3:2,0:0:0:0:
199,22,86953,1,8,0:2:0:0:
108,60,87273,6,0,B|95:149|95:149|131:224|131:224|115:325,1,275.000008392334,12|0,0:0|0:0,0:0:0:0:
