osu file format v14

[General]
AudioFilename: audio.mp3
AudioLeadIn: 0
PreviewTime: 46525
Countdown: 0
SampleSet: Soft
StackLeniency: 0.7
Mode: 0
LetterboxInBreaks: 0
WidescreenStoryboard: 0

[Editor]
DistanceSpacing: 1
BeatDivisor: 4
GridSize: 4
TimelineZoom: 2.4

[Metadata]
Title:Blade Dance
TitleUnicode:精霊剣舞祭
Artist:Ni-Sokkususu
ArtistUnicode:にーそっくすす
Creator:Affirmation
Version:Djulus' Easy
Source:精霊使いの剣舞
Tags:Seirei Tsukai no Blade Dance Ending TV Size bladedance of elementalers anime Ibuki Kido Kana Yuuki Shizuka Ishigami Saori Oonishi Ai Kakuma 精霊剣舞祭<ブレイドダンス> Battle Irohas Djulus mugiwarasekai
BeatmapID:1447682
BeatmapSetID:680533

[Difficulty]
HPDrainRate:3
CircleSize:3
OverallDifficulty:3
ApproachRate:3
SliderMultiplier:0.9
SliderTickRate:1

[Events]
//Background and Video events
0,0,"BG.jpg",0,0
Video,0,"Video.avi"
//Break Periods
//Storyboard Layer 0 (Background)
//Storyboard Layer 1 (Fail)
//Storyboard Layer 2 (Pass)
//Storyboard Layer 3 (Foreground)
//Storyboard Sound Samples

[TimingPoints]
322,320.855614973262,4,2,11,35,1,0
322,-100,4,2,11,35,0,0
5455,-100,4,2,1,70,0,0
15723,-100,4,2,11,50,0,0
20215,-100,4,2,1,70,0,0
20856,-100,4,2,1,70,0,0
25990,-100,4,2,11,50,0,0
30482,-100,4,2,1,70,0,0
31124,-100,4,2,1,70,0,0
36257,-100,4,2,1,45,0,0
41391,-100,4,2,1,50,0,0
46525,-100,4,2,1,80,0,1
66418,-100,4,2,1,70,0,1
66658,-100,4,2,1,5,0,1
66739,-100,4,2,1,70,0,1
66979,-100,4,2,1,5,0,1
67059,-100,4,2,1,70,0,0
82461,-100,4,2,11,45,0,0
86311,-100,4,2,1,70,0,0
87273,-100,4,2,1,50,0,0

[Colours]
Combo1 : 60,117,251
Combo2 : 217,227,23
Combo3 : 198,14,243
Combo4 : 255,74,74
SliderBorder : 255,255,255
SliderTrackOverride : 0,0,0

[HitObjects]
56,340,322,6,0,P|44:292|56:240,1,90,0|8,3:3|0:0,0:0:0:0:
128,192,963,2,0,L|256:184,1,90,0|8,3:3|0:0,0:0:0:0:
280,120,1605,2,0,L|472:120,1,180,0|8,3:3|0:0,0:0:0:0:
504,200,2567,1,8,0:0:0:0:
476,288,2888,6,0,L|380:288,1,90,0|8,3:3|0:0,0:0:0:0:
308,332,3530,2,0,L|200:324,1,90,0|8,3:3|0:0,0:0:0:0:
128,340,4172,1,0,3:3:0:0:
68,272,4493,2,0,P|40:340|48:368,2,90,8|8|8,0:0|0:0|0:0,0:0:0:0:
132,208,5455,6,0,L|236:200,1,90,4|0,3:2|3:0,0:0:0:0:
292,256,6097,2,0,L|388:248,1,90,8|0,0:0|3:0,0:0:0:0:
464,204,6739,1,0,3:0:0:0:
424,124,7059,2,0,P|416:72|424:32,2,90,0|8|0,3:0|0:0|3:0,0:0:0:0:
464,204,8022,6,0,L|472:296,1,90,4|0,3:2|3:0,0:0:0:0:
400,348,8664,2,0,L|300:356,1,90,8|0,0:0|3:0,0:0:0:0:
224,332,9305,1,0,3:0:0:0:
152,280,9626,2,0,P|132:340|144:376,2,90,0|8|0,3:0|0:0|3:0,0:0:0:0:
208,208,10589,6,0,P|220:164|208:120,1,90,4|0,3:2|3:0,0:0:0:0:
192,32,11231,2,0,L|288:32,1,90,8|0,0:0|3:0,0:0:0:0:
356,84,11872,1,0,3:0:0:0:
444,108,12193,2,0,P|448:68|424:20,2,90,0|8|0,3:0|0:0|3:0,0:0:0:0:
412,192,13156,6,0,L|408:288,1,90,4|0,3:2|3:0,0:0:0:0:
344,344,13797,2,0,L|252:344,1,90,8|0,0:0|3:0,0:0:0:0:
168,316,14439,1,0,3:0:0:0:
92,268,14760,2,0,P|76:312|92:372,2,90,0|8|0,3:0|0:0|3:0,0:0:0:0:
144,196,15723,6,0,P|204:192|348:200,1,180,4|0,3:2|3:3,0:0:0:0:
408,232,16685,1,8,0:0:0:0:
396,320,17006,2,0,P|336:324|192:316,1,180,0|8,3:3|0:0,0:0:0:0:
128,300,17969,1,8,0:0:0:0:
52,348,18289,6,0,P|24:264|16:168,1,180,0|0,3:3|3:3,0:0:0:0:
12,84,19252,1,8,0:0:0:0:
100,68,19573,2,0,P|188:84|312:68,1,180,0|0,3:3|3:0,0:0:0:0:
356,32,20535,1,8,0:0:0:0:
448,44,20856,6,0,P|440:100|448:136,1,90,4|8,3:2|0:0,0:0:0:0:
496,208,21498,2,0,P|504:260|492:308,1,90,0|8,3:0|0:0,0:0:0:0:
412,320,22140,1,0,3:0:0:0:
332,280,22461,2,0,P|319:323|331:367,2,90,8|8|8,0:0|0:0|0:0,0:0:0:0:
384,208,23423,6,0,P|392:168|380:112,1,90,4|8,3:2|0:0,0:0:0:0:
312,64,24065,2,0,L|212:60,1,90,0|8,3:0|0:0,0:0:0:0:
132,76,24707,1,0,3:0:0:0:
48,112,25027,2,0,P|40:72|60:16,2,90,8|8|8,0:0|0:0|0:0,0:0:0:0:
92,192,25990,6,0,P|144:172|272:196,1,180,4|0,3:2|3:3,0:0:0:0:
340,236,26953,1,8,0:0:0:0:
424,204,27273,2,0,P|468:129|432:51,1,180,0|8,3:3|0:0,0:0:0:0:
352,92,28236,1,8,0:0:0:0:
264,68,28557,6,0,B|220:84|180:56|180:56|132:24|93:43,1,180,0|0,3:3|3:3,0:0:0:0:
104,132,29519,1,8,0:0:0:0:
44,200,29840,2,0,P|20:252|92:356,1,180,0|0,3:3|3:0,0:0:0:0:
152,304,30803,1,8,0:0:0:0:
232,340,31124,6,0,L|336:344,1,90,4|8,3:2|0:0,0:0:0:0:
408,316,31765,2,0,P|418:272|410:228,1,90,0|8,3:0|0:0,0:0:0:0:
368,148,32407,2,0,P|360:104|376:56,2,90,0|8|8,3:0|0:0|0:0,0:0:0:0:
410,228,33370,1,8,0:0:0:0:
324,256,33690,6,0,L|224:248,1,90,4|8,3:2|0:0,0:0:0:0:
148,280,34332,2,0,P|142:236|159:195,1,90,0|8,3:0|0:0,0:0:0:0:
224,132,34974,1,0,3:0:0:0:
260,48,35295,2,0,P|216:40|174:56,2,90,8|8|8,0:0|0:0|0:0,0:0:0:0:
344,76,36257,6,0,P|388:100|384:228,1,180,4|8,3:2|0:0,0:0:0:0:
312,256,37220,1,0,0:0:0:0:
284,340,37541,2,0,L|194:336,1,90,0|0,3:0|3:0,0:0:0:0:
104,348,38182,1,8,0:0:0:0:
72,264,38503,1,0,3:0:0:0:
44,180,38824,6,0,P|101:114|188:118,2,180,4|8|0,3:2|0:0|3:0,0:0:0:0:
72,264,40428,1,0,3:0:0:0:
160,248,40749,2,0,L|268:252,1,90,12|0,0:0|3:0,0:0:0:0:
340,236,41391,6,0,P|352:188|312:128,1,90,4|0,3:2|3:0,0:0:0:0:
272,92,42033,2,0,L|176:92,1,90,0|0,3:0|3:0,0:0:0:0:
104,44,42674,2,0,P|88:100|104:140,1,90,0|0,3:0|3:0,0:0:0:0:
168,184,43316,2,0,L|168:284,1,90,0|0,3:0|3:0,0:0:0:0:
228,344,43958,6,0,L|320:336,1,90,4|0,3:2|3:0,0:0:0:0:
408,356,44600,2,0,P|408:308|384:272,1,90,0|0,3:0|3:0,0:0:0:0:
308,228,45241,2,0,P|252:216|148:152,1,180,4|8,3:2|0:0,0:0:0:0:
84,88,46204,1,8,0:0:0:0:
156,36,46525,6,0,L|252:48,1,90,4|8,3:2|0:0,0:0:0:0:
328,8,47166,2,0,P|340:56|324:96,1,90,0|8,3:0|0:0,0:0:0:0:
308,136,47648,2,0,L|304:276,1,135,4|8,3:2|0:0,0:0:0:0:
336,356,48450,2,0,P|288:364|248:344,1,90,0|8,3:0|0:0,0:0:0:0:
220,312,48931,6,0,P|164:276|88:288,1,135,4|8,3:2|0:0,0:0:0:0:
16,320,49733,2,0,P|12:264|32:228,1,90,0|8,3:0|0:0,0:0:0:0:
52,196,50215,2,0,P|52:144|56:52,1,135,4|8,3:2|0:0,0:0:0:0:
140,32,51017,1,8,0:0:0:0:
224,64,51338,1,8,0:0:0:0:
312,40,51658,6,0,L|412:40,1,90,4|8,3:2|0:0,0:0:0:0:
472,96,52300,2,0,P|480:152|464:188,1,90,0|8,3:0|0:0,0:0:0:0:
428,204,52781,2,0,P|388:184|288:196,1,135,4|8,3:2|0:0,0:0:0:0:
244,264,53584,2,0,L|144:256,1,90,0|8,3:0|0:0,0:0:0:0:
108,256,54065,6,0,P|133:207|101:123,1,135,4|8,3:2|0:0,0:0:0:0:
52,64,54867,2,0,P|80:44|144:52,1,90,0|8,3:0|0:0,0:0:0:0:
172,68,55348,2,0,P|240:80|324:64,1,135,4|8,3:2|0:0,0:0:0:0:
392,44,56150,1,8,0:0:0:0:
448,112,56471,1,8,0:0:0:0:
504,184,56792,6,0,L|504:280,1,90,4|8,3:2|0:0,0:0:0:0:
428,324,57434,2,0,P|384:328|332:324,1,90,0|8,3:0|0:0,0:0:0:0:
256,292,58076,2,0,P|204:288|156:292,1,90,0|8,3:0|0:0,0:0:0:0:
80,268,58717,1,8,0:0:0:0:
48,184,59038,1,8,0:0:0:0:
28,96,59359,6,0,L|124:88,1,90,4|8,3:2|0:0,0:0:0:0:
200,48,60001,2,0,P|248:44|304:48,1,90,0|8,3:0|0:0,0:0:0:0:
375,96,60642,2,0,L|380:200,1,90,0|8,3:0|0:0,0:0:0:0:
416,268,61284,1,8,0:0:0:0:
336,312,61605,1,8,0:0:0:0:
256,352,61926,6,0,L|156:352,1,90,12|8,0:0|0:0,0:0:0:0:
92,300,62567,2,0,L|92:196,1,90,8|8,0:0|0:0,0:0:0:0:
140,136,63209,2,0,P|216:148|300:80,2,180,8|0|4,3:0|3:0|3:2,0:0:0:0:
140,136,66418,5,8,0:0:0:0:
228,148,66739,1,8,0:0:0:0:
304,100,67059,6,0,L|408:92,1,90,4|8,3:2|0:0,0:0:0:0:
468,40,67701,2,0,P|484:96|468:140,1,90,0|8,3:0|0:0,0:0:0:0:
420,196,68343,1,0,0:3:0:0:
472,272,68664,2,0,L|484:368,2,90,8|8|8,0:0|0:0|0:0,0:0:0:0:
420,196,69626,6,0,L|316:200,1,90,0|8,3:0|0:0,0:0:0:0:
260,256,70268,2,0,L|164:256,1,90,0|8,3:0|0:0,0:0:0:0:
104,196,70910,1,0,3:0:0:0:
40,260,71231,2,0,P|28:324|44:360,2,90,8|8|8,0:0|0:0|0:0,0:0:0:0:
104,196,72193,6,0,L|100:96,1,90,4|8,3:2|0:0,0:0:0:0:
152,32,72835,2,0,P|196:32|256:36,1,90,0|8,3:0|0:0,0:0:0:0:
324,76,73477,1,0,3:0:0:0:
404,116,73797,2,0,P|412:64|396:24,2,90,8|8|8,0:0|0:0|0:0,0:0:0:0:
348,188,74760,6,0,L|348:292,1,90,0|8,3:0|0:0,0:0:0:0:
276,336,75402,2,0,L|172:332,1,90,0|8,3:0|0:0,0:0:0:0:
104,296,76043,1,0,3:0:0:0:
32,240,76364,2,0,P|12:292|20:336,2,90,8|8|8,0:0|0:0|0:0,0:0:0:0:
80,164,77327,6,0,P|128:172|184:160,1,90,8|8,3:2|0:0,0:0:0:0:
256,140,77969,1,8,0:0:0:0:
336,180,78289,1,8,0:0:0:0:
411,133,78610,2,0,P|425:175|420:220,1,90,8|8,0:0|0:0,0:0:0:0:
376,300,79252,1,8,0:0:0:0:
308,356,79573,1,8,0:0:0:0:
220,332,79894,6,0,L|124:324,1,90,8|8,3:2|0:0,0:0:0:0:
56,272,80535,1,8,0:0:0:0:
56,180,80856,1,8,0:0:0:0:
56,88,81177,2,0,L|156:84,1,90,8|8,0:0|0:0,0:0:0:0:
228,124,81819,1,8,0:0:0:0:
304,72,82140,1,8,0:0:0:0:
376,128,82461,6,0,P|392:184|376:228,1,90,4|0,3:2|0:0,0:0:0:0:
340,292,83102,2,0,L|244:284,1,90,0|0,3:3|0:0,0:0:0:0:
164,312,83744,1,0,3:3:0:0:
88,264,84065,2,0,P|72:324|84:356,2,90,0|0|0,0:0|0:0|0:0,0:0:0:0:
156,208,85027,6,0,L|152:104,1,90,0|0,3:3|0:0,0:0:0:0:
204,44,85669,2,0,P|248:36|304:48,1,90,0|0,3:3|0:0,0:0:0:0:
372,88,86311,2,0,P|380:156|368:184,1,90,8|8,0:2|0:2,0:0:0:0:
324,252,86953,1,8,0:2:0:0:
360,332,87273,1,12,0:0:0:0:
