osu file format v14

[General]
AudioFilename: audio.mp3
AudioLeadIn: 0
PreviewTime: 46525
Countdown: 0
SampleSet: Soft
StackLeniency: 0.2
Mode: 0
LetterboxInBreaks: 0
WidescreenStoryboard: 0

[Editor]
Bookmarks: 2888,8022,10589,13156,18289,23423,28557,33690,51658,56792,77327
DistanceSpacing: 1.1
BeatDivisor: 4
GridSize: 4
TimelineZoom: 1.8

[Metadata]
Title:Blade Dance
TitleUnicode:精霊剣舞祭
Artist:Ni-Sokkususu
ArtistUnicode:にーそっくすす
Creator:Affirmation
Version:Dance
Source:精霊使いの剣舞
Tags:Seirei Tsukai no Blade Dance Ending TV Size bladedance of elementalers anime Ibuki Kido Kana Yuuki Shizuka Ishigami Saori Oonishi Ai Kakuma 精霊剣舞祭<ブレイドダンス> Battle Irohas Djulus mugiwarasekai
BeatmapID:1438917
BeatmapSetID:680533

[Difficulty]
HPDrainRate:7
CircleSize:4.3
OverallDifficulty:8.7
ApproachRate:9.3
SliderMultiplier:1
SliderTickRate:1

[Events]
//Background and Video events
0,0,"BG.jpg",0,0
Video,0,"Video.avi"
//Break Periods
//Storyboard Layer 0 (Background)
//Storyboard Layer 1 (Fail)
//Storyboard Layer 2 (Pass)
//Storyboard Layer 3 (Foreground)
//Storyboard Sound Samples

[TimingPoints]
322,320.855614973262,4,2,11,35,1,0
322,-71.4285714285714,4,2,11,35,0,0
5455,-58.8235294117647,4,2,1,70,0,0
15723,-83.3333333333333,4,2,11,40,0,0
20215,-83.3333333333333,4,2,1,70,0,0
20856,-58.8235294117647,4,2,1,70,0,0
25990,-83.3333333333333,4,2,11,40,0,0
30482,-83.3333333333333,4,2,1,70,0,0
31124,-58.8235294117647,4,2,1,70,0,0
36257,-100,4,2,1,45,0,0
41391,-58.8235294117647,4,2,1,50,0,0
46525,-55.5555555555556,4,2,1,80,0,1
66418,-62.5,4,2,1,70,0,1
66658,-62.5,4,2,1,5,0,1
66739,-62.5,4,2,1,70,0,1
66979,-62.5,4,2,1,5,0,1
67059,-58.8235294117647,4,2,1,70,0,0
82461,-83.3333333333333,4,2,11,40,0,0
86311,-83.3333333333333,4,2,1,70,0,0
87273,-133.333333333333,4,2,1,50,0,0
88076,-133.333333333333,4,2,1,5,0,0

[Colours]
Combo1 : 60,117,251
Combo2 : 217,227,23
Combo3 : 198,14,243
Combo4 : 255,74,74
SliderBorder : 255,255,255
SliderTrackOverride : 0,0,0

[HitObjects]
320,244,322,5,0,3:3:0:0:
402,220,482,1,0,0:0:0:0:
262,187,642,1,8,0:0:0:0:
242,268,803,1,0,0:0:0:0:
201,130,963,2,0,P|229:110|263:103,1,69.9999978637696,0|0,3:3|0:0,0:0:0:0:
182,211,1284,2,0,P|150:196|127:169,1,69.9999978637696,8|0,0:0|0:0,0:0:0:0:
262,187,1605,5,0,3:3:0:0:
242,268,1765,1,0,0:0:0:0:
341,163,1926,2,0,P|369:143|403:136,1,69.9999978637696,8|0,0:0|0:0,0:0:0:0:
455,261,2247,2,0,P|423:246|401:219,1,69.9999978637696,8|0,0:0|0:0,0:0:0:0:
474,182,2567,1,8,0:0:0:0:
474,182,2888,5,0,3:3:0:0:
475,98,3049,1,0,0:0:0:0:
332,93,3209,1,8,0:0:0:0:
403,136,3370,1,0,0:0:0:0:
260,133,3530,2,0,P|250:99|254:65,1,69.9999978637696,0|0,3:3|0:0,0:0:0:0:
330,175,3851,2,0,P|305:200|273:213,1,69.9999978637696,8|0,0:0|0:0,0:0:0:0:
133,236,4172,5,0,3:3:0:0:
197,185,4332,1,0,0:0:0:0:
146,316,4493,2,0,P|111:315|80:299,1,69.9999978637696,8|0,0:0|0:0,0:0:0:0:
121,156,4813,1,8,0:0:0:0:
209,265,4974,1,0,0:0:0:0:
253,65,5134,1,8,0:0:0:0:
253,65,5455,5,4,3:2:0:0:
299,203,5616,1,0,0:0:0:0:
158,172,5776,2,0,P|193:149|235:147,1,85.0000016212464,0|0,3:2|0:0,0:0:0:0:
379,177,6097,1,8,0:0:0:0:
201,312,6257,1,0,0:0:0:0:
348,340,6418,1,0,3:2:0:0:
219,230,6578,1,0,0:0:0:0:
379,177,6739,5,0,3:0:0:0:
282,286,6899,1,8,0:0:0:0:
429,315,7059,2,0,L|509:287,1,85.0000016212464,0|0,3:2|0:0,0:0:0:0:
299,203,7380,1,8,0:0:0:0:
491,370,7541,1,0,0:0:0:0:
299,203,7701,2,0,P|334:180|376:178,1,85.0000016212464,0|0,3:2|0:0,0:0:0:0:
253,64,8022,5,4,3:2:0:0:
219,230,8182,1,0,0:1:0:0:
93,118,8343,2,0,P|51:119|15:142,1,85.0000016212464,0|0,3:2|0:0,0:0:0:0:
156,174,8664,1,8,0:0:0:0:
110,36,8824,1,0,0:0:0:0:
235,147,8985,1,0,3:2:0:0:
77,201,9145,1,8,0:0:0:0:
173,91,9305,5,0,3:0:0:0:
140,257,9466,1,8,0:0:0:0:
93,118,9626,2,0,L|85:33,1,85.0000016212464,0|0,3:2|0:0,0:0:0:0:
253,64,9947,1,8,0:0:0:0:
76,200,10108,1,0,0:0:0:0:
253,64,10268,2,0,P|288:41|330:40,1,85.0000016212464,0|0,3:2|0:0,0:0:0:0:
473,71,10589,5,4,3:2:0:0:
295,206,10749,1,0,0:0:0:0:
420,316,10910,2,0,P|438:278|436:235,1,85.0000016212464,0|0,3:2|0:0,0:0:0:0:
311,125,11231,1,8,0:0:0:0:
420,316,11391,1,0,0:0:0:0:
200,314,11551,1,0,3:2:0:0:
295,206,11712,1,0,0:0:0:0:
342,344,11872,5,0,3:0:0:0:
374,180,12033,1,8,0:0:0:0:
216,235,12193,2,0,L|133:255,1,85.0000016212464,0|0,3:2|0:0,0:0:0:0:
313,124,12514,1,8,0:0:0:0:
421,318,12674,1,0,0:0:0:0:
313,124,12835,2,0,P|290:88|252:69,1,85.0000016212464,0|0,3:0|0:0,0:0:0:0:
151,174,13156,5,4,3:2:0:0:
294,206,13316,1,0,0:0:0:0:
169,91,13477,2,0,P|127:92|91:114,1,85.0000016212464,0|0,3:0|0:0,0:0:0:0:
132,256,13797,1,8,0:0:0:0:
232,149,13957,1,0,0:0:0:0:
69,198,14118,1,0,3:0:0:0:
214,231,14279,1,8,0:0:0:0:
169,91,14439,5,0,3:0:0:0:
294,206,14600,1,8,0:0:0:0:
113,340,14760,2,0,L|197:337,1,85.0000016212464,0|0,3:0|0:0,0:0:0:0:
69,198,15081,1,12,0:0:0:0:
274,289,15241,1,0,0:0:0:0:
170,91,15402,2,0,P|204:67|246:64,1,85.0000016212464,4|0,3:2|0:0,0:0:0:0:
374,180,15723,5,4,3:2:0:0:
374,180,16043,2,0,P|383:209|379:239,1,59.9999981689454,8|0,0:0|0:0,0:0:0:0:
305,131,16364,2,0,P|325:110|352:98,1,59.9999981689454,0|0,3:3|0:0,0:0:0:0:
298,217,16685,1,8,0:0:0:0:
235,83,16846,6,0,P|214:61|187:49,1,59.9999981689454,0|0,0:0|3:3,0:0:0:0:
84,154,17166,1,0,0:0:0:0:
166,132,17327,1,8,0:0:0:0:
106,72,17487,1,0,0:0:0:0:
144,214,17648,2,0,L|139:273,1,59.9999981689454,8|0,0:0|0:0,0:0:0:0:
226,192,17969,2,0,L|221:251,1,59.9999981689454,8|0,0:0|0:0,0:0:0:0:
275,369,18289,5,0,3:3:0:0:
275,369,18610,2,0,P|283:340|280:311,1,59.9999981689454,8|0,0:0|0:0,0:0:0:0:
146,358,18931,2,0,P|174:350|198:332,1,59.9999981689454,0|0,3:3|0:0,0:0:0:0:
70,321,19252,1,8,0:0:0:0:
144,214,19412,6,0,L|139:273,1,59.9999981689454,0|0,0:0|3:3,0:0:0:0:
67,177,19733,1,0,0:0:0:0:
138,131,19894,1,8,0:0:0:0:
144,214,20054,1,0,0:0:0:0:
61,94,20215,1,0,3:0:0:0:
0,226,20375,1,0,3:0:0:0:
213,168,20535,1,8,0:0:0:0:
213,168,20856,5,4,3:2:0:0:
148,300,21017,1,0,0:0:0:0:
290,205,21177,2,0,P|298:164|285:124,1,85.0000016212464,8|0,0:0|0:0,0:0:0:0:
136,130,21498,1,0,3:0:0:0:
219,253,21658,1,0,3:0:0:0:
208,82,21818,1,8,0:0:0:0:
295,290,21979,6,0,P|335:278|362:247,1,85.0000016212464,0|0,0:0|3:0,0:0:0:0:
213,168,22300,1,0,0:0:0:0:
224,338,22461,1,8,0:0:0:0:
290,206,22621,1,0,3:0:0:0:
142,215,22781,2,0,L|57:208,1,85.0000016212464,8|0,0:0|3:0,0:0:0:0:
300,375,23102,2,0,L|385:368,1,85.0000016212464,8|0,0:0|0:0,0:0:0:0:
148,300,23423,5,4,3:2:0:0:
290,206,23584,1,0,0:0:0:0:
135,133,23744,2,0,P|128:174|141:214,1,85.0000016212464,8|0,0:0|0:0,0:0:0:0:
227,338,24065,1,0,3:2:0:0:
315,160,24225,1,0,3:0:0:0:
295,291,24386,1,8,0:0:0:0:
396,164,24546,1,0,0:0:0:0:
221,255,24707,5,0,3:0:0:0:
352,232,24867,1,0,3:2:0:0:
233,174,25027,2,0,L|148:171,1,85.0000016212464,8|0,0:0|3:0,0:0:0:0:
315,160,25348,1,8,0:0:0:0:
227,338,25509,1,0,3:0:0:0:
315,160,25669,2,0,L|309:75,1,85.0000016212464,8|0,0:0|0:0,0:0:0:0:
157,205,25990,5,4,3:2:0:0:
157,205,26311,2,0,P|128:211|99:205,1,59.9999981689454,8|0,0:0|0:0,0:0:0:0:
210,140,26632,2,0,P|229:162|239:190,1,59.9999981689454,0|0,3:3|0:0,0:0:0:0:
127,126,26953,1,8,0:0:0:0:
210,269,27113,6,0,P|239:274|268:269,1,59.9999981689454,0|0,0:0|3:3,0:0:0:0:
405,220,27434,1,0,0:0:0:0:
322,205,27594,1,8,0:0:0:0:
351,284,27755,1,0,0:0:0:0:
376,141,27915,2,0,L|385:81,1,59.9999981689454,8|0,0:0|0:0,0:0:0:0:
293,126,28236,2,0,L|302:66,1,59.9999981689454,8|0,0:0|0:0,0:0:0:0:
239,190,28557,5,0,3:3:0:0:
239,189,28878,2,0,P|210:197|181:190,1,59.9999981689454,8|0,0:2|0:0,0:0:0:0:
180,61,29199,2,0,P|200:82|209:110,1,59.9999981689454,0|0,3:3|0:0,0:0:0:0:
126,125,29519,1,8,0:0:0:0:
292,125,29680,6,0,P|312:148|321:177,1,59.9999981689454,0|0,0:0|3:3,0:0:0:0:
250,270,30001,1,0,0:0:0:0:
239,189,30161,1,8,0:2:0:0:
332,258,30321,1,0,0:0:0:0:
168,282,30482,1,0,3:0:0:0:
301,335,30642,1,0,3:0:0:0:
292,125,30803,1,8,0:0:0:0:
292,125,31124,5,4,3:2:0:0:
157,175,31284,1,0,0:0:0:0:
263,47,31444,2,0,P|305:43|344:61,1,85.0000016212464,8|0,0:0|0:0,0:0:0:0:
239,189,31766,1,0,3:0:0:0:
129,97,31926,1,0,0:0:0:0:
321,203,32087,1,8,0:0:0:0:
103,237,32247,6,0,L|18:227,1,85.0000016212464,0|0,0:0|3:0,0:0:0:0:
157,175,32567,1,0,0:0:0:0:
213,331,32728,1,8,0:0:0:0:
239,189,32888,1,0,3:0:0:0:
131,317,33049,2,0,L|46:327,1,85.0000016212464,8|0,0:0|3:0,0:0:0:0:
157,175,33370,1,8,0:0:0:0:
349,281,33530,1,0,0:0:0:0:
185,253,33690,5,4,3:2:0:0:
295,345,33851,1,0,0:0:0:0:
319,189,34011,2,0,P|279:177|239:189,1,85.0000016212464,8|0,0:0|0:0,0:0:0:0:
131,317,34332,1,0,3:0:0:0:
349,281,34493,1,0,3:0:0:0:
238,189,34653,1,8,0:0:0:0:
295,345,34813,1,0,0:0:0:0:
185,253,34974,5,0,3:0:0:0:
320,204,35134,1,0,3:0:0:0:
157,175,35295,2,0,L|72:183,1,85.0000016212464,8|0,0:0|3:0,0:0:0:0:
349,282,35616,1,8,0:0:0:0:
132,316,35776,1,0,3:0:0:0:
212,112,35936,1,8,0:0:0:0:
212,112,36257,6,0,B|245:104|281:122|281:122|316:139|357:132,1,150,4|0,3:2|3:0,0:0:0:0:
408,70,36899,2,0,P|436:110|433:159,1,100,8|0,0:0|3:0,0:0:0:0:
370,210,37380,1,8,0:2:0:0:
494,232,37541,6,0,L|445:238,1,50,0|8,3:0|0:0,0:0:0:0:
320,215,37862,2,0,L|369:209,1,50,0|0,3:0|0:0,0:0:0:0:
458,317,38182,2,0,L|358:327,1,100,8|0,0:2|3:0,0:0:0:0:
205,376,38824,6,0,P|167:314|200:251,1,150,4|0,3:2|3:0,0:0:0:0:
276,223,39466,2,0,L|265:123,1,100,8|0,0:0|3:0,0:0:0:0:
209,65,39947,1,8,0:0:0:0:
100,115,40108,6,0,L|149:120,1,50,0|8,3:0|0:0,0:0:0:0:
75,202,40428,2,0,L|124:196,1,50,0|0,3:0|0:0,0:0:0:0:
49,277,40749,2,0,L|148:287,1,100,12|0,0:0|3:0,0:0:0:0:
148,287,41391,5,4,3:2:0:0:
131,370,41551,1,0,3:0:0:0:
229,263,41712,1,0,3:0:0:0:
88,230,41872,1,0,3:0:0:0:
210,345,42033,1,0,3:0:0:0:
249,182,42193,1,0,3:0:0:0:
148,287,42354,1,0,3:0:0:0:
290,322,42514,1,0,3:0:0:0:
170,207,42674,5,0,3:0:0:0:
332,160,42835,1,0,3:0:0:0:
148,287,42995,1,0,3:0:0:0:
190,124,43156,1,0,3:0:0:0:
229,263,43316,1,0,3:0:0:0:
107,145,43477,1,0,3:0:0:0:
311,242,43637,1,0,3:0:0:0:
210,345,43797,1,0,3:0:0:0:
275,104,43958,5,4,3:2:0:0:
90,231,44118,1,0,3:0:0:0:
370,301,44279,1,0,3:0:0:0:
130,62,44439,1,0,3:0:0:0:
129,370,44600,1,0,3:0:0:0:
349,81,44760,1,0,3:0:0:0:
24,172,44920,1,0,3:0:0:0:
393,217,45081,1,0,0:0:0:0:
66,312,45241,6,0,P|63:271|81:233,1,85.0000016212464,4|0,3:2|0:0,0:0:0:0:
286,317,45562,2,0,P|251:341|209:344,1,85.0000016212464,0|0,3:0|0:0,0:0:0:0:
273,103,45883,2,0,L|279:187,1,85.0000016212464,8|0,0:0|0:0,0:0:0:0:
107,145,46204,2,0,L|100:60,1,85.0000016212464,8|0,0:0|0:0,0:0:0:0:
200,255,46525,6,0,L|192:165,1,89.9999972534181,4|0,3:2|0:0,0:0:0:0:
364,207,46846,1,8,0:0:0:0:
357,228,46926,1,0,0:0:0:0:
344,246,47006,1,0,0:0:0:0:
327,260,47086,1,0,0:0:0:0:
306,270,47166,1,0,3:0:0:0:
338,122,47327,1,0,3:0:0:0:
140,315,47487,1,8,0:0:0:0:
307,356,47648,6,0,P|317:312|305:269,1,89.9999972534181,4|0,3:2|0:0,0:0:0:0:
193,166,47969,1,0,3:0:0:0:
140,315,48129,1,8,0:0:0:0:
161,323,48209,1,0,0:0:0:0:
184,325,48289,1,0,0:0:0:0:
206,322,48369,1,0,0:0:0:0:
227,314,48449,1,0,3:0:0:0:
95,234,48610,1,0,3:0:0:0:
334,111,48771,1,8,0:0:0:0:
185,76,48931,6,0,L|192:165,1,89.9999972534181,4|0,3:2|0:0,0:0:0:0:
300,31,49252,1,0,3:0:0:0:
363,193,49412,1,8,0:0:0:0:
341,191,49492,1,0,0:0:0:0:
320,189,49572,1,0,0:0:0:0:
299,187,49652,1,0,0:0:0:0:
278,186,49732,1,0,3:0:0:0:
356,282,49894,1,0,3:0:0:0:
115,149,50054,1,8,0:0:0:0:
172,366,50215,6,0,B|261:354,1,89.9999972534181,4|0,3:2|0:0,0:0:0:0:
117,294,50535,1,0,3:0:0:0:
254,102,50696,1,8,0:0:0:0:
44,205,50856,1,0,3:0:0:0:
215,250,51017,1,8,0:0:0:0:
106,63,51177,1,0,3:0:0:0:
215,250,51338,2,0,B|304:238,1,89.9999972534181,8|0,0:0|0:0,0:0:0:0:
314,38,51658,6,0,P|276:16|232:16,1,89.9999972534181,4|0,3:2|0:0,0:0:0:0:
317,163,51979,1,8,0:0:0:0:
339,159,52059,1,0,0:0:0:0:
361,156,52139,1,0,0:0:0:0:
383,153,52219,1,0,0:0:0:0:
406,150,52299,1,0,3:0:0:0:
300,273,52461,1,0,3:0:0:0:
168,77,52621,1,8,0:2:0:0:
129,228,52781,6,0,P|129:272|151:311,1,89.9999972534181,4|0,3:2|0:0,0:0:0:0:
192,164,53102,1,0,3:0:0:0:
300,273,53263,1,8,0:0:0:0:
323,276,53343,1,0,0:0:0:0:
345,273,53424,1,0,0:0:0:0:
366,265,53504,1,0,0:0:0:0:
384,252,53584,1,0,3:0:0:0:
215,250,53744,1,0,3:0:0:0:
373,48,53904,1,8,0:0:0:0:
187,74,54065,6,0,L|191:163,1,89.9999972534181,4|0,3:2|0:0,0:0:0:0:
288,44,54386,1,0,3:0:0:0:
400,135,54546,1,8,0:0:0:0:
382,148,54626,1,0,0:0:0:0:
361,156,54706,1,0,0:0:0:0:
339,159,54787,1,0,0:0:0:0:
316,156,54867,1,0,3:0:0:0:
439,249,55028,1,0,3:0:0:0:
177,121,55188,1,8,0:0:0:0:
295,349,55348,6,0,L|299:259,1,89.9999972534181,4|0,3:2|0:0,0:0:0:0:
288,44,55669,1,0,3:0:0:0:
215,250,55830,1,8,0:0:0:0:
396,127,55990,1,0,3:0:0:0:
177,121,56150,2,0,L|87:116,1,89.9999972534181,8|0,0:0|0:0,0:0:0:0:
350,255,56471,2,0,L|439:250,1,89.9999972534181,8|0,0:0|0:0,0:0:0:0:
215,250,56792,6,0,L|125:245,1,89.9999972534181,4|0,3:2|0:0,0:0:0:0:
238,336,57113,1,8,0:0:0:0:
290,201,57273,1,0,0:0:0:0:
328,341,57434,1,0,3:0:0:0:
215,250,57594,1,0,3:0:0:0:
359,257,57754,1,8,0:0:0:0:
210,160,57915,6,0,P|196:119|204:75,1,89.9999972534181,0|0,3:0|0:0,0:0:0:0:
365,152,58236,1,0,3:0:0:0:
215,250,58396,1,8,0:0:0:0:
286,112,58557,1,0,3:0:0:0:
359,257,58717,2,0,P|402:266|442:249,1,89.9999972534181,8|0,0:0|0:0,0:0:0:0:
360,62,59038,2,0,L|364:151,1,89.9999972534181,8|0,0:0|0:0,0:0:0:0:
215,250,59359,6,0,L|210:160,1,89.9999972534181,4|0,3:2|0:0,0:0:0:0:
139,299,59680,1,8,0:0:0:0:
295,291,59840,1,0,0:0:0:0:
131,119,60001,1,0,3:0:0:0:
219,340,60161,1,0,3:0:0:0:
285,110,60321,1,8,0:0:0:0:
134,209,60482,6,0,L|44:204,1,89.9999972534181,0|0,3:0|0:0,0:0:0:0:
210,160,60803,1,0,3:0:0:0:
139,299,60963,1,8,0:0:0:0:
131,119,61124,1,0,3:0:0:0:
290,202,61284,2,0,P|304:244|295:287,1,89.9999972534181,8|0,0:0|0:0,0:0:0:0:
123,328,61605,2,0,L|213:324,1,89.9999972534181,8|0,0:0|0:0,0:0:0:0:
290,202,61926,5,12,0:0:0:0:
134,209,62086,1,0,3:0:0:0:
286,113,62247,5,8,0:0:0:0:
215,250,62407,1,0,3:0:0:0:
129,118,62567,5,8,0:0:0:0:
369,243,62728,1,0,3:0:0:0:
139,300,62888,5,8,0:0:0:0:
365,154,63049,1,0,3:0:0:0:
47,75,63209,5,8,3:0:0:0:
37,108,63289,1,8,3:0:0:0:
40,141,63369,1,8,3:0:0:0:
54,171,63449,1,8,3:0:0:0:
78,195,63529,1,8,3:0:0:0:
109,207,63610,1,8,3:0:0:0:
143,208,63690,1,8,3:0:0:0:
174,197,63770,1,8,3:0:0:0:
200,176,63851,5,0,3:0:0:0:
216,160,63931,1,0,3:0:0:0:
236,149,64011,1,0,3:0:0:0:
257,143,64091,1,0,3:0:0:0:
280,142,64171,1,0,3:0:0:0:
301,147,64252,1,0,3:0:0:0:
322,157,64332,1,0,3:0:0:0:
338,172,64412,1,0,3:0:0:0:
351,190,64492,5,4,3:2:0:0:
351,190,65134,1,4,3:2:0:0:
345,373,65295,1,0,3:0:0:0:
280,142,65455,1,0,3:0:0:0:
109,319,65616,1,6,0:0:0:0:
109,319,66418,6,0,L|102:199,1,120,8|0,0:0|0:0,0:0:0:0:
175,166,66739,2,0,L|181:285,1,120,8|0,0:0|0:0,0:0:0:0:
237,350,67059,5,4,3:2:0:0:
311,196,67220,1,0,0:0:0:0:
402,338,67380,2,0,P|363:352|321:342,1,85.0000016212464,8|0,0:0|0:0,0:0:0:0:
225,202,67701,1,0,3:0:0:0:
359,266,67862,1,0,3:0:0:0:
342,114,68022,1,8,0:0:0:0:
188,278,68182,1,0,0:0:0:0:
177,132,68343,5,0,3:3:0:0:
395,189,68503,1,0,3:0:0:0:
251,40,68664,2,0,L|261:125,1,85.0000016212464,8|0,0:0|0:0,0:0:0:0:
359,266,68984,1,8,0:0:0:0:
141,209,69145,1,0,0:0:0:0:
359,266,69305,2,0,P|399:276|439:262,1,85.0000016212464,8|0,0:0|0:0,0:0:0:0:
311,196,69626,5,0,3:0:0:0:
323,343,69787,1,0,0:0:0:0:
420,72,69947,1,8,0:0:0:0:
225,202,70108,1,0,0:0:0:0:
409,337,70268,1,0,3:0:0:0:
347,119,70428,1,0,3:0:0:0:
187,279,70589,1,8,0:0:0:0:
127,60,70749,6,0,P|166:42|207:48,1,85.0000016212464,0|0,0:0|3:0,0:0:0:0:
311,196,71070,1,0,3:0:0:0:
178,131,71231,1,8,0:0:0:0:
275,273,71391,1,0,3:0:0:0:
347,119,71551,1,8,0:0:0:0:
187,279,71712,1,0,3:0:0:0:
347,119,71872,2,0,L|431:108,1,85.0000016212464,8|0,0:0|0:0,0:0:0:0:
275,273,72193,5,4,3:2:0:0:
262,124,72354,1,0,0:0:0:0:
359,265,72514,2,0,P|352:307|327:340,1,85.0000016212464,8|0,0:0|0:0,0:0:0:0:
137,205,72835,1,0,3:0:0:0:
235,356,72995,1,0,3:0:0:0:
316,196,73156,1,8,0:0:0:0:
137,205,73316,1,0,0:0:0:0:
275,273,73477,5,0,3:0:0:0:
262,124,73637,1,0,3:0:0:0:
187,279,73797,2,0,L|102:283,1,85.0000016212464,8|0,0:0|0:0,0:0:0:0:
236,347,74118,1,8,0:0:0:0:
178,131,74279,1,0,0:0:0:0:
236,347,74439,2,0,P|197:364|155:358,1,85.0000016212464,8|0,0:0|0:0,0:0:0:0:
49,211,74760,5,0,3:0:0:0:
187,279,74920,1,0,0:0:0:0:
77,11,75081,1,8,0:0:0:0:
99,284,75241,1,0,0:0:0:0:
262,124,75402,1,0,3:0:0:0:
88,132,75562,1,0,3:0:0:0:
312,197,75723,1,8,0:0:0:0:
99,363,75883,6,0,P|86:324|99:284,1,85.0000016212464,0|0,0:0|3:0,0:0:0:0:
227,199,76204,1,0,3:0:0:0:
232,345,76364,1,8,0:0:0:0:
312,197,76525,1,0,3:0:0:0:
142,201,76685,1,8,0:0:0:0:
356,269,76846,1,0,3:0:0:0:
308,50,77006,2,0,P|267:39|226:51,1,85.0000016212464,8|0,0:0|0:0,0:0:0:0:
102,276,77327,5,12,3:2:0:0:
397,195,77487,1,0,0:0:0:0:
98,128,77648,5,8,0:0:0:0:
315,343,77808,1,0,0:0:0:0:
268,124,77969,5,12,0:0:0:0:
147,348,78129,1,0,0:0:0:0:
356,269,78289,5,8,0:0:0:0:
58,203,78450,1,0,0:0:0:0:
231,345,78610,5,12,0:0:0:0:
138,54,78771,1,0,0:0:0:0:
147,348,78931,5,8,0:0:0:0:
354,123,79091,1,0,0:0:0:0:
58,203,79252,5,8,0:0:0:0:
356,269,79413,1,0,0:0:0:0:
57,203,79573,2,0,P|97:189|138:197,1,85.0000016212464,8|0,0:0|0:0,0:0:0:0:
315,343,79894,5,12,3:2:0:0:
103,275,80054,1,0,0:0:0:0:
354,123,80215,5,8,0:0:0:0:
147,348,80375,1,0,0:0:0:0:
182,125,80535,5,12,0:0:0:0:
356,269,80696,1,0,0:0:0:0:
103,275,80856,5,8,0:0:0:0:
224,51,81017,1,0,0:0:0:0:
231,345,81177,5,12,0:0:0:0:
139,52,81338,1,0,0:0:0:0:
397,195,81498,5,8,0:0:0:0:
57,203,81658,1,0,0:0:0:0:
353,123,81819,5,8,0:0:0:0:
231,345,81979,1,0,0:0:0:0:
353,123,82140,2,0,P|394:111|435:120,1,85.0000016212464,8|0,0:0|0:0,0:0:0:0:
356,269,82461,6,0,L|236:259,1,119.999996337891,4|0,3:2|0:0,0:0:0:0:
157,230,82942,1,0,0:0:0:0:
229,117,83102,2,0,P|230:146|220:174,1,59.9999981689454,0|0,3:3|0:0,0:0:0:0:
97,234,83423,2,0,L|157:230,1,59.9999981689454
356,269,83744,6,0,L|296:264,1,59.9999981689454,0|0,3:3|0:0,0:0:0:0:
430,307,84065,2,0,P|439:279|438:250,1,59.9999981689454
375,129,84386,2,0,L|379:188,1,59.9999981689454
430,307,84707,1,0,0:0:0:0:
430,307,85027,6,0,L|310:297,1,119.999996337891,0|0,3:3|0:0,0:0:0:0:
246,242,85509,1,0,0:0:0:0:
170,332,85669,2,0,P|200:333|228:323,1,59.9999981689454,0|0,3:3|0:0,0:0:0:0:
115,204,85990,2,0,L|120:264,1,59.9999981689454
259,159,86311,5,8,0:2:0:0:
390,264,86471,1,0,3:2:0:0:
350,45,86632,1,8,0:2:0:0:
246,242,86792,1,0,3:2:0:0:
482,151,86953,1,8,0:2:0:0:
193,106,87113,1,0,3:0:0:0:
311,294,87273,6,0,L|496:270,1,187.500007152558,12|0,0:0|0:0,0:0:0:0:
