osu file format v14

[General]
AudioFilename: 1,2,3,4, 007 (Speed Pop Mix).mp3
AudioLeadIn: 0
PreviewTime: -1
Countdown: 1
SampleSet: None
StackLeniency: 0.7
Mode: 1
LetterboxInBreaks: 0
WidescreenStoryboard: 1

[Editor]
DistanceSpacing: 1.3
BeatDivisor: 4
GridSize: 32
TimelineZoom: 1

[Metadata]
Title:1,2,3,4, 007 (Speed Pop Mix)
TitleUnicode:1,2,3,4, 007 (Speed Pop Mix)
Artist:Ni-Ni
ArtistUnicode:Ni-Ni
Creator:Mine6998
Version:Taiko Normal
Source:
Tags:
BeatmapID:853237
BeatmapSetID:391737

[Difficulty]
HPDrainRate:5
CircleSize:5
OverallDifficulty:5
ApproachRate:5
SliderMultiplier:1.4
SliderTickRate:1

[Events]
//Background and Video events
//Break Periods
2,81771,85371
//Storyboard Layer 0 (Background)
//Storyboard Layer 1 (Fail)
//Storyboard Layer 2 (Pass)
//Storyboard Layer 3 (Foreground)
//Storyboard Sound Samples

[TimingPoints]
1744.06896551724,689.655172413793,4,1,0,100,1,0

[HitObjects]
256,192,2088,1,0,0:0:0:0:
256,192,2261,1,0,0:0:0:0:
256,192,2433,1,0,0:0:0:0:
256,192,4847,1,0,0:0:0:0:
256,192,5019,1,0,0:0:0:0:
256,192,5192,1,0,0:0:0:0:
256,192,5537,1,0,0:0:0:0:
256,192,6226,1,0,0:0:0:0:
256,192,9675,12,0,11054,0:0:0:0:
256,192,14675,12,0,15019,0:0:0:0:
256,192,15364,12,0,15709,0:0:0:0:
256,192,16054,12,0,16399,0:0:0:0:
256,192,16744,12,0,17088,0:0:0:0:
256,192,19502,5,0,0:0:0:0:
256,192,20019,1,0,0:0:0:0:
256,192,20364,1,0,0:0:0:0:
256,192,20881,1,0,0:0:0:0:
256,192,21226,1,0,0:0:0:0:
256,192,21571,1,0,0:0:0:0:
256,192,22261,1,0,0:0:0:0:
256,192,22606,1,0,0:0:0:0:
256,192,22950,1,0,0:0:0:0:
256,192,23123,1,0,0:0:0:0:
256,192,23295,1,0,0:0:0:0:
256,192,23985,1,0,0:0:0:0:
256,192,24330,1,0,0:0:0:0:
256,192,25192,1,0,0:0:0:0:
256,192,25709,1,0,0:0:0:0:
256,192,26054,1,0,0:0:0:0:
256,192,26916,1,0,0:0:0:0:
256,192,27088,1,0,0:0:0:0:
256,192,30709,1,0,0:0:0:0:
256,192,31744,1,0,0:0:0:0:
256,192,31916,1,0,0:0:0:0:
256,192,32088,1,0,0:0:0:0:
256,192,33468,1,0,0:0:0:0:
256,192,34157,1,0,0:0:0:0:
256,192,34330,1,0,0:0:0:0:
256,192,34502,1,0,0:0:0:0:
256,192,34675,1,0,0:0:0:0:
256,192,34847,1,0,0:0:0:0:
256,192,36226,1,0,0:0:0:0:
256,192,36399,1,0,0:0:0:0:
256,192,36571,1,0,0:0:0:0:
256,192,36744,1,0,0:0:0:0:
256,192,36916,1,0,0:0:0:0:
256,192,37433,1,0,0:0:0:0:
256,192,37606,1,0,0:0:0:0:
256,192,38985,1,0,0:0:0:0:
256,192,39157,1,0,0:0:0:0:
256,192,39330,1,0,0:0:0:0:
256,192,39502,1,0,0:0:0:0:
256,192,39675,1,0,0:0:0:0:
256,192,40019,1,0,0:0:0:0:
256,192,40881,1,0,0:0:0:0:
256,192,41226,1,0,0:0:0:0:
256,192,41399,1,0,0:0:0:0:
256,192,41744,1,0,0:0:0:0:
256,192,42088,1,0,0:0:0:0:
256,192,42433,1,0,0:0:0:0:
256,192,42606,1,0,0:0:0:0:
256,192,42950,1,0,0:0:0:0:
256,192,43123,1,0,0:0:0:0:
256,192,43640,1,0,0:0:0:0:
256,192,43985,1,0,0:0:0:0:
256,192,44157,1,0,0:0:0:0:
256,192,44330,1,0,0:0:0:0:
256,192,44847,1,0,0:0:0:0:
256,192,45192,1,0,0:0:0:0:
256,192,45537,1,0,0:0:0:0:
256,192,45709,1,0,0:0:0:0:
256,192,45881,1,0,0:0:0:0:
256,192,46399,1,0,0:0:0:0:
256,192,46744,1,0,0:0:0:0:
256,192,46916,1,0,0:0:0:0:
256,192,47261,1,0,0:0:0:0:
256,192,47950,1,0,0:0:0:0:
256,192,49157,1,8,0:0:0:0:
256,192,49330,1,8,0:0:0:0:
256,192,49502,1,8,0:0:0:0:
256,192,49675,1,8,0:0:0:0:
256,192,50019,1,8,0:0:0:0:
256,192,50364,1,8,0:0:0:0:
256,192,50709,1,8,0:0:0:0:
256,192,51054,1,8,0:0:0:0:
256,192,51226,1,8,0:0:0:0:
256,192,51399,1,8,0:0:0:0:
256,192,51571,1,8,0:0:0:0:
256,192,51916,1,8,0:0:0:0:
256,192,52261,1,8,0:0:0:0:
256,192,52606,1,8,0:0:0:0:
256,192,52778,1,8,0:0:0:0:
256,192,53123,1,8,0:0:0:0:
256,192,53468,1,8,0:0:0:0:
256,192,53813,1,8,0:0:0:0:
256,192,54157,1,8,0:0:0:0:
256,192,54502,1,8,0:0:0:0:
256,192,55192,1,8,0:0:0:0:
256,192,57433,1,8,0:0:0:0:
256,192,57950,1,8,0:0:0:0:
256,192,58295,1,8,0:0:0:0:
256,192,58468,1,8,0:0:0:0:
256,192,58813,1,8,0:0:0:0:
256,192,59157,1,8,0:0:0:0:
256,192,59330,1,8,0:0:0:0:
256,192,59502,1,8,0:0:0:0:
256,192,59675,1,8,0:0:0:0:
256,192,59847,1,8,0:0:0:0:
256,192,60537,1,8,0:0:0:0:
256,192,62778,1,8,0:0:0:0:
256,192,63123,1,8,0:0:0:0:
256,192,63468,1,8,0:0:0:0:
256,192,63813,1,8,0:0:0:0:
256,192,64157,1,8,0:0:0:0:
256,192,64330,1,8,0:0:0:0:
256,192,64502,1,8,0:0:0:0:
256,192,64675,1,8,0:0:0:0:
256,192,64847,1,8,0:0:0:0:
256,192,67088,5,8,0:0:0:0:
256,192,67261,1,8,0:0:0:0:
256,192,67433,1,8,0:0:0:0:
256,192,67606,1,8,0:0:0:0:
256,192,68295,1,8,0:0:0:0:
256,192,68640,1,8,0:0:0:0:
256,192,68985,1,8,0:0:0:0:
256,192,69157,1,8,0:0:0:0:
256,192,69330,1,8,0:0:0:0:
256,192,70019,1,8,0:0:0:0:
256,192,70364,1,8,0:0:0:0:
256,192,71054,1,8,0:0:0:0:
256,192,71571,1,8,0:0:0:0:
256,192,72088,1,8,0:0:0:0:
256,192,72606,1,8,0:0:0:0:
256,192,72950,1,8,0:0:0:0:
256,192,73123,1,8,0:0:0:0:
256,192,73985,1,8,0:0:0:0:
256,192,74157,1,8,0:0:0:0:
256,192,74330,1,8,0:0:0:0:
256,192,74502,1,8,0:0:0:0:
256,192,74675,1,8,0:0:0:0:
256,192,75019,1,8,0:0:0:0:
256,192,75364,1,8,0:0:0:0:
256,192,75709,1,8,0:0:0:0:
256,192,76054,1,8,0:0:0:0:
256,192,76226,1,8,0:0:0:0:
256,192,76744,1,8,0:0:0:0:
256,192,76916,1,8,0:0:0:0:
256,192,77088,1,8,0:0:0:0:
256,192,77261,1,8,0:0:0:0:
256,192,77433,1,8,0:0:0:0:
256,192,77778,1,8,0:0:0:0:
256,192,78123,1,8,0:0:0:0:
256,192,78468,1,8,0:0:0:0:
256,192,78813,1,8,0:0:0:0:
256,192,78985,1,8,0:0:0:0:
256,192,79502,1,8,0:0:0:0:
256,192,79847,1,8,0:0:0:0:
256,192,80192,1,8,0:0:0:0:
256,192,80364,1,8,0:0:0:0:
256,192,80537,1,8,0:0:0:0:
256,192,81226,1,8,0:0:0:0:
256,192,81571,1,8,0:0:0:0:
256,192,86571,5,8,0:0:0:0:
256,192,86744,1,8,0:0:0:0:
256,192,87088,1,8,0:0:0:0:
256,192,87433,1,8,0:0:0:0:
256,192,87778,1,8,0:0:0:0:
256,192,88123,1,8,0:0:0:0:
256,192,88295,1,8,0:0:0:0:
256,192,88640,1,8,0:0:0:0:
256,192,88813,1,8,0:0:0:0:
256,192,89157,1,8,0:0:0:0:
256,192,89502,1,8,0:0:0:0:
256,192,89675,1,8,0:0:0:0:
256,192,90019,1,8,0:0:0:0:
256,192,90364,1,8,0:0:0:0:
256,192,90537,1,8,0:0:0:0:
256,192,90881,1,8,0:0:0:0:
256,192,91054,1,8,0:0:0:0:
256,192,91399,1,8,0:0:0:0:
256,192,91571,1,8,0:0:0:0:
256,192,91916,1,8,0:0:0:0:
256,192,92261,1,8,0:0:0:0:
256,192,92433,1,8,0:0:0:0:
256,192,92778,1,8,0:0:0:0:
256,192,93123,1,8,0:0:0:0:
256,192,93295,1,8,0:0:0:0:
256,192,93640,1,8,0:0:0:0:
256,192,93813,1,8,0:0:0:0:
256,192,94157,1,8,0:0:0:0:
256,192,94502,1,8,0:0:0:0:
256,192,94675,1,8,0:0:0:0:
256,192,95192,1,8,0:0:0:0:
256,192,95537,1,8,0:0:0:0:
256,192,95881,1,8,0:0:0:0:
256,192,96054,1,8,0:0:0:0:
256,192,96399,1,8,0:0:0:0:
256,192,96571,1,8,0:0:0:0:
256,192,96916,1,8,0:0:0:0:
256,192,97261,1,8,0:0:0:0:
256,192,97433,1,8,0:0:0:0:
