osu file format v14

[General]
AudioFilename: audio.mp3
AudioLeadIn: 0
PreviewTime: 115985
Countdown: 0
SampleSet: Soft
StackLeniency: 0.2
Mode: 0
LetterboxInBreaks: 0
EpilepsyWarning: 1
WidescreenStoryboard: 1

[Editor]
Bookmarks: 5683,27752,49821,71890,93959,116028,138097,160166,182235,204304,226373,248442,270511,292580,314649
DistanceSpacing: 0.8
BeatDivisor: 16
GridSize: 32
TimelineZoom: 3.58

[Metadata]
Title:SOL
TitleUnicode:SOL
Artist:Nhato vs. Taishi
ArtistUnicode:Nhato vs. Taishi
Creator:lcfc
Version:SUPERNOVA
Source:
Tags:starfy rrtyui toybot winber1 pono xlolicore- realazy den0saur denosaur sharu starrstyx neilperry lowcombofc revurii regou vikala my angel watame [_Sharuresu_] Nakano Itsuki Ponoyoshi StarForYou bergy collab marathon technical neurofunk wub electronic instrumental AD:Drum'n Bass 2 AD:DNB 2 Diverse System DVSP-0124 Comiket C87
BeatmapID:1966391
BeatmapSetID:941673

[Difficulty]
HPDrainRate:5.7
CircleSize:4
OverallDifficulty:9
ApproachRate:9.5
SliderMultiplier:2.1
SliderTickRate:1

[Events]
//Background and Video events
0,0,"wallhaven-338610.jpg",0,0
//Break Periods
2,160366,168090
//Storyboard Layer 0 (Background)
//Storyboard Layer 1 (Fail)
//Storyboard Layer 2 (Pass)
//Storyboard Layer 3 (Foreground)
//Storyboard Layer 4 (Overlay)
//Storyboard Sound Samples

[TimingPoints]
5684,344.827586206897,4,2,10,40,1,0
5684,-100,4,2,10,40,0,0
6718,-200,4,2,10,40,0,0
7063,-100,4,2,10,40,0,0
8097,-200,4,2,10,40,0,0
8442,-100,4,2,10,40,0,0
9477,-200,4,2,10,40,0,0
9821,-100,4,2,10,40,0,0
10856,-66.6666666666667,4,2,10,40,0,0
11201,-200,4,2,10,40,0,0
11546,-100,4,2,10,40,0,0
12235,-200,4,2,10,40,0,0
12580,-100,4,2,10,40,0,0
13615,-200,4,2,10,40,0,0
13959,-100,4,2,10,40,0,0
14994,-200,4,2,10,40,0,0
15339,-100,4,2,10,40,0,0
16373,-66.6666666666667,4,2,10,40,0,0
16718,-200,4,2,10,40,0,0
17063,-100,4,2,10,40,0,0
17752,-200,4,2,10,40,0,0
18097,-100,4,2,10,40,0,0
19132,-200,4,2,10,40,0,0
19477,-100,4,2,10,40,0,0
20511,-200,4,2,10,40,0,0
20856,-100,4,2,10,40,0,0
21546,-83.3333333333333,4,2,10,40,0,0
22235,-200,4,2,10,40,0,0
22580,-100,4,2,10,40,0,0
23270,-200,4,2,10,40,0,0
23615,-83.3333333333333,4,2,10,40,0,0
24649,-71.4285714285714,4,2,10,40,0,0
24994,-100,4,2,10,40,0,0
26373,-71.4285714285714,4,2,10,40,0,0
27408,-66.6666666666667,4,2,10,40,0,0
28097,-100,4,2,10,40,0,0
33615,-100,4,2,10,40,0,0
35684,-58.8235294117647,4,2,10,40,0,0
35856,-41.6666666666667,4,2,10,40,0,0
36028,-66.6666666666667,4,2,10,40,0,0
36373,-133.333333333333,4,2,10,40,0,0
40166,-58.8235294117647,4,2,10,40,0,0
40684,-100,4,2,10,40,0,0
44304,-66.6666666666667,4,2,10,40,0,0
44649,-100,4,2,10,40,0,0
45684,-71.4285714285714,4,2,10,40,0,0
46201,-100,4,2,10,40,0,0
46890,-71.4285714285714,4,2,10,40,0,0
47063,-100,4,2,10,40,0,0
48270,-100,4,2,10,45,0,0
48615,-100,4,2,10,50,0,0
51201,-125,4,2,10,50,0,0
51890,-100,4,2,10,50,0,0
52235,-83.3333333333333,4,2,10,50,0,0
52408,-153.846153846154,4,2,10,60,0,0
52494,-153.846153846154,4,2,10,50,0,0
52580,-100,4,2,10,50,0,0
54304,-142.857142857143,4,2,10,50,0,0
54563,-100,4,2,10,50,0,0
54821,-83.3333333333333,4,2,10,50,0,0
55080,-71.4285714285714,4,2,10,50,0,0
55339,-100,4,2,10,50,0,0
56718,-125,4,2,10,50,0,0
57408,-100,4,2,10,50,0,0
57925,-166.666666666667,4,2,10,50,0,0
58097,-166.666666666667,4,2,10,60,0,0
59132,-83.3333333333333,4,2,10,60,0,0
59477,-71.4285714285714,4,2,10,60,0,0
59821,-83.3333333333333,4,2,10,63,0,0
60339,-83.3333333333333,4,2,10,65,0,0
60597,-50,4,2,10,65,0,0
60856,-66.6666666666667,4,2,10,65,0,0
61201,-200,4,2,10,65,0,0
62235,-66.6666666666667,4,2,10,70,0,0
62580,-200,4,2,10,70,0,0
62925,-133.333333333333,4,2,10,70,0,0
63270,-100,4,2,10,70,0,0
63615,-66.6666666666667,4,2,10,70,0,0
63959,-200,4,2,10,70,0,0
64649,-66.6666666666667,4,2,10,70,0,0
64994,-200,4,2,10,70,0,0
65339,-58.8235294117647,4,2,10,70,0,0
65684,-200,4,2,10,70,0,0
66028,-52.6315789473684,4,2,10,70,0,0
66373,-100,4,2,10,80,0,0
70511,-200,4,2,10,60,0,0
71890,-250,4,2,1,80,0,0
72235,-41.6666666666667,4,2,1,80,0,0
72925,-83.3333333333333,4,2,1,80,0,0
73270,-38.4615384615385,4,2,1,80,0,0
73873,-50,4,2,1,80,0,0
74304,-62.5,4,2,1,80,0,0
74649,-35.7142857142857,4,2,1,80,0,0
75339,-50,4,2,1,80,0,0
75684,-83.3333333333333,4,2,1,80,0,0
76028,-33.3333333333333,4,2,1,80,0,0
76546,-38.4615384615385,4,2,1,80,0,0
76718,-45.4545454545455,4,2,1,80,0,0
76890,-166.666666666667,4,2,1,80,0,0
77063,-41.6666666666667,4,2,1,80,0,0
77408,-41.6666666666667,4,2,1,80,0,0
77752,-50,4,2,1,80,0,0
78097,-125,4,2,1,80,0,0
78270,-45.4545454545455,4,2,1,80,0,0
78787,-41.6666666666667,4,2,1,80,0,0
79132,-50,4,2,1,80,0,0
79477,-125,4,2,1,80,0,0
79649,-45.4545454545455,4,2,1,80,0,0
80166,-41.6666666666667,4,2,1,80,0,0
80511,-50,4,2,1,80,0,0
80856,-125,4,2,1,80,0,0
81028,-45.4545454545455,4,2,1,80,0,0
81546,-41.6666666666667,4,2,1,80,0,0
81890,-50,4,2,1,80,0,0
82408,-45.4545454545455,4,2,1,80,0,0
82580,-50,4,2,1,80,0,0
82925,-250,4,2,1,80,0,0
83270,-41.6666666666667,4,2,1,80,0,0
83959,-83.3333333333333,4,2,1,80,0,0
84304,-38.4615384615385,4,2,1,80,0,0
84908,-50,4,2,1,80,0,0
85339,-62.5,4,2,1,80,0,0
85684,-35.7142857142857,4,2,1,80,0,0
86373,-50,4,2,1,80,0,0
86718,-83.3333333333333,4,2,1,80,0,0
87063,-33.3333333333333,4,2,1,80,0,0
87580,-38.4615384615385,4,2,1,80,0,0
87752,-45.4545454545455,4,2,1,80,0,0
87925,-125,4,2,1,80,0,0
88097,-55.5555555555556,4,2,1,80,0,0
88442,-50,4,2,1,80,0,0
89046,-45.4545454545455,4,2,1,80,0,0
89477,-41.6666666666667,4,2,1,80,0,0
89821,-45.4545454545455,4,2,1,80,0,0
90339,-55.5555555555556,4,2,1,80,0,0
90856,-50,4,2,1,80,0,0
91201,-100,4,2,1,70,0,0
92235,-62.5,4,2,1,70,0,0
92925,-62.5,4,2,0,50,0,0
93615,-250,4,2,1,70,0,0
93959,-50,4,2,1,80,0,0
94304,-62.5,4,2,1,80,0,0
98701,-41.6666666666667,4,2,1,80,0,0
99132,-100,4,2,1,20,0,0
99477,-41.6666666666667,4,2,1,80,0,0
99821,-50,4,2,1,80,0,0
100856,-38.4615384615385,4,2,1,80,0,0
101201,-45.4545454545455,4,2,1,80,0,0
102235,-35.7142857142857,4,2,1,80,0,0
102580,-41.6666666666667,4,2,1,80,0,0
103615,-33.3333333333333,4,2,1,80,0,0
103959,-38.4615384615385,4,2,1,80,0,0
104994,-50,4,2,1,80,0,0
105339,-62.5,4,2,1,80,0,0
109735,-41.6666666666667,4,2,1,80,0,0
110166,-35.7142857142857,4,2,1,80,0,0
110511,-50,4,2,1,80,0,0
111890,-71.4285714285714,4,2,1,80,0,0
112408,-62.5,4,2,1,80,0,0
112666,-55.5555555555556,4,2,1,80,0,0
112925,-50,4,2,1,80,0,0
113270,-100,4,2,1,80,0,0
113615,-62.5,4,2,1,80,0,0
113959,-55.5555555555556,4,2,1,80,0,0
114218,-50,4,2,1,80,0,0
114821,-100,4,2,1,80,0,0
114994,-83.3333333333333,4,2,1,80,0,0
115166,-71.4285714285714,4,2,1,80,0,0
115339,-62.5,4,2,1,70,0,0
115511,-55.5555555555556,4,2,1,60,0,0
115684,-55.5555555555556,4,2,1,80,0,0
116028,-100,4,2,1,80,0,0
116373,-50,4,2,1,80,0,0
116546,-66.6666666666667,4,2,1,80,0,0
117063,-40,4,2,1,80,0,0
117408,-100,4,2,1,80,0,0
117752,-50,4,2,1,80,0,0
117925,-66.6666666666667,4,2,1,80,0,0
118442,-40,4,2,1,80,0,0
118787,-66.6666666666667,4,2,1,80,0,0
119132,-50,4,2,1,80,0,0
119390,-66.6666666666667,4,2,1,80,0,0
119821,-40,4,2,1,80,0,0
120166,-100,4,2,1,80,0,0
120511,-50,4,2,1,80,0,0
120770,-66.6666666666667,4,2,1,80,0,0
121201,-40,4,2,1,80,0,0
121546,-66.6666666666667,4,2,1,80,0,0
121890,-50,4,2,1,80,0,0
122149,-66.6666666666667,4,2,1,80,0,0
122580,-40,4,2,1,80,0,0
122925,-100,4,2,1,80,0,0
123270,-50,4,2,1,80,0,0
123528,-66.6666666666667,4,2,1,80,0,0
123959,-40,4,2,1,80,0,0
124304,-66.6666666666667,4,2,1,80,0,0
124649,-50,4,2,1,80,0,0
124908,-66.6666666666667,4,2,1,80,0,0
125338,-40,4,2,1,80,0,0
125683,-100,4,2,1,70,0,0
127408,-50,4,2,1,80,0,0
127580,-66.6666666666667,4,2,1,80,0,0
128097,-40,4,2,1,80,0,0
128442,-100,4,2,1,80,0,0
128787,-50,4,2,1,80,0,0
128959,-66.6666666666667,4,2,1,80,0,0
129477,-40,4,2,1,80,0,0
129821,-66.6666666666667,4,2,1,80,0,0
130166,-50,4,2,1,80,0,0
130425,-66.6666666666667,4,2,1,80,0,0
130856,-40,4,2,1,80,0,0
131201,-100,4,2,1,80,0,0
131546,-50,4,2,1,80,0,0
131804,-66.6666666666667,4,2,1,80,0,0
132235,-40,4,2,1,80,0,0
132580,-66.6666666666667,4,2,1,80,0,0
132925,-50,4,2,1,80,0,0
133184,-66.6666666666667,4,2,1,80,0,0
133615,-40,4,2,1,80,0,0
133960,-100,4,2,1,80,0,0
134304,-50,4,2,1,80,0,0
134563,-66.6666666666667,4,2,1,80,0,0
134994,-40,4,2,1,80,0,0
135339,-66.6666666666667,4,2,1,80,0,0
135684,-50,4,2,1,80,0,0
135942,-66.6666666666667,4,2,1,80,0,0
136373,-40,4,2,1,80,0,0
136718,-100,4,2,1,70,0,0
137408,-200,4,2,1,70,0,0
137752,-200,4,2,10,70,0,0
138097,-40,4,2,1,80,0,0
138442,-66.6666666666667,4,2,10,75,0,0
142752,-40,4,2,1,83,0,0
143615,-50,4,2,1,80,0,0
143787,-33.3333333333333,4,2,1,80,0,0
143959,-40,4,2,1,80,0,0
144218,-50,4,2,1,80,0,0
144304,-50,4,2,1,80,0,0
144649,-40,4,2,1,80,0,0
144994,-50,4,2,1,80,0,0
145511,-40,4,2,1,80,0,0
145856,-50,4,2,1,80,0,0
146201,-100,4,2,1,80,0,0
146373,-40,4,2,1,80,0,0
146718,-40,4,2,1,80,0,0
147063,-50,4,2,1,80,0,0
147752,-40,4,2,1,80,0,0
148787,-100,4,2,1,80,0,0
149132,-40,4,2,1,80,0,0
149477,-66.6666666666667,4,2,10,80,0,0
151028,-62.5,4,2,10,80,0,0
151546,-57.1428571428571,4,2,10,80,0,0
153270,-40,4,2,10,80,0,0
153787,-33.3333333333333,4,2,1,80,0,0
154649,-50,4,2,1,80,0,0
154821,-40,4,2,1,80,0,0
155252,-50,4,2,1,80,0,0
155684,-40,4,2,1,80,0,0
156373,-50,4,2,1,80,0,0
156546,-33.3333333333333,4,2,1,80,0,0
156890,-40,4,2,1,80,0,0
157063,-50,4,2,1,80,0,0
157408,-100,4,2,1,70,0,0
157580,-40,4,2,1,70,0,0
157752,-50,4,2,1,70,0,0
158097,-42.9184549356223,4,2,1,70,0,0
158356,-37.593984962406,4,2,1,70,0,0
158615,-33.3333333333333,4,2,1,70,0,0
158787,-66.6666666666667,4,2,10,70,0,0
159649,-50,4,2,10,70,0,0
159821,-200,4,2,1,70,0,0
160166,-285.714285714286,4,2,1,80,0,0
169649,-285.714285714286,4,2,1,5,0,0
169821,-400,4,2,10,50,0,0
171718,-142.857142857143,4,2,10,50,0,0
172235,-285.714285714286,4,2,10,50,0,0
173097,-66.6666666666667,4,2,10,50,0,0
173615,-133.333333333333,4,2,10,50,0,0
173959,-285.714285714286,4,2,10,50,0,0
174477,-100,4,2,10,50,0,0
175339,-285.714285714286,4,2,10,50,0,0
176718,-222.222222222222,4,2,10,50,0,0
177235,-100,4,2,10,50,0,0
178097,-200,4,2,10,50,0,0
178615,-66.6666666666667,4,2,10,50,0,0
179132,-133.333333333333,4,2,10,50,0,0
179477,-181.818181818182,4,2,10,50,0,0
180166,-80.0000000000001,4,2,10,50,0,0
180856,-153.846153846154,4,2,10,50,0,0
181718,-57.1428571428571,4,2,10,50,0,0
182235,-100,4,2,10,70,0,0
187235,-90.9090909090909,4,2,10,70,0,0
187408,-83.3333333333333,4,2,10,70,0,0
187580,-76.9230769230769,4,2,10,70,0,0
187752,-100,4,2,10,70,0,0
190511,-90.9090909090909,4,2,10,70,0,0
196718,-66.6666666666667,4,2,10,70,0,0
197408,-100,4,2,10,70,0,0
198097,-83.3333333333333,4,2,10,70,0,0
203097,-66.6666666666667,4,2,10,70,0,0
204304,-100,4,2,1,80,0,0
204477,-100,4,2,10,75,0,0
208959,-100,4,2,1,75,0,0
209132,-66.6666666666667,4,2,1,83,0,0
209821,-66.6666666666667,4,2,1,80,0,0
210166,-100,4,2,10,75,0,0
212580,-76.9230769230769,4,2,10,75,0,0
212839,-55.5555555555556,4,2,10,75,0,0
213097,-66.6666666666667,4,2,10,75,0,0
213356,-50,4,2,10,75,0,0
213959,-66.6666666666667,4,2,1,55,0,0
214649,-66.6666666666667,4,2,1,65,0,0
214994,-200,4,2,1,65,0,0
215339,-83.3333333333333,4,2,1,70,0,0
215511,-83.3333333333333,4,2,10,75,0,0
216373,-71.4285714285714,4,2,10,75,0,0
216718,-83.3333333333333,4,2,10,75,0,0
217752,-71.4285714285714,4,2,10,75,0,0
218097,-83.3333333333333,4,2,10,75,0,0
219132,-71.4285714285714,4,2,10,75,0,0
219477,-83.3333333333333,4,2,10,75,0,0
220166,-66.6666666666667,4,2,1,75,0,0
220856,-200,4,2,1,80,0,0
221201,-83.3333333333333,4,2,1,60,0,0
222235,-83.3333333333333,4,2,1,57,0,0
222580,-83.3333333333333,4,2,1,54,0,0
223097,-83.3333333333333,4,2,1,50,0,0
223615,-100,4,2,10,55,0,0
223873,-100,4,2,10,60,0,0
224132,-100,4,2,10,65,0,0
224477,-100,4,2,10,70,0,0
224649,-100,4,2,10,80,0,0
224735,-100,4,2,10,80,0,0
224821,-100,4,2,10,80,0,0
224908,-100,4,2,10,80,0,0
224994,-125,4,2,1,80,0,0
226028,-200,4,2,1,80,0,0
226373,-50,4,2,1,80,0,0
226718,-50,4,2,1,80,0,0
227752,-44.4444444444445,4,2,1,80,0,0
228787,-40,4,2,1,80,0,0
229735,-50,4,2,1,80,0,0
230511,-33.3333333333333,4,2,1,80,0,0
231028,-25,4,2,1,80,0,0
231373,-200,4,2,1,80,0,0
231546,-50,4,2,1,80,0,0
231718,-40,4,2,1,80,0,0
231890,-40,4,2,1,80,0,0
232235,-50,4,2,1,80,0,0
232580,-200,4,2,1,80,0,0
232752,-40,4,2,1,80,0,0
233615,-50,4,2,1,80,0,0
233959,-200,4,2,1,80,0,0
234132,-40,4,2,1,80,0,0
234994,-50,4,2,1,80,0,0
235339,-200,4,2,1,80,0,0
235511,-40,4,2,1,80,0,0
236373,-50,4,2,1,80,0,0
236718,-100,4,2,1,80,0,0
236890,-50,4,2,1,80,0,0
238787,-44.4444444444445,4,2,1,80,0,0
239477,-200,4,2,1,80,0,0
239821,-40,4,2,1,80,0,0
240684,-50,4,2,1,80,0,0
241028,-100,4,2,1,80,0,0
241201,-50,4,2,1,80,0,0
241546,-33.3333333333333,4,2,1,80,0,0
241890,-50,4,2,1,80,0,0
242063,-25,4,2,1,80,0,0
242408,-200,4,2,1,80,0,0
242580,-50,4,2,1,80,0,0
242752,-40,4,2,1,80,0,0
242925,-40,4,2,1,80,0,0
243270,-50,4,2,1,80,0,0
244649,-40,4,2,1,80,0,0
245597,-66.6666666666667,4,2,1,70,0,0
246718,-50,4,2,1,70,0,0
247063,-200,4,2,1,70,0,0
247149,-133.333333333333,4,2,1,70,0,0
247235,-100,4,2,1,70,0,0
247408,-100,4,2,0,70,0,0
247494,-80,4,2,0,70,0,0
247580,-66.6666666666667,4,2,0,70,0,0
247666,-57.1428571428571,4,2,0,70,0,0
247752,-57.1428571428571,4,2,1,70,0,0
248097,-200,4,2,1,70,0,0
248442,-41.6666666666667,4,2,1,80,0,0
248787,-50,4,2,1,80,0,0
249477,-133.333333333333,4,2,1,80,0,0
249821,-45.4545454545455,4,2,1,80,0,0
250425,-133.333333333333,4,2,1,80,0,0
250684,-66.6666666666667,4,2,1,80,0,0
250856,-50,4,2,1,80,0,0
251201,-41.6666666666667,4,2,1,80,0,0
252235,-133.333333333333,4,2,1,80,0,0
252580,-38.4615384615385,4,2,1,80,0,0
253270,-71.4285714285714,4,2,1,80,0,0
253356,-55.5555555555556,4,2,1,80,0,0
253442,-45.4545454545455,4,2,1,80,0,0
253528,-38.4615384615385,4,2,1,80,0,0
253615,-200,4,2,1,80,0,0
253959,-50,4,2,1,80,0,0
254304,-133.333333333333,4,2,1,80,0,0
254649,-66.6666666666667,4,2,1,80,0,0
254821,-33.3333333333333,4,2,1,80,0,0
254994,-66.6666666666667,4,2,1,80,0,0
255166,-133.333333333333,4,2,1,80,0,0
255339,-50,4,2,1,80,0,0
255684,-133.333333333333,4,2,1,80,0,0
256028,-66.6666666666667,4,2,1,80,0,0
256201,-33.3333333333333,4,2,1,80,0,0
256373,-66.6666666666667,4,2,1,80,0,0
256546,-133.333333333333,4,2,1,80,0,0
256718,-50,4,2,1,80,0,0
257063,-133.333333333333,4,2,1,80,0,0
257408,-66.6666666666667,4,2,1,80,0,0
257580,-33.3333333333333,4,2,1,80,0,0
257752,-66.6666666666667,4,2,1,80,0,0
257925,-133.333333333333,4,2,1,80,0,0
258097,-50,4,2,1,80,0,0
258442,-133.333333333333,4,2,1,80,0,0
258701,-80,4,2,1,80,0,0
259304,-133.333333333333,4,2,1,80,0,0
259477,-41.6666666666667,4,2,1,80,0,0
259821,-50,4,2,1,80,0,0
260511,-133.333333333333,4,2,1,80,0,0
260856,-45.4545454545455,4,2,1,80,0,0
261459,-133.333333333333,4,2,1,80,0,0
261718,-66.6666666666667,4,2,1,80,0,0
261890,-50,4,2,1,80,0,0
262235,-41.6666666666667,4,2,1,80,0,0
263270,-133.333333333333,4,2,1,80,0,0
263615,-38.4615384615385,4,2,1,80,0,0
264304,-71.4285714285714,4,2,1,80,0,0
264390,-55.5555555555556,4,2,1,80,0,0
264477,-45.4545454545455,4,2,1,80,0,0
264563,-38.4615384615385,4,2,1,80,0,0
264649,-200,4,2,1,80,0,0
264821,-66.6666666666667,4,2,1,80,0,0
266028,-50,4,2,1,80,0,0
266373,-133.333333333333,4,2,1,80,0,0
266718,-66.6666666666667,4,2,1,80,0,0
266977,-133.333333333333,4,2,1,80,0,0
267408,-41.6666666666667,4,2,1,80,0,0
267752,-66.6666666666667,4,2,1,70,0,0
268097,-200,4,2,1,70,0,0
268442,-100,4,2,1,70,0,0
268787,-66.6666666666667,4,2,1,80,0,0
270166,-200,4,2,1,70,0,0
270511,-100,4,2,1,80,0,0
270856,-50,4,2,1,80,0,0
271115,-66.6666666666667,4,2,1,80,0,0
271546,-40,4,2,1,80,0,0
272063,-100,4,2,1,80,0,0
272235,-50,4,2,1,80,0,0
272494,-66.6666666666667,4,2,1,80,0,0
273011,-40,4,2,1,80,0,0
273270,-100,4,2,1,80,0,0
273615,-50,4,2,1,80,0,0
273787,-66.6666666666667,4,2,1,80,0,0
274390,-40,4,2,1,80,0,0
274821,-100,4,2,1,80,0,0
274994,-50,4,2,1,80,0,0
275252,-66.6666666666667,4,2,1,80,0,0
275770,-40,4,2,1,80,0,0
276028,-66.6666666666667,4,2,1,80,0,0
276373,-50,4,2,1,80,0,0
276632,-66.6666666666667,4,2,1,80,0,0
277149,-40,4,2,1,80,0,0
277580,-100,4,2,1,80,0,0
277752,-50,4,2,1,80,0,0
278011,-66.6666666666667,4,2,1,80,0,0
278528,-40,4,2,1,80,0,0
278787,-66.6666666666667,4,2,1,80,0,0
279132,-50,4,2,1,80,0,0
279390,-66.6666666666667,4,2,1,80,0,0
279908,-40,4,2,1,80,0,0
280166,-100,4,2,1,70,0,0
281890,-50,4,2,1,80,0,0
282149,-66.6666666666667,4,2,1,80,0,0
282666,-40,4,2,1,80,0,0
283097,-100,4,2,1,80,0,0
283270,-50,4,2,1,80,0,0
283528,-66.6666666666667,4,2,1,80,0,0
284046,-40,4,2,1,80,0,0
284304,-66.6666666666667,4,2,1,80,0,0
284649,-50,4,2,1,80,0,0
284908,-66.6666666666667,4,2,1,80,0,0
285425,-40,4,2,1,80,0,0
285856,-100,4,2,1,80,0,0
286028,-50,4,2,1,80,0,0
286287,-66.6666666666667,4,2,1,80,0,0
286804,-40,4,2,1,80,0,0
287063,-66.6666666666667,4,2,1,80,0,0
287408,-50,4,2,1,80,0,0
287666,-66.6666666666667,4,2,1,80,0,0
288184,-40,4,2,1,80,0,0
288615,-100,4,2,1,80,0,0
288787,-50,4,2,1,80,0,0
289046,-66.6666666666667,4,2,1,80,0,0
289563,-40,4,2,1,80,0,0
289821,-66.6666666666667,4,2,1,80,0,0
290166,-50,4,2,1,80,0,0
290425,-66.6666666666667,4,2,1,80,0,0
290942,-40,4,2,1,80,0,0
291201,-100,4,2,1,50,0,0
292235,-100,4,2,10,70,0,0
292580,-76.9230769230769,4,2,1,80,0,0
292666,-76.9230769230769,4,2,10,65,0,0
292925,-76.9230769230769,4,2,11,65,0,0
293011,-76.9230769230769,4,2,10,65,0,0
293615,-76.9230769230769,4,2,11,65,0,0
293701,-76.9230769230769,4,2,10,65,0,0
293959,-66.6666666666667,4,2,10,65,0,0
295339,-71.4285714285714,4,2,10,65,0,0
295684,-71.4285714285714,4,2,11,65,0,0
295770,-71.4285714285714,4,2,10,65,0,0
296373,-71.4285714285714,4,2,11,65,0,0
296459,-71.4285714285714,4,2,10,65,0,0
296977,-71.4285714285714,4,2,10,25,0,0
297063,-100,4,2,10,73,0,0
297235,-100,4,2,1,73,0,0
297408,-40,4,2,1,73,0,0
298097,-50,4,2,1,80,0,0
298442,-100,4,2,1,80,0,0
298701,-40,4,2,1,80,0,0
299477,-66.6666666666667,4,2,1,80,0,0
299821,-40,4,2,1,80,0,0
300856,-100,4,2,1,80,0,0
301201,-66.6666666666667,4,2,1,80,0,0
301459,-40,4,2,1,80,0,0
301718,-50,4,2,1,80,0,0
301890,-40,4,2,1,80,0,0
302235,-50,4,2,1,80,0,0
303097,-33.3333333333333,4,2,1,80,0,0
303270,-50,4,2,1,80,0,0
303615,-66.6666666666667,4,2,1,80,0,0
303701,-66.6666666666667,4,2,10,65,0,0
303959,-66.6666666666667,4,2,11,65,0,0
304046,-66.6666666666667,4,2,10,65,0,0
304649,-66.6666666666667,4,2,11,65,0,0
304735,-66.6666666666667,4,2,10,65,0,0
304994,-62.5,4,2,10,65,0,0
306373,-55.5555555555556,4,2,10,65,0,0
306718,-55.5555555555556,4,2,11,65,0,0
306804,-55.5555555555556,4,2,10,65,0,0
307408,-55.5555555555556,4,2,11,65,0,0
307494,-55.5555555555556,4,2,10,65,0,0
308097,-76.9230769230769,4,2,10,73,0,0
308270,-76.9230769230769,4,2,1,73,0,0
308442,-40,4,2,1,73,0,0
309132,-50,4,2,1,80,0,0
309477,-100,4,2,1,80,0,0
309735,-40,4,2,1,80,0,0
310511,-66.6666666666667,4,2,1,80,0,0
310856,-40,4,2,1,80,0,0
311890,-133.333333333333,4,2,1,70,0,0
312321,-100,4,2,1,70,0,0
313270,-100,4,2,10,70,0,0
314304,-200,4,2,1,70,0,0
314649,-200,4,2,1,70,0,0
328442,-20,4,2,1,20,0,0

[Colours]
Combo1 : 216,52,89
Combo2 : 255,244,236
Combo3 : 208,193,147
Combo4 : 141,232,32
Combo5 : 215,198,49
Combo6 : 60,173,176

[HitObjects]
66,117,5684,22,0,P|48:166|55:217,1,105,0|0,3:0|0:0,0:0:0:0:
116,328,5942,1,0,0:0:0:0:
192,357,6028,2,0,L|251:353,1,52.5,8|0,0:0|0:0,0:0:0:0:
366,288,6201,1,0,0:0:0:0:
371,257,6287,2,0,L|395:89,1,157.5
437,219,6718,70,0,P|389:237|367:267,1,78.75,8|0,0:1|0:0,0:0:0:0:
344,155,7063,6,0,P|366:107|347:24,1,105
263,86,7321,1,0,0:0:0:0:
263,86,7408,2,0,P|239:39|196:9,1,105
156,119,7752,2,0,P|104:111|55:129,1,105
198,204,8097,70,0,P|246:194|291:208,1,78.75
87,225,8442,6,0,P|152:239|214:214,1,105,0|0,3:0|0:0,0:0:0:0:
288,281,8701,1,0,0:0:0:0:
358,217,8787,2,0,P|409:207|459:221,1,105,8|0,0:0|0:0,0:0:0:0:
378,107,9046,2,0,P|390:63|391:117,1,157.5
144,68,9477,70,0,P|174:50|236:53,1,78.75
198,125,9821,6,0,L|187:232,1,105
273,321,10079,1,0,0:0:0:0:
281,337,10166,2,0,P|223:315|158:354,1,105,8|0,0:1|0:0,0:0:0:0:
335,247,10425,2,0,P|393:225|458:264,1,105
396,352,10684,2,0,L|386:269,1,52.5
370,135,10856,70,0,L|360:52,1,78.7500030040742,8|0,0:3|0:0,0:0:0:0:
200,182,11028,1,0,0:0:0:0:
200,182,11115,1,8,0:3:0:0:
200,182,11201,6,0,L|245:177,1,26.25,0|0,3:0|0:0,0:0:0:0:
108,192,11373,2,0,L|82:195,1,26.25
160,7,11546,70,0,L|146:128,1,105,8|0,0:0|0:0,0:0:0:0:
0,37,11804,2,0,L|14:158,1,105
35,286,12063,1,0,0:0:0:0:
138,310,12235,6,0,P|101:287|51:286,1,78.75,8|0,0:1|0:0,0:0:0:0:
207,372,12580,70,0,P|229:324|210:241,1,105
267,160,12838,1,0,0:0:0:0:
267,160,12925,2,0,P|291:207|334:237,1,105
419,334,13184,2,0,P|367:326|318:344,1,105
424,239,13442,2,0,L|433:164,1,52.5
441,88,13615,6,0,L|451:3,1,78.75,8|0,0:1|0:0,0:0:0:0:
344,58,13959,70,0,L|212:67,1,105,0|0,3:0|0:0,0:0:0:0:
95,4,14218,1,0,0:0:0:0:
10,37,14304,2,0,P|32:83|19:156,1,105,8|0,0:0|0:0,0:0:0:0:
133,199,14563,2,0,P|111:245|124:318,1,105
136,315,14821,1,0,0:0:0:0:
152,103,14994,6,0,P|164:140|155:181,1,78.75,8|0,0:1|0:0,0:0:0:0:
206,263,15339,70,0,L|336:249,1,105
434,143,15597,1,0,0:0:0:0:
442,159,15684,2,0,P|384:137|319:176,1,105,8|0,0:1|0:0,0:0:0:0:
400,259,15943,2,0,P|458:237|523:276,1,105
355,377,16202,2,0,L|345:294,1,52.5
266,175,16373,6,0,B|306:150|358:200|305:243|261:215|261:215|217:162|116:215,1,236.250009012223,8|8,0:3|0:3,0:0:0:0:
56,270,16718,70,0,L|61:312,1,26.25,0|0,3:0|0:0,0:0:0:0:
46,170,16890,2,0,L|43:144,1,26.25
194,366,17063,6,0,L|205:262,1,105,8|0,0:0|0:0,0:0:0:0:
242,80,17321,2,0,P|244:149|292:188,1,105
290,183,17580,1,0,0:0:0:0:
476,106,17752,70,0,P|443:84|405:88,1,78.75,8|0,0:1|0:0,0:0:0:0:
483,190,18097,6,0,L|474:328,1,105
398,368,18356,1,0,0:0:0:0:
373,354,18442,2,0,P|330:340|264:368,1,105
195,290,18701,2,0,P|145:304|96:286,1,105
84,267,18959,1,0,0:0:0:0:
233,202,19132,70,0,L|240:121,1,78.75,8|0,0:1|0:0,0:0:0:0:
135,184,19477,6,0,P|182:177|243:214,1,105,0|0,3:0|0:0,0:0:0:0:
305,289,19735,1,0,0:0:0:0:
385,214,19821,2,0,L|393:90,1,105,8|0,0:0|0:0,0:0:0:0:
231,5,20080,2,0,L|237:109,1,105
239,123,20339,1,0,0:0:0:0:
129,262,20511,70,0,L|135:168,1,78.75,8|0,0:1|0:0,0:0:0:0:
42,93,20856,6,0,P|56:145|25:208,1,105
129,262,21115,1,0,0:0:0:0:
108,267,21201,2,0,P|94:319|125:382,1,105
206,380,21459,1,0,0:0:0:0:
230,377,21546,2,0,L|346:367,1,62.9999980773926
454,356,21718,2,0,L|338:366,1,62.9999980773926
251,224,21890,2,0,L|313:229,1,62.9999980773926,8|0,0:3|0:0,0:0:0:0:
462,244,22063,1,0,0:0:0:0:
462,244,22149,1,8,0:3:0:0:
462,244,22235,70,0,L|459:281,1,26.25,0|0,3:0|0:0,0:0:0:0:
469,147,22408,2,0,L|472:121,1,26.25
313,229,22580,6,0,L|176:238,1,105,8|0,0:0|0:0,0:0:0:0:
128,103,22839,2,0,P|148:163|124:218,1,105
118,219,23097,1,0,0:0:0:0:
262,123,23270,70,0,P|251:86|281:35,1,78.75,8|0,0:1|0:0,0:0:0:0:
264,49,23615,6,0,P|226:106|257:197,1,125.999996154785
328,263,23873,1,0,0:0:0:0:
356,280,23959,70,0,L|401:272,6,31.4999990386963
267,336,24304,6,0,L|222:328,6,31.4999990386963
153,264,24649,70,0,P|143:287|138:319,1,36.749998878479
147,254,24735,2,0,P|135:276|127:308,1,36.749998878479
142,245,24821,2,0,P|128:265|118:296,1,36.749998878479
138,235,24908,2,0,P|123:254|110:284,1,36.749998878479
155,220,24994,6,0,P|164:190|163:155,1,52.5,0|0,3:0|0:0,0:0:0:0:
75,59,25166,2,0,P|76:85|84:110,1,52.5
236,205,25339,2,0,L|382:188,1,105,8|0,0:0|0:0,0:0:0:0:
448,130,25597,1,0,0:0:0:0:
434,140,25684,2,0,P|427:168|445:231,1,52.5
482,299,25856,2,0,P|489:327|471:390,1,52.5
368,384,26028,69,0,0:0:0:0:
336,365,26114,1,0,0:0:0:0:
300,356,26200,1,0,0:0:0:0:
264,358,26286,1,0,0:0:0:0:
188,381,26373,6,0,L|138:373,6,36.749998878479
100,307,26718,1,8,0:1:0:0:
99,292,26804,1,0,0:0:0:0:
99,277,26890,1,0,0:0:0:0:
98,262,26976,1,0,0:0:0:0:
156,184,27063,22,0,L|161:147,6,36.749998878479
112,76,27408,6,0,L|106:39,12,19.6875007510186,8|0|0|0|0|0|0|0|0|0|0|0|0,0:3|0:0|0:0|0:0|0:0|0:0|0:0|0:0|0:0|0:0|0:0|0:0|0:0,0:0:0:0:
112,76,27752,22,0,B|227:58|227:58|256:5,1,157.500006008148,0|0,3:0|0:0,0:0:0:0:
246,22,28097,2,0,L|230:111,1,52.5,8|0,0:0|0:0,0:0:0:0:
333,172,28270,1,0,0:0:0:0:
333,172,28356,1,0,0:0:0:0:
333,172,28442,2,0,L|324:102,1,52.5
415,157,28615,2,0,L|408:104,1,52.5
512,112,28787,1,0,0:0:0:0:
512,112,29132,6,0,L|505:59,2,52.5,8|0|0,0:2|0:0|0:0,0:0:0:0:
433,276,29477,1,0,0:0:0:0:
433,276,29649,2,0,L|400:271,3,26.25
507,223,29821,2,0,B|535:195|535:195|448:210,1,105
264,285,30166,2,0,L|258:338,1,52.5,2|0,0:0|0:0,0:0:0:0:
272,347,30339,2,0,L|279:295,1,52.5,2|0,0:0|0:0,0:0:0:0:
98,306,30511,69,0,3:0:0:0:
98,306,30856,2,0,L|91:253,1,52.5,8|0,0:0|0:0,0:0:0:0:
1,244,31028,1,0,0:0:0:0:
1,244,31115,1,0,0:0:0:0:
1,244,31201,2,0,B|-22:351|-22:351|23:319,1,157.5
91,253,31546,1,8,0:1:0:0:
215,284,31718,6,0,L|219:258,1,26.25
230,282,31804,2,0,L|219:257,1,26.25
240,274,31890,2,0,L|219:257,1,26.25
244,262,31977,2,0,L|218:257,1,26.25
242,246,32063,2,0,L|217:256,1,26.25
234,236,32149,2,0,L|217:256,1,26.25
223,226,32235,1,0,0:0:0:0:
136,34,32408,70,0,L|188:27,1,52.5
212,99,32580,2,0,L|244:104,9,17.5
188,27,32925,6,0,L|166:153,1,105,8|0,0:3|0:0,0:0:0:0:
71,172,33184,1,8,0:3:0:0:
71,172,33270,2,0,L|88:72,1,52.5,0|0,3:0|0:0,0:0:0:0:
289,2,33442,2,0,L|279:53,1,52.5,8|0,0:3|0:0,0:0:0:0:
351,136,33615,70,0,L|434:148,1,52.5,8|0,0:0|0:0,0:0:0:0:
512,219,33787,2,0,L|460:211,1,52.5
403,143,33959,2,0,B|294:158|294:158|276:214,1,157.5
263,291,34304,1,0,0:0:0:0:
263,291,34649,6,0,L|269:343,2,52.5,8|0|0,0:1|0:0|0:0,0:0:0:0:
42,214,34994,1,0,0:0:0:0:
42,214,35166,2,0,L|47:181,3,26.25
39,227,35339,69,0,0:0:0:0:
118,283,35511,2,0,P|117:263|109:281,1,52.5,2|0,0:0|0:0,0:0:0:0:
255,291,35684,2,0,P|230:269|242:299,1,89.2500017023087,10|0,0:0|0:0,0:0:0:0:
394,201,35856,2,0,P|358:173|383:211,1,125.999996154785,2|0,0:0|0:0,0:0:0:0:
310,13,36028,6,0,B|286:-8|286:-8|465:28|465:28|452:11,1,236.250009012223,0|0,3:0|0:0,0:0:0:0:
453,12,36373,2,0,L|438:125,1,78.7500030040742,2|0,0:0|0:0,0:0:0:0:
502,239,36632,1,0,0:0:0:0:
502,239,36718,2,0,L|511:160,1,78.7500030040742
511,160,37063,70,0,L|461:176,1,39.3750015020371
401,324,37235,2,0,L|366:334,3,19.6875007510186
422,318,37408,5,0,3:0:0:0:
450,97,37580,1,0,3:0:0:0:
450,97,37666,1,0,3:0:0:0:
450,97,37752,1,0,3:0:0:0:
236,0,37925,69,4,0:3:0:0:
266,125,38097,1,0,3:0:0:0:
236,0,38270,1,0,0:0:0:0:
194,187,38442,5,8,0:3:0:0:
166,160,38528,1,4,0:3:0:0:
129,151,38614,1,4,0:3:0:0:
92,165,38700,1,8,0:3:0:0:
28,113,38787,70,0,L|41:27,1,78.7500030040742,0|0,3:0|0:0,0:0:0:0:
114,332,39132,1,8,0:0:0:0:
114,332,39304,2,0,L|127:246,1,78.7500030040742
315,151,39649,2,0,L|304:229,1,78.7500030040742
479,379,39994,2,0,L|486:331,1,39.3750015020371
420,58,40166,6,0,B|386:67|386:67|403:264|403:264|366:277,1,267.750005106926,8|0,0:1|0:0,0:0:0:0:
304,228,40511,2,0,B|256:218|256:218|281:249,1,89.2500017023087
370,276,40684,2,0,L|378:308,3,26.25
296,348,40856,69,0,0:0:0:0:
234,122,41028,1,0,0:0:0:0:
83,250,41201,2,0,L|76:302,1,52.5
90,311,41374,2,0,L|96:258,1,52.5
0,269,41546,6,0,L|226:295,1,210,0|8,3:0|0:0,0:0:0:0:
512,195,42063,2,0,L|407:182,1,105
197,31,42408,2,0,L|301:43,1,105
467,86,42752,70,0,L|441:81,1,26.25
465,71,42838,2,0,L|440:81,1,26.25
457,61,42924,2,0,L|440:81,1,26.25
445,57,43011,2,0,L|440:82,1,26.25
429,59,43097,2,0,L|439:83,1,26.25
419,67,43183,2,0,L|439:83,1,26.25
411,79,43270,2,0,L|385:83,1,26.25
409,94,43356,2,0,L|384:83,1,26.25
401,104,43442,2,0,L|384:83,1,26.25
389,108,43529,2,0,L|384:82,1,26.25
373,106,43615,2,0,L|383:81,1,26.25
363,98,43701,2,0,L|383:81,1,26.25
301,43,43787,1,0,0:0:0:0:
45,250,43959,6,0,L|95:236,1,52.5,8|0,0:3|0:0,0:0:0:0:
231,169,44132,1,8,0:3:0:0:
231,169,44218,1,8,0:3:0:0:
231,169,44304,70,0,B|26:140|26:140|46:161,1,236.250009012223,0|0,3:0|0:0,0:0:0:0:
95,236,44649,1,8,0:0:0:0:
95,236,44821,2,0,L|76:343,1,105
405,261,45166,2,0,L|423:158,1,105
225,13,45511,2,0,L|237:83,1,52.5
315,25,45684,6,0,L|77:65,1,220.499993270874,8|0,0:1|0:0,0:0:0:0:
25,119,46028,2,0,B|0:139|0:139|10:88,1,73.4999977569581
97,61,46201,2,0,L|103:93,4,26.25
235,266,46546,69,0,0:0:0:0:
380,77,46718,1,0,0:0:0:0:
472,274,46891,2,0,B|420:262|420:262|446:283,1,73.4999977569581
218,374,47063,6,0,B|323:344|323:344|331:297,1,157.5,0|0,3:0|0:0,0:0:0:0:
332,298,47408,2,0,L|345:349,1,52.5,8|0,0:0|0:0,0:0:0:0:
467,179,47580,1,2,0:0:0:0:
467,179,47666,1,0,0:0:0:0:
467,179,47752,2,0,L|454:128,1,52.5,2|0,0:0|0:0,0:0:0:0:
380,77,47925,2,0,L|329:90,1,52.5
235,266,48097,2,0,L|184:253,1,52.5
32,99,48270,70,0,L|25:124,1,26.25
15,101,48356,2,0,L|23:126,1,26.25
5,108,48442,2,0,L|24:126,1,26.25,8|0,0:1|0:0,0:0:0:0:
1,120,48529,2,0,L|25:126,1,26.25
2,136,48615,2,0,L|26:127,1,26.25
9,147,48701,2,0,L|26:127,1,26.25
109,132,48787,37,0,1:0:0:0:
156,26,48959,1,0,0:0:0:0:
109,132,49132,53,0,3:0:0:0:
137,147,49218,1,0,0:0:0:0:
175,147,49304,1,0,0:0:0:0:
212,133,49390,1,0,0:0:0:0:
244,101,49477,1,8,0:3:0:0:
266,60,49563,1,4,0:3:0:0:
301,26,49649,1,4,0:3:0:0:
351,15,49735,1,0,0:0:0:0:
402,38,49821,69,0,0:0:0:0:
400,44,49908,1,0,0:0:0:0:
420,92,50080,1,2,0:0:0:0:
415,98,50166,1,0,0:0:0:0:
395,166,50339,1,2,0:0:0:0:
387,167,50425,1,0,0:0:0:0:
317,210,50597,1,2,0:0:0:0:
309,203,50684,1,0,0:0:0:0:
220,195,50856,1,2,0:0:0:0:
214,174,50942,1,0,0:0:0:0:
231,143,51028,70,0,P|223:170|219:194,1,52.5,0|2,0:0|0:0,0:0:0:0:
148,355,51201,2,0,P|140:292|120:232,1,126,0|0,3:0|0:0,0:0:0:0:
120,232,51546,5,2,0:0:0:0:
54,202,51632,2,0,P|52:162|84:137,1,84,0|2,0:0|0:0,0:0:0:0:
95,305,51890,2,0,P|56:337|7:325,1,105,0|2,0:0|0:0,0:0:0:0:
6,317,52149,1,0,0:0:0:0:
7,309,52235,70,0,P|42:293|62:278,1,62.9999980773926,0|2,0:0|0:0,0:0:0:0:
178,176,52408,2,0,P|175:158|169:143,1,34.1249984378815,8|0,0:1|0:0,0:0:0:0:
82,46,52580,5,2,3:2:0:0:
84,52,52667,1,0,0:0:0:0:
64,100,52839,1,2,0:0:0:0:
69,106,52925,1,0,0:0:0:0:
89,174,53098,1,2,0:0:0:0:
100,176,53184,1,0,0:0:0:0:
167,218,53356,1,2,0:0:0:0:
175,211,53443,1,0,0:0:0:0:
264,203,53615,1,2,3:2:0:0:
270,182,53701,1,0,0:0:0:0:
248,153,53787,70,0,P|259:176|263:202,1,52.5,0|2,0:0|0:0,0:0:0:0:
238,350,53959,1,0,3:0:0:0:
304,365,54046,1,4,0:3:0:0:
351,329,54132,1,4,0:3:0:0:
344,294,54218,1,4,0:3:0:0:
327,279,54304,2,0,B|290:298|290:298|321:293,1,73.4999977569581,2|0,0:0|0:0,0:0:0:0:
327,297,54563,1,2,0:0:0:0:
332,302,54649,6,0,L|345:238,1,52.5,0|0,3:0|0:0,0:0:0:0:
304,51,54821,1,2,0:0:0:0:
304,51,54907,2,0,L|330:140,1,62.9999980773926
480,211,55080,1,2,0:0:0:0:
480,211,55166,2,0,P|443:195|411:184,1,73.4999977569581
170,77,55339,69,2,3:2:0:0:
176,83,55425,1,0,0:0:0:0:
222,116,55597,1,2,0:0:0:0:
223,129,55684,1,0,3:0:0:0:
259,190,55856,1,2,0:0:0:0:
249,205,55942,1,0,0:0:0:0:
234,282,56115,1,2,0:0:0:0:
215,291,56201,1,0,0:0:0:0:
154,352,56373,1,2,3:2:0:0:
122,340,56459,1,0,0:0:0:0:
104,366,56546,6,0,P|128:354|154:352,1,52.5,0|2,0:0|0:0,0:0:0:0:
415,316,56718,2,0,P|364:304|307:251,1,126,8|0,0:1|0:0,0:0:0:0:
310,256,57063,69,2,3:2:0:0:
363,206,57149,2,0,P|392:234|385:274,1,84,0|2,0:0|0:0,0:0:0:0:
248,210,57408,2,0,P|248:159|289:129,1,105,0|2,3:0|0:0,0:0:0:0:
296,133,57666,1,0,0:0:0:0:
301,139,57752,6,0,P|292:164|287:190,1,52.5,0|2,0:0|0:0,0:0:0:0:
237,324,57925,2,0,P|235:308|231:293,1,31.4999990386963
127,192,58097,69,2,3:2:0:0:
138,207,58184,1,0,0:0:0:0:
161,71,58356,1,2,0:0:0:0:
155,105,58442,1,8,0:0:0:0:
304,48,58615,1,2,0:0:0:0:
256,57,58701,1,0,0:0:0:0:
403,181,58873,1,2,0:0:0:0:
365,143,58959,1,0,0:0:0:0:
359,147,59046,1,0,0:0:0:0:
354,151,59132,6,0,L|366:89,1,62.9999980773926,10|0,0:0|0:0,0:0:0:0:
341,249,59304,2,0,P|317:232|287:215,1,62.9999980773926,0|2,0:0|0:0,0:0:0:0:
455,304,59477,70,0,P|420:315|387:331,1,73.4999977569581,0|0,3:0|0:0,0:0:0:0:
87,361,59649,1,0,0:0:0:0:
138,374,59735,1,0,0:0:0:0:
166,355,59821,1,2,0:0:0:0:
167,331,59908,1,0,0:0:0:0:
159,320,59994,1,0,0:0:0:0:
152,322,60080,1,2,0:0:0:0:
69,321,60166,6,0,P|75:291|78:258,1,62.9999980773926,8|0,0:1|0:0,0:0:0:0:
28,52,60339,2,0,P|35:82|46:112,1,62.9999980773926,2|0,0:0|0:0,0:0:0:0:
197,213,60511,69,0,0:0:0:0:
120,174,60597,2,0,B|186:157|221:204|203:215|248:260|312:234,1,210,2|0,0:0|0:0,0:0:0:0:
376,100,60856,6,0,B|378:116|400:115|417:83|398:37|275:22|238:122|290:185,1,236.250009012223,10|0,0:0|0:0,0:0:0:0:
279,167,61201,2,0,P|259:133|268:96,1,78.75,8|0,0:1|0:0,0:0:0:0:
353,180,61546,2,0,P|392:182|420:209,1,78.75,2|0,0:0|0:0,0:0:0:0:
402,284,61890,2,0,P|386:319|351:335,1,78.75,8|0,0:1|0:0,0:0:0:0:
352,336,62235,70,0,P|228:305|121:286,1,236.250009012223,8|0,0:0|0:0,0:0:0:0:
53,331,62580,2,0,P|92:335|122:311,1,78.75,8|0,0:1|0:0,0:0:0:0:
190,278,62925,2,0,P|187:221|139:188,1,118.125004506111,2|0,0:0|0:0,0:0:0:0:
64,179,63270,2,0,P|73:113|90:23,1,157.5,8|0,0:1|0:0,0:0:0:0:
90,23,63615,6,0,B|157:-9|233:39|233:110|233:110|201:120|193:141,1,236.250009012223,8|0,0:0|0:0,0:0:0:0:
251,184,63959,2,0,P|284:186|317:148,1,78.75,8|0,0:0|0:0,0:0:0:0:
373,75,64304,2,0,P|372:39|334:40,1,78.75,2|0,0:0|0:0,0:0:0:0:
337,39,64649,70,0,P|359:175|369:272,1,236.250009012223,8|0,0:0|0:0,0:0:0:0:
343,346,64994,1,8,0:1:0:0:
337,350,65080,1,0,0:0:0:0:
332,354,65166,1,0,0:0:0:0:
327,358,65252,1,0,0:0:0:0:
421,328,65339,6,0,B|451:281|371:218|326:267|247:204|284:132,1,267.750005106926,8|0,3:2|0:0,0:0:0:0:
212,90,65684,2,0,P|215:64|223:39,1,52.5,2|0,0:0|0:0,0:0:0:0:
217,33,65942,1,0,0:0:0:0:
209,37,66028,70,0,B|137:73|202:223|373:191|351:116,1,299.249992009163,8|0,0:0|0:0,0:0:0:0:
352,122,66373,5,2,3:2:0:0:
121,175,66546,1,0,3:0:0:0:
360,31,66718,69,0,3:0:0:0:
308,252,66890,1,2,3:2:0:0:
426,80,67063,5,0,3:0:0:0:
481,185,67235,1,0,3:0:0:0:
284,168,67408,69,2,3:2:0:0:
363,189,67580,1,0,3:0:0:0:
220,297,67752,5,0,3:0:0:0:
232,291,67925,1,0,3:0:0:0:
137,283,68097,69,2,3:2:0:0:
307,320,68270,1,0,3:0:0:0:
408,259,68442,5,0,3:0:0:0:
245,369,68615,1,2,3:2:0:0:
61,171,68787,69,0,3:0:0:0:
232,291,68959,1,0,3:0:0:0:
226,56,69132,5,0,3:0:0:0:
225,32,69218,1,0,3:0:0:0:
237,12,69304,1,0,3:0:0:0:
256,0,69390,1,0,3:0:0:0:
280,0,69476,1,0,3:0:0:0:
300,11,69563,1,0,3:0:0:0:
331,11,69649,69,0,3:0:0:0:
359,47,69735,1,0,3:0:0:0:
357,97,69821,1,0,3:0:0:0:
324,135,69907,1,0,3:0:0:0:
272,161,69994,1,0,3:0:0:0:
258,220,70080,1,0,3:0:0:0:
335,211,70166,5,0,3:0:0:0:
319,271,70252,1,0,3:0:0:0:
264,299,70338,1,0,3:0:0:0:
206,283,70424,1,0,3:0:0:0:
183,248,70511,70,0,L|177:195,1,52.5
50,70,70856,1,0,1:0:0:0:
67,68,70942,1,0,1:0:0:0:
99,82,71028,1,0,1:0:0:0:
116,80,71114,1,0,1:0:0:0:
152,62,71201,6,0,L|157:25,1,26.25,0|0,3:0|0:0,0:0:0:0:
225,92,71373,2,0,L|221:118,1,26.25
118,164,71546,69,0,1:0:0:0:
123,203,71632,1,0,1:0:0:0:
128,242,71718,1,0,1:0:0:0:
133,281,71804,1,0,1:0:0:0:
101,324,71890,70,0,L|168:336,1,63,4|0,1:0|0:0,0:0:0:0:
494,327,72235,70,0,B|525:240|393:253|417:254|393:333|374:356|335:364|335:364|373:322|378:270|307:246,1,377.999988464356,8|0,0:0|1:0,0:0:0:0:
158,341,72580,2,0,B|167:347|167:347|213:300|286:311,1,125.999996154785
430,142,72752,1,0,0:0:0:0:
420,152,72839,1,0,0:0:0:0:
415,237,72925,6,0,B|495:198|480:105|422:68|406:141|447:155,1,188.999994232178,8|0,0:0|0:0,0:0:0:0:
210,66,73270,70,0,B|193:89|193:89|229:179|229:179|249:184|249:184|279:280|279:280|262:309,1,272.999987503052,0|0,1:0|0:0,0:0:0:0:
205,384,73528,1,0,1:0:0:0:
156,327,73615,2,0,B|148:256|194:183|250:260|310:175|321:110|265:77,1,272.999987503052,8|0,0:0|0:0,0:0:0:0:
134,15,73873,6,0,B|98:33|46:14|46:14|47:22|47:22|105:44|125:118,1,210,0|0,1:0|0:0,0:0:0:0:
202,70,74132,1,0,1:0:0:0:
28,281,74304,70,0,B|98:285|157:328|157:328|107:282|88:191,1,252,8|0,0:0|0:0,0:0:0:0:
108,106,74649,6,0,B|43:156|41:245|85:248|202:126|267:228,1,293.999991027832,0|0,1:0|0:0,0:0:0:0:
427,209,74908,1,0,1:0:0:0:
488,257,74994,2,0,B|496:265|496:265|451:315|451:315|397:292|397:292|401:273,1,146.999995513916,8|0,0:0|0:0,0:0:0:0:
458,68,75166,69,0,0:0:0:0:
463,53,75252,1,0,1:0:0:0:
467,42,75339,2,0,B|392:31|327:74|305:125|305:125|348:149,1,210,0|0,3:0|0:0,0:0:0:0:
488,257,75684,6,0,B|459:277|459:277|407:254|407:254|402:246|402:246|349:222|349:222|316:244,1,188.999994232178,8|0,0:0|0:0,0:0:0:0:
292,320,76028,70,0,B|275:432|490:391|421:194,1,315.000012016297,0|0,1:0|0:0,0:0:0:0:
264,63,76287,1,0,1:0:0:0:
190,63,76373,2,0,B|188:31|156:35|130:85|180:138|243:136,1,157.500006008148,8|0,0:0|0:0,0:0:0:0:
403,123,76546,6,0,P|407:56|444:0,1,136.499993751526,0|0,0:0|1:0,0:0:0:0:
441,293,76718,2,0,P|455:347|511:389,1,115.50000352478,0|0,3:0|3:0,0:0:0:0:
425,208,76890,70,0,L|382:216,1,31.4999990386963,0|0,3:0|3:0,0:0:0:0:
215,252,77063,6,0,B|175:245|175:245|140:205|140:205|101:201,1,125.999996154785,8|0,0:0|0:0,0:0:0:0:
31,185,77235,1,0,0:0:0:0:
298,99,77408,22,0,B|311:86|311:86|280:42|278:-16|278:-16|246:36|204:58|204:58|212:97,1,251.999992309571,0|0,1:0|0:0,0:0:0:0:
120,111,77666,1,0,1:0:0:0:
48,95,77752,22,0,B|34:35|34:35|87:59,1,105,10|0,0:0|0:0,0:0:0:0:
204,170,77925,1,0,1:0:0:0:
198,179,78011,1,0,1:0:0:0:
122,210,78097,54,0,L|83:227,1,42,2|0,0:0|0:0,0:0:0:0:
39,298,78270,22,0,B|38:307|38:307|105:290|148:373,1,115.50000352478,2|0,1:2|0:0,0:0:0:0:
60,384,78442,1,8,0:0:0:0:
229,256,78615,2,0,B|223:263|223:263|290:282|285:375,1,115.50000352478,2|0,0:0|0:0,0:0:0:0:
208,340,78787,54,0,B|273:369|286:204|415:204|449:264,1,251.999992309571,4|0,1:0|0:0,0:0:0:0:
498,350,79046,1,0,1:0:0:0:
421,363,79132,22,0,B|361:365|368:289|397:291|406:355,1,105,10|0,0:0|0:0,0:0:0:0:
507,240,79304,1,0,1:0:0:0:
497,236,79390,1,0,1:0:0:0:
418,237,79477,54,0,L|406:173,1,42,2|0,0:0|0:0,0:0:0:0:
502,67,79649,22,0,B|502:76|502:76|436:59|393:142,1,115.50000352478,2|0,1:2|0:0,0:0:0:0:
481,153,79821,1,8,0:0:0:0:
312,25,79994,2,0,B|317:32|317:32|250:51|255:144,1,115.50000352478,2|0,0:0|0:0,0:0:0:0:
334,106,80166,54,0,B|210:76|118:135|118:135|160:156,1,251.999992309571,4|0,1:0|0:0,0:0:0:0:
70,72,80425,1,0,1:0:0:0:
0,50,80511,22,0,B|-1:18|-18:0|-18:0|8:16|47:7,1,105,10|0,0:0|0:0,0:0:0:0:
164,17,80684,1,0,1:0:0:0:
163,28,80770,1,0,1:0:0:0:
149,105,80856,54,0,L|140:166,1,42,2|0,0:0|0:0,0:0:0:0:
37,195,81028,22,0,B|36:204|36:204|103:187|146:270,1,115.50000352478,2|0,1:2|0:0,0:0:0:0:
58,281,81200,1,8,0:0:0:0:
227,153,81373,2,0,B|221:160|221:160|288:179|283:272,1,115.50000352478,2|0,0:0|0:0,0:0:0:0:
203,238,81546,54,0,B|204:271|204:271|284:287|284:287|300:275|300:275|383:291|383:291|391:334,1,251.999992309571,4|0,1:0|0:0,0:0:0:0:
262,381,81804,1,0,1:0:0:0:
187,360,81890,22,0,P|124:369|73:391,1,105,10|0,0:0|0:0,0:0:0:0:
366,227,82063,1,0,1:0:0:0:
368,237,82149,1,0,1:0:0:0:
371,248,82235,54,0,P|432:240|473:224,1,105,2|0,0:0|0:0,0:0:0:0:
240,12,82408,22,0,P|183:28|197:89,1,115.50000352478,2|0,1:2|3:0,0:0:0:0:
238,299,82580,1,2,3:2:0:0:
282,239,82666,1,0,3:0:0:0:
277,176,82752,1,0,3:0:0:0:
238,141,82839,1,0,3:0:0:0:
159,151,82925,22,2,L|85:143,1,63,2|0,1:1|0:1,1:0:0:0:
8,93,83270,70,0,B|-36:147|-7:173|89:251|200:52|303:100|258:214,1,377.999988464356,12|0,0:0|1:0,0:0:0:0:
117,279,83615,2,0,P|64:258|37:186,1,125.999996154785
180,50,83787,1,0,0:0:0:0:
171,43,83873,1,0,0:0:0:0:
106,0,83959,6,0,B|85:35|85:35|174:82|174:82|145:142,1,188.999994232178,8|0,0:0|0:0,0:0:0:0:
121,199,84304,70,0,B|217:276|376:186|265:82|233:157|257:186,1,272.999987503052,0|0,1:0|0:0,0:0:0:0:
393,301,84563,1,0,1:0:0:0:
461,329,84649,2,0,B|499:331|466:465|309:335|365:217,1,272.999987503052,8|0,0:0|0:0,0:0:0:0:
433,54,84908,6,0,B|483:66|531:45|531:45|537:50|537:50|490:78|476:130,1,210,0|0,1:0|0:0,0:0:0:0:
395,128,85166,1,0,1:0:0:0:
512,205,85339,70,0,B|546:250|494:324|433:328|445:201|375:189|335:220,1,252,8|0,0:0|0:0,0:0:0:0:
143,330,85684,6,0,B|188:338|245:372|245:372|201:292|182:189,1,293.999991027832,0|0,1:0|0:0,0:0:0:0:
26,95,85942,1,0,1:0:0:0:
62,28,86028,2,0,B|134:22|162:94|162:94|127:109,1,146.999995513916,8|0,0:0|0:0,0:0:0:0:
35,182,86201,69,0,0:0:0:0:
21,187,86287,1,0,1:0:0:0:
11,191,86373,2,0,B|51:251|51:251|125:186|230:214,1,210,0|0,3:0|0:0,0:0:0:0:
290,98,86718,6,0,B|365:72|310:-43|208:40|273:103,1,188.999994232178,8|0,0:0|0:0,0:0:0:0:
48,25,87063,70,0,B|62:13|58:-63|-71:-60|-48:131|83:148|159:95,1,315.000012016297,0|0,1:0|0:0,0:0:0:0:
259,193,87321,1,0,1:0:0:0:
183,196,87408,2,0,B|188:216|188:216|268:220|326:295,1,157.500006008148,8|0,0:0|0:0,0:0:0:0:
427,273,87580,6,0,P|421:338|470:381,1,136.499993751526,0|0,0:0|1:0,0:0:0:0:
302,101,87752,2,0,P|274:52|294:0,1,115.50000352478
438,155,87925,70,0,L|398:168,1,42,0|0,1:0|0:0,0:0:0:0:
117,258,88097,6,0,B|83:292|83:292|142:286,1,94.499997116089,8|0,0:0|0:0,0:0:0:0:
192,245,88270,1,0,0:0:0:0:
299,211,88442,22,0,B|232:205|202:274|246:287|222:349|155:357,1,210,0|2,1:0|0:0,0:0:0:0:
59,198,88701,1,0,1:0:0:0:
54,187,88787,2,0,P|114:164|157:190,1,105,12|0,0:0|0:0,0:0:0:0:
243,314,88959,53,0,0:0:0:0:
253,316,89046,2,0,B|296:325|296:325|331:309|331:309|364:363|364:363|398:348|398:348|449:360,1,231.000007049561,2|0,1:2|0:0,0:0:0:0:
409,189,89304,2,0,B|390:167|360:164|360:164|388:195|382:234,1,115.50000352478
337,378,89477,22,0,B|369:335|405:232|345:142|206:93|204:233|242:250|314:219,1,377.999988464356,10|0,0:0|0:0,0:0:0:0:
383,315,89821,2,0,P|422:281|490:305,1,115.50000352478,2|0,1:2|0:0,0:0:0:0:
444,359,89994,1,0,0:0:0:0:
436,373,90080,1,0,0:0:0:0:
424,380,90166,2,0,P|401:345|444:362,1,115.50000352478,10|0,0:0|0:0,0:0:0:0:
467,128,90339,53,0,0:0:0:0:
466,118,90425,2,0,B|463:88|463:88|382:124|380:250,1,188.999994232178,2|0,1:2|0:0,0:0:0:0:
408,288,90684,1,0,1:0:0:0:
315,18,90856,22,0,B|343:61|326:104|326:104|185:71|185:71|156:108|189:160,1,315,10|0,0:0|0:0,0:0:0:0:
264,237,91201,70,0,L|273:174,1,52.5,2|0,0:0|0:0,0:0:0:0:
258,184,91373,2,0,L|251:236,1,52.5,2|0,0:0|0:0,0:0:0:0:
353,209,91546,5,0,0:0:0:0:
369,209,91632,1,0,0:0:0:0:
382,218,91718,1,0,0:0:0:0:
344,290,91890,69,0,3:1:0:0:
174,251,92063,6,0,P|148:255|129:273,1,52.5
0,159,92235,70,2,B|84:195|84:195|15:290|86:338,1,252,2|0,0:0|0:0,0:0:0:0:
147,383,92580,1,0,3:0:0:0:
159,365,92666,1,0,3:0:0:0:
162,345,92752,1,2,3:2:0:0:
214,60,92925,5,2,1:2:0:0:
223,133,93011,1,0,1:0:0:0:
232,208,93097,1,0,1:0:0:0:
245,196,93184,1,0,1:0:0:0:
258,184,93270,70,0,L|156:195,1,84,0|0,1:0|0:0,0:0:0:0:
357,37,93442,6,0,P|395:70|387:116,1,84,0|0,1:0|0:0,0:0:0:0:
346,178,93615,70,2,L|353:240,1,63,2|0,0:1|0:1,0:1:0:0:
479,340,93959,54,0,P|483:204|352:240,1,315,4|0,1:0|0:0,0:0:0:0:
303,316,94304,2,0,L|215:300,1,84,8|0,0:0|0:0,0:0:0:0:
53,248,94477,1,0,0:0:0:0:
35,336,94563,2,0,P|84:269|160:235,1,168,0|0,1:0|0:0,0:0:0:0:
175,70,94821,2,0,P|192:108|188:150,1,84
221,301,94994,2,0,P|303:310|370:359,1,168,8|0,0:0|0:0,0:0:0:0:
376,368,95252,1,0,0:0:0:0:
462,370,95339,6,0,P|492:303|420:293,1,168,0|0,1:0|0:0,0:0:0:0:
494,99,95597,1,0,1:0:0:0:
344,246,95684,2,0,P|427:237|494:188,1,168,8|0,0:0|0:0,0:0:0:0:
416,54,95942,2,0,B|392:38|384:-2|384:-2|368:62|416:94,1,168,0|0,1:0|0:0,0:0:0:0:
494,99,96201,1,0,1:0:0:0:
340,145,96373,2,0,P|423:146|495:189,1,168,8|0,0:0|0:0,0:0:0:0:
503,197,96632,1,0,0:0:0:0:
500,285,96718,70,0,P|431:310|425:238,1,168,0|0,1:0|0:0,0:0:0:0:
181,283,96977,1,0,1:0:0:0:
380,316,97063,2,0,P|296:317|225:359,1,168,8|0,0:0|0:0,0:0:0:0:
259,160,97321,2,0,B|219:128|219:128|256:239,1,168,0|0,1:0|0:0,0:0:0:0:
181,283,97580,1,0,0:0:0:0:
324,102,97752,2,0,P|240:101|169:59,1,168,8|0,0:0|0:0,0:0:0:0:
162,52,98011,1,0,0:0:0:0:
135,135,98097,6,0,P|63:123|70:195,1,168,0|0,1:0|0:0,0:0:0:0:
192,321,98356,1,0,1:0:0:0:
127,381,98442,2,0,P|157:303|154:220,1,168,8|0,0:0|0:0,0:0:0:0:
26,39,98701,70,0,B|72:26|72:26|99:2|99:2|162:52|162:52|188:28|188:28|250:11,1,251.999992309571,0|0,1:0|0:0,0:0:0:0:
299,78,98959,2,0,B|347:86|347:86|363:110|363:110|411:118,1,125.999996154785
101,258,99477,38,0,B|181:242|181:242|229:178|229:178|325:162,1,251.999992309571,4|0,1:0|0:0,0:0:0:0:
461,71,99735,1,0,1:0:0:0:
299,78,99821,2,0,B|364:91|364:91|403:143|403:143|482:156,1,210,10|0,0:0|1:2,0:0:0:0:
412,331,100080,2,0,B|348:363|348:363|380:219,1,210,0|0,1:0|3:0,0:0:0:0:
189,191,100339,2,0,L|61:207,1,105,2|0,1:2|0:0,0:0:0:0:
254,131,100511,2,0,B|318:163|318:163|286:19,1,210,10|0,0:0|3:0,0:0:0:0:
296,20,100770,1,0,3:0:0:0:
177,102,100856,22,0,B|134:62|134:62|172:230|172:230|198:170,1,272.999987503052,4|0,1:0|0:0,0:0:0:0:
298,335,101115,1,0,1:0:0:0:
123,323,101201,2,0,B|219:307|219:307|251:259|251:259|347:243,1,231.000007049561,10|0,0:0|1:0,0:0:0:0:
462,157,101459,2,0,B|510:205|510:205|350:157,1,231.000007049561,2|0,1:2|0:0,0:0:0:0:
264,178,101718,2,0,L|280:34,1,115.50000352478,0|0,1:0|0:0,0:0:0:0:
79,81,101890,2,0,B|31:129|31:129|188:83,1,231.000007049561,10|0,0:0|1:0,0:0:0:0:
198,80,102149,1,0,1:0:0:0:
0,256,102235,54,0,B|188:192|188:192|152:288,1,293.999991027832,4|0,1:0|0:0,0:0:0:0:
286,354,102494,1,0,1:0:0:0:
119,362,102580,2,0,B|207:346|207:346|231:290|231:290|331:274,1,251.999992309571,10|0,0:0|1:0,0:0:0:0:
243,10,102839,2,0,B|177:30|177:30|142:137|142:137|191:195,1,251.999992309571,0|0,1:0|3:0,0:0:0:0:
250,120,103097,2,0,B|314:125|314:125|253:104,1,125.999996154785,2|0,1:2|0:0,0:0:0:0:
19,381,103270,2,0,B|84:360|84:360|119:253|119:253|73:199,1,251.999992309571,8|0,0:0|1:0,0:0:0:0:
66,192,103528,1,0,1:0:0:0:
0,41,103615,22,0,B|94:56|94:56|126:40|126:40|142:104|142:104|174:88|174:88|254:104,1,315.000012016297,4|0,1:0|0:0,0:0:0:0:
413,256,103873,1,0,1:0:0:0:
228,263,103959,2,0,B|324:247|324:247|356:183|356:183|459:168,1,272.999987503052,10|0,0:0|1:0,0:0:0:0:
236,71,104218,54,0,B|332:23|332:23|270:176,1,272.999987503052,2|0,1:2|0:0,0:0:0:0:
478,176,104477,2,0,B|510:192|510:192|462:80,1,136.499993751526,0|0,1:0|1:0,0:0:0:0:
444,258,104649,2,0,B|348:210|348:210|412:370,1,272.999987503052,10|0,0:0|1:0,0:0:0:0:
402,372,104908,1,0,3:0:0:0:
401,158,104994,54,0,B|257:174|305:334|161:350,1,315,4|0,1:2|0:0,0:0:0:0:
79,341,105339,2,0,P|47:325|-1:325,1,84,8|0,0:0|0:0,0:0:0:0:
126,242,105511,1,0,3:0:0:0:
202,190,105597,2,0,P|167:265|170:348,1,168,0|0,1:0|0:0,0:0:0:0:
286,229,105856,2,0,P|323:212|365:213,1,84
416,349,106028,2,0,P|333:352|258:318,1,168,8|0,0:0|0:0,0:0:0:0:
250,310,106287,1,0,0:0:0:0:
200,244,106373,70,0,P|233:179|286:228,1,168,0|0,1:0|0:0,0:0:0:0:
442,92,106632,1,0,1:0:0:0:
338,302,106718,2,0,P|335:218|369:143,1,168,8|0,0:0|0:0,0:0:0:0:
362,54,106977,2,0,B|322:62|298:94|298:94|306:30|354:22,1,168,0|0,1:0|0:0,0:0:0:0:
442,92,107235,1,0,1:0:0:0:
210,111,107408,2,0,P|293:108|368:142,1,168,8|0,0:0|0:0,0:0:0:0:
377,151,107666,1,0,0:0:0:0:
460,181,107752,6,0,P|463:253|393:237,1,168,0|0,1:0|0:0,0:0:0:0:
186,335,108011,1,0,1:0:0:0:
309,205,108097,2,0,P|245:189|165:269,1,168,8|0,0:0|0:0,0:0:0:0:
103,306,108356,2,0,B|72:264|24:272|24:272|40:320|77:331,1,168,0|0,1:0|0:0,0:0:0:0:
186,335,108615,1,0,0:0:0:0:
31,203,108787,2,0,P|89:259|170:248,1,168,8|0,0:0|0:0,0:0:0:0:
178,240,109046,1,0,0:0:0:0:
170,154,109132,70,0,P|100:171|101:100,1,168,0|0,1:0|0:0,0:0:0:0:
354,11,109390,1,0,1:0:0:0:
159,33,109477,2,0,P|217:88|297:76,1,168,8|0,0:0|0:0,0:0:0:0:
394,190,109735,6,0,B|474:238|490:126|394:78|266:190|314:254,1,251.999992309571,0|0,1:0|0:0,0:0:0:0:
385,347,109994,2,0,P|392:290|336:283,1,125.999996154785,0|0,1:0|1:0,0:0:0:0:
130,243,110166,70,0,B|137:291|119:313|119:313|147:321|169:364,1,146.999995513916,8|0,0:0|0:0,0:0:0:0:
246,337,110339,2,0,B|238:288|256:266|256:266|228:258|206:215,1,146.999995513916
41,139,110511,38,0,B|108:136|142:163|142:163|136:120|170:66,2,210,2|0|12,1:2|0:0|0:0,0:0:0:0:
95,371,111028,1,0,3:0:0:0:
103,379,111115,2,0,B|199:395|151:251|263:267,1,210,2|0,1:2|3:0,0:0:0:0:
394,274,111373,1,0,3:0:0:0:
386,282,111459,1,0,3:0:0:0:
378,290,111546,2,0,B|266:274|298:370|170:354|130:290|194:210|266:274,1,315,10|0,0:0|0:0,0:0:0:0:
257,151,111890,54,0,P|285:174|308:204,1,73.4999977569581,2|0,1:2|0:0,0:0:0:0:
367,106,112063,2,0,P|380:140|385:177,1,73.4999977569581,0|0,0:0|1:0,0:0:0:0:
484,121,112235,2,0,P|478:157|464:191,1,73.4999977569581,10|0,0:0|0:0,0:0:0:0:
490,367,112408,21,0,3:0:0:0:
500,364,112494,2,0,P|468:290|377:256,1,168,2|0,1:2|3:0,0:0:0:0:
326,301,112752,2,0,P|287:317|270:364,1,94.499997116089,0|0,1:0|0:0,0:0:0:0:
64,352,112925,54,0,B|-49:283|32:160|32:160|83:209|64:256,1,315,10|0,0:0|0:0,0:0:0:0:
120,296,113270,22,0,P|104:272|104:240,1,52.5,0|0,1:0|0:0,0:0:0:0:
194,200,113442,2,0,P|178:222|176:248,1,52.5
192,320,113615,1,0,3:0:0:0:
192,320,113701,22,0,P|272:320|272:224,1,168,0|0,3:0|0:0,0:0:0:0:
392,192,113959,6,0,B|344:160|344:160|376:304,1,188.999994232178,0|0,3:0|0:0,0:0:0:0:
480,352,114218,70,0,B|448:288|368:320|368:320|360:376|304:392,1,210,0|0,3:0|0:0,0:0:0:0:
256,304,114477,1,0,3:0:0:0:
250,296,114563,1,0,0:0:0:0:
236,280,114649,6,0,L|252:392,1,105,0|0,3:0|3:0,0:0:0:0:
144,268,114821,70,0,L|151:319,1,52.5
336,224,114994,6,0,L|344:161,1,62.9999980773926,0|0,3:0|0:0,0:0:0:0:
428,212,115166,70,0,L|438:139,1,73.4999977569581,0|0,0:0|3:0,0:0:0:0:
80,72,115339,6,0,L|176:56,1,84,0|0,3:0|3:0,0:0:0:0:
344,161,115511,70,0,L|245:147,1,94.499997116089,0|0,0:3|0:0,0:0:0:0:
32,352,115684,5,8,0:0:0:0:
40,368,115856,1,0,3:0:0:0:
168,316,116028,22,0,B|190:238|132:253|158:163,1,157.5,4|0,1:0|0:0,0:0:0:0:
315,80,116373,54,0,P|281:118|231:113,1,105,8|0,0:0|0:0,0:0:0:0:
50,41,116546,1,0,3:0:0:0:
60,55,116632,22,0,L|242:81,1,157.500006008148,0|0,1:0|0:0,0:0:0:0:
403,106,116890,2,0,B|420:83|420:83|412:33,1,78.7500030040742,0|0,0:0|1:0,0:0:0:0:
395,277,117063,53,8,0:0:0:0:
305,230,117149,2,0,B|221:247|221:247|395:277,1,262.5,2|0,3:2|0:0,0:0:0:0:
476,293,117408,21,0,1:0:0:0:
207,332,117580,2,0,P|189:350|184:376,1,52.5,0|0,3:0|1:0,0:0:0:0:
184,376,117752,54,0,P|173:326|128:301,1,105,8|0,0:0|0:0,0:0:0:0:
63,122,117925,1,0,3:0:0:0:
19,195,118011,22,0,P|94:200|144:142,1,157.500006008148,0|0,1:0|0:0,0:0:0:0:
74,39,118270,2,0,P|35:42|2:63,1,78.7500030040742,0|0,1:0|0:0,0:0:0:0:
200,231,118442,53,8,0:0:0:0:
217,209,118528,2,0,B|312:226|312:226|352:278|352:278|450:298,1,262.5,2|0,3:2|0:0,0:0:0:0:
446,121,118787,22,0,B|403:90|403:90|415:193,1,157.500006008148,0|0,1:0|0:0,0:0:0:0:
321,373,119046,1,0,1:0:0:0:
302,384,119132,54,0,P|297:333|335:300,1,105,8|0,0:0|0:0,0:0:0:0:
481,274,119304,1,0,3:0:0:0:
417,221,119390,22,0,L|261:193,1,157.500006008148,0|0,1:0|0:0,0:0:0:0:
221,48,119649,2,0,B|229:75|229:75|220:124,1,78.7500030040742
72,221,119821,53,8,0:0:0:0:
23,162,119908,2,0,B|161:170|87:263|247:277,1,262.5,2|0,3:2|0:0,0:0:0:0:
324,251,120166,21,0,1:0:0:0:
164,338,120339,2,0,P|138:334|118:318,1,52.5,0|0,3:0|1:0,0:0:0:0:
118,318,120511,54,0,B|67:311|67:311|23:342,1,105,8|0,0:0|0:0,0:0:0:0:
301,327,120684,1,0,3:0:0:0:
317,343,120770,22,0,B|371:351|371:351|355:249,1,157.500006008148,0|0,1:0|0:0,0:0:0:0:
428,197,121028,2,0,P|465:213|510:218,1,78.7500030040742,0|0,1:0|0:0,0:0:0:0:
320,104,121201,53,8,0:0:0:0:
229,141,121287,2,0,P|239:35|321:104,1,262.5,2|0,3:2|0:0,0:0:0:0:
284,220,121546,22,0,P|221:176|146:193,1,157.500006008148,0|0,1:0|0:0,0:0:0:0:
37,147,121804,1,0,1:0:0:0:
27,163,121890,54,0,B|60:202|60:202|53:255,1,105,8|0,0:0|0:0,0:0:0:0:
149,384,122063,1,0,3:0:0:0:
70,366,122149,22,0,P|118:307|194:314,1,157.500006008148,0|0,1:0|0:0,0:0:0:0:
316,382,122408,2,0,P|291:351|284:313,1,78.7500030040742
501,192,122580,53,8,0:0:0:0:
467,208,122666,2,0,P|358:139|229:141,1,262.5,2|0,3:2|0:0,0:0:0:0:
150,167,122925,21,0,1:0:0:0:
370,59,123097,2,0,P|387:41|393:15,1,52.5,0|0,3:0|1:0,0:0:0:0:
393,15,123270,54,0,P|352:46|300:43,1,105,8|0,0:0|0:0,0:0:0:0:
111,18,123442,1,0,3:0:0:0:
31,37,123528,22,0,L|187:56,1,157.500006008148,0|0,1:0|0:0,0:0:0:0:
58,125,123787,2,0,L|136:135,1,78.7500030040742,0|0,1:0|0:0,0:0:0:0:
323,162,123959,53,8,0:0:0:0:
317,274,124046,2,0,B|350:345|350:345|323:162,1,262.5,2|0,3:2|0:0,0:0:0:0:
498,89,124304,22,0,P|425:108|369:58,1,157.500006008148,0|0,1:0|0:0,0:0:0:0:
267,14,124563,1,0,1:0:0:0:
213,101,124649,54,0,P|213:49|243:7,1,105,8|0,0:0|0:0,0:0:0:0:
248,329,124821,1,0,3:0:0:0:
223,252,124908,22,0,L|240:82,1,157.500006008148,0|0,1:0|0:0,0:0:0:0:
81,0,125166,2,0,P|109:26|116:64,1,78.7500030040742
75,332,125339,53,8,0:0:0:0:
92,300,125425,2,0,B|85:266|40:253|40:253|128:213|225:253,1,262.5,2|0,3:2|0:0,0:0:0:0:
248,329,125684,38,0,P|287:362|338:363,1,105,2|0,0:0|0:0,0:0:0:0:
346,355,125942,1,0,0:0:0:0:
353,347,126028,2,0,L|347:284,1,52.5,2|0,0:0|0:0,0:0:0:0:
512,219,126201,70,0,P|472:252|421:253,1,105,2|0,0:0|0:0,0:0:0:0:
414,244,126459,1,0,0:0:0:0:
407,236,126545,2,0,L|413:173,1,52.5,2|0,0:0|0:0,0:0:0:0:
424,58,126718,6,0,B|382:27|382:27|359:74,1,105,2|0,0:0|0:0,0:0:0:0:
414,149,127063,1,2,0:1:0:0:
414,149,127235,1,0,3:0:0:0:
187,72,127408,70,0,P|224:37|275:39,1,105,12|0,0:0|0:0,0:0:0:0:
318,176,127580,1,0,3:0:0:0:
330,196,127666,54,0,B|243:201|283:248|188:253,1,157.500006008148,0|0,1:0|0:0,0:0:0:0:
80,370,127925,2,0,P|107:342|111:304,1,78.7500030040742,0|0,0:0|1:0,0:0:0:0:
93,87,128097,21,8,0:0:0:0:
42,27,128184,2,0,B|53:105|53:105|59:113|59:113|81:286,1,262.5,2|0,3:2|0:0,0:0:0:0:
12,326,128442,53,0,1:0:0:0:
231,371,128615,2,0,P|245:349|247:323,1,52.5,0|0,3:0|1:0,0:0:0:0:
247,323,128787,22,0,P|281:360|337:358,1,105,8|0,0:0|0:0,0:0:0:0:
485,224,128959,1,0,3:0:0:0:
429,168,129046,54,0,P|368:213|374:289,1,157.500006008148,0|0,1:0|0:0,0:0:0:0:
483,318,129304,2,0,P|444:311|414:286,1,78.7500030040742,0|0,1:0|0:0,0:0:0:0:
211,87,129477,21,8,0:0:0:0:
212,168,129563,2,0,B|247:168|273:140|273:140|291:201|291:201|244:329,1,262.5,2|0,3:2|0:0,0:0:0:0:
66,210,129821,54,0,B|53:249|53:249|168:237,1,157.500006008148,0|0,1:0|0:0,0:0:0:0:
159,352,130080,1,0,1:0:0:0:
169,367,130166,22,0,L|65:346,1,105,8|0,0:0|0:0,0:0:0:0:
136,159,130339,1,0,3:0:0:0:
131,138,130425,54,0,B|112:72|36:75|36:75|65:90,1,157.500006008148,0|0,1:0|0:0,0:0:0:0:
247,117,130684,2,0,P|277:93|289:56,1,78.7500030040742
0,39,130856,21,8,0:0:0:0:
17,114,130942,2,0,B|77:133|122:76|122:76|205:51|246:116,1,262.5,2|0,3:2|0:0,0:0:0:0:
244,190,131201,53,0,1:0:0:0:
372,57,131373,2,0,P|352:40|326:35,1,52.5,0|0,3:0|1:0,0:0:0:0:
326,35,131546,22,0,P|358:76|360:131,1,105,8|0,0:0|0:0,0:0:0:0:
276,329,131718,1,0,3:0:0:0:
261,341,131804,54,0,B|281:263|222:284|243:189,1,157.500006008148,0|0,1:0|0:0,0:0:0:0:
420,185,132063,2,0,P|390:160|351:157,1,78.7500030040742,0|0,1:0|0:0,0:0:0:0:
184,317,132235,21,8,0:0:0:0:
261,341,132321,2,0,P|320:225|283:104,1,262.5,2|0,3:2|0:0,0:0:0:0:
294,26,132580,54,0,L|137:39,1,157.500006008148,0|0,1:0|0:0,0:0:0:0:
37,39,132839,1,0,1:0:0:0:
32,23,132925,22,0,B|58:51|58:51|49:117,1,105,8|0,0:0|0:0,0:0:0:0:
155,244,133097,1,0,3:0:0:0:
88,281,133184,54,0,B|61:246|61:246|76:134,1,157.500006008148,0|0,1:0|0:0,0:0:0:0:
134,72,133442,2,0,L|212:82,1,78.7500030040742
489,115,133615,21,8,0:0:0:0:
413,97,133701,2,0,B|375:146|375:146|395:276|395:276|459:301,1,262.5,2|0,3:2|0:0,0:0:0:0:
474,191,133959,53,0,1:0:0:0:
329,332,134132,2,0,P|303:328|280:316,1,52.5,0|0,3:0|1:0,0:0:0:0:
280,316,134304,22,0,B|231:308|231:308|184:337,1,105,8|0,0:0|0:0,0:0:0:0:
33,208,134477,1,0,3:0:0:0:
23,191,134563,54,0,B|90:146|90:146|124:214,1,157.500006008148,0|0,1:0|0:0,0:0:0:0:
74,360,134821,2,0,L|62:282,1,78.7500030040742,0|0,1:0|0:0,0:0:0:0:
104,68,134994,21,8,0:0:0:0:
14,100,135080,2,0,B|205:133|205:133|179:69,1,262.5,2|0,3:2|0:0,0:0:0:0:
310,22,135339,54,0,L|281:176,1,157.500006008148,0|0,1:0|0:0,0:0:0:0:
305,348,135597,1,0,1:0:0:0:
379,313,135684,22,0,P|385:262|353:222,1,105,8|0,0:0|0:0,0:0:0:0:
217,292,135856,1,0,3:0:0:0:
200,281,135942,54,0,P|251:224|326:234,1,157.500006008148,0|0,1:0|0:0,0:0:0:0:
194,371,136201,2,0,P|155:363|128:336,1,78.7500030040742,0|0,0:0|3:0,0:0:0:0:
47,192,136373,21,8,0:0:0:0:
3,258,136459,2,0,B|30:326|30:326|216:291,1,262.5,2|0,0:0|0:0,0:0:0:0:
249,207,136718,6,0,L|353:221,1,105,0|0,3:0|3:0,0:0:0:0:
451,53,137063,69,0,0:0:0:0:
434,51,137149,1,0,0:0:0:0:
402,65,137235,1,0,0:0:0:0:
385,63,137321,1,0,0:0:0:0:
350,39,137408,6,0,L|345:2,1,26.25
264,49,137580,2,0,L|268:75,1,26.25
363,143,137753,69,0,0:0:0:0:
358,182,137839,1,2,0:0:0:0:
353,221,137925,1,4,0:3:0:0:
348,260,138011,1,4,0:3:0:0:
386,349,138097,38,0,B|422:317|483:310|483:310|385:232|255:282|255:282|240:261|216:244,1,393.75,0|0,1:0|0:0,0:0:0:0:
90,174,138442,53,8,0:0:0:0:
122,314,138615,2,0,L|130:362,1,39.3750015020371
135,313,138701,2,0,L|135:363,1,39.3750015020371
148,314,138787,2,0,L|140:368,1,39.3750015020371
161,317,138873,2,0,L|143:369,1,39.3750015020371
173,321,138959,2,0,L|148:367,1,39.3750015020371
185,327,139046,2,0,L|151:368,1,39.3750015020371
198,334,139132,2,0,L|150:373,1,39.3750015020371,8|0,0:0|0:0,0:0:0:0:
326,280,139304,22,0,L|330:328,1,39.3750015020371
313,282,139390,2,0,L|325:330,1,39.3750015020371
300,286,139476,2,0,L|321:336,1,39.3750015020371
198,334,139649,1,0,0:0:0:0:
300,286,139821,1,8,0:0:0:0:
59,256,139994,2,0,L|67:304,1,39.3750015020371
72,255,140080,2,0,L|72:305,1,39.3750015020371
85,256,140166,2,0,L|77:310,1,39.3750015020371
98,259,140252,2,0,L|80:311,1,39.3750015020371
110,263,140338,2,0,L|85:309,1,39.3750015020371
122,269,140425,2,0,L|88:310,1,39.3750015020371
135,276,140511,2,0,L|87:315,1,39.3750015020371,8|0,0:0|0:0,0:0:0:0:
306,205,140684,6,0,L|312:277,1,39.3750015020371
282,208,140770,2,0,L|299:263,1,39.3750015020371
264,218,140856,2,0,L|292:268,1,39.3750015020371
135,276,141028,1,0,0:0:0:0:
264,218,141201,1,8,0:0:0:0:
34,158,141373,2,0,L|45:226,1,39.3750015020371
52,156,141459,2,0,L|52:227,1,39.3750015020371
71,158,141545,2,0,L|61:215,1,39.3750015020371
90,162,141631,2,0,L|67:219,1,39.3750015020371
106,169,141717,2,0,L|71:225,1,39.3750015020371
124,176,141804,2,0,L|79:226,1,39.3750015020371
142,186,141890,2,0,L|91:221,1,39.3750015020371,8|0,0:0|0:0,0:0:0:0:
99,73,142063,38,0,L|97:142,1,39.3750015020371
117,76,142149,2,0,L|103:145,1,39.3750015020371
134,80,142235,2,0,L|112:133,1,39.3750015020371
152,89,142321,2,0,L|118:140,1,39.3750015020371
167,99,142407,2,0,L|122:147,1,39.3750015020371
183,107,142494,2,0,L|128:148,1,39.3750015020371
200,121,142580,2,0,L|142:146,1,39.3750015020371,8|0,0:0|0:0,0:0:0:0:
212,136,142666,2,0,L|169:145,1,39.3750015020371
257,139,142752,22,0,P|245:167|207:189,1,65.625,2|0,0:3|0:0,0:0:0:0:
274,160,142839,2,0,P|250:188|215:198,1,65.625,2|0,0:3|0:0,0:0:0:0:
288,183,142925,2,0,P|262:204|218:207,1,65.625,2|0,0:3|0:0,0:0:0:0:
298,208,143010,2,0,P|262:221|229:222,1,65.625,2|0,0:3|0:0,0:0:0:0:
303,232,143096,2,0,P|259:240|232:231,1,65.625,2|0,0:3|0:0,0:0:0:0:
308,258,143183,2,0,P|268:259|236:238,1,65.625,2|0,0:3|0:0,0:0:0:0:
312,286,143269,2,0,P|274:279|250:256,1,65.625,2|0,0:3|0:0,0:0:0:0:
310,312,143355,2,0,P|274:301|255:268,1,65.625,2|0,0:3|0:0,0:0:0:0:
307,336,143442,2,0,P|275:325|257:286,1,65.625,2|0,0:3|0:0,0:0:0:0:
302,358,143528,1,0,0:0:0:0:
185,361,143615,38,0,P|138:344|98:374,1,105,4|0,3:1|0:0,0:0:0:0:
463,273,143787,2,0,P|383:276|345:211,1,157.500006008148
50,295,143959,2,0,B|156:319|156:319|162:327|162:327|302:358,1,262.5,10|0,0:0|0:0,0:0:0:0:
463,273,144218,2,0,L|353:298,1,105,0|2,1:0|0:0,0:0:0:0:
90,148,144390,1,0,0:0:0:0:
100,225,144477,2,0,L|210:250,1,105,2|0,0:0|0:0,0:0:0:0:
470,355,144649,38,0,B|507:56|507:56|484:99|458:140,1,393.75,10|0,0:0|0:0,0:0:0:0:
365,320,144994,2,0,P|312:305|283:267,1,105,2|0,3:2|0:0,0:0:0:0:
376,30,145166,1,2,3:2:0:0:
402,75,145253,1,0,3:0:0:0:
378,122,145339,2,0,P|318:139|293:187,1,105,10|0,0:0|0:0,0:0:0:0:
172,305,145511,37,2,0:0:0:0:
149,212,145597,2,0,P|265:220|365:321,1,262.5,2|0,1:2|0:0,0:0:0:0:
447,356,145856,2,0,P|455:298|464:247,1,105,0|0,1:0|0:0,0:0:0:0:
248,73,146028,2,0,P|197:59|163:97,1,105,8|0,0:0|0:0,0:0:0:0:
61,252,146201,2,0,P|67:285|70:311,1,52.5
74,333,146373,37,2,1:2:0:0:
5,142,146546,2,0,P|34:89|77:125,1,131.25,2|0,0:0|1:0,0:0:0:0:
74,333,146718,2,0,B|65:272|57:225|57:225|100:165|103:71,1,262.5,8|0,0:0|0:0,0:0:0:0:
156,293,146977,1,0,1:0:0:0:
161,326,147063,2,0,P|166:271|200:234,1,105,2|0,0:0|0:0,0:0:0:0:
17,122,147235,2,0,P|68:127|107:161,1,105,2|0,3:2|3:0,0:0:0:0:
283,331,147408,37,10,0:0:0:0:
326,301,147494,1,2,0:0:0:0:
378,305,147580,2,0,P|344:272|369:224,1,105,2|0,0:0|0:0,0:0:0:0:
115,69,147752,38,0,P|180:69|241:38,1,131.25,2|0,3:2|0:0,0:0:0:0:
301,103,147925,1,0,3:0:0:0:
296,119,148011,1,0,0:0:0:0:
316,109,148097,1,2,0:0:0:0:
311,125,148183,1,0,3:0:0:0:
402,146,148270,38,0,P|424:189|345:211,1,131.25,2|0,3:2|0:0,0:0:0:0:
114,268,148442,2,0,B|189:249|260:288|260:288|348:335|421:306|421:306|379:317|338:303,1,393.75,2|0,3:2|0:0,0:0:0:0:
195,244,148787,6,0,B|131:231|84:268|84:268|103:259|125:254,1,157.5,2|0,0:1|0:1,0:0:0:0:
420,306,149132,22,0,B|457:327|499:321|499:321|439:338|368:367|368:367|279:322|182:349,1,393.75,4|0,1:0|0:0,0:0:0:0:
101,371,149477,53,8,0:0:0:0:
41,259,149649,2,0,L|49:307,1,39.3750015020371
54,258,149735,2,0,L|54:308,1,39.3750015020371
67,259,149821,2,0,L|59:313,1,39.3750015020371
80,262,149908,2,0,L|62:314,1,39.3750015020371
92,266,149994,2,0,L|67:312,1,39.3750015020371
104,272,150080,2,0,L|70:313,1,39.3750015020371
117,279,150166,2,0,L|69:318,1,39.3750015020371,8|0,0:0|0:0,0:0:0:0:
263,224,150339,22,0,L|267:272,1,39.3750015020371
250,226,150425,2,0,L|262:274,1,39.3750015020371
237,230,150511,2,0,L|258:280,1,39.3750015020371
117,279,150684,1,0,0:0:0:0:
68,137,150856,1,8,0:0:0:0:
271,205,151028,54,0,L|259:269,1,42
247,201,151114,2,0,L|249:261,1,42
227,206,151200,2,0,L|241:261,1,42
83,251,151373,1,0,0:0:0:0:
278,190,151546,22,0,L|250:246,1,45.9375004380941,8|0,0:0|0:0,0:0:0:0:
243,174,151632,2,0,L|231:241,1,45.9375004380941
213,173,151718,2,0,L|216:239,1,45.9375004380941
466,355,151890,22,0,L|415:341,1,45.9375004380941
471,331,151977,2,0,L|418:324,1,45.9375004380941
475,307,152063,2,0,L|424:304,1,45.9375004380941
476,282,152149,2,0,L|422:288,1,45.9375004380941
475,258,152235,2,0,L|424:268,1,45.9375004380941,8|0,0:0|0:0,0:0:0:0:
471,233,152321,2,0,L|418:251,1,45.9375004380941
464,210,152408,2,0,L|416:231,1,45.9375004380941
456,187,152494,2,0,L|409:210,1,45.9375004380941
445,165,152580,2,0,L|403:190,1,45.9375004380941
431,144,152666,2,0,L|388:180,1,45.9375004380941
416,125,152752,2,0,L|380:168,1,45.9375004380941
399,108,152839,2,0,L|369:156,1,45.9375004380941
380,92,152925,2,0,L|356:150,1,45.9375004380941,8|0,0:0|0:0,0:0:0:0:
360,78,153011,2,0,L|348:136,1,45.9375004380941
339,66,153097,2,0,L|336:131,1,45.9375004380941
316,57,153184,2,0,L|329:122,1,45.9375004380941
279,92,153270,6,0,P|270:123|262:159,1,65.625
244,91,153356,2,0,P|239:121|242:159,1,65.625
210,95,153442,2,0,P|212:126|224:165,1,65.625
177,104,153528,2,0,P|186:136|206:171,1,65.625
146,118,153615,2,0,P|159:147|187:179,1,65.625,8|0,0:0|0:0,0:0:0:0:
117,135,153701,1,0,0:0:0:0:
48,227,153787,70,0,P|80:250|125:243,1,78.7500030040742,2|0,0:3|0:0,0:0:0:0:
62,264,153873,2,0,P|98:276|142:258,1,78.7500030040742,2|0,0:3|0:0,0:0:0:0:
85,298,153959,2,0,P|118:304|155:272,1,78.7500030040742,2|0,0:3|0:0,0:0:0:0:
113,327,154046,2,0,P|151:319|172:276,1,78.7500030040742,2|0,0:3|0:0,0:0:0:0:
147,350,154132,2,0,P|177:333|190:286,1,78.7500030040742,2|0,0:3|0:0,0:0:0:0:
184,366,154218,2,0,P|207:341|208:288,1,78.7500030040742,2|0,0:3|0:0,0:0:0:0:
224,374,154304,2,0,P|238:339|224:286,1,78.7500030040742,2|0,0:3|0:0,0:0:0:0:
265,373,154390,2,0,P|269:331|238:288,1,78.7500030040742,2|0,0:3|0:0,0:0:0:0:
305,364,154477,2,0,P|290:314|269:295,1,78.7500030040742,2|0,0:3|0:0,0:0:0:0:
342,347,154563,1,0,0:0:0:0:
410,271,154649,6,0,P|454:251|488:287,1,105,4|0,1:0|0:0,0:0:0:0:
106,217,154821,2,0,P|156:198|161:128,1,131.25
473,169,154994,70,0,B|408:153|353:201|353:201|298:247|227:228,1,262.5,8|0,0:0|0:0,0:0:0:0:
217,58,155252,2,0,P|274:67|287:106,1,105,0|2,1:0|0:0,0:0:0:0:
99,366,155425,1,0,0:0:0:0:
99,366,155511,2,0,P|42:357|29:318,1,105
69,77,155684,2,0,P|142:95|5:151,1,393.75,10|0,0:0|0:0,0:0:0:0:
236,91,156028,6,0,B|261:62|287:31|287:31|259:124|248:228,1,262.5,2|0,1:2|0:0,0:0:0:0:
235,319,156287,1,2,1:2:0:0:
332,252,156373,2,0,P|279:250|244:287,1,105,10|0,0:0|0:0,0:0:0:0:
488,302,156545,69,2,0:0:0:0:
488,302,156632,2,0,B|312:270|385:393|186:350,1,315.000012016297,0|0,1:2|0:0,0:0:0:0:
28,203,156890,2,0,P|63:246|154:237,1,131.25,0|0,1:0|0:0,0:0:0:0:
351,91,157063,2,0,B|373:12|373:12|412:249,1,315,10|0,0:0|0:0,0:0:0:0:
364,332,157408,6,0,P|394:335|418:353,1,52.5,2|0,0:0|0:0,0:0:0:0:
276,48,157580,2,0,P|215:31|210:93,1,131.25,2|0,0:0|0:0,0:0:0:0:
364,332,157752,5,8,0:0:0:0:
431,281,157839,2,0,P|407:187|350:242,1,210,2|0,0:0|0:0,0:0:0:0:
275,353,158097,70,0,B|254:257|254:257|245:248|245:248|218:116,1,244.65000979929,2|0,0:0|0:0,0:0:0:0:
42,168,158356,6,0,P|151:155|222:237,1,209.474991369896,2|0,0:0|0:0,0:0:0:0:
463,119,158615,2,0,P|411:174|338:158,1,157.500006008148,2|0,0:0|0:0,0:0:0:0:
288,60,158787,69,0,3:0:0:0:
35,279,158959,1,0,3:0:0:0:
19,248,159046,1,0,3:0:0:0:
35,279,159132,2,0,P|34:319|32:366,1,78.7500030040742,4|0,0:3|0:0,0:0:0:0:
75,30,159304,5,0,0:0:0:0:
176,344,159477,1,0,3:0:0:0:
147,297,159563,1,0,3:0:0:0:
174,243,159649,2,0,P|216:221|208:170,1,105,4|0,0:3|0:0,0:0:0:0:
444,316,159821,70,0,P|448:277|454:233,1,78.75,8|0,0:0|0:0,0:0:0:0:
444,316,160166,5,0,3:0:0:0:
256,192,168615,12,0,169649,0:0:0:0:
484,366,169821,85,0,3:0:0:0:
412,296,169994,1,0,3:0:0:0:
407,296,170080,1,0,3:0:0:0:
402,296,170166,1,4,3:0:0:0:
484,366,170339,5,0,3:0:0:0:
412,296,170511,1,0,3:0:0:0:
407,296,170597,1,0,3:0:0:0:
364,279,170684,1,0,3:0:0:0:
359,281,170770,1,0,3:0:0:0:
310,296,170856,1,4,3:0:0:0:
307,300,170942,1,0,3:0:0:0:
289,345,171029,1,4,3:0:0:0:
289,350,171115,1,0,3:0:0:0:
252,373,171201,70,0,P|218:367|198:364,1,52.5,8|0,0:0|0:0,0:0:0:0:
252,373,171718,2,0,P|188:339|116:327,1,146.999995513916
35,176,172235,1,0,0:0:0:0:
27,197,172408,1,8,0:1:0:0:
194,327,172580,6,0,B|201:364,2,36.749998878479,8|0|0,0:1|0:0|0:0,0:0:0:0:
194,327,173097,2,0,B|205:308|205:308|195:252,1,78.7500030040742
52,32,173442,69,0,0:0:0:0:
42,21,173615,2,0,L|51:59,1,39.3750015020371
74,155,173787,1,8,0:1:0:0:
227,113,173959,6,0,P|243:81|243:45,1,73.4999977569581,8|0,0:0|0:0,0:0:0:0:
227,113,174477,2,0,P|290:174|421:169,1,210
488,357,174994,1,0,0:0:0:0:
512,265,175166,1,8,0:1:0:0:
407,176,175339,69,8,0:0:0:0:
315,198,175511,2,0,L|316:217,2,18.3749994392395
217,213,175856,1,8,0:0:0:0:
45,97,176028,5,8,0:1:0:0:
45,97,176115,1,0,0:0:0:0:
45,97,176201,1,0,0:0:0:0:
130,52,176373,1,0,0:0:0:0:
170,136,176546,1,0,0:0:0:0:
296,47,176718,70,0,B|350:38|350:38|306:56,1,94.499997116089,8|0,0:0|0:0,0:0:0:0:
296,47,177235,2,0,B|451:81|451:81|402:99,1,210
402,98,177752,1,0,0:0:0:0:
329,259,177925,1,8,1:0:0:0:
234,193,178097,6,0,L|287:190,2,52.5
234,193,178615,2,0,B|196:195|196:195|194:199|194:199|157:201,1,78.7500030040742
32,359,178959,69,0,0:0:0:0:
36,375,179132,2,0,B|41:358|41:358|42:336,1,39.3750015020371
33,259,179304,1,0,3:0:0:0:
195,374,179477,6,0,P|248:351|306:347,1,115.50000352478,8|0,0:0|0:0,0:0:0:0:
185,364,179994,1,0,0:0:0:0:
376,306,180166,2,0,P|491:295|469:181,1,262.5
461,194,180684,1,0,0:0:0:0:
350,36,180856,69,0,3:0:0:0:
275,141,181028,1,0,0:0:0:0:
272,150,181115,1,0,0:0:0:0:
270,158,181201,1,8,3:2:0:0:
365,126,181373,6,0,L|402:131,1,34.1249984378815
259,51,181545,1,8,0:0:0:0:
198,310,181718,70,0,P|155:315|145:357,1,91.8750008761883
144,356,181890,2,0,B|213:379|253:322|238:314|279:259|341:274,1,229.687502190471,8|8,0:0|0:0,0:0:0:0:
505,326,182235,6,0,B|396:349|396:349|441:312|433:251,1,210,12|0,0:0|0:0,0:0:0:0:
259,201,182752,70,0,B|246:229|246:229|276:220,1,52.5
342,275,182925,2,0,P|301:211|356:117,1,157.5
385,47,183270,2,0,P|426:111|371:205,1,157.5
342,275,183615,6,0,B|401:265|401:265|380:325,1,105,8|0,0:1|0:0,0:0:0:0:
402,183,183959,2,0,B|343:193|343:193|364:133,1,105
448,371,184304,2,0,L|255:342,1,157.5,2|0,0:0|0:0,0:0:0:0:
342,275,184649,1,2,0:0:0:0:
340,256,184735,1,0,0:0:0:0:
338,236,184821,1,2,0:0:0:0:
145,203,184994,70,0,P|211:216|229:86,1,210,10|0,0:0|0:0,0:0:0:0:
103,58,185511,6,0,B|87:80|87:80|157:67,1,52.5,2|0,0:0|0:0,0:0:0:0:
35,10,185684,2,0,P|48:92|60:174,1,157.5,2|0,0:0|0:0,0:0:0:0:
145,203,186028,2,0,P|132:285|120:367,1,157.5,2|0,0:0|0:0,0:0:0:0:
68,375,186373,69,0,3:0:0:0:
33,357,186459,1,0,3:0:0:0:
13,323,186545,1,0,3:0:0:0:
12,285,186631,1,0,3:0:0:0:
32,251,186717,1,0,3:0:0:0:
168,120,186890,5,0,3:0:0:0:
168,120,186977,1,0,0:0:0:0:
168,120,187063,2,0,L|157:54,1,52.5,8|0,0:1|0:0,0:0:0:0:
241,47,187235,70,0,P|249:88|255:127,1,57.7500017623902
337,83,187408,6,0,P|331:51|325:20,1,62.9999980773926
412,4,187580,70,0,P|418:37|424:72,1,68.2499968757631
349,172,187752,6,0,B|401:363|401:363|277:331|277:331|289:229|289:229|162:275|162:275|207:336,1,630,8|2,0:0|0:2,0:0:0:0:
201,328,189132,70,0,P|247:320|260:253,1,105,2|0,0:0|0:0,0:0:0:0:
349,172,189477,2,0,L|463:186,1,105,2|2,0:0|0:0,0:0:0:0:
131,37,189821,6,0,P|178:30|184:166,1,210,2|2,0:0|0:0,0:0:0:0:
40,246,190339,69,0,0:0:0:0:
40,246,190425,1,0,0:0:0:0:
40,246,190511,2,0,B|90:197|72:122|72:122|379:15|379:15|226:65|142:205|231:383|339:412|496:393|558:328|560:164|529:79|412:49|314:80|294:190|340:217,1,1386.00004229736,8|0,0:0|0:0,0:0:0:0:
324,196,192752,6,0,L|389:209,1,57.7500017623902
334,280,192925,2,0,L|399:293,1,57.7500017623902
486,328,193097,2,0,L|492:367,2,28.8750008811951
492,373,193270,70,0,P|427:335|497:225,1,231.000007049561,8|0,0:1|0:0,0:0:0:0:
361,25,193787,2,0,L|371:93,1,57.7500017623902
324,196,193959,2,0,B|253:180|253:180|242:111|242:111|152:90,1,231.000007049561
38,304,194649,2,0,P|106:315|126:184,2,231.000007049561,2|0|2,0:0|0:0|0:0,0:0:0:0:
50,114,195511,5,0,0:0:0:0:
70,32,195684,1,0,0:0:0:0:
130,93,195856,1,0,0:0:0:0:
325,134,196028,69,4,0:0:0:0:
325,134,196373,6,0,L|266:161,1,57.7500017623902
325,134,196546,2,0,L|375:175,1,57.7500017623902,4|0,0:0|0:0,0:0:0:0:
206,190,196718,70,0,P|288:207|297:18,1,314.999990386963
319,29,197408,6,0,P|268:26|208:35,1,105,0|0,3:0|3:0,0:0:0:0:
321,112,197752,2,0,P|270:109|210:118,1,105,0|0,3:0|3:0,0:0:0:0:
54,199,198097,70,0,B|10:15|10:15|120:42|120:42|106:126,1,377.999988464356
0,261,198787,5,12,0:0:0:0:
455,312,199132,70,0,P|413:319|380:326,1,62.9999980773926
446,229,199304,2,0,P|404:236|371:243,1,62.9999980773926
391,11,199477,6,0,B|502:-1|502:-1|465:121|465:121|60:21|60:21|232:375|232:375|276:170|276:170|24:230,1,1511.99995385742,8|0,0:0|1:0,0:0:0:0:
30,228,201718,70,0,L|120:238,1,62.9999980773926
46,312,201890,2,0,L|136:322,1,62.9999980773926
309,287,202063,1,0,1:0:0:0:
300,378,202235,6,0,P|263:290|278:185,1,188.999994232178
227,153,202580,69,0,1:0:0:0:
216,92,202666,1,0,1:0:0:0:
249,40,202752,1,0,1:0:0:0:
308,22,202838,1,0,1:0:0:0:
364,48,202924,1,4,1:2:0:0:
300,378,203097,6,0,B|336:183|336:183|207:228,1,315.000012016297,8|4,0:0|1:2,0:0:0:0:
225,221,203615,70,0,P|280:230|325:237,1,78.7500030040742,8|0,0:0|0:0,0:0:0:0:
441,60,203787,2,0,P|386:51|341:44,1,78.7500030040742
432,340,203960,5,0,1:0:0:0:
458,284,204046,1,0,1:0:0:0:
445,223,204132,1,0,1:0:0:0:
398,183,204218,1,0,1:0:0:0:
319,155,204304,69,0,1:0:0:0:
222,149,204477,1,0,0:0:0:0:
127,145,204649,1,8,0:0:0:0:
32,141,204821,1,0,0:0:0:0:
33,151,204908,1,0,0:0:0:0:
34,161,204994,1,0,0:0:0:0:
34,171,205080,1,0,0:0:0:0:
35,181,205166,1,0,0:0:0:0:
123,249,205339,2,0,L|127:128,1,105,8|0,0:0|0:0,0:0:0:0:
50,43,205684,5,0,0:0:0:0:
145,37,205857,1,0,0:0:0:0:
240,33,206029,1,10,0:0:0:0:
335,29,206201,1,0,0:0:0:0:
334,39,206288,1,0,0:0:0:0:
333,49,206374,1,0,0:0:0:0:
333,59,206460,1,0,0:0:0:0:
332,69,206546,1,0,0:0:0:0:
243,137,206718,2,0,L|239:16,1,105,8|0,0:0|0:0,0:0:0:0:
445,61,207063,69,0,0:0:0:0:
451,156,207236,1,0,0:0:0:0:
455,251,207408,1,8,0:0:0:0:
459,346,207580,1,0,0:0:0:0:
449,345,207667,1,0,0:0:0:0:
439,344,207753,1,0,0:0:0:0:
429,344,207839,1,0,0:0:0:0:
419,343,207925,1,0,0:0:0:0:
351,254,208097,2,0,L|472:250,1,105,10|0,0:0|0:0,0:0:0:0:
451,156,208356,1,0,0:0:0:0:
451,156,208442,6,0,L|346:159,1,105
254,259,208787,1,10,0:0:0:0:
419,343,208959,2,0,L|341:349,1,52.5
137,310,209132,54,0,B|107:265|65:245|18:265|2:302|-17:356|59:403|135:356|135:356|172:332|217:316|288:353,1,472.500018024445
442,319,209821,6,0,B|393:279|309:278|309:278|340:288|370:315|367:370,1,236.250009012223,4|0,1:0|0:0,0:0:0:0:
287,352,210166,5,8,0:0:0:0:
302,199,210339,1,0,0:0:0:0:
304,183,210425,1,0,0:0:0:0:
306,167,210511,1,0,0:0:0:0:
309,151,210597,1,0,0:0:0:0:
311,135,210684,1,0,0:0:0:0:
287,352,210856,2,0,L|300:227,1,105,8|0,0:0|0:0,0:0:0:0:
227,222,211115,1,0,0:0:0:0:
227,222,211201,69,0,0:0:0:0:
442,319,211373,1,0,0:0:0:0:
227,222,211546,1,10,0:0:0:0:
442,319,211718,1,0,0:0:0:0:
444,298,211804,1,0,0:0:0:0:
447,277,211890,1,0,0:0:0:0:
449,255,211977,1,0,0:0:0:0:
451,234,212063,1,0,0:0:0:0:
366,347,212235,2,0,L|376:242,1,105,8|0,0:0|0:0,0:0:0:0:
425,107,212494,1,0,0:0:0:0:
425,107,212580,6,0,P|340:101|304:170,1,136.499993751526,2|0,0:0|0:0,0:0:0:0:
269,279,212839,70,0,B|283:233|267:174|241:205|211:157|241:83,1,188.999994232178,2|0,0:0|0:0,0:0:0:0:
295,3,213097,38,0,B|334:24|334:24|307:145,1,157.500006008148,2|0,0:0|0:0,0:0:0:0:
189,246,213356,38,0,B|251:252|251:252|296:300|296:300|385:310,1,210,2|0,0:0|0:0,0:0:0:0:
465,205,213615,38,0,L|345:218,1,105,2|0,0:0|0:0,0:0:0:0:
208,342,213787,2,0,L|88:355,1,105,2|0,0:0|0:0,0:0:0:0:
92,76,213959,37,0,0:0:0:0:
138,45,214046,1,0,0:0:0:0:
192,47,214132,1,0,0:0:0:0:
237,77,214218,1,0,0:0:0:0:
254,130,214304,37,0,0:0:0:0:
274,117,214390,1,0,0:0:0:0:
291,99,214477,1,0,0:0:0:0:
303,78,214563,1,0,0:0:0:0:
307,60,214649,6,0,P|312:132|232:188,1,157.500006008148
92,160,214908,1,0,0:0:0:0:
92,160,214994,22,0,L|185:167,1,78.75
252,185,215339,22,0,B|280:246|280:246|253:325|252:325,1,125.999996154785,4|0,3:1|0:0,0:0:0:0:
92,247,215684,1,2,3:2:0:0:
344,333,215856,1,2,0:0:0:0:
344,333,215942,1,0,0:0:0:0:
344,333,216028,2,0,L|484:320,1,125.999996154785,2|0,3:2|0:0,0:0:0:0:
410,97,216373,22,0,B|348:75|348:75|297:152|374:232,1,220.499993270874,0|0,3:0|0:0,0:0:0:0:
360,217,216718,54,0,P|298:175|227:205,1,125.999996154785,2|0,3:2|0:0,0:0:0:0:
55,321,217063,1,2,3:2:0:0:
161,103,217235,1,2,0:0:0:0:
161,103,217321,1,0,0:0:0:0:
161,103,217408,2,0,L|173:186,1,62.9999980773926,2|0,3:2|0:0,0:0:0:0:
281,315,217580,2,0,L|290:252,1,62.9999980773926
427,29,217752,22,0,B|363:17|329:70|329:70|291:123|210:93,1,220.499993270874,0|0,3:0|0:0,0:0:0:0:
142,30,218097,54,0,B|227:6|227:6|263:19,1,125.999996154785,2|0,3:2|0:0,0:0:0:0:
360,217,218442,1,2,3:2:0:0:
402,107,218615,2,0,L|480:115,1,62.9999980773926,10|0,0:0|0:0,0:0:0:0:
489,341,218787,2,0,L|340:325,1,125.999996154785,2|0,3:2|0:0,0:0:0:0:
76,211,219132,22,0,B|32:163|32:163|57:335,1,220.499993270874,0|0,3:0|0:0,0:0:0:0:
142,383,219477,22,0,B|170:330|170:330|130:278,1,125.999996154785,2|2,3:2|0:0,0:0:0:0:
126,47,219821,2,0,B|98:100|98:100|138:152,1,125.999996154785,2|2,3:2|0:0,0:0:0:0:
188,220,220080,1,0,0:0:0:0:
188,220,220166,70,0,P|233:205|275:216,1,78.7500030040742,0|0,3:0|0:0,0:0:0:0:
363,327,220339,2,0,P|327:295|316:253,1,78.7500030040742
367,120,220511,6,0,P|357:166|326:197,1,78.7500030040742,0|0,3:0|0:0,0:0:0:0:
235,285,220684,2,0,P|199:302|145:290,1,78.7500030040742
99,240,220856,54,0,P|101:199|124:157,1,78.75,4|0,1:2|0:0,0:0:0:0:
193,91,221201,21,2,3:2:0:0:
218,239,221373,1,0,3:0:0:0:
104,76,221546,53,0,3:0:0:0:
249,161,221718,1,0,3:0:0:0:
99,240,221890,21,2,3:2:0:0:
161,13,222063,1,0,3:0:0:0:
161,298,222235,53,0,3:0:0:0:
148,99,222408,1,0,3:0:0:0:
358,87,222580,1,2,3:2:0:0:
370,286,222753,1,0,3:0:0:0:
137,89,222925,21,0,3:0:0:0:
381,295,223097,1,0,3:0:0:0:
367,77,223270,1,2,3:2:0:0:
151,307,223442,1,0,3:0:0:0:
248,33,223615,69,0,0:0:0:0:
255,46,223701,1,0,0:0:0:0:
260,60,223787,1,0,0:0:0:0:
261,75,223873,1,0,0:0:0:0:
260,90,223959,1,0,0:0:0:0:
256,105,224046,1,0,0:0:0:0:
217,173,224132,5,8,0:0:0:0:
253,167,224218,1,0,3:0:0:0:
289,173,224304,1,0,3:0:0:0:
318,194,224390,1,0,0:0:0:0:
353,205,224477,1,0,3:0:0:0:
389,200,224563,1,0,3:0:0:0:
448,141,224649,69,8,0:0:0:0:
453,193,224735,1,0,3:0:0:0:
459,245,224821,1,0,3:0:0:0:
464,297,224907,1,0,3:0:0:0:
470,349,224994,5,0,0:0:0:0:
449,346,225080,1,0,0:0:0:0:
428,346,225166,1,0,0:0:0:0:
408,353,225252,1,0,0:0:0:0:
333,311,225339,69,2,0:0:0:0:
290,345,225425,1,0,0:0:0:0:
236,356,225511,1,0,0:0:0:0:
184,337,225597,1,0,0:0:0:0:
123,278,225684,6,0,P|73:264|26:284,1,84
132,165,225942,1,0,0:0:0:0:
141,176,226028,54,0,P|181:184|219:171,1,78.75
278,102,226373,70,0,B|74:66|74:66|176:99,1,315,4|0,1:0|0:0,0:0:0:0:
403,31,226718,2,0,B|449:22|449:22|454:15|454:15|502:7,1,105,8|0,0:0|0:0,0:0:0:0:
338,229,226890,1,0,3:0:0:0:
334,215,226977,6,0,B|315:100|315:100|326:72|326:72|316:9,1,210,0|0,1:0|0:0,0:0:0:0:
482,155,227235,2,0,B|501:187|501:187|480:251,1,105
419,362,227408,70,0,B|401:276|401:276|541:300|541:300|499:375,1,315,8|0,0:0|0:0,0:0:0:0:
406,366,227752,6,0,B|388:278|388:278|239:308,1,236.250009012223,0|0,1:0|0:0,0:0:0:0:
103,250,228011,1,0,1:0:0:0:
93,260,228097,70,0,P|178:366|174:230,1,354.375013518334,8|0,0:0|1:0,0:0:0:0:
134,160,228442,1,0,3:0:0:0:
155,125,228528,1,0,3:0:0:0:
148,87,228615,1,0,1:0:0:0:
43,4,228787,6,0,B|108:20|108:20|125:40|125:40|261:68|261:68|287:52,1,262.5,8|0,0:0|0:0,0:0:0:0:
489,16,229132,70,0,B|460:182|460:182|463:197|463:197|449:274,1,262.5,0|0,1:0|0:0,0:0:0:0:
390,335,229391,1,0,1:0:0:0:
390,335,229477,2,0,B|398:345|410:349|410:349|263:372,1,131.25,8|0,0:0|0:0,0:0:0:0:
218,96,229649,5,0,3:0:0:0:
174,164,229735,2,0,B|228:182|248:233|248:233|247:178|286:137,1,210,0|0,1:0|0:0,0:0:0:0:
285,137,229994,1,0,0:0:0:0:
37,44,230166,70,0,B|29:12|-5:-11|-5:-11|103:5|139:122|55:184,1,315,8|0,0:0|0:0,0:0:0:0:
117,284,230511,6,0,B|114:388|16:389|-29:324|-14:237|65:170|166:166|248:233,1,472.500018024445,0|0,1:0|1:0,0:0:0:0:
438,10,230856,2,0,B|394:29|394:29|372:137,1,157.500006008148,8|0,0:0|0:0,0:0:0:0:
499,355,231028,1,0,1:0:0:0:
499,355,231115,1,0,1:0:0:0:
499,355,231201,70,0,B|483:260|483:260|476:253|476:253|459:151,1,210,0|0,1:0|3:0,0:0:0:0:
300,29,231373,6,0,L|304:55,1,26.25,0|0,1:0|0:0,0:0:0:0:
169,223,231546,70,0,P|211:256|258:249,1,105,8|0,0:0|0:0,0:0:0:0:
446,2,231718,2,0,P|388:48|388:99,1,131.25
235,171,231890,38,0,P|399:191|498:262,1,262.5,0|0,1:0|0:0,0:0:0:0:
341,260,232149,1,0,1:0:0:0:
374,360,232235,22,0,P|384:308|355:267,1,105,10|0,0:0|0:0,0:0:0:0:
171,110,232408,1,0,1:0:0:0:
174,96,232494,1,0,1:0:0:0:
215,14,232580,54,0,L|190:19,1,26.25,2|0,0:0|0:0,0:0:0:0:
61,249,232752,22,0,B|35:279|59:311|107:285|109:203|85:130|4:106,2,262.5,2|8|2,1:2|0:0|3:2,0:0:0:0:
397,359,233270,54,0,B|352:381|245:343|345:298|229:247|144:294,1,262.5,4|0,1:0|0:0,0:0:0:0:
398,181,233528,1,0,1:0:0:0:
366,282,233615,22,0,P|393:240|383:188,1,105,10|0,0:0|0:0,0:0:0:0:
222,8,233787,1,0,1:0:0:0:
225,22,233873,1,0,1:0:0:0:
277,100,233959,54,0,L|283:74,1,26.25,2|0,0:0|0:0,0:0:0:0:
481,10,234132,22,0,B|482:75|415:91|415:91|354:103|354:103|350:98|350:98|348:104|348:104|275:118,2,262.5,2|8|2,1:2|0:0|3:2,0:0:0:0:
446,328,234649,54,0,B|458:364|458:364|500:289|476:205|401:172,1,262.5,4|0,1:0|0:0,0:0:0:0:
286,292,234908,1,0,1:0:0:0:
326,192,234994,22,0,P|320:243|282:277,1,105,10|0,0:0|0:0,0:0:0:0:
96,41,235167,1,0,1:0:0:0:
102,27,235253,1,0,1:0:0:0:
183,15,235339,54,0,L|228:8,1,26.25,2|0,0:0|0:0,0:0:0:0:
2,157,235511,22,0,B|125:185|125:185|121:176|121:176|245:204,2,262.5,2|8|0,1:2|0:0|0:0,0:0:0:0:
465,377,236028,54,0,B|448:331|480:293|480:293|463:217|463:217|467:214|467:214|462:213|462:213|441:117,1,262.5,4|0,1:0|0:0,0:0:0:0:
394,1,236287,1,0,1:0:0:0:
490,49,236373,22,0,P|438:49|397:17,1,105,10|0,0:0|0:0,0:0:0:0:
94,154,236546,1,0,1:0:0:0:
110,151,236632,1,0,1:0:0:0:
199,89,236718,54,0,L|190:141,1,52.5,2|0,0:0|0:0,0:0:0:0:
292,29,236890,22,0,L|269:159,1,105,2|0,1:2|0:0,0:0:0:0:
241,358,237063,53,2,3:2:0:0:
238,343,237149,1,0,3:0:0:0:
256,355,237235,1,0,3:0:0:0:
253,340,237321,1,0,3:0:0:0:
332,384,237408,38,0,L|19:340,1,315,2|0,1:1|0:0,0:0:0:0:
31,68,237752,2,0,B|54:84|54:84|70:160,1,105,12|0,0:0|0:0,0:0:0:0:
122,317,237925,5,0,1:0:0:0:
105,319,238011,2,0,B|138:227|224:194|320:230|320:230|253:298,1,315,0|0,1:0|0:0,0:0:0:0:
418,64,238356,1,0,3:0:0:0:
475,120,238442,70,0,B|494:126|507:143|507:143|550:41|459:-2,1,210,8|0,0:0|0:0,0:0:0:0:
54,16,238787,6,0,B|113:22|113:22|120:20|120:20|193:29|193:29|194:25|194:25|193:29|193:29|287:40,1,236.250009012223,0|0,1:0|0:0,0:0:0:0:
357,9,239046,1,0,1:0:0:0:
290,56,239132,70,0,B|234:97|249:183|334:232|429:200|452:115|411:68,1,354.375013518334,8|0,0:0|1:0,0:0:0:0:
308,260,239477,1,0,3:0:0:0:
332,288,239563,1,0,3:0:0:0:
340,324,239649,1,0,1:0:0:0:
475,373,239821,6,0,B|495:364|495:364|257:325,1,262.5,8|0,0:0|0:0,0:0:0:0:
48,160,240166,70,0,B|85:148|101:106|101:106|72:287,1,262.5,0|0,1:0|0:0,0:0:0:0:
192,372,240425,1,0,1:0:0:0:
183,384,240511,2,0,L|158:256,1,131.25,8|0,0:0|0:0,0:0:0:0:
115,20,240684,1,0,3:0:0:0:
41,147,240770,6,0,B|93:125|92:67|92:67|195:33,1,210,0|0,1:0|0:0,0:0:0:0:
275,41,241028,2,0,B|304:46|304:46|283:30,1,52.5,0|0,3:0|0:0,0:0:0:0:
490,0,241201,70,0,B|384:60|384:60|434:270,1,315,8|0,0:0|0:0,0:0:0:0:
453,329,241546,6,0,B|477:392|564:392|588:291|515:222|348:179|232:230,1,472.500018024445,0|0,1:0|1:0,0:0:0:0:
172,173,241890,2,0,B|139:213|139:213|156:265,1,105,8|0,0:0|0:0,0:0:0:0:
1,375,242063,1,0,1:0:0:0:
1,375,242149,1,0,1:0:0:0:
1,375,242235,70,0,P|48:308|35:181,1,210,0|0,1:0|0:0,0:0:0:0:
91,27,242408,6,0,L|117:23,1,26.25,0|0,1:0|0:0,0:0:0:0:
264,122,242580,70,0,P|236:79|185:69,1,105,8|0,0:0|3:0,0:0:0:0:
9,0,242752,2,0,P|14:63|62:105,1,131.25,0|0,3:0|3:0,0:0:0:0:
458,19,242925,38,0,B|500:79|449:138|449:138|374:111|382:38,1,262.5,0|2,1:0|0:0,0:0:0:0:
291,92,243184,1,0,0:0:0:0:
277,88,243270,2,0,P|279:37|313:0,1,105,12|0,0:0|0:0,0:0:0:0:
448,217,243442,1,0,0:0:0:0:
464,220,243528,54,0,B|505:209|521:175|521:175|510:264|438:317|348:298,1,315,2|0,1:2|0:0,0:0:0:0:
274,362,243873,1,0,0:0:0:0:
283,349,243959,22,0,P|167:281|-9:293,1,315,10|0,0:0|0:0,0:0:0:0:
62,235,244304,53,2,1:2:0:0:
5,26,244477,1,0,3:0:0:0:
7,37,244563,1,0,3:0:0:0:
14,47,244649,2,0,P|75:48|101:-7,1,131.25,10|0,0:0|0:0,0:0:0:0:
306,8,244821,1,0,3:0:0:0:
375,45,244908,22,0,B|182:20|182:20|220:27|238:54,1,262.5,2|0,1:2|0:0,0:0:0:0:
238,54,245166,1,0,1:0:0:0:
505,149,245339,2,0,B|528:84|505:20|437:-8|437:-8|462:20|455:64,1,262.5,10|0,0:0|0:0,0:0:0:0:
152,182,245684,70,0,B|137:138|170:102|170:102|183:138|163:170,1,157.500006008148,2|2,0:1|0:0,0:0:0:0:
119,365,246028,1,0,0:0:0:0:
122,351,246114,1,0,0:0:0:0:
125,337,246201,1,0,0:0:0:0:
204,362,246287,5,0,0:0:0:0:
204,362,246373,2,0,B|292:354|292:354|313:328|352:325,1,157.500006008148,0|0,3:1|0:0,0:0:0:0:
505,217,246718,2,0,B|553:265|548:365|495:430|416:394|399:325|461:289,1,315,2|0,0:0|0:0,0:0:0:0:
454,293,247063,70,0,P|454:282|451:276,1,13.125,0|0,3:0|0:0,0:0:0:0:
442,285,247149,2,0,P|436:273|426:266,1,19.6875007510186,0|0,3:0|0:0,0:0:0:0:
423,280,247235,2,0,P|414:270|402:263,1,26.25,2|0,3:2|0:0,0:0:0:0:
367,128,247408,6,0,P|360:139|349:147,1,26.25,2|0,1:2|0:0,0:0:0:0:
342,161,247494,2,0,P|328:168|311:170,1,32.8125,0|0,1:0|0:0,0:0:0:0:
295,183,247580,2,0,P|275:185|256:181,1,39.3750015020371,0|0,1:0|0:0,0:0:0:0:
237,186,247666,2,0,P|217:181|198:162,1,45.9375004380941,0|0,1:0|0:0,0:0:0:0:
119,115,247752,69,0,3:0:0:0:
126,101,247839,1,0,3:0:0:0:
125,87,247925,5,0,3:0:0:0:
25,17,248097,70,0,P|19:54|44:83,1,78.75,2|0,0:1|0:0,0:0:0:0:
125,87,248442,54,0,B|116:140|116:140|93:162|93:162|85:222|85:222|19:192|19:192|29:127|29:127|51:105|51:105|61:43,1,377.999988464356,4|0,1:0|0:0,0:0:0:0:
171,202,248787,6,0,B|241:188|241:188|219:213,1,105,8|0,0:0|0:0,0:0:0:0:
33,281,248959,1,0,3:0:0:0:
33,281,249046,2,0,B|38:222|97:196|147:225|147:225|159:289|235:307|273:263,1,315,0|0,1:0|0:0,0:0:0:0:
271,265,249390,1,0,0:0:0:0:
409,339,249477,70,0,B|450:294|450:294|498:328,1,118.125004506111,8|0,0:0|0:0,0:0:0:0:
496,327,249821,6,0,P|396:349|388:247,1,231.000007049561,0|0,1:0|0:0,0:0:0:0:
365,95,250080,1,0,1:0:0:0:
380,103,250166,2,0,P|435:96|461:47,1,115.50000352478,8|0,0:0|0:0,0:0:0:0:
507,181,250339,1,0,3:0:0:0:
507,181,250425,70,0,B|451:171|451:171|434:186,1,78.7500030040742,0|0,1:0|0:0,0:0:0:0:
417,182,250684,2,0,P|390:209|352:204,1,78.7500030040742,0|0,1:0|0:0,0:0:0:0:
220,107,250856,6,0,B|218:35|311:11|364:101|303:147|303:147|258:185|291:253,1,315,8|0,0:0|0:0,0:0:0:0:
162,384,251201,70,0,P|177:282|85:328,1,251.999992309571,0|0,1:0|0:0,0:0:0:0:
86,340,251459,1,0,1:0:0:0:
90,351,251546,2,0,P|53:302|66:242,1,125.999996154785,8|0,0:0|0:0,0:0:0:0:
227,225,251718,5,0,3:0:0:0:
227,225,251804,2,0,B|211:261|174:268|141:250|141:250|144:168|51:142|7:198,1,251.999992309571,0|0,1:0|0:0,0:0:0:0:
19,297,252063,1,0,0:0:0:0:
27,305,252149,1,0,0:0:0:0:
90,351,252235,70,0,B|136:345|136:345|160:359|160:359|203:352,1,118.125004506111,8|0,0:0|0:0,0:0:0:0:
243,226,252580,6,0,B|233:168|233:168|157:143|157:143|179:279,1,272.999987503052,0|0,1:0|0:0,0:0:0:0:
317,240,252839,1,0,1:0:0:0:
243,226,252925,2,0,B|189:219|189:219|162:235|162:235|112:227,1,136.499993751526,8|0,0:0|0:0,0:0:0:0:
35,28,253097,1,0,1:0:0:0:
27,39,253184,1,0,1:0:0:0:
89,80,253270,70,0,P|89:113|113:136,1,36.749998878479
115,80,253356,2,0,P|132:108|164:116,1,47.2499985580445
140,67,253442,2,0,P|169:83|201:74,1,57.7500017623902
157,45,253528,2,0,P|190:44|213:20,1,68.2499968757631
213,19,253615,6,0,B|291:8,1,78.75
419,103,253959,22,0,P|502:87|476:174,1,210,4|0,1:0|0:0,0:0:0:0:
477,173,254218,1,0,1:0:0:0:
400,84,254304,22,0,B|349:77,1,39.3750015020371,10|0,0:0|0:0,0:0:0:0:
393,210,254477,2,0,B|342:217,1,39.3750015020371,0|0,1:2|1:0,0:0:0:0:
340,44,254649,54,0,P|355:79|345:116,1,78.7500030040742
448,0,254821,2,0,P|461:75|419:140,1,157.500006008148,2|0,1:2|0:0,0:0:0:0:
425,316,254994,22,0,P|392:337|353:333,1,78.7500030040742,10|0,0:0|0:0,0:0:0:0:
305,274,255166,2,0,B|254:267,1,39.3750015020371
180,64,255339,54,0,B|167:18|167:18|122:80|122:80|193:147,1,210,4|0,1:0|0:0,0:0:0:0:
185,139,255597,1,0,1:0:0:0:
266,75,255684,22,0,L|253:29,1,39.3750015020371,10|0,0:0|0:0,0:0:0:0:
62,34,255856,2,0,L|89:-5,1,39.3750015020371,0|2,1:0|1:2,0:0:0:0:
263,168,256028,54,0,P|287:137|287:99,1,78.7500030040742
373,181,256201,2,0,P|382:103|346:34,1,157.500006008148,0|0,1:0|0:0,0:0:0:0:
162,44,256373,22,0,P|129:23|91:30,1,78.7500030040742,10|0,0:0|0:0,0:0:0:0:
76,105,256546,2,0,B|36:110,1,39.3750015020371
93,281,256718,54,0,P|10:297|36:210,1,210,4|0,1:0|0:0,0:0:0:0:
35,211,256977,1,0,1:0:0:0:
112,300,257063,22,0,B|163:307,1,39.3750015020371,10|0,0:0|0:0,0:0:0:0:
119,174,257235,2,0,B|170:167,1,39.3750015020371,0|0,1:0|1:0,0:0:0:0:
172,340,257408,54,0,P|157:305|167:268,1,78.7500030040742
64,384,257580,2,0,P|51:309|93:244,1,157.500006008148,2|0,1:2|0:0,0:0:0:0:
292,295,257752,22,0,P|257:276|241:241,1,78.7500030040742,8|0,0:0|0:0,0:0:0:0:
287,178,257925,2,0,B|326:183,1,39.3750015020371
512,336,258097,54,0,B|493:196|493:196|469:280,1,210,4|0,1:0|0:0,0:0:0:0:
474,262,258356,1,0,1:0:0:0:
392,326,258442,22,0,P|372:293|375:254,1,78.7500030040742,10|0,0:0|1:0,0:0:0:0:
287,178,258701,54,0,P|318:184|349:174,1,65.625,2|0,1:2|0:0,0:0:0:0:
392,106,258873,21,0,1:0:0:0:
389,93,258959,1,0,1:0:0:0:
385,80,259046,1,0,1:0:0:0:
381,67,259132,1,10,0:0:0:0:
485,121,259304,2,0,L|503:86,1,39.3750015020371,0|0,3:0|0:0,0:0:0:0:
503,86,259477,6,0,B|467:114|410:93|409:45|409:45|369:41|338:93|359:134|359:134|409:139|437:194|410:245,1,377.999988464356,4|0,1:2|0:0,0:0:0:0:
440,345,259821,6,0,P|431:294|460:252,1,105,8|0,0:0|0:0,0:0:0:0:
492,171,259994,1,0,0:0:0:0:
492,171,260080,2,0,B|421:178|377:136|377:136|428:201|358:276|296:247,1,315,0|0,1:0|0:0,0:0:0:0:
295,246,260425,1,0,0:0:0:0:
168,318,260511,70,0,B|143:335|115:328|115:328|137:356|169:350,1,118.125004506111,8|0,0:0|0:0,0:0:0:0:
169,349,260856,6,0,B|235:339|234:238|161:219|161:219|130:258,1,231.000007049561,0|0,1:0|0:0,0:0:0:0:
2,206,261115,1,0,1:0:0:0:
14,193,261201,2,0,B|68:212|68:212|104:167,1,115.50000352478,8|0,0:0|0:0,0:0:0:0:
199,34,261373,1,0,3:0:0:0:
199,34,261459,70,0,B|245:50|245:50|250:79,1,78.7500030040742,0|0,1:0|0:0,0:0:0:0:
269,93,261718,2,0,P|276:131|308:152,1,78.7500030040742,0|0,1:0|0:0,0:0:0:0:
409,4,261890,6,0,B|367:23|348:91|397:132|397:132|434:162|449:206|423:243|381:250|351:225|360:190|390:178|414:198,1,315,8|0,0:0|0:0,0:0:0:0:
444,71,262235,70,0,B|475:135|421:184|421:184|368:232|399:297,1,251.999992309571,0|0,1:0|0:0,0:0:0:0:
407,309,262494,1,0,1:0:0:0:
417,316,262580,2,0,P|475:330|521:291,1,125.999996154785,8|0,0:0|0:0,0:0:0:0:
512,193,262752,1,0,0:0:0:0:
512,193,262839,6,0,B|455:157|455:157|388:185|388:185|397:240|338:279|295:250,1,251.999992309571,0|0,1:0|0:0,0:0:0:0:
221,179,263097,1,0,0:0:0:0:
224,166,263184,1,0,0:0:0:0:
143,175,263270,70,0,B|152:220|152:220|170:236|170:236|179:286,1,118.125004506111,8|0,0:0|0:0,0:0:0:0:
59,354,263615,6,0,P|71:237|179:285,1,272.999987503052,0|0,1:0|0:0,0:0:0:0:
293,348,263873,1,0,1:0:0:0:
372,361,263959,2,0,B|450:339|450:339|488:379,1,136.499993751526,8|0,0:0|0:0,0:0:0:0:
499,179,264132,1,0,1:0:0:0:
507,190,264218,1,0,1:0:0:0:
445,231,264304,70,0,P|445:264|421:287,1,36.749998878479
419,231,264390,2,0,P|402:259|370:267,1,47.2499985580445
394,218,264477,2,0,P|365:234|333:225,1,57.7500017623902,0|0,1:0|0:0,0:0:0:0:
377,196,264563,2,0,P|344:195|321:171,1,68.2499968757631
320,170,264649,6,0,L|325:132,1,26.25,8|0,0:0|0:0,0:0:0:0:
239,51,264821,2,0,L|250:128,1,78.7500030040742
176,198,264994,21,2,1:2:0:0:
176,198,265166,2,0,L|137:192,2,39.3750015020371,0|0|0,0:0|0:0|1:0,0:0:0:0:
91,257,265339,1,12,0:0:0:0:
91,257,265425,2,0,P|57:276|20:268,1,78.7500030040742,0|0,0:0|3:0,0:0:0:0:
82,131,265597,54,0,B|145:139|145:139|168:248|168:248|228:257,1,236.250009012223,2|0,1:2|0:0,0:0:0:0:
307,269,265942,1,0,3:0:0:0:
307,269,266028,22,0,B|337:232|337:232|373:261|373:261|316:341|413:425|484:363,1,315,10|0,0:0|0:0,0:0:0:0:
431,309,266373,54,0,L|371:318,1,39.3750015020371,2|0,1:2|0:0,0:0:0:0:
474,143,266546,1,0,0:0:0:0:
454,140,266632,1,0,1:0:0:0:
386,182,266718,2,0,P|401:146|389:110,1,78.7500030040742,10|0,0:0|0:0,0:0:0:0:
266,44,266890,1,0,3:0:0:0:
266,44,266977,22,0,B|233:63|233:63|193:53,1,78.7500030040742,2|0,1:2|3:0,0:0:0:0:
180,67,267235,2,0,L|111:71,1,39.3750015020371,0|0,1:0|0:0,0:0:0:0:
39,184,267408,54,0,B|79:173|82:128|82:128|151:157|161:252|95:289,1,251.999992309571,10|0,0:0|0:0,0:0:0:0:
95,350,267752,21,0,1:0:0:0:
95,350,267925,2,0,L|56:343,2,39.3750015020371,2|0|0,0:0|0:0|0:0,0:0:0:0:
115,273,268097,70,0,P|163:262|210:301,1,105,0|0,3:0|0:0,0:0:0:0:
222,318,268528,6,0,P|249:345|319:323,1,105
326,321,268787,70,0,P|323:275|298:314,10,118.125004506111,2|2|2|2|2|2|2|2|2|2|2,0:0|0:0|0:0|0:0|0:0|0:0|0:0|0:0|0:0|0:0|0:0,0:0:0:0:
424,368,270166,6,0,P|419:342|418:316,1,52.5,8|0,0:0|3:0,0:0:0:0:
501,116,270511,38,0,L|334:91,1,157.5,4|0,1:0|0:0,0:0:0:0:
164,59,270856,22,0,P|217:67|243:114,1,105,8|0,0:0|0:0,0:0:0:0:
168,198,271028,1,0,3:0:0:0:
168,198,271115,54,0,L|9:174,1,157.500006008148,0|0,1:0|0:0,0:0:0:0:
112,295,271373,2,0,B|143:305|143:305|198:286,1,78.7500030040742,0|0,0:0|1:0,0:0:0:0:
321,209,271546,21,8,0:0:0:0:
379,272,271632,2,0,B|477:251|477:251|312:206,1,262.5,2|0,3:2|0:0,0:0:0:0:
249,116,271890,53,0,1:0:0:0:
112,295,272063,2,0,P|104:323|111:353,1,52.5,0|0,3:0|1:0,0:0:0:0:
107,345,272235,22,0,P|81:302|96:243,1,105,8|0,0:0|0:0,0:0:0:0:
165,97,272408,1,0,3:0:0:0:
77,119,272494,54,0,L|232:149,1,157.500006008148,0|0,1:0|0:0,0:0:0:0:
347,56,272752,2,0,P|340:98|360:135,1,78.7500030040742,0|0,1:0|0:0,0:0:0:0:
428,260,272925,21,8,0:0:0:0:
498,228,273011,2,0,B|365:188|403:301|248:259,1,262.5,2|0,3:2|0:0,0:0:0:0:
281,97,273270,54,0,P|322:126|317:176,1,105,0|0,1:0|0:0,0:0:0:0:
133,313,273528,1,0,1:0:0:0:
152,325,273615,22,0,L|146:216,1,105,8|0,0:0|0:0,0:0:0:0:
206,55,273787,1,0,3:0:0:0:
281,97,273873,54,0,L|118:69,1,157.500006008148,0|0,1:0|0:0,0:0:0:0:
4,263,274132,2,0,B|30:245|30:245|47:200,1,78.7500030040742
219,248,274304,21,8,0:0:0:0:
236,226,274390,2,0,B|331:243|331:243|371:295|371:295|469:315,1,262.5,2|0,3:2|0:0,0:0:0:0:
443,226,274649,53,0,1:0:0:0:
294,60,274821,2,0,P|316:76|359:78,1,52.5,0|0,3:0|1:0,0:0:0:0:
340,80,274994,22,0,B|305:44|305:44|246:48,1,105,8|0,0:0|0:0,0:0:0:0:
66,100,275166,1,0,3:0:0:0:
80,92,275252,54,0,B|123:69|123:69|84:191,1,157.500006008148,0|0,1:0|0:0,0:0:0:0:
75,270,275511,2,0,P|39:252|0:251,1,78.7500030040742,0|0,1:0|0:0,0:0:0:0:
269,218,275684,21,8,0:0:0:0:
214,304,275770,2,0,P|176:195|274:232,1,262.5,2|0,3:2|0:0,0:0:0:0:
326,334,276028,54,0,P|304:265|333:186,1,157.500006008148,0|0,1:0|0:0,0:0:0:0:
482,88,276287,1,0,1:0:0:0:
495,106,276373,22,0,L|390:83,1,105,8|0,0:0|0:0,0:0:0:0:
210,122,276546,1,0,3:0:0:0:
266,52,276632,54,0,P|298:120|267:190,1,157.500006008148,0|0,1:0|0:0,0:0:0:0:
186,298,276890,2,0,P|224:281|277:289,1,78.7500030040742
470,314,277063,21,8,0:0:0:0:
404,384,277149,2,0,B|380:307|380:307|429:214|429:214|419:136,1,262.5,2|0,3:2|0:0,0:0:0:0:
485,51,277408,53,0,1:0:0:0:
327,223,277580,2,0,P|317:198|324:164,1,52.5,0|0,3:0|1:0,0:0:0:0:
319,173,277752,22,0,B|341:217|341:217|315:283,1,105,8|0,0:0|0:0,0:0:0:0:
161,377,277925,1,0,3:0:0:0:
82,325,278011,54,0,L|239:342,1,157.500006008148,0|0,1:0|0:0,0:0:0:0:
152,251,278270,2,0,L|231:260,1,78.7500030040742,0|0,1:0|0:0,0:0:0:0:
418,188,278442,21,8,0:0:0:0:
441,315,278528,2,0,B|384:369|384:369|419:186,1,262.5,2|0,3:2|0:0,0:0:0:0:
490,67,278787,54,0,P|428:108|341:92,1,157.500006008148,0|0,1:0|0:0,0:0:0:0:
230,27,279046,1,0,1:0:0:0:
252,35,279132,22,0,P|278:79|254:147,1,105,8|0,0:0|0:0,0:0:0:0:
111,309,279304,1,0,3:0:0:0:
188,294,279390,54,0,L|16:261,1,157.500006008148,0|0,1:0|0:0,0:0:0:0:
186,101,279649,2,0,P|178:138|193:174,1,78.7500030040742
368,254,279821,21,8,0:0:0:0:
478,271,279908,2,0,B|409:271|344:349|344:349|383:302|366:250,1,262.5,2|0,3:2|0:0,0:0:0:0:
397,133,280166,6,0,B|351:113|351:113|297:152,1,105,2|0,0:0|0:0,0:0:0:0:
287,155,280425,1,0,0:0:0:0:
287,155,280511,2,0,L|281:91,1,52.5,2|0,0:0|0:0,0:0:0:0:
192,211,280684,70,0,B|146:231|146:231|92:192,1,105,2|0,0:0|0:0,0:0:0:0:
82,189,280943,1,0,0:0:0:0:
82,189,281029,2,0,L|76:253,1,52.5,2|0,0:0|0:0,0:0:0:0:
2,320,281201,6,0,L|109:341,1,105,2|0,0:0|0:0,0:0:0:0:
234,366,281546,1,2,0:1:0:0:
234,366,281718,1,0,3:0:0:0:
174,264,281890,38,0,B|217:235|217:235|287:259,1,105,12|0,0:0|0:0,0:0:0:0:
473,311,282063,1,0,3:0:0:0:
435,378,282149,22,0,L|427:209,1,157.500006008148,0|0,1:0|0:0,0:0:0:0:
462,102,282408,2,0,P|433:136|396:136,1,78.7500030040742,0|0,0:0|1:0,0:0:0:0:
168,6,282580,53,8,0:0:0:0:
98,48,282666,2,0,B|237:67|237:67|264:83|264:83|290:75|290:75|352:83,1,262.5,2|0,3:2|0:0,0:0:0:0:
299,160,282925,21,0,1:0:0:0:
130,322,283097,2,0,P|106:307|74:302,1,52.5,0|0,3:0|1:0,0:0:0:0:
82,302,283270,54,0,P|136:289|164:248,1,105,8|0,0:0|0:0,0:0:0:0:
98,48,283442,1,0,3:0:0:0:
47,109,283528,22,0,P|112:158|197:140,1,157.500006008148,0|0,1:0|0:0,0:0:0:0:
335,35,283787,2,0,P|294:40|266:70,1,78.7500030040742,0|0,1:0|0:0,0:0:0:0:
368,227,283959,53,8,0:0:0:0:
276,188,284046,2,0,B|446:178|446:178|360:231,1,262.5,2|0,3:2|0:0,0:0:0:0:
171,333,284304,22,0,P|209:270|147:233,1,157.500006008148,0|0,1:0|0:0,0:0:0:0:
76,322,284563,1,0,1:0:0:0:
76,322,284649,54,0,P|105:278|110:219,1,105,8|0,0:0|0:0,0:0:0:0:
71,40,284821,1,0,3:0:0:0:
61,49,284908,22,0,B|34:73|34:73|153:101,1,157.500006008148,0|0,1:0|0:0,0:0:0:0:
328,141,285166,2,0,B|251:122,1,78.7500030040742
408,236,285339,53,8,0:0:0:0:
438,111,285425,2,0,B|461:294|461:294|401:229,1,262.5,2|0,3:2|0:0,0:0:0:0:
348,307,285684,21,0,1:0:0:0:
215,158,285856,2,0,P|236:168|269:169,1,52.5,0|0,3:0|1:0,0:0:0:0:
263,169,286028,54,0,P|221:204|162:199,1,105,8|0,0:0|0:0,0:0:0:0:
55,89,286201,1,0,3:0:0:0:
69,82,286287,22,0,B|109:58|109:58|72:181,1,157.500006008148,0|0,1:0|0:0,0:0:0:0:
74,261,286546,2,0,P|39:243|-4:246,1,78.7500030040742,0|0,1:0|0:0,0:0:0:0:
240,344,286718,53,8,0:0:0:0:
157,346,286804,2,0,B|159:280|224:261|224:261|196:185|249:120,1,262.5,2|0,3:2|0:0,0:0:0:0:
149,57,287063,22,0,L|309:81,1,157.500006008148,0|0,1:0|0:0,0:0:0:0:
426,173,287321,1,0,1:0:0:0:
411,155,287408,54,0,P|403:104|435:64,1,105,8|0,0:0|0:0,0:0:0:0:
313,263,287580,1,0,3:0:0:0:
459,249,287666,22,0,B|408:282|408:282|298:260,1,157.500006008148,0|0,1:0|0:0,0:0:0:0:
239,338,287925,2,0,L|229:259,1,78.7500030040742
214,68,288097,53,8,0:0:0:0:
110,66,288184,2,0,B|83:40|83:40|244:14|244:14|203:86,1,262.5,2|0,3:2|0:0,0:0:0:0:
147,167,288442,1,0,1:0:0:0:
374,306,288615,22,0,P|366:283|370:244,1,52.5,0|0,3:0|1:0,0:0:0:0:
366,255,288787,54,0,P|328:298|273:301,1,105,8|0,0:0|0:0,0:0:0:0:
109,243,288959,1,0,3:0:0:0:
162,312,289046,22,0,B|213:252|213:252|171:186,1,157.500006008148,0|0,1:0|0:0,0:0:0:0:
46,93,289304,2,0,L|129:109,1,78.7500030040742,0|0,1:0|0:0,0:0:0:0:
416,149,289477,53,8,0:0:0:0:
360,41,289563,2,0,B|371:119|371:119|377:127|377:127|399:300,1,262.5,2|0,3:2|0:0,0:0:0:0:
288,354,289821,22,0,B|322:336|322:336|206:312,1,157.500006008148,0|0,1:0|0:0,0:0:0:0:
39,204,290080,1,0,1:0:0:0:
120,118,290166,54,0,P|149:158|152:224,1,105,8|0,0:0|0:0,0:0:0:0:
86,360,290339,1,0,3:0:0:0:
22,313,290425,22,0,L|194:335,1,157.500006008148,0|0,1:0|0:0,0:0:0:0:
320,229,290684,2,0,L|241:238,1,78.7500030040742,0|0,0:0|3:0,0:0:0:0:
484,293,290856,53,8,0:0:0:0:
436,363,290942,2,0,B|382:313|382:313|464:141,1,262.5,2|0,0:0|0:0,0:0:0:0:
500,52,291201,38,0,L|383:65,1,105,0|0,3:0|3:0,0:0:0:0:
301,151,291546,69,0,0:0:0:0:
276,143,291632,1,0,0:0:0:0:
212,87,291719,1,0,0:0:0:0:
187,95,291805,1,0,0:0:0:0:
98,119,291890,6,0,L|106:67,1,52.5
213,235,292063,70,0,L|205:183,1,52.5
89,216,292235,5,0,0:0:0:0:
84,239,292322,1,2,0:0:0:0:
80,265,292408,1,4,0:3:0:0:
77,293,292494,1,4,0:3:0:0:
128,358,292580,38,0,B|179:390|332:401|329:318|253:205|154:245|211:343|260:393|433:404|385:242|385:242|375:274|343:282|343:282|373:318|474:215|518:243|516:281|555:373|401:375|369:132|442:57|475:17,1,1023.74995313645,0|0,1:0|0:0,0:0:0:0:
461,34,293959,22,0,B|452:148|325:175|311:132|326:91,1,236.250009012223
284,17,294304,2,0,P|257:10|282:20,1,78.7500030040742,8|0,0:0|0:0,0:0:0:0:
93,95,294477,2,0,P|178:96|269:139,2,157.500006008148
29,2,294908,1,0,0:0:0:0:
29,2,294994,2,0,P|73:130|89:230,1,236.250009012223,8|0,0:0|0:0,0:0:0:0:
209,359,295339,54,0,B|117:288|26:339|26:339|103:388|251:338|445:246|402:105|402:105|410:92|410:92|332:104|258:202|330:289|461:317|536:302|536:302|472:262|382:255|298:347,1,1396.4999573822
303,341,297063,70,0,B|305:367|305:367|340:342,1,52.5,8|0,0:0|0:0,0:0:0:0:
480,198,297235,2,0,B|505:196|505:196|480:160,1,52.5
265,3,297408,38,0,B|256:-21|256:-21|350:33|315:172|315:172|308:108|273:92|273:92|270:84|270:84|187:71|150:165|150:165|143:159|143:159|81:170|29:110|29:110|22:94|22:94|-60:209|19:350,1,918.75
251,216,298097,38,0,B|280:202|275:157|222:160|149:179|119:266,1,210,4|0,3:1|0:0,0:0:0:0:
93,363,298356,1,0,0:0:0:0:
195,297,298442,38,0,P|189:267|125:250,1,105,10|0,0:0|0:0,0:0:0:0:
11,335,298701,38,0,B|71:304|160:305|113:401|208:396|266:347,1,262.5,0|0,1:0|0:0,0:0:0:0:
385,159,298959,1,2,0:0:0:0:
385,147,299046,1,0,0:0:0:0:
385,137,299132,2,0,B|403:67|345:30|345:30|300:107|453:152|386:301,1,393.75,10|0,0:0|0:0,0:0:0:0:
463,348,299477,38,0,B|374:355|416:292|302:320,1,157.500006008148,2|2,3:2|3:2,0:0:0:0:
251,357,299735,1,0,3:0:0:0:
260,239,299821,38,0,P|220:215|257:243,1,131.25,10|0,0:0|0:0,0:0:0:0:
494,269,299994,1,2,0:0:0:0:
506,231,300080,1,2,1:2:0:0:
505,191,300166,1,0,0:0:0:0:
500,151,300252,1,0,0:0:0:0:
485,113,300339,1,0,1:0:0:0:
303,0,300511,38,0,B|289:105|346:216|346:216|323:153|275:129|275:129|354:149,1,393.75,8|0,0:0|0:0,0:0:0:0:
428,55,300856,38,0,B|438:28|431:5|431:5|440:25|478:35,1,105,2|2,1:2|0:0,0:0:0:0:
485,113,301115,1,0,0:0:0:0:
416,268,301201,38,0,P|351:307|257:328,1,157.500006008148,8|0,0:0|0:0,0:0:0:0:
98,314,301459,38,0,B|152:273|222:284|261:291|273:328|273:328|235:322|222:284,1,262.5,0|0,1:0|0:0,0:0:0:0:
166,183,301718,38,0,P|144:133|157:66,1,105,2|0,3:2|3:0,0:0:0:0:
353,141,301890,38,0,B|454:221|448:151|400:138|379:164|300:132|150:236,1,262.5,10|2,0:0|0:0,0:0:0:0:
0,225,302149,1,0,3:0:0:0:
0,225,302235,2,0,P|45:234|79:193,1,105,2|0,3:2|0:0,0:0:0:0:
56,101,302408,2,0,L|23:-9,1,105,0|0,3:0|0:0,0:0:0:0:
311,37,302580,37,2,3:2:0:0:
307,32,302666,1,0,3:0:0:0:
303,27,302752,2,0,P|258:18|224:59,1,105,2|0,3:2|0:0,0:0:0:0:
264,261,302925,2,0,L|284:365,1,105,2|0,3:2|0:0,0:0:0:0:
392,212,303097,38,0,B|469:227|469:227|395:192,1,157.500006008148
41,295,303270,38,0,B|99:328|224:299|135:172|249:152|348:202,1,315,2|0,0:1|0:0,0:0:0:0:
377,92,303615,6,0,B|409:-19|409:-19|313:41|197:55|142:142|142:142|133:98|76:44|76:44|133:98|265:124|285:292|285:292|186:190|77:208|32:315,1,1181.25004506111,4|0,1:0|0:0,0:0:0:0:
41,295,304994,22,0,B|5:314|-42:282|11:224|60:240|135:289|108:372,1,252
199,335,305339,2,0,P|195:354|215:332,1,84,8|0,0:0|0:0,0:0:0:0:
333,340,305511,2,0,P|319:257|273:187,2,168
473,170,305942,1,0,0:0:0:0:
464,170,306028,2,0,B|388:191|348:147|348:147|343:142|343:142|296:87|212:124,1,252,8|0,0:0|0:0,0:0:0:0:
132,6,306373,22,0,B|101:26|-9:205|79:328|139:167|36:-10|36:-10|-13:98|-47:187|-12:333|99:349|99:349|154:247|168:186|168:186|155:247|164:297|164:297|187:188|270:164|370:172|442:329|319:384|227:368|192:291|259:176|323:233|323:233|382:265|448:253,1,1795.49994520569
444,253,308097,6,0,P|479:239|498:211,1,68.2499968757631,8|0,0:0|0:0,0:0:0:0:
498,84,308270,2,0,P|482:60|438:50,1,68.2499968757631
222,101,308442,70,0,B|176:65|113:90|113:90|170:133|265:120|240:78|315:76|393:122,1,393.75
302,197,308787,1,0,0:0:0:0:
292,186,308873,1,0,0:0:0:0:
304,182,308959,1,0,0:0:0:0:
313,192,309046,1,0,0:0:0:0:
334,310,309132,6,0,P|328:227|399:97,1,210,4|0,1:0|0:0,0:0:0:0:
439,53,309390,1,0,0:0:0:0:
504,150,309477,70,0,P|521:168|501:150,1,105,8|0,0:0|0:0,0:0:0:0:
138,192,309735,6,0,B|281:199|224:92|414:117,1,262.5,0|0,1:0|0:0,0:0:0:0:
448,294,309994,1,0,0:0:0:0:
455,296,310080,1,0,0:0:0:0:
461,298,310166,2,0,B|488:336|464:399|420:333|437:278|437:278|465:198|517:65|418:46,1,393.75,10|0,0:0|0:0,0:0:0:0:
336,5,310511,70,0,P|324:17|400:107,1,157.500006008148,2|0,1:2|0:0,0:0:0:0:
438,52,310770,1,2,1:2:0:0:
336,5,310856,6,0,P|268:14|227:68,1,131.25,10|0,0:0|0:0,0:0:0:0:
275,369,311028,1,2,0:0:0:0:
287,331,311114,1,0,1:2:0:0:
286,291,311200,1,0,0:0:0:0:
281,251,311286,1,0,0:0:0:0:
266,213,311373,1,0,1:0:0:0:
234,181,311459,1,0,0:0:0:0:
136,128,311546,70,0,B|89:100|49:126|49:126|81:160|137:129|137:129|200:134|234:182|234:182|248:140|306:116,1,393.75,10|0,0:0|0:0,0:0:0:0:
394,4,311890,6,0,P|366:41|352:101,1,78.7500030040742,2|2,0:0|0:0,0:0:0:0:
435,255,312235,5,8,1:2:0:0:
431,249,312321,2,0,L|370:152,1,105,2|0,3:2|0:0,0:0:0:0:
400,332,312580,70,0,B|381:347|390:381|390:381|420:360|411:331,1,105,2|0,3:2|0:0,0:0:0:0:
470,144,312839,1,2,3:2:0:0:
494,71,312925,2,0,L|515:10,1,52.5,0|0,3:0|0:0,0:0:0:0:
415,54,313097,2,0,L|436:-7,1,52.5,2|0,0:0|0:0,0:0:0:0:
337,70,313270,5,0,3:0:0:0:
265,99,313442,1,0,3:0:0:0:
264,106,313528,1,0,3:0:0:0:
263,113,313615,1,4,0:3:0:0:
190,80,313787,1,0,0:0:0:0:
116,54,313959,1,0,3:0:0:0:
115,47,314045,1,0,3:0:0:0:
114,40,314132,1,4,0:3:0:0:
32,100,314304,70,0,B|2:135|2:135|49:116,1,91.875,8|0,0:0|0:0,0:0:0:0:
50,101,314649,1,0,3:0:0:0:
