osu file format v14

[General]
AudioFilename: audio.mp3
AudioLeadIn: 0
PreviewTime: 85776
Countdown: 0
SampleSet: None
StackLeniency: 0.7
Mode: 3
LetterboxInBreaks: 0
SpecialStyle: 0
WidescreenStoryboard: 0

[Editor]
DistanceSpacing: 1.1
BeatDivisor: 8
GridSize: 32
TimelineZoom: 2

[Metadata]
Title:Static State
TitleUnicode:Static State
Artist:Nhato
ArtistUnicode:Nhato
Creator:CrazyOnePro
Version:Black Another
Source:beatmania IIDX 25 CANNON BALLERS
Tags:
BeatmapID:1586902
BeatmapSetID:753753

[Difficulty]
HPDrainRate:8
CircleSize:7
OverallDifficulty:8
ApproachRate:5
SliderMultiplier:1.4
SliderTickRate:1

[Events]
//Background and Video events
0,0,"Static State-bg.png",0,0
//Break Periods
//Storyboard Layer 0 (Background)
//Storyboard Layer 1 (Fail)
//Storyboard Layer 2 (Pass)
//Storyboard Layer 3 (Foreground)
//Storyboard Sound Samples

[TimingPoints]
994,434.782608695652,4,2,0,100,1,0
86211,-100,4,2,0,100,0,1
98385,-100,4,2,0,100,0,0
100124,-100,4,2,0,100,0,1
110559,-100,4,2,0,100,0,0

[HitObjects]
329,192,994,128,0,1863:0:0:0:0:
109,192,994,128,0,1863:0:0:0:0:
475,192,1863,1,0,0:0:0:0:
36,192,1863,1,0,0:0:0:0:
256,192,1863,1,0,0:0:0:0:
256,192,1972,1,0,0:0:0:0:
36,192,1972,1,0,0:0:0:0:
475,192,1972,1,0,0:0:0:0:
329,192,2080,1,0,0:0:0:0:
402,192,2080,1,0,0:0:0:0:
109,192,2080,1,0,0:0:0:0:
109,192,2189,1,0,0:0:0:0:
329,192,2189,1,0,0:0:0:0:
402,192,2189,1,0,0:0:0:0:
256,192,2298,1,0,0:0:0:0:
182,192,2298,1,0,0:0:0:0:
475,192,2298,1,0,0:0:0:0:
256,192,2407,1,0,0:0:0:0:
182,192,2407,1,0,0:0:0:0:
475,192,2407,1,0,0:0:0:0:
256,192,2515,1,0,0:0:0:0:
182,192,2515,1,0,0:0:0:0:
475,192,2515,1,0,0:0:0:0:
256,192,2624,1,0,0:0:0:0:
182,192,2624,1,0,0:0:0:0:
475,192,2624,1,0,0:0:0:0:
402,192,2733,1,0,0:0:0:0:
109,192,2733,1,0,0:0:0:0:
36,192,2733,128,0,3820:0:0:0:0:
329,192,2733,128,0,3820:0:0:0:0:
256,192,3820,128,0,4254:0:0:0:0:
475,192,3820,128,0,4254:0:0:0:0:
109,192,4037,128,0,4254:0:0:0:0:
182,192,4254,128,0,4472:0:0:0:0:
402,192,4254,128,0,4472:0:0:0:0:
36,192,4254,1,0,0:0:0:0:
36,192,4472,1,0,0:0:0:0:
475,192,4472,1,0,0:0:0:0:
329,192,4472,128,0,5341:0:0:0:0:
109,192,4472,128,0,5341:0:0:0:0:
256,192,5341,128,0,5993:0:0:0:0:
36,192,5341,128,0,5993:0:0:0:0:
109,192,5559,128,0,5776:0:0:0:0:
402,192,5559,128,0,5776:0:0:0:0:
182,192,5993,128,0,6211:0:0:0:0:
475,192,5993,128,0,6211:0:0:0:0:
329,192,6211,1,0,0:0:0:0:
36,192,6211,1,0,0:0:0:0:
109,192,6211,128,0,7298:0:0:0:0:
402,192,6211,128,0,7298:0:0:0:0:
256,192,6211,128,0,7298:0:0:0:0:
182,192,7298,128,0,7733:0:0:0:0:
475,192,7298,128,0,7733:0:0:0:0:
402,192,7733,128,0,8820:0:0:0:0:
109,192,7733,128,0,8820:0:0:0:0:
329,192,7950,1,0,0:0:0:0:
36,192,7950,1,0,0:0:0:0:
256,192,7950,1,0,0:0:0:0:
182,192,8820,1,0,0:0:0:0:
36,192,8820,1,0,0:0:0:0:
475,192,8820,1,0,0:0:0:0:
182,192,8928,1,0,0:0:0:0:
36,192,8928,1,0,0:0:0:0:
475,192,8928,1,0,0:0:0:0:
256,192,9037,1,0,0:0:0:0:
109,192,9037,1,0,0:0:0:0:
329,192,9037,1,0,0:0:0:0:
256,192,9146,1,0,0:0:0:0:
109,192,9146,1,0,0:0:0:0:
329,192,9146,1,0,0:0:0:0:
475,192,9254,1,0,0:0:0:0:
402,192,9254,1,0,0:0:0:0:
36,192,9254,128,0,9363:0:0:0:0:
182,192,9254,128,0,9363:0:0:0:0:
475,192,9363,1,0,0:0:0:0:
402,192,9363,1,0,0:0:0:0:
109,192,9363,128,0,9472:0:0:0:0:
256,192,9363,128,0,9472:0:0:0:0:
475,192,9472,1,0,0:0:0:0:
402,192,9472,1,0,0:0:0:0:
182,192,9472,128,0,9580:0:0:0:0:
329,192,9472,128,0,9580:0:0:0:0:
475,192,9580,1,0,0:0:0:0:
256,192,9580,128,0,9689:0:0:0:0:
402,192,9580,128,0,9689:0:0:0:0:
329,192,9689,128,0,9798:0:0:0:0:
109,192,9689,128,0,9798:0:0:0:0:
256,192,9798,128,0,9907:0:0:0:0:
36,192,9798,128,0,9907:0:0:0:0:
109,192,9907,128,0,10124:0:0:0:0:
182,192,9907,128,0,10015:0:0:0:0:
256,192,10015,128,0,10124:0:0:0:0:
475,192,10124,1,0,0:0:0:0:
36,192,10124,1,0,0:0:0:0:
329,192,10124,1,0,0:0:0:0:
402,192,10124,128,0,10776:0:0:0:0:
109,192,10559,1,0,0:0:0:0:
36,192,10559,1,0,0:0:0:0:
256,192,10776,128,0,11211:0:0:0:0:
182,192,10993,1,0,0:0:0:0:
36,192,10993,1,0,0:0:0:0:
109,192,11211,128,0,12298:0:0:0:0:
329,192,11211,1,0,0:0:0:0:
475,192,11211,1,0,0:0:0:0:
182,192,11428,1,0,0:0:0:0:
256,192,11428,1,0,0:0:0:0:
402,192,11428,1,0,0:0:0:0:
329,192,11863,1,0,0:0:0:0:
182,192,11863,1,0,0:0:0:0:
475,192,12298,128,0,12950:0:0:0:0:
329,192,12298,1,0,0:0:0:0:
182,192,12298,1,0,0:0:0:0:
36,192,12515,1,0,0:0:0:0:
256,192,12515,1,0,0:0:0:0:
109,192,12570,1,0,0:0:0:0:
329,192,12570,1,0,0:0:0:0:
182,192,12624,1,0,0:0:0:0:
402,192,12624,1,0,0:0:0:0:
256,192,12678,1,0,0:0:0:0:
36,192,12678,1,0,0:0:0:0:
329,192,12733,1,0,0:0:0:0:
109,192,12733,1,0,0:0:0:0:
36,192,12950,128,0,13167:0:0:0:0:
182,192,12950,1,0,0:0:0:0:
256,192,13167,1,0,0:0:0:0:
402,192,13167,1,0,0:0:0:0:
475,192,13167,1,0,0:0:0:0:
329,192,13167,1,0,0:0:0:0:
109,192,13167,128,0,16646:0:0:0:0:
329,192,13385,1,0,0:0:0:0:
182,192,13602,1,0,0:0:0:0:
256,192,13657,1,0,0:0:0:0:
329,192,13711,1,0,0:0:0:0:
402,192,13765,1,0,0:0:0:0:
475,192,13820,1,0,0:0:0:0:
36,192,13820,1,0,0:0:0:0:
256,192,14037,1,0,0:0:0:0:
475,192,14037,1,0,0:0:0:0:
329,192,14472,1,0,0:0:0:0:
256,192,14689,1,0,0:0:0:0:
182,192,14907,1,0,0:0:0:0:
329,192,14907,1,0,0:0:0:0:
475,192,14907,1,0,0:0:0:0:
182,192,15015,1,0,0:0:0:0:
329,192,15015,1,0,0:0:0:0:
475,192,15015,1,0,0:0:0:0:
182,192,15124,1,0,0:0:0:0:
329,192,15124,1,0,0:0:0:0:
475,192,15124,1,0,0:0:0:0:
182,192,15233,1,0,0:0:0:0:
329,192,15233,1,0,0:0:0:0:
475,192,15233,1,0,0:0:0:0:
256,192,15450,1,0,0:0:0:0:
402,192,15450,1,0,0:0:0:0:
36,192,15450,1,0,0:0:0:0:
36,192,15559,1,0,0:0:0:0:
256,192,15559,1,0,0:0:0:0:
402,192,15559,1,0,0:0:0:0:
402,192,15667,1,0,0:0:0:0:
256,192,15667,1,0,0:0:0:0:
36,192,15667,1,0,0:0:0:0:
36,192,15776,1,0,0:0:0:0:
256,192,15776,1,0,0:0:0:0:
402,192,15776,1,0,0:0:0:0:
402,192,15885,1,0,0:0:0:0:
256,192,15885,1,0,0:0:0:0:
36,192,15885,1,0,0:0:0:0:
36,192,15993,1,0,0:0:0:0:
256,192,15993,1,0,0:0:0:0:
402,192,15993,1,0,0:0:0:0:
182,192,16048,1,0,0:0:0:0:
329,192,16048,1,0,0:0:0:0:
402,192,16102,1,0,0:0:0:0:
36,192,16102,1,0,0:0:0:0:
475,192,16157,1,0,0:0:0:0:
182,192,16157,1,0,0:0:0:0:
402,192,16211,1,0,0:0:0:0:
256,192,16211,1,0,0:0:0:0:
329,192,16320,1,0,0:0:0:0:
182,192,16320,1,0,0:0:0:0:
256,192,16428,1,0,0:0:0:0:
475,192,16428,1,0,0:0:0:0:
402,192,16537,1,0,0:0:0:0:
182,192,16537,1,0,0:0:0:0:
329,192,16646,1,0,0:0:0:0:
256,192,16646,1,0,0:0:0:0:
475,192,16646,1,0,0:0:0:0:
36,192,17080,1,0,0:0:0:0:
109,192,17080,1,0,0:0:0:0:
329,192,17080,1,0,0:0:0:0:
182,192,17189,1,0,0:0:0:0:
402,192,17189,1,0,0:0:0:0:
256,192,17298,1,0,0:0:0:0:
475,192,17298,1,0,0:0:0:0:
329,192,17407,1,0,0:0:0:0:
36,192,17407,1,0,0:0:0:0:
402,192,17515,1,0,0:0:0:0:
475,192,17515,1,0,0:0:0:0:
109,192,17515,1,0,0:0:0:0:
182,192,17624,1,0,0:0:0:0:
329,192,17624,1,0,0:0:0:0:
256,192,17733,1,0,0:0:0:0:
402,192,17733,1,0,0:0:0:0:
329,192,17841,1,0,0:0:0:0:
475,192,17841,1,0,0:0:0:0:
109,192,17950,1,0,0:0:0:0:
402,192,17950,1,0,0:0:0:0:
36,192,17950,1,0,0:0:0:0:
329,192,18059,1,0,0:0:0:0:
182,192,18059,1,0,0:0:0:0:
256,192,18167,1,0,0:0:0:0:
109,192,18167,1,0,0:0:0:0:
182,192,18276,1,0,0:0:0:0:
36,192,18276,1,0,0:0:0:0:
109,192,18385,1,0,0:0:0:0:
475,192,18385,1,0,0:0:0:0:
329,192,18385,1,0,0:0:0:0:
402,192,18493,1,0,0:0:0:0:
256,192,18493,1,0,0:0:0:0:
329,192,18602,1,0,0:0:0:0:
182,192,18602,1,0,0:0:0:0:
256,192,18711,1,0,0:0:0:0:
109,192,18711,1,0,0:0:0:0:
182,192,18820,1,0,0:0:0:0:
36,192,18820,1,0,0:0:0:0:
475,192,18820,1,0,0:0:0:0:
256,192,18928,1,0,0:0:0:0:
109,192,18928,1,0,0:0:0:0:
329,192,19037,1,0,0:0:0:0:
182,192,19037,1,0,0:0:0:0:
256,192,19146,1,0,0:0:0:0:
109,192,19146,1,0,0:0:0:0:
182,192,19254,1,0,0:0:0:0:
402,192,19254,1,0,0:0:0:0:
36,192,19254,1,0,0:0:0:0:
329,192,19363,1,0,0:0:0:0:
475,192,19363,1,0,0:0:0:0:
256,192,19472,1,0,0:0:0:0:
402,192,19472,1,0,0:0:0:0:
182,192,19580,1,0,0:0:0:0:
329,192,19580,1,0,0:0:0:0:
36,192,19689,1,0,0:0:0:0:
109,192,19689,1,0,0:0:0:0:
475,192,19689,1,0,0:0:0:0:
256,192,19798,1,0,0:0:0:0:
402,192,19798,1,0,0:0:0:0:
329,192,19907,1,0,0:0:0:0:
475,192,19907,1,0,0:0:0:0:
402,192,20015,1,0,0:0:0:0:
256,192,20015,1,0,0:0:0:0:
475,192,20124,1,0,0:0:0:0:
109,192,20124,1,0,0:0:0:0:
36,192,20124,1,0,0:0:0:0:
182,192,20233,1,0,0:0:0:0:
329,192,20233,1,0,0:0:0:0:
256,192,20341,1,0,0:0:0:0:
402,192,20341,1,0,0:0:0:0:
329,192,20450,1,0,0:0:0:0:
475,192,20450,1,0,0:0:0:0:
402,192,20559,1,0,0:0:0:0:
36,192,20559,1,0,0:0:0:0:
256,192,20559,1,0,0:0:0:0:
109,192,20667,1,0,0:0:0:0:
329,192,20667,1,0,0:0:0:0:
182,192,20776,1,0,0:0:0:0:
402,192,20776,1,0,0:0:0:0:
256,192,20885,1,0,0:0:0:0:
475,192,20885,1,0,0:0:0:0:
109,192,20993,1,0,0:0:0:0:
36,192,20993,1,0,0:0:0:0:
329,192,20993,1,0,0:0:0:0:
256,192,21102,1,0,0:0:0:0:
475,192,21102,1,0,0:0:0:0:
182,192,21211,1,0,0:0:0:0:
402,192,21211,1,0,0:0:0:0:
109,192,21320,1,0,0:0:0:0:
329,192,21320,1,0,0:0:0:0:
36,192,21428,1,0,0:0:0:0:
256,192,21428,1,0,0:0:0:0:
475,192,21428,1,0,0:0:0:0:
109,192,21537,1,0,0:0:0:0:
402,192,21537,1,0,0:0:0:0:
182,192,21646,1,0,0:0:0:0:
329,192,21646,1,0,0:0:0:0:
109,192,21754,1,0,0:0:0:0:
256,192,21754,1,0,0:0:0:0:
36,192,21863,1,0,0:0:0:0:
182,192,21863,1,0,0:0:0:0:
475,192,21863,1,0,0:0:0:0:
402,192,21972,1,0,0:0:0:0:
109,192,21972,1,0,0:0:0:0:
329,192,22080,1,0,0:0:0:0:
36,192,22080,1,0,0:0:0:0:
256,192,22189,1,0,0:0:0:0:
109,192,22189,1,0,0:0:0:0:
36,192,22298,1,0,0:0:0:0:
329,192,22298,1,0,0:0:0:0:
475,192,22298,1,0,0:0:0:0:
109,192,22407,1,0,0:0:0:0:
402,192,22407,1,0,0:0:0:0:
36,192,22515,1,0,0:0:0:0:
329,192,22515,1,0,0:0:0:0:
109,192,22624,1,0,0:0:0:0:
256,192,22624,1,0,0:0:0:0:
36,192,22733,1,0,0:0:0:0:
329,192,22733,1,0,0:0:0:0:
475,192,22733,1,0,0:0:0:0:
109,192,22841,1,0,0:0:0:0:
402,192,22841,1,0,0:0:0:0:
182,192,22950,1,0,0:0:0:0:
329,192,22950,1,0,0:0:0:0:
109,192,23059,1,0,0:0:0:0:
402,192,23059,1,0,0:0:0:0:
36,192,23167,1,0,0:0:0:0:
329,192,23167,1,0,0:0:0:0:
182,192,23276,1,0,0:0:0:0:
402,192,23276,1,0,0:0:0:0:
109,192,23385,1,0,0:0:0:0:
329,192,23385,1,0,0:0:0:0:
36,192,23493,1,0,0:0:0:0:
256,192,23493,1,0,0:0:0:0:
475,192,23602,1,0,0:0:0:0:
109,192,23602,1,0,0:0:0:0:
329,192,23602,1,0,0:0:0:0:
256,192,23820,1,0,0:0:0:0:
182,192,23820,1,0,0:0:0:0:
475,192,23820,1,0,0:0:0:0:
402,192,23928,1,0,0:0:0:0:
329,192,24037,1,0,0:0:0:0:
109,192,24037,1,0,0:0:0:0:
36,192,24037,1,0,0:0:0:0:
182,192,24254,1,0,0:0:0:0:
475,192,24254,1,0,0:0:0:0:
402,192,24254,1,0,0:0:0:0:
329,192,24363,1,0,0:0:0:0:
109,192,24472,1,0,0:0:0:0:
36,192,24472,1,0,0:0:0:0:
256,192,24472,1,0,0:0:0:0:
402,192,24472,1,0,0:0:0:0:
475,192,24689,1,0,0:0:0:0:
402,192,24689,1,0,0:0:0:0:
182,192,24689,1,0,0:0:0:0:
256,192,24798,1,0,0:0:0:0:
402,192,24907,1,0,0:0:0:0:
109,192,24907,1,0,0:0:0:0:
329,192,24907,1,0,0:0:0:0:
182,192,25124,1,0,0:0:0:0:
256,192,25124,1,0,0:0:0:0:
329,192,25233,1,0,0:0:0:0:
109,192,25341,1,0,0:0:0:0:
402,192,25341,1,0,0:0:0:0:
475,192,25341,1,0,0:0:0:0:
182,192,25559,1,0,0:0:0:0:
329,192,25559,1,0,0:0:0:0:
36,192,25559,1,0,0:0:0:0:
256,192,25667,1,0,0:0:0:0:
329,192,25776,1,0,0:0:0:0:
475,192,25776,1,0,0:0:0:0:
109,192,25776,1,0,0:0:0:0:
256,192,25993,1,0,0:0:0:0:
36,192,25993,1,0,0:0:0:0:
402,192,25993,1,0,0:0:0:0:
182,192,26102,1,0,0:0:0:0:
109,192,26211,1,0,0:0:0:0:
36,192,26211,1,0,0:0:0:0:
475,192,26211,1,0,0:0:0:0:
182,192,26428,1,0,0:0:0:0:
256,192,26428,1,0,0:0:0:0:
402,192,26428,1,0,0:0:0:0:
109,192,26537,1,0,0:0:0:0:
36,192,26646,1,0,0:0:0:0:
329,192,26646,1,0,0:0:0:0:
475,192,26646,1,0,0:0:0:0:
256,192,26863,1,0,0:0:0:0:
109,192,26863,1,0,0:0:0:0:
402,192,26863,1,0,0:0:0:0:
182,192,26972,1,0,0:0:0:0:
475,192,27080,1,0,0:0:0:0:
402,192,27080,1,0,0:0:0:0:
329,192,27080,1,0,0:0:0:0:
182,192,27189,1,0,0:0:0:0:
109,192,27189,1,0,0:0:0:0:
36,192,27189,1,0,0:0:0:0:
329,192,27298,1,0,0:0:0:0:
402,192,27298,1,0,0:0:0:0:
475,192,27298,1,0,0:0:0:0:
182,192,27407,1,0,0:0:0:0:
109,192,27407,1,0,0:0:0:0:
36,192,27407,1,0,0:0:0:0:
329,192,27515,1,0,0:0:0:0:
475,192,27515,1,0,0:0:0:0:
402,192,27515,1,0,0:0:0:0:
182,192,27624,1,0,0:0:0:0:
109,192,27624,1,0,0:0:0:0:
36,192,27624,1,0,0:0:0:0:
329,192,27733,1,0,0:0:0:0:
402,192,27733,1,0,0:0:0:0:
475,192,27733,1,0,0:0:0:0:
182,192,27841,1,0,0:0:0:0:
109,192,27841,1,0,0:0:0:0:
36,192,27841,1,0,0:0:0:0:
329,192,27950,1,0,0:0:0:0:
475,192,27950,1,0,0:0:0:0:
402,192,27950,1,0,0:0:0:0:
182,192,28059,1,0,0:0:0:0:
109,192,28059,1,0,0:0:0:0:
36,192,28059,1,0,0:0:0:0:
329,192,28167,1,0,0:0:0:0:
402,192,28167,1,0,0:0:0:0:
475,192,28167,1,0,0:0:0:0:
109,192,28276,1,0,0:0:0:0:
36,192,28276,1,0,0:0:0:0:
182,192,28276,1,0,0:0:0:0:
402,192,28385,1,0,0:0:0:0:
475,192,28385,1,0,0:0:0:0:
329,192,28385,1,0,0:0:0:0:
109,192,28493,1,0,0:0:0:0:
36,192,28493,1,0,0:0:0:0:
182,192,28493,1,0,0:0:0:0:
402,192,28602,1,0,0:0:0:0:
475,192,28602,1,0,0:0:0:0:
329,192,28602,1,0,0:0:0:0:
182,192,28711,1,0,0:0:0:0:
109,192,28711,1,0,0:0:0:0:
36,192,28711,1,0,0:0:0:0:
475,192,28820,1,0,0:0:0:0:
402,192,28874,1,0,0:0:0:0:
329,192,28928,1,0,0:0:0:0:
256,192,28983,1,0,0:0:0:0:
182,192,29037,1,0,0:0:0:0:
36,192,29091,1,0,0:0:0:0:
109,192,29146,1,0,0:0:0:0:
182,192,29200,1,0,0:0:0:0:
256,192,29254,1,0,0:0:0:0:
329,192,29309,1,0,0:0:0:0:
402,192,29363,1,0,0:0:0:0:
475,192,29417,1,0,0:0:0:0:
329,192,29472,1,0,0:0:0:0:
256,192,29526,1,0,0:0:0:0:
182,192,29580,1,0,0:0:0:0:
109,192,29635,1,0,0:0:0:0:
36,192,29689,1,0,0:0:0:0:
402,192,29743,1,0,0:0:0:0:
329,192,29798,1,0,0:0:0:0:
256,192,29852,1,0,0:0:0:0:
182,192,29907,1,0,0:0:0:0:
109,192,29961,1,0,0:0:0:0:
182,192,30015,128,0,30070:0:0:0:0:
329,192,30015,128,0,30070:0:0:0:0:
36,192,30015,1,0,0:0:0:0:
109,192,30124,128,0,30178:0:0:0:0:
36,192,30124,128,0,30178:0:0:0:0:
256,192,30124,128,0,30178:0:0:0:0:
182,192,30233,128,0,30287:0:0:0:0:
329,192,30233,128,0,30287:0:0:0:0:
475,192,30233,128,0,30287:0:0:0:0:
109,192,30341,128,0,30396:0:0:0:0:
256,192,30341,128,0,30396:0:0:0:0:
36,192,30450,128,0,30504:0:0:0:0:
182,192,30450,128,0,30504:0:0:0:0:
402,192,30559,1,0,0:0:0:0:
329,192,30559,128,0,30667:0:0:0:0:
475,192,30559,128,0,32189:0:0:0:0:
256,192,30667,128,0,30776:0:0:0:0:
109,192,30776,128,0,30885:0:0:0:0:
182,192,30885,128,0,30993:0:0:0:0:
329,192,30993,1,0,0:0:0:0:
402,192,30993,1,0,0:0:0:0:
36,192,30993,1,0,0:0:0:0:
256,192,31102,128,0,31211:0:0:0:0:
182,192,31211,128,0,31320:0:0:0:0:
109,192,31320,128,0,31428:0:0:0:0:
36,192,31428,1,0,0:0:0:0:
329,192,31428,1,0,0:0:0:0:
402,192,31428,1,0,0:0:0:0:
256,192,31537,1,0,0:0:0:0:
182,192,31646,1,0,0:0:0:0:
36,192,31646,128,0,31754:0:0:0:0:
109,192,31754,128,0,31863:0:0:0:0:
256,192,31863,1,0,0:0:0:0:
402,192,31863,1,0,0:0:0:0:
36,192,31863,1,0,0:0:0:0:
182,192,31972,128,0,32080:0:0:0:0:
256,192,32080,128,0,32189:0:0:0:0:
402,192,32080,1,0,0:0:0:0:
329,192,32189,128,0,32298:0:0:0:0:
36,192,32298,128,0,35776:0:0:0:0:
182,192,32298,1,0,0:0:0:0:
109,192,32298,1,0,0:0:0:0:
402,192,32298,1,0,0:0:0:0:
256,192,32407,128,0,32515:0:0:0:0:
182,192,32515,128,0,32624:0:0:0:0:
475,192,32515,1,0,0:0:0:0:
109,192,32624,128,0,32733:0:0:0:0:
402,192,32733,1,0,0:0:0:0:
256,192,32733,1,0,0:0:0:0:
475,192,32733,1,0,0:0:0:0:
329,192,32841,128,0,32950:0:0:0:0:
182,192,32950,128,0,33059:0:0:0:0:
109,192,32950,1,0,0:0:0:0:
256,192,33059,128,0,33167:0:0:0:0:
475,192,33167,1,0,0:0:0:0:
109,192,33167,1,0,0:0:0:0:
402,192,33167,128,0,33276:0:0:0:0:
329,192,33276,1,0,0:0:0:0:
256,192,33385,1,0,0:0:0:0:
182,192,33385,128,0,33493:0:0:0:0:
329,192,33493,128,0,33602:0:0:0:0:
402,192,33602,1,0,0:0:0:0:
475,192,33602,1,0,0:0:0:0:
109,192,33602,1,0,0:0:0:0:
256,192,33711,128,0,33820:0:0:0:0:
182,192,33820,128,0,33928:0:0:0:0:
109,192,33928,128,0,34037:0:0:0:0:
475,192,34037,1,0,0:0:0:0:
402,192,34037,128,0,34146:0:0:0:0:
256,192,34037,1,0,0:0:0:0:
329,192,34146,128,0,34254:0:0:0:0:
182,192,34254,128,0,34363:0:0:0:0:
109,192,34363,128,0,34472:0:0:0:0:
475,192,34472,1,0,0:0:0:0:
402,192,34472,1,0,0:0:0:0:
256,192,34472,1,0,0:0:0:0:
329,192,34580,128,0,34689:0:0:0:0:
109,192,34689,1,0,0:0:0:0:
182,192,34689,128,0,34798:0:0:0:0:
256,192,34798,128,0,34907:0:0:0:0:
402,192,34907,1,0,0:0:0:0:
475,192,34907,1,0,0:0:0:0:
109,192,34907,1,0,0:0:0:0:
329,192,35015,128,0,35124:0:0:0:0:
182,192,35124,128,0,35233:0:0:0:0:
475,192,35124,1,0,0:0:0:0:
109,192,35233,128,0,35341:0:0:0:0:
402,192,35341,1,0,0:0:0:0:
475,192,35341,1,0,0:0:0:0:
256,192,35341,1,0,0:0:0:0:
329,192,35341,1,0,0:0:0:0:
329,192,35450,128,0,35559:0:0:0:0:
182,192,35559,128,0,35667:0:0:0:0:
109,192,35667,128,0,35776:0:0:0:0:
256,192,35776,1,0,0:0:0:0:
475,192,35776,1,0,0:0:0:0:
402,192,35776,128,0,35885:0:0:0:0:
182,192,35885,1,0,0:0:0:0:
329,192,35885,128,0,35993:0:0:0:0:
256,192,35993,128,0,36102:0:0:0:0:
109,192,35993,1,0,0:0:0:0:
36,192,36102,1,0,0:0:0:0:
182,192,36102,128,0,36211:0:0:0:0:
475,192,36211,1,0,0:0:0:0:
109,192,36211,1,0,0:0:0:0:
402,192,36211,128,0,36320:0:0:0:0:
329,192,36211,1,0,0:0:0:0:
256,192,36320,128,0,36428:0:0:0:0:
329,192,36428,128,0,36537:0:0:0:0:
109,192,36428,1,0,0:0:0:0:
402,192,36537,1,0,0:0:0:0:
475,192,36537,1,0,0:0:0:0:
36,192,36537,1,0,0:0:0:0:
182,192,36646,128,0,36754:0:0:0:0:
402,192,36754,1,0,0:0:0:0:
475,192,36754,1,0,0:0:0:0:
109,192,36754,1,0,0:0:0:0:
329,192,36863,128,0,36972:0:0:0:0:
182,192,36972,128,0,37080:0:0:0:0:
36,192,37080,1,0,0:0:0:0:
475,192,37080,1,0,0:0:0:0:
402,192,37080,128,0,37189:0:0:0:0:
256,192,37080,1,0,0:0:0:0:
329,192,37189,128,0,37298:0:0:0:0:
109,192,37189,1,0,0:0:0:0:
256,192,37298,128,0,37407:0:0:0:0:
109,192,37298,1,0,0:0:0:0:
182,192,37407,128,0,37515:0:0:0:0:
109,192,37407,1,0,0:0:0:0:
36,192,37515,5,0,0:0:0:0:
475,192,37515,128,0,37733:0:0:0:0:
329,192,37515,1,0,0:0:0:0:
256,192,37733,128,0,37787:0:0:0:0:
182,192,37841,128,0,37950:0:0:0:0:
109,192,37950,1,0,0:0:0:0:
36,192,37950,1,0,0:0:0:0:
402,192,37950,128,0,38059:0:0:0:0:
329,192,38059,128,0,38167:0:0:0:0:
182,192,38167,1,0,0:0:0:0:
256,192,38167,128,0,38385:0:0:0:0:
109,192,38276,1,0,0:0:0:0:
36,192,38385,1,0,0:0:0:0:
475,192,38385,1,0,0:0:0:0:
402,192,38385,1,0,0:0:0:0:
329,192,38493,1,0,0:0:0:0:
109,192,38602,1,0,0:0:0:0:
182,192,38711,1,0,0:0:0:0:
402,192,38711,128,0,38820:0:0:0:0:
329,192,38820,1,0,0:0:0:0:
256,192,38820,1,0,0:0:0:0:
36,192,38820,1,0,0:0:0:0:
109,192,38928,1,0,0:0:0:0:
182,192,39037,128,0,39254:0:0:0:0:
475,192,39254,1,0,0:0:0:0:
36,192,39254,1,0,0:0:0:0:
329,192,39254,128,0,39472:0:0:0:0:
256,192,39254,1,0,0:0:0:0:
109,192,39472,128,0,39526:0:0:0:0:
182,192,39580,128,0,39689:0:0:0:0:
256,192,39689,1,0,0:0:0:0:
402,192,39689,1,0,0:0:0:0:
475,192,39689,1,0,0:0:0:0:
36,192,39689,1,0,0:0:0:0:
109,192,39798,128,0,39907:0:0:0:0:
329,192,39907,1,0,0:0:0:0:
182,192,39907,128,0,40015:0:0:0:0:
402,192,40015,1,0,0:0:0:0:
109,192,40124,1,0,0:0:0:0:
36,192,40124,1,0,0:0:0:0:
475,192,40124,1,0,0:0:0:0:
182,192,40233,1,0,0:0:0:0:
402,192,40341,1,0,0:0:0:0:
256,192,40341,1,0,0:0:0:0:
329,192,40450,1,0,0:0:0:0:
109,192,40450,1,0,0:0:0:0:
36,192,40559,1,0,0:0:0:0:
182,192,40559,1,0,0:0:0:0:
402,192,40559,1,0,0:0:0:0:
475,192,40559,1,0,0:0:0:0:
109,192,40667,128,0,40776:0:0:0:0:
256,192,40776,128,0,40993:0:0:0:0:
402,192,40885,1,0,0:0:0:0:
109,192,40993,1,0,0:0:0:0:
329,192,40993,1,0,0:0:0:0:
475,192,40993,1,0,0:0:0:0:
109,192,41211,128,0,41320:0:0:0:0:
256,192,41211,128,0,41320:0:0:0:0:
402,192,41320,128,0,41428:0:0:0:0:
329,192,41320,128,0,41428:0:0:0:0:
36,192,41428,1,0,0:0:0:0:
475,192,41428,1,0,0:0:0:0:
182,192,41428,1,0,0:0:0:0:
256,192,41537,128,0,41646:0:0:0:0:
109,192,41537,128,0,41646:0:0:0:0:
182,192,41646,128,0,41754:0:0:0:0:
402,192,41646,128,0,41754:0:0:0:0:
329,192,41754,128,0,41863:0:0:0:0:
109,192,41863,1,0,0:0:0:0:
36,192,41863,1,0,0:0:0:0:
402,192,41863,1,0,0:0:0:0:
475,192,41863,1,0,0:0:0:0:
182,192,41972,1,0,0:0:0:0:
256,192,42080,128,0,42189:0:0:0:0:
475,192,42080,128,0,42189:0:0:0:0:
402,192,42189,128,0,42298:0:0:0:0:
329,192,42189,128,0,42298:0:0:0:0:
109,192,42298,1,0,0:0:0:0:
36,192,42298,1,0,0:0:0:0:
182,192,42298,1,0,0:0:0:0:
256,192,42407,128,0,42515:0:0:0:0:
182,192,42515,128,0,42624:0:0:0:0:
402,192,42624,128,0,42733:0:0:0:0:
36,192,42733,1,0,0:0:0:0:
475,192,42733,1,0,0:0:0:0:
329,192,42733,1,0,0:0:0:0:
182,192,42841,1,0,0:0:0:0:
109,192,42841,1,0,0:0:0:0:
329,192,42950,1,0,0:0:0:0:
402,192,42950,128,0,43167:0:0:0:0:
256,192,42950,1,0,0:0:0:0:
36,192,43059,1,0,0:0:0:0:
109,192,43059,1,0,0:0:0:0:
475,192,43059,1,0,0:0:0:0:
182,192,43167,128,0,43276:0:0:0:0:
36,192,43276,1,0,0:0:0:0:
109,192,43276,1,0,0:0:0:0:
329,192,43276,128,0,43385:0:0:0:0:
256,192,43385,1,0,0:0:0:0:
402,192,43385,1,0,0:0:0:0:
475,192,43385,128,0,43820:0:0:0:0:
182,192,43493,1,0,0:0:0:0:
36,192,43493,1,0,0:0:0:0:
109,192,43602,1,0,0:0:0:0:
402,192,43602,1,0,0:0:0:0:
182,192,43711,1,0,0:0:0:0:
329,192,43711,1,0,0:0:0:0:
402,192,43820,1,0,0:0:0:0:
256,192,43820,1,0,0:0:0:0:
109,192,43928,1,0,0:0:0:0:
329,192,43928,128,0,44146:0:0:0:0:
256,192,43983,1,0,0:0:0:0:
36,192,43983,1,0,0:0:0:0:
182,192,44037,1,0,0:0:0:0:
475,192,44037,1,0,0:0:0:0:
402,192,44037,1,0,0:0:0:0:
109,192,44146,1,0,0:0:0:0:
256,192,44254,128,0,44472:0:0:0:0:
402,192,44472,5,0,0:0:0:0:
109,192,44472,128,0,44689:0:0:0:0:
182,192,44798,1,0,0:0:0:0:
329,192,44798,1,0,0:0:0:0:
256,192,44907,1,0,0:0:0:0:
475,192,44907,1,0,0:0:0:0:
402,192,44907,1,0,0:0:0:0:
109,192,45015,128,0,45124:0:0:0:0:
182,192,45124,128,0,45233:0:0:0:0:
329,192,45233,128,0,45341:0:0:0:0:
36,192,45341,1,0,0:0:0:0:
109,192,45341,1,0,0:0:0:0:
256,192,45341,128,0,45450:0:0:0:0:
402,192,45450,1,0,0:0:0:0:
329,192,45559,1,0,0:0:0:0:
182,192,45559,128,0,45776:0:0:0:0:
475,192,45559,1,0,0:0:0:0:
36,192,45776,1,0,0:0:0:0:
256,192,45776,1,0,0:0:0:0:
475,192,45776,1,0,0:0:0:0:
109,192,45776,128,0,45993:0:0:0:0:
402,192,45993,128,0,46211:0:0:0:0:
329,192,45993,128,0,46211:0:0:0:0:
36,192,46211,1,0,0:0:0:0:
182,192,46211,1,0,0:0:0:0:
256,192,46211,128,0,46428:0:0:0:0:
475,192,46211,128,0,46428:0:0:0:0:
329,192,46537,1,0,0:0:0:0:
182,192,46537,1,0,0:0:0:0:
256,192,46646,1,0,0:0:0:0:
109,192,46646,1,0,0:0:0:0:
36,192,46646,1,0,0:0:0:0:
402,192,46754,1,0,0:0:0:0:
475,192,46754,1,0,0:0:0:0:
109,192,46863,1,0,0:0:0:0:
329,192,46863,1,0,0:0:0:0:
36,192,46863,128,0,46972:0:0:0:0:
182,192,46972,1,0,0:0:0:0:
402,192,46972,1,0,0:0:0:0:
475,192,46972,128,0,47080:0:0:0:0:
329,192,47080,1,0,0:0:0:0:
256,192,47080,1,0,0:0:0:0:
109,192,47080,1,0,0:0:0:0:
182,192,47189,128,0,47298:0:0:0:0:
402,192,47298,128,0,47515:0:0:0:0:
329,192,47515,1,0,0:0:0:0:
36,192,47515,1,0,0:0:0:0:
256,192,47515,1,0,0:0:0:0:
109,192,47624,1,0,0:0:0:0:
182,192,47733,128,0,47841:0:0:0:0:
36,192,47733,128,0,47841:0:0:0:0:
256,192,47841,128,0,47950:0:0:0:0:
109,192,47841,128,0,47950:0:0:0:0:
329,192,47950,1,0,0:0:0:0:
475,192,47950,1,0,0:0:0:0:
402,192,47950,128,0,48167:0:0:0:0:
182,192,47950,128,0,48167:0:0:0:0:
109,192,48276,1,0,0:0:0:0:
329,192,48276,1,0,0:0:0:0:
256,192,48385,1,0,0:0:0:0:
182,192,48385,1,0,0:0:0:0:
36,192,48385,1,0,0:0:0:0:
402,192,48493,128,0,48602:0:0:0:0:
109,192,48602,128,0,48711:0:0:0:0:
256,192,48711,128,0,48820:0:0:0:0:
475,192,48820,1,0,0:0:0:0:
402,192,48820,1,0,0:0:0:0:
36,192,48820,1,0,0:0:0:0:
182,192,48928,128,0,49037:0:0:0:0:
109,192,49037,128,0,49254:0:0:0:0:
475,192,49254,1,0,0:0:0:0:
256,192,49254,1,0,0:0:0:0:
402,192,49254,128,0,49472:0:0:0:0:
36,192,49254,1,0,0:0:0:0:
182,192,49472,128,0,49689:0:0:0:0:
329,192,49472,128,0,49689:0:0:0:0:
256,192,49689,128,0,51428:0:0:0:0:
475,192,49689,128,0,51428:0:0:0:0:
36,192,49689,128,0,51428:0:0:0:0:
402,192,49689,1,0,0:0:0:0:
109,192,49689,1,0,0:0:0:0:
402,192,49907,1,0,0:0:0:0:
109,192,49907,1,0,0:0:0:0:
329,192,49907,1,0,0:0:0:0:
182,192,50124,1,0,0:0:0:0:
109,192,50124,1,0,0:0:0:0:
402,192,50124,128,0,50233:0:0:0:0:
329,192,50233,128,0,50341:0:0:0:0:
109,192,50341,1,0,0:0:0:0:
402,192,50341,1,0,0:0:0:0:
182,192,50341,128,0,50559:0:0:0:0:
109,192,50559,1,0,0:0:0:0:
402,192,50559,1,0,0:0:0:0:
329,192,50613,1,0,0:0:0:0:
182,192,50667,1,0,0:0:0:0:
329,192,50776,1,0,0:0:0:0:
109,192,50885,1,0,0:0:0:0:
402,192,50993,128,0,51102:0:0:0:0:
329,192,51102,128,0,51211:0:0:0:0:
182,192,51211,128,0,51320:0:0:0:0:
109,192,51320,128,0,51428:0:0:0:0:
402,192,51428,128,0,51646:0:0:0:0:
182,192,51428,128,0,51646:0:0:0:0:
256,192,51754,1,0,0:0:0:0:
109,192,51754,1,0,0:0:0:0:
329,192,51863,1,0,0:0:0:0:
475,192,51863,1,0,0:0:0:0:
182,192,51863,128,0,51972:0:0:0:0:
36,192,51863,128,0,52298:0:0:0:0:
402,192,51972,128,0,52080:0:0:0:0:
109,192,52080,128,0,52189:0:0:0:0:
256,192,52189,128,0,52298:0:0:0:0:
329,192,52298,1,0,0:0:0:0:
475,192,52298,1,0,0:0:0:0:
182,192,52298,1,0,0:0:0:0:
402,192,52407,128,0,52515:0:0:0:0:
329,192,52515,1,0,0:0:0:0:
109,192,52515,128,0,52733:0:0:0:0:
182,192,52733,1,0,0:0:0:0:
475,192,52733,1,0,0:0:0:0:
36,192,52733,1,0,0:0:0:0:
329,192,52950,128,0,53167:0:0:0:0:
182,192,52950,128,0,53167:0:0:0:0:
475,192,53167,1,0,0:0:0:0:
36,192,53167,1,0,0:0:0:0:
256,192,53167,128,0,53385:0:0:0:0:
182,192,53385,1,0,0:0:0:0:
109,192,53493,128,0,53602:0:0:0:0:
475,192,53602,1,0,0:0:0:0:
36,192,53602,1,0,0:0:0:0:
182,192,53602,1,0,0:0:0:0:
329,192,53711,128,0,53820:0:0:0:0:
182,192,53820,128,0,53928:0:0:0:0:
256,192,53820,1,0,0:0:0:0:
109,192,53928,128,0,54037:0:0:0:0:
475,192,54037,1,0,0:0:0:0:
36,192,54037,1,0,0:0:0:0:
329,192,54037,1,0,0:0:0:0:
256,192,54146,128,0,54254:0:0:0:0:
402,192,54146,1,0,0:0:0:0:
329,192,54254,1,0,0:0:0:0:
182,192,54254,128,0,54472:0:0:0:0:
109,192,54472,1,0,0:0:0:0:
36,192,54472,1,0,0:0:0:0:
475,192,54472,128,0,54907:0:0:0:0:
402,192,54472,1,0,0:0:0:0:
329,192,54580,128,0,54689:0:0:0:0:
256,192,54689,128,0,54798:0:0:0:0:
109,192,54689,1,0,0:0:0:0:
36,192,54798,1,0,0:0:0:0:
182,192,54798,128,0,54907:0:0:0:0:
402,192,54907,1,0,0:0:0:0:
109,192,54907,1,0,0:0:0:0:
329,192,54907,128,0,55124:0:0:0:0:
36,192,55124,1,0,0:0:0:0:
109,192,55233,1,0,0:0:0:0:
256,192,55233,1,0,0:0:0:0:
182,192,55341,1,0,0:0:0:0:
329,192,55341,1,0,0:0:0:0:
402,192,55341,1,0,0:0:0:0:
256,192,55450,128,0,55559:0:0:0:0:
182,192,55559,128,0,55667:0:0:0:0:
109,192,55667,128,0,55776:0:0:0:0:
36,192,55776,1,0,0:0:0:0:
402,192,55776,1,0,0:0:0:0:
475,192,55776,1,0,0:0:0:0:
256,192,55885,128,0,55993:0:0:0:0:
329,192,55993,128,0,56102:0:0:0:0:
182,192,56102,128,0,56211:0:0:0:0:
36,192,56211,1,0,0:0:0:0:
256,192,56211,1,0,0:0:0:0:
402,192,56211,1,0,0:0:0:0:
475,192,56211,1,0,0:0:0:0:
329,192,56320,128,0,56428:0:0:0:0:
402,192,56428,128,0,56646:0:0:0:0:
109,192,56428,1,0,0:0:0:0:
36,192,56646,128,0,56972:0:0:0:0:
182,192,56646,128,0,56972:0:0:0:0:
329,192,56646,128,0,56972:0:0:0:0:
475,192,56646,128,0,56972:0:0:0:0:
109,192,56646,1,0,0:0:0:0:
256,192,56754,1,0,0:0:0:0:
402,192,56863,1,0,0:0:0:0:
256,192,56972,1,0,0:0:0:0:
329,192,57080,128,0,57407:0:0:0:0:
109,192,57080,128,0,57407:0:0:0:0:
475,192,57080,128,0,57407:0:0:0:0:
182,192,57080,1,0,0:0:0:0:
256,192,57189,1,0,0:0:0:0:
402,192,57298,1,0,0:0:0:0:
182,192,57407,1,0,0:0:0:0:
36,192,57515,128,0,57950:0:0:0:0:
402,192,57515,128,0,57950:0:0:0:0:
256,192,57515,1,0,0:0:0:0:
182,192,57624,1,0,0:0:0:0:
109,192,57733,1,0,0:0:0:0:
256,192,57841,1,0,0:0:0:0:
329,192,57950,128,0,58385:0:0:0:0:
109,192,57950,128,0,58385:0:0:0:0:
182,192,57950,1,0,0:0:0:0:
475,192,58059,1,0,0:0:0:0:
402,192,58167,1,0,0:0:0:0:
256,192,58276,1,0,0:0:0:0:
182,192,58385,1,0,0:0:0:0:
475,192,58385,1,0,0:0:0:0:
36,192,58820,1,0,0:0:0:0:
402,192,58820,1,0,0:0:0:0:
109,192,59254,1,0,0:0:0:0:
329,192,59254,1,0,0:0:0:0:
256,192,59472,1,0,0:0:0:0:
402,192,59472,1,0,0:0:0:0:
329,192,59689,1,0,0:0:0:0:
109,192,59689,1,0,0:0:0:0:
182,192,59907,1,0,0:0:0:0:
475,192,59907,1,0,0:0:0:0:
402,192,60124,1,0,0:0:0:0:
109,192,60124,1,0,0:0:0:0:
329,192,60341,1,0,0:0:0:0:
256,192,60559,1,0,0:0:0:0:
36,192,60559,128,0,60667:0:0:0:0:
109,192,60667,128,0,60776:0:0:0:0:
182,192,60776,128,0,60885:0:0:0:0:
256,192,60885,128,0,60993:0:0:0:0:
329,192,60993,1,0,0:0:0:0:
475,192,60993,128,0,61863:0:0:0:0:
36,192,61428,1,0,0:0:0:0:
256,192,61428,1,0,0:0:0:0:
402,192,61428,128,0,61537:0:0:0:0:
329,192,61537,128,0,61646:0:0:0:0:
36,192,61646,1,0,0:0:0:0:
256,192,61646,1,0,0:0:0:0:
402,192,61646,128,0,61754:0:0:0:0:
329,192,61754,128,0,61863:0:0:0:0:
36,192,61863,1,0,0:0:0:0:
256,192,61863,128,0,62950:0:0:0:0:
109,192,61863,128,0,61972:0:0:0:0:
182,192,61972,128,0,62080:0:0:0:0:
475,192,62080,128,0,62189:0:0:0:0:
402,192,62189,128,0,62298:0:0:0:0:
329,192,62298,1,0,0:0:0:0:
109,192,62298,1,0,0:0:0:0:
36,192,62298,128,0,62407:0:0:0:0:
182,192,62407,128,0,62515:0:0:0:0:
109,192,62515,128,0,62624:0:0:0:0:
36,192,62624,128,0,62733:0:0:0:0:
329,192,62733,1,0,0:0:0:0:
475,192,62733,1,0,0:0:0:0:
182,192,62733,128,0,62841:0:0:0:0:
402,192,62841,128,0,62950:0:0:0:0:
329,192,62950,128,0,63059:0:0:0:0:
109,192,62950,128,0,63385:0:0:0:0:
182,192,63059,128,0,63167:0:0:0:0:
256,192,63167,128,0,63276:0:0:0:0:
475,192,63167,1,0,0:0:0:0:
36,192,63167,1,0,0:0:0:0:
329,192,63276,128,0,63385:0:0:0:0:
402,192,63385,128,0,64472:0:0:0:0:
475,192,63385,128,0,63493:0:0:0:0:
182,192,63493,128,0,63602:0:0:0:0:
256,192,63602,128,0,63711:0:0:0:0:
36,192,63602,1,0,0:0:0:0:
329,192,63602,1,0,0:0:0:0:
109,192,63711,128,0,63820:0:0:0:0:
182,192,63820,128,0,63928:0:0:0:0:
256,192,63928,128,0,64037:0:0:0:0:
329,192,64037,1,0,0:0:0:0:
475,192,64037,1,0,0:0:0:0:
36,192,64037,128,0,64146:0:0:0:0:
182,192,64146,128,0,64254:0:0:0:0:
256,192,64254,128,0,64363:0:0:0:0:
329,192,64363,128,0,64472:0:0:0:0:
182,192,64472,5,0,0:0:0:0:
109,192,64472,1,0,0:0:0:0:
36,192,64472,1,0,0:0:0:0:
329,192,64798,1,0,0:0:0:0:
402,192,64798,1,0,0:0:0:0:
182,192,64798,1,0,0:0:0:0:
256,192,64907,1,0,0:0:0:0:
329,192,65015,1,0,0:0:0:0:
109,192,65124,1,0,0:0:0:0:
36,192,65124,1,0,0:0:0:0:
182,192,65124,128,0,65341:0:0:0:0:
402,192,65124,1,0,0:0:0:0:
329,192,65341,128,0,65559:0:0:0:0:
182,192,65559,128,0,65776:0:0:0:0:
402,192,65776,1,0,0:0:0:0:
475,192,65776,128,0,66211:0:0:0:0:
329,192,65830,1,0,0:0:0:0:
256,192,65885,1,0,0:0:0:0:
182,192,65939,1,0,0:0:0:0:
109,192,65993,1,0,0:0:0:0:
36,192,66048,1,0,0:0:0:0:
402,192,66102,1,0,0:0:0:0:
329,192,66157,1,0,0:0:0:0:
36,192,66211,1,0,0:0:0:0:
256,192,66211,1,0,0:0:0:0:
182,192,66428,1,0,0:0:0:0:
402,192,66428,128,0,66863:0:0:0:0:
36,192,66863,1,0,0:0:0:0:
256,192,66863,128,0,67950:0:0:0:0:
109,192,66863,128,0,66972:0:0:0:0:
182,192,66972,128,0,67080:0:0:0:0:
329,192,67080,128,0,67189:0:0:0:0:
402,192,67189,128,0,67298:0:0:0:0:
475,192,67298,128,0,67407:0:0:0:0:
36,192,67407,128,0,67515:0:0:0:0:
109,192,67515,128,0,67624:0:0:0:0:
182,192,67624,128,0,67733:0:0:0:0:
329,192,67733,128,0,67841:0:0:0:0:
402,192,67841,128,0,67950:0:0:0:0:
109,192,67950,1,0,0:0:0:0:
36,192,67950,1,0,0:0:0:0:
475,192,67950,128,0,68602:0:0:0:0:
182,192,67950,128,0,68059:0:0:0:0:
329,192,68059,128,0,68167:0:0:0:0:
182,192,68167,128,0,68276:0:0:0:0:
329,192,68276,128,0,68385:0:0:0:0:
182,192,68385,128,0,68493:0:0:0:0:
329,192,68493,128,0,68602:0:0:0:0:
36,192,68602,1,0,0:0:0:0:
182,192,68602,1,0,0:0:0:0:
109,192,68657,1,0,0:0:0:0:
256,192,68657,1,0,0:0:0:0:
182,192,68711,1,0,0:0:0:0:
329,192,68711,1,0,0:0:0:0:
256,192,68765,1,0,0:0:0:0:
402,192,68765,1,0,0:0:0:0:
109,192,68820,1,0,0:0:0:0:
329,192,68820,1,0,0:0:0:0:
475,192,68820,1,0,0:0:0:0:
36,192,68820,128,0,71863:0:0:0:0:
109,192,69254,128,0,69363:0:0:0:0:
182,192,69363,128,0,69472:0:0:0:0:
256,192,69472,128,0,69580:0:0:0:0:
475,192,69580,128,0,69689:0:0:0:0:
402,192,69689,128,0,69798:0:0:0:0:
329,192,69798,128,0,69907:0:0:0:0:
256,192,69907,128,0,70015:0:0:0:0:
182,192,70015,128,0,70124:0:0:0:0:
329,192,70124,128,0,70233:0:0:0:0:
402,192,70233,128,0,70341:0:0:0:0:
475,192,70341,128,0,70450:0:0:0:0:
109,192,70450,128,0,70559:0:0:0:0:
182,192,70559,128,0,70667:0:0:0:0:
256,192,70667,128,0,70776:0:0:0:0:
402,192,70776,128,0,70885:0:0:0:0:
329,192,70885,128,0,70993:0:0:0:0:
109,192,70993,128,0,71428:0:0:0:0:
182,192,70993,128,0,71102:0:0:0:0:
475,192,71102,128,0,71211:0:0:0:0:
402,192,71211,128,0,71320:0:0:0:0:
329,192,71320,128,0,71428:0:0:0:0:
182,192,71428,128,0,71863:0:0:0:0:
475,192,71428,128,0,71537:0:0:0:0:
402,192,71537,128,0,71646:0:0:0:0:
256,192,71646,128,0,71754:0:0:0:0:
109,192,71754,128,0,71863:0:0:0:0:
475,192,71863,1,0,0:0:0:0:
329,192,71863,1,0,0:0:0:0:
402,192,71917,1,0,0:0:0:0:
256,192,71917,1,0,0:0:0:0:
182,192,72026,1,0,0:0:0:0:
329,192,72026,1,0,0:0:0:0:
256,192,72080,1,0,0:0:0:0:
109,192,72080,1,0,0:0:0:0:
36,192,72135,1,0,0:0:0:0:
182,192,72135,1,0,0:0:0:0:
109,192,72243,1,0,0:0:0:0:
256,192,72243,1,0,0:0:0:0:
36,192,72298,1,0,0:0:0:0:
475,192,72298,1,0,0:0:0:0:
402,192,72298,128,0,72733:0:0:0:0:
182,192,72624,128,0,72733:0:0:0:0:
36,192,72624,128,0,72733:0:0:0:0:
329,192,72733,1,0,0:0:0:0:
475,192,72733,1,0,0:0:0:0:
109,192,72733,1,0,0:0:0:0:
256,192,72841,128,0,72950:0:0:0:0:
182,192,72950,128,0,73059:0:0:0:0:
329,192,73059,128,0,73167:0:0:0:0:
475,192,73167,1,0,0:0:0:0:
402,192,73167,1,0,0:0:0:0:
36,192,73167,1,0,0:0:0:0:
109,192,73167,128,0,73385:0:0:0:0:
256,192,73493,128,0,73602:0:0:0:0:
329,192,73602,1,0,0:0:0:0:
475,192,73602,1,0,0:0:0:0:
182,192,73602,128,0,73711:0:0:0:0:
36,192,73602,1,0,0:0:0:0:
109,192,73711,128,0,73820:0:0:0:0:
402,192,73820,128,0,73928:0:0:0:0:
329,192,73928,128,0,74037:0:0:0:0:
256,192,74037,1,0,0:0:0:0:
182,192,74037,1,0,0:0:0:0:
36,192,74037,1,0,0:0:0:0:
475,192,74037,128,0,74254:0:0:0:0:
182,192,74363,128,0,74472:0:0:0:0:
256,192,74472,128,0,74580:0:0:0:0:
36,192,74472,1,0,0:0:0:0:
402,192,74472,1,0,0:0:0:0:
475,192,74472,1,0,0:0:0:0:
329,192,74580,128,0,74689:0:0:0:0:
109,192,74689,128,0,74798:0:0:0:0:
182,192,74798,128,0,74907:0:0:0:0:
402,192,74798,1,0,0:0:0:0:
475,192,74798,1,0,0:0:0:0:
36,192,74798,1,0,0:0:0:0:
329,192,74907,1,0,0:0:0:0:
256,192,74907,1,0,0:0:0:0:
36,192,74907,1,0,0:0:0:0:
402,192,75015,128,0,75124:0:0:0:0:
109,192,75124,1,0,0:0:0:0:
182,192,75124,128,0,75341:0:0:0:0:
109,192,75341,1,0,0:0:0:0:
402,192,75341,128,0,75450:0:0:0:0:
256,192,75341,128,0,75450:0:0:0:0:
475,192,75341,1,0,0:0:0:0:
329,192,75450,128,0,75559:0:0:0:0:
182,192,75450,128,0,75559:0:0:0:0:
256,192,75559,128,0,75667:0:0:0:0:
109,192,75559,128,0,75667:0:0:0:0:
182,192,75667,128,0,75776:0:0:0:0:
36,192,75667,128,0,75776:0:0:0:0:
475,192,75776,1,0,0:0:0:0:
402,192,75776,1,0,0:0:0:0:
329,192,75776,128,0,75993:0:0:0:0:
256,192,76102,128,0,76211:0:0:0:0:
182,192,76211,1,0,0:0:0:0:
36,192,76211,1,0,0:0:0:0:
402,192,76211,1,0,0:0:0:0:
329,192,76211,128,0,76320:0:0:0:0:
109,192,76320,128,0,76428:0:0:0:0:
182,192,76428,128,0,76537:0:0:0:0:
256,192,76537,128,0,76646:0:0:0:0:
402,192,76646,1,0,0:0:0:0:
475,192,76646,1,0,0:0:0:0:
109,192,76646,128,0,76863:0:0:0:0:
329,192,76646,1,0,0:0:0:0:
182,192,76972,128,0,77080:0:0:0:0:
475,192,77080,1,0,0:0:0:0:
36,192,77080,1,0,0:0:0:0:
402,192,77080,1,0,0:0:0:0:
329,192,77080,1,0,0:0:0:0:
256,192,77189,128,0,77298:0:0:0:0:
109,192,77189,1,0,0:0:0:0:
182,192,77298,128,0,77407:0:0:0:0:
36,192,77298,1,0,0:0:0:0:
109,192,77407,128,0,77515:0:0:0:0:
402,192,77407,1,0,0:0:0:0:
329,192,77515,1,0,0:0:0:0:
475,192,77515,1,0,0:0:0:0:
256,192,77515,128,0,77733:0:0:0:0:
109,192,77841,128,0,77950:0:0:0:0:
329,192,77950,128,0,78059:0:0:0:0:
182,192,77950,1,0,0:0:0:0:
475,192,77950,1,0,0:0:0:0:
36,192,77950,1,0,0:0:0:0:
256,192,78059,128,0,78167:0:0:0:0:
182,192,78167,128,0,78276:0:0:0:0:
109,192,78276,128,0,78385:0:0:0:0:
36,192,78276,1,0,0:0:0:0:
402,192,78276,1,0,0:0:0:0:
475,192,78276,1,0,0:0:0:0:
329,192,78385,1,0,0:0:0:0:
256,192,78385,1,0,0:0:0:0:
36,192,78385,1,0,0:0:0:0:
182,192,78493,128,0,78602:0:0:0:0:
475,192,78602,1,0,0:0:0:0:
36,192,78602,1,0,0:0:0:0:
329,192,78602,128,0,78820:0:0:0:0:
109,192,78820,1,0,0:0:0:0:
475,192,78820,1,0,0:0:0:0:
402,192,78820,1,0,0:0:0:0:
256,192,78820,128,0,78928:0:0:0:0:
36,192,78928,128,0,79037:0:0:0:0:
182,192,79037,128,0,79254:0:0:0:0:
329,192,79037,128,0,79146:0:0:0:0:
402,192,79146,128,0,79254:0:0:0:0:
256,192,79254,128,0,79472:0:0:0:0:
36,192,79254,128,0,79472:0:0:0:0:
475,192,79254,128,0,80993:0:0:0:0:
109,192,79472,128,0,79689:0:0:0:0:
402,192,79472,128,0,79689:0:0:0:0:
182,192,79472,128,0,79580:0:0:0:0:
329,192,79580,128,0,79689:0:0:0:0:
256,192,79689,128,0,79798:0:0:0:0:
36,192,79689,1,0,0:0:0:0:
182,192,79907,128,0,80015:0:0:0:0:
329,192,79907,1,0,0:0:0:0:
109,192,80015,128,0,80124:0:0:0:0:
36,192,80124,1,0,0:0:0:0:
329,192,80124,128,0,80341:0:0:0:0:
402,192,80124,1,0,0:0:0:0:
256,192,80124,1,0,0:0:0:0:
402,192,80341,128,0,80559:0:0:0:0:
182,192,80341,1,0,0:0:0:0:
36,192,80450,1,0,0:0:0:0:
329,192,80559,128,0,80613:0:0:0:0:
182,192,80559,128,0,80613:0:0:0:0:
109,192,80559,1,0,0:0:0:0:
329,192,80667,128,0,80722:0:0:0:0:
182,192,80667,128,0,80722:0:0:0:0:
36,192,80667,1,0,0:0:0:0:
182,192,80776,128,0,80830:0:0:0:0:
329,192,80776,128,0,80830:0:0:0:0:
402,192,80776,1,0,0:0:0:0:
182,192,80885,128,0,80939:0:0:0:0:
329,192,80885,128,0,80939:0:0:0:0:
109,192,80885,1,0,0:0:0:0:
36,192,80993,128,0,82298:0:0:0:0:
109,192,80993,128,0,81102:0:0:0:0:
256,192,80993,1,0,0:0:0:0:
402,192,80993,1,0,0:0:0:0:
256,192,81157,1,0,0:0:0:0:
402,192,81157,1,0,0:0:0:0:
475,192,81211,1,0,0:0:0:0:
329,192,81211,1,0,0:0:0:0:
182,192,81211,1,0,0:0:0:0:
109,192,81320,1,0,0:0:0:0:
256,192,81320,1,0,0:0:0:0:
329,192,81428,1,0,0:0:0:0:
402,192,81428,1,0,0:0:0:0:
475,192,81428,1,0,0:0:0:0:
256,192,81591,5,0,0:0:0:0:
329,192,81591,1,0,0:0:0:0:
182,192,81646,1,0,0:0:0:0:
109,192,81646,1,0,0:0:0:0:
402,192,81646,1,0,0:0:0:0:
329,192,81754,1,0,0:0:0:0:
475,192,81754,1,0,0:0:0:0:
402,192,81863,1,0,0:0:0:0:
256,192,81863,1,0,0:0:0:0:
109,192,81863,1,0,0:0:0:0:
182,192,81972,1,0,0:0:0:0:
256,192,82080,1,0,0:0:0:0:
402,192,82080,1,0,0:0:0:0:
475,192,82080,1,0,0:0:0:0:
329,192,82135,1,0,0:0:0:0:
109,192,82189,1,0,0:0:0:0:
475,192,82298,128,0,82352:0:0:0:0:
182,192,82298,1,0,0:0:0:0:
402,192,82352,128,0,82407:0:0:0:0:
329,192,82407,128,0,82461:0:0:0:0:
256,192,82461,128,0,82515:0:0:0:0:
36,192,82515,128,0,82570:0:0:0:0:
182,192,82515,1,0,0:0:0:0:
109,192,82570,128,0,82624:0:0:0:0:
182,192,82624,128,0,82678:0:0:0:0:
256,192,82678,128,0,82733:0:0:0:0:
475,192,82733,5,0,0:0:0:0:
402,192,82733,1,0,0:0:0:0:
329,192,82733,1,0,0:0:0:0:
182,192,82841,1,0,0:0:0:0:
109,192,82841,1,0,0:0:0:0:
36,192,82841,1,0,0:0:0:0:
475,192,82950,1,0,0:0:0:0:
329,192,82950,1,0,0:0:0:0:
402,192,82950,1,0,0:0:0:0:
109,192,83059,1,0,0:0:0:0:
36,192,83059,1,0,0:0:0:0:
182,192,83059,1,0,0:0:0:0:
329,192,83167,1,0,0:0:0:0:
402,192,83167,1,0,0:0:0:0:
475,192,83167,1,0,0:0:0:0:
109,192,83276,1,0,0:0:0:0:
36,192,83276,1,0,0:0:0:0:
182,192,83276,1,0,0:0:0:0:
402,192,83385,1,0,0:0:0:0:
329,192,83385,1,0,0:0:0:0:
475,192,83385,1,0,0:0:0:0:
109,192,83493,1,0,0:0:0:0:
36,192,83493,1,0,0:0:0:0:
182,192,83493,1,0,0:0:0:0:
475,192,83602,1,0,0:0:0:0:
402,192,83602,1,0,0:0:0:0:
329,192,83602,1,0,0:0:0:0:
182,192,83711,1,0,0:0:0:0:
36,192,83711,1,0,0:0:0:0:
109,192,83711,1,0,0:0:0:0:
475,192,83820,1,0,0:0:0:0:
329,192,83820,1,0,0:0:0:0:
402,192,83820,1,0,0:0:0:0:
182,192,83928,1,0,0:0:0:0:
36,192,83928,1,0,0:0:0:0:
109,192,83928,1,0,0:0:0:0:
329,192,84037,1,0,0:0:0:0:
402,192,84037,1,0,0:0:0:0:
475,192,84037,1,0,0:0:0:0:
109,192,84146,1,0,0:0:0:0:
36,192,84146,1,0,0:0:0:0:
182,192,84146,1,0,0:0:0:0:
402,192,84254,1,0,0:0:0:0:
329,192,84254,1,0,0:0:0:0:
475,192,84254,1,0,0:0:0:0:
109,192,84363,1,0,0:0:0:0:
36,192,84363,1,0,0:0:0:0:
182,192,84363,1,0,0:0:0:0:
475,192,84472,1,0,0:0:0:0:
402,192,84526,1,0,0:0:0:0:
329,192,84580,1,0,0:0:0:0:
256,192,84635,1,0,0:0:0:0:
36,192,84689,1,0,0:0:0:0:
109,192,84743,1,0,0:0:0:0:
182,192,84798,1,0,0:0:0:0:
256,192,84852,1,0,0:0:0:0:
475,192,84907,1,0,0:0:0:0:
402,192,84961,1,0,0:0:0:0:
329,192,85015,1,0,0:0:0:0:
256,192,85070,1,0,0:0:0:0:
182,192,85124,1,0,0:0:0:0:
109,192,85178,1,0,0:0:0:0:
329,192,85233,1,0,0:0:0:0:
402,192,85287,1,0,0:0:0:0:
475,192,85341,1,0,0:0:0:0:
256,192,85341,1,0,0:0:0:0:
109,192,85341,1,0,0:0:0:0:
256,192,85450,1,0,0:0:0:0:
109,192,85450,1,0,0:0:0:0:
109,192,85559,1,0,0:0:0:0:
256,192,85559,1,0,0:0:0:0:
256,192,85667,1,0,0:0:0:0:
109,192,85667,1,0,0:0:0:0:
36,192,85776,1,0,0:0:0:0:
475,192,85776,1,0,0:0:0:0:
182,192,85776,1,0,0:0:0:0:
329,192,85776,1,0,0:0:0:0:
329,192,85885,1,0,0:0:0:0:
475,192,85885,1,0,0:0:0:0:
182,192,85885,1,0,0:0:0:0:
36,192,85885,1,0,0:0:0:0:
475,192,85993,1,0,0:0:0:0:
329,192,85993,1,0,0:0:0:0:
182,192,85993,1,0,0:0:0:0:
36,192,85993,1,0,0:0:0:0:
182,192,86102,1,0,0:0:0:0:
36,192,86102,1,0,0:0:0:0:
329,192,86102,1,0,0:0:0:0:
475,192,86102,1,0,0:0:0:0:
402,192,86211,128,0,86537:0:0:0:0:
256,192,86211,128,0,86537:0:0:0:0:
109,192,86211,1,0,0:0:0:0:
182,192,86537,128,0,86863:0:0:0:0:
475,192,86537,128,0,86863:0:0:0:0:
36,192,86646,1,0,0:0:0:0:
109,192,86646,1,0,0:0:0:0:
329,192,86646,1,0,0:0:0:0:
109,192,86754,1,0,0:0:0:0:
402,192,86863,128,0,87080:0:0:0:0:
256,192,86863,128,0,87080:0:0:0:0:
36,192,86863,1,0,0:0:0:0:
36,192,87080,1,0,0:0:0:0:
182,192,87080,128,0,87407:0:0:0:0:
475,192,87080,1,0,0:0:0:0:
329,192,87080,128,0,87407:0:0:0:0:
109,192,87189,1,0,0:0:0:0:
402,192,87298,1,0,0:0:0:0:
256,192,87407,128,0,87624:0:0:0:0:
109,192,87407,128,0,87624:0:0:0:0:
475,192,87515,1,0,0:0:0:0:
36,192,87515,1,0,0:0:0:0:
402,192,87515,1,0,0:0:0:0:
182,192,87624,128,0,87733:0:0:0:0:
329,192,87733,128,0,87950:0:0:0:0:
256,192,87841,1,0,0:0:0:0:
402,192,87950,1,0,0:0:0:0:
36,192,87950,1,0,0:0:0:0:
109,192,87950,1,0,0:0:0:0:
182,192,87950,128,0,88167:0:0:0:0:
402,192,88167,1,0,0:0:0:0:
256,192,88276,128,0,88385:0:0:0:0:
109,192,88385,1,0,0:0:0:0:
36,192,88385,1,0,0:0:0:0:
329,192,88385,1,0,0:0:0:0:
475,192,88385,1,0,0:0:0:0:
402,192,88493,1,0,0:0:0:0:
182,192,88602,128,0,88820:0:0:0:0:
329,192,88602,1,0,0:0:0:0:
256,192,88711,1,0,0:0:0:0:
109,192,88820,1,0,0:0:0:0:
36,192,88820,1,0,0:0:0:0:
402,192,88820,1,0,0:0:0:0:
329,192,88928,1,0,0:0:0:0:
256,192,89037,1,0,0:0:0:0:
182,192,89037,128,0,89146:0:0:0:0:
402,192,89146,128,0,89254:0:0:0:0:
475,192,89146,1,0,0:0:0:0:
329,192,89254,1,0,0:0:0:0:
256,192,89254,1,0,0:0:0:0:
36,192,89254,1,0,0:0:0:0:
109,192,89254,1,0,0:0:0:0:
182,192,89363,128,0,89472:0:0:0:0:
475,192,89363,1,0,0:0:0:0:
329,192,89472,128,0,89580:0:0:0:0:
109,192,89472,1,0,0:0:0:0:
256,192,89580,128,0,89689:0:0:0:0:
36,192,89580,1,0,0:0:0:0:
182,192,89689,1,0,0:0:0:0:
402,192,89689,128,0,89907:0:0:0:0:
109,192,89689,128,0,89907:0:0:0:0:
329,192,89907,128,0,90124:0:0:0:0:
36,192,90124,1,0,0:0:0:0:
256,192,90124,1,0,0:0:0:0:
475,192,90124,1,0,0:0:0:0:
182,192,90124,128,0,90341:0:0:0:0:
402,192,90124,1,0,0:0:0:0:
256,192,90341,128,0,90559:0:0:0:0:
329,192,90341,1,0,0:0:0:0:
475,192,90450,1,0,0:0:0:0:
402,192,90559,128,0,90776:0:0:0:0:
109,192,90559,128,0,90776:0:0:0:0:
36,192,90559,1,0,0:0:0:0:
182,192,90559,1,0,0:0:0:0:
182,192,90776,128,0,90885:0:0:0:0:
256,192,90885,128,0,90993:0:0:0:0:
329,192,90993,128,0,91102:0:0:0:0:
36,192,90993,1,0,0:0:0:0:
475,192,90993,1,0,0:0:0:0:
109,192,90993,1,0,0:0:0:0:
402,192,91102,128,0,91211:0:0:0:0:
475,192,91211,128,0,91320:0:0:0:0:
109,192,91320,128,0,91428:0:0:0:0:
402,192,91428,1,0,0:0:0:0:
36,192,91428,1,0,0:0:0:0:
329,192,91428,128,0,91863:0:0:0:0:
182,192,91428,128,0,91863:0:0:0:0:
402,192,91863,1,0,0:0:0:0:
475,192,91863,1,0,0:0:0:0:
109,192,91863,1,0,0:0:0:0:
36,192,91863,1,0,0:0:0:0:
256,192,91972,1,0,0:0:0:0:
329,192,92080,128,0,92189:0:0:0:0:
182,192,92189,128,0,92298:0:0:0:0:
475,192,92298,1,0,0:0:0:0:
109,192,92298,128,0,92515:0:0:0:0:
256,192,92298,1,0,0:0:0:0:
329,192,92407,1,0,0:0:0:0:
36,192,92407,1,0,0:0:0:0:
402,192,92515,128,0,92624:0:0:0:0:
329,192,92624,128,0,92950:0:0:0:0:
182,192,92733,1,0,0:0:0:0:
36,192,92733,1,0,0:0:0:0:
256,192,92950,128,0,93167:0:0:0:0:
36,192,92950,1,0,0:0:0:0:
109,192,93004,1,0,0:0:0:0:
182,192,93059,1,0,0:0:0:0:
329,192,93113,1,0,0:0:0:0:
402,192,93167,1,0,0:0:0:0:
475,192,93167,1,0,0:0:0:0:
36,192,93167,1,0,0:0:0:0:
109,192,93167,128,0,93385:0:0:0:0:
182,192,93385,128,0,93493:0:0:0:0:
256,192,93385,1,0,0:0:0:0:
329,192,93493,128,0,93602:0:0:0:0:
475,192,93493,1,0,0:0:0:0:
109,192,93602,1,0,0:0:0:0:
36,192,93602,1,0,0:0:0:0:
402,192,93602,1,0,0:0:0:0:
256,192,93711,1,0,0:0:0:0:
182,192,93820,128,0,94037:0:0:0:0:
475,192,93820,128,0,94037:0:0:0:0:
402,192,93820,1,0,0:0:0:0:
329,192,93928,1,0,0:0:0:0:
109,192,94037,1,0,0:0:0:0:
36,192,94037,1,0,0:0:0:0:
402,192,94037,1,0,0:0:0:0:
256,192,94037,128,0,94254:0:0:0:0:
329,192,94146,1,0,0:0:0:0:
182,192,94254,1,0,0:0:0:0:
109,192,94254,128,0,94363:0:0:0:0:
329,192,94363,1,0,0:0:0:0:
402,192,94363,128,0,94472:0:0:0:0:
182,192,94472,1,0,0:0:0:0:
36,192,94472,1,0,0:0:0:0:
256,192,94472,1,0,0:0:0:0:
475,192,94472,1,0,0:0:0:0:
329,192,94580,128,0,94689:0:0:0:0:
182,192,94689,128,0,94907:0:0:0:0:
475,192,94689,128,0,94798:0:0:0:0:
402,192,94798,128,0,94907:0:0:0:0:
109,192,94907,1,0,0:0:0:0:
36,192,94907,1,0,0:0:0:0:
329,192,94907,1,0,0:0:0:0:
256,192,94907,128,0,95124:0:0:0:0:
182,192,95124,128,0,95233:0:0:0:0:
329,192,95233,128,0,95341:0:0:0:0:
475,192,95341,1,0,0:0:0:0:
109,192,95341,1,0,0:0:0:0:
36,192,95341,1,0,0:0:0:0:
402,192,95341,128,0,95450:0:0:0:0:
256,192,95450,128,0,95559:0:0:0:0:
182,192,95559,128,0,95776:0:0:0:0:
109,192,95559,128,0,95667:0:0:0:0:
402,192,95667,128,0,95776:0:0:0:0:
475,192,95776,1,0,0:0:0:0:
36,192,95776,1,0,0:0:0:0:
329,192,95776,128,0,95993:0:0:0:0:
256,192,95885,1,0,0:0:0:0:
182,192,95993,1,0,0:0:0:0:
109,192,95993,128,0,96102:0:0:0:0:
256,192,96102,128,0,96211:0:0:0:0:
475,192,96211,1,0,0:0:0:0:
402,192,96211,1,0,0:0:0:0:
36,192,96211,1,0,0:0:0:0:
182,192,96211,1,0,0:0:0:0:
329,192,96320,1,0,0:0:0:0:
256,192,96428,128,0,96646:0:0:0:0:
182,192,96428,1,0,0:0:0:0:
109,192,96537,1,0,0:0:0:0:
36,192,96646,1,0,0:0:0:0:
182,192,96646,1,0,0:0:0:0:
475,192,96646,1,0,0:0:0:0:
402,192,96646,128,0,96863:0:0:0:0:
329,192,96754,1,0,0:0:0:0:
109,192,96863,128,0,96972:0:0:0:0:
182,192,96972,128,0,97080:0:0:0:0:
475,192,97080,1,0,0:0:0:0:
36,192,97080,1,0,0:0:0:0:
329,192,97080,128,0,97189:0:0:0:0:
256,192,97189,1,0,0:0:0:0:
182,192,97298,1,0,0:0:0:0:
109,192,97298,128,0,97733:0:0:0:0:
402,192,97407,1,0,0:0:0:0:
329,192,97515,1,0,0:0:0:0:
256,192,97515,1,0,0:0:0:0:
475,192,97515,1,0,0:0:0:0:
36,192,97515,1,0,0:0:0:0:
182,192,97624,1,0,0:0:0:0:
402,192,97733,128,0,97841:0:0:0:0:
475,192,97733,1,0,0:0:0:0:
256,192,97841,128,0,98059:0:0:0:0:
36,192,97950,1,0,0:0:0:0:
182,192,97950,1,0,0:0:0:0:
475,192,97950,1,0,0:0:0:0:
329,192,97950,1,0,0:0:0:0:
109,192,98059,1,0,0:0:0:0:
329,192,98167,128,0,98385:0:0:0:0:
182,192,98167,1,0,0:0:0:0:
475,192,98167,128,0,98276:0:0:0:0:
402,192,98276,128,0,98385:0:0:0:0:
109,192,98385,1,0,0:0:0:0:
36,192,98385,1,0,0:0:0:0:
256,192,98385,128,0,98820:0:0:0:0:
182,192,98439,128,0,98657:0:0:0:0:
109,192,98711,128,0,98820:0:0:0:0:
36,192,98711,1,0,0:0:0:0:
402,192,98820,128,0,98928:0:0:0:0:
329,192,98820,1,0,0:0:0:0:
182,192,98928,128,0,99037:0:0:0:0:
475,192,98928,1,0,0:0:0:0:
329,192,99037,128,0,99146:0:0:0:0:
256,192,99037,1,0,0:0:0:0:
475,192,99146,128,0,99363:0:0:0:0:
402,192,99146,1,0,0:0:0:0:
329,192,99363,128,0,99472:0:0:0:0:
109,192,99363,128,0,99472:0:0:0:0:
182,192,99472,128,0,99580:0:0:0:0:
36,192,99472,128,0,99580:0:0:0:0:
329,192,99580,1,0,0:0:0:0:
36,192,99689,5,0,0:0:0:0:
402,192,99689,1,0,0:0:0:0:
256,192,99689,128,0,99798:0:0:0:0:
475,192,99689,1,0,0:0:0:0:
109,192,99798,128,0,99907:0:0:0:0:
182,192,99907,128,0,100015:0:0:0:0:
402,192,100015,128,0,100070:0:0:0:0:
329,192,100070,128,0,100124:0:0:0:0:
475,192,100124,128,0,101211:0:0:0:0:
109,192,100124,1,0,0:0:0:0:
36,192,100124,1,0,0:0:0:0:
256,192,100124,1,0,0:0:0:0:
182,192,100233,1,0,0:0:0:0:
329,192,100341,1,0,0:0:0:0:
109,192,100341,1,0,0:0:0:0:
402,192,100450,1,0,0:0:0:0:
256,192,100450,1,0,0:0:0:0:
36,192,100559,1,0,0:0:0:0:
109,192,100559,1,0,0:0:0:0:
182,192,100559,1,0,0:0:0:0:
329,192,100559,1,0,0:0:0:0:
256,192,100667,1,0,0:0:0:0:
182,192,100776,1,0,0:0:0:0:
402,192,100776,1,0,0:0:0:0:
109,192,100885,1,0,0:0:0:0:
256,192,100885,1,0,0:0:0:0:
329,192,100993,1,0,0:0:0:0:
36,192,100993,1,0,0:0:0:0:
402,192,100993,1,0,0:0:0:0:
182,192,101102,1,0,0:0:0:0:
36,192,101211,128,0,101646:0:0:0:0:
402,192,101211,1,0,0:0:0:0:
256,192,101211,128,0,101320:0:0:0:0:
329,192,101320,128,0,101428:0:0:0:0:
109,192,101428,1,0,0:0:0:0:
182,192,101428,1,0,0:0:0:0:
402,192,101428,1,0,0:0:0:0:
475,192,101428,1,0,0:0:0:0:
402,192,101537,128,0,101646:0:0:0:0:
256,192,101646,128,0,102733:0:0:0:0:
329,192,101646,128,0,101754:0:0:0:0:
475,192,101646,1,0,0:0:0:0:
182,192,101754,1,0,0:0:0:0:
109,192,101863,1,0,0:0:0:0:
402,192,101863,1,0,0:0:0:0:
475,192,101863,1,0,0:0:0:0:
36,192,101863,1,0,0:0:0:0:
329,192,101972,128,0,102080:0:0:0:0:
36,192,102080,128,0,102189:0:0:0:0:
475,192,102080,1,0,0:0:0:0:
109,192,102189,128,0,102298:0:0:0:0:
402,192,102189,1,0,0:0:0:0:
329,192,102298,1,0,0:0:0:0:
475,192,102298,1,0,0:0:0:0:
182,192,102298,1,0,0:0:0:0:
36,192,102298,1,0,0:0:0:0:
402,192,102407,128,0,102515:0:0:0:0:
329,192,102515,128,0,102624:0:0:0:0:
182,192,102515,1,0,0:0:0:0:
109,192,102624,128,0,102733:0:0:0:0:
36,192,102733,128,0,103602:0:0:0:0:
182,192,102733,1,0,0:0:0:0:
475,192,102733,1,0,0:0:0:0:
402,192,102733,1,0,0:0:0:0:
329,192,102841,1,0,0:0:0:0:
256,192,102950,1,0,0:0:0:0:
182,192,102950,128,0,103059:0:0:0:0:
402,192,103059,128,0,103167:0:0:0:0:
109,192,103167,1,0,0:0:0:0:
256,192,103167,1,0,0:0:0:0:
475,192,103167,1,0,0:0:0:0:
329,192,103167,1,0,0:0:0:0:
182,192,103276,128,0,103385:0:0:0:0:
329,192,103385,128,0,103493:0:0:0:0:
475,192,103385,1,0,0:0:0:0:
402,192,103493,128,0,103602:0:0:0:0:
109,192,103602,1,0,0:0:0:0:
256,192,103602,128,0,104689:0:0:0:0:
182,192,103820,128,0,103928:0:0:0:0:
329,192,103928,128,0,104037:0:0:0:0:
475,192,104037,1,0,0:0:0:0:
402,192,104037,1,0,0:0:0:0:
36,192,104037,1,0,0:0:0:0:
109,192,104037,1,0,0:0:0:0:
182,192,104146,128,0,104254:0:0:0:0:
109,192,104254,128,0,104363:0:0:0:0:
402,192,104363,128,0,104472:0:0:0:0:
475,192,104472,1,0,0:0:0:0:
36,192,104472,1,0,0:0:0:0:
182,192,104472,1,0,0:0:0:0:
329,192,104580,1,0,0:0:0:0:
109,192,104689,1,0,0:0:0:0:
182,192,104689,128,0,105124:0:0:0:0:
402,192,104689,128,0,104798:0:0:0:0:
329,192,104798,128,0,104907:0:0:0:0:
36,192,104798,1,0,0:0:0:0:
109,192,104907,1,0,0:0:0:0:
475,192,104907,1,0,0:0:0:0:
256,192,104907,1,0,0:0:0:0:
402,192,105015,128,0,105124:0:0:0:0:
475,192,105124,128,0,105776:0:0:0:0:
109,192,105124,1,0,0:0:0:0:
256,192,105341,1,0,0:0:0:0:
36,192,105341,1,0,0:0:0:0:
402,192,105341,1,0,0:0:0:0:
329,192,105341,1,0,0:0:0:0:
182,192,105450,128,0,105559:0:0:0:0:
109,192,105450,128,0,105776:0:0:0:0:
329,192,105450,1,0,0:0:0:0:
256,192,105559,128,0,105667:0:0:0:0:
402,192,105559,1,0,0:0:0:0:
329,192,105667,128,0,105776:0:0:0:0:
36,192,105667,1,0,0:0:0:0:
182,192,105776,1,0,0:0:0:0:
402,192,105776,128,0,105885:0:0:0:0:
36,192,105885,128,0,105993:0:0:0:0:
256,192,105885,1,0,0:0:0:0:
256,192,105993,128,0,106102:0:0:0:0:
475,192,105993,1,0,0:0:0:0:
182,192,106102,128,0,106211:0:0:0:0:
402,192,106102,1,0,0:0:0:0:
329,192,106211,1,0,0:0:0:0:
36,192,106211,128,0,106428:0:0:0:0:
256,192,106320,1,0,0:0:0:0:
182,192,106428,1,0,0:0:0:0:
109,192,106428,128,0,106537:0:0:0:0:
256,192,106537,128,0,106646:0:0:0:0:
402,192,106537,1,0,0:0:0:0:
475,192,106646,1,0,0:0:0:0:
36,192,106646,128,0,106863:0:0:0:0:
402,192,106700,1,0,0:0:0:0:
329,192,106754,1,0,0:0:0:0:
256,192,106809,1,0,0:0:0:0:
109,192,106863,128,0,107080:0:0:0:0:
182,192,106863,1,0,0:0:0:0:
329,192,106972,1,0,0:0:0:0:
36,192,107080,1,0,0:0:0:0:
182,192,107080,1,0,0:0:0:0:
475,192,107080,1,0,0:0:0:0:
402,192,107080,1,0,0:0:0:0:
329,192,107189,1,0,0:0:0:0:
256,192,107298,1,0,0:0:0:0:
182,192,107298,128,0,107407:0:0:0:0:
402,192,107407,128,0,107515:0:0:0:0:
109,192,107515,1,0,0:0:0:0:
36,192,107515,1,0,0:0:0:0:
475,192,107515,1,0,0:0:0:0:
329,192,107515,128,0,107570:0:0:0:0:
256,192,107570,128,0,107624:0:0:0:0:
182,192,107624,128,0,107841:0:0:0:0:
109,192,107733,1,0,0:0:0:0:
402,192,107733,128,0,107841:0:0:0:0:
329,192,107841,128,0,107950:0:0:0:0:
36,192,107841,128,0,108167:0:0:0:0:
109,192,107950,1,0,0:0:0:0:
475,192,107950,1,0,0:0:0:0:
256,192,107950,1,0,0:0:0:0:
182,192,108059,1,0,0:0:0:0:
329,192,108167,1,0,0:0:0:0:
402,192,108167,128,0,108276:0:0:0:0:
109,192,108167,128,0,108602:0:0:0:0:
256,192,108276,128,0,108385:0:0:0:0:
475,192,108276,128,0,108385:0:0:0:0:
36,192,108385,1,0,0:0:0:0:
182,192,108385,1,0,0:0:0:0:
329,192,108385,128,0,108493:0:0:0:0:
402,192,108385,1,0,0:0:0:0:
182,192,108493,128,0,108602:0:0:0:0:
256,192,108602,128,0,108711:0:0:0:0:
475,192,108602,128,0,108820:0:0:0:0:
402,192,108711,128,0,108820:0:0:0:0:
36,192,108820,1,0,0:0:0:0:
329,192,108820,1,0,0:0:0:0:
109,192,108820,128,0,109689:0:0:0:0:
256,192,108928,1,0,0:0:0:0:
182,192,109037,128,0,109146:0:0:0:0:
402,192,109037,1,0,0:0:0:0:
329,192,109146,128,0,109254:0:0:0:0:
256,192,109146,1,0,0:0:0:0:
36,192,109254,1,0,0:0:0:0:
402,192,109254,1,0,0:0:0:0:
182,192,109254,1,0,0:0:0:0:
475,192,109254,1,0,0:0:0:0:
256,192,109363,1,0,0:0:0:0:
329,192,109472,1,0,0:0:0:0:
475,192,109472,128,0,109580:0:0:0:0:
402,192,109580,128,0,109689:0:0:0:0:
182,192,109689,128,0,110341:0:0:0:0:
36,192,109689,1,0,0:0:0:0:
329,192,109689,1,0,0:0:0:0:
256,192,109798,1,0,0:0:0:0:
109,192,109907,1,0,0:0:0:0:
329,192,109907,128,0,110015:0:0:0:0:
36,192,110015,128,0,110124:0:0:0:0:
475,192,110124,1,0,0:0:0:0:
256,192,110124,1,0,0:0:0:0:
109,192,110124,1,0,0:0:0:0:
402,192,110124,1,0,0:0:0:0:
329,192,110233,128,0,110341:0:0:0:0:
402,192,110341,128,0,110559:0:0:0:0:
109,192,110341,128,0,110450:0:0:0:0:
256,192,110341,1,0,0:0:0:0:
182,192,110450,128,0,110559:0:0:0:0:
36,192,110450,1,0,0:0:0:0:
475,192,110559,5,0,0:0:0:0:
256,192,110559,128,0,114037:0:0:0:0:
36,192,110559,1,0,0:0:0:0:
329,192,110559,1,0,0:0:0:0:
109,192,110667,1,0,0:0:0:0:
182,192,110776,1,0,0:0:0:0:
329,192,110885,1,0,0:0:0:0:
475,192,110885,1,0,0:0:0:0:
36,192,110885,1,0,0:0:0:0:
182,192,110993,1,0,0:0:0:0:
109,192,111102,1,0,0:0:0:0:
36,192,111102,1,0,0:0:0:0:
402,192,111102,1,0,0:0:0:0:
182,192,111211,1,0,0:0:0:0:
329,192,111320,1,0,0:0:0:0:
402,192,111428,1,0,0:0:0:0:
475,192,111428,1,0,0:0:0:0:
109,192,111428,1,0,0:0:0:0:
182,192,111537,1,0,0:0:0:0:
36,192,111646,1,0,0:0:0:0:
402,192,111754,1,0,0:0:0:0:
109,192,111754,1,0,0:0:0:0:
182,192,111754,1,0,0:0:0:0:
329,192,111863,1,0,0:0:0:0:
182,192,111972,1,0,0:0:0:0:
36,192,111972,1,0,0:0:0:0:
475,192,111972,1,0,0:0:0:0:
109,192,112080,1,0,0:0:0:0:
402,192,112189,1,0,0:0:0:0:
329,192,112298,1,0,0:0:0:0:
475,192,112298,1,0,0:0:0:0:
36,192,112298,1,0,0:0:0:0:
182,192,112407,1,0,0:0:0:0:
109,192,112515,1,0,0:0:0:0:
402,192,112624,1,0,0:0:0:0:
475,192,112624,1,0,0:0:0:0:
36,192,112624,1,0,0:0:0:0:
329,192,112733,1,0,0:0:0:0:
182,192,112841,1,0,0:0:0:0:
36,192,112841,1,0,0:0:0:0:
402,192,112841,1,0,0:0:0:0:
109,192,112950,1,0,0:0:0:0:
329,192,113059,1,0,0:0:0:0:
475,192,113167,1,0,0:0:0:0:
402,192,113167,1,0,0:0:0:0:
36,192,113167,1,0,0:0:0:0:
182,192,113276,1,0,0:0:0:0:
109,192,113385,1,0,0:0:0:0:
329,192,113493,1,0,0:0:0:0:
475,192,113493,1,0,0:0:0:0:
36,192,113493,1,0,0:0:0:0:
182,192,113711,1,0,0:0:0:0:
36,192,113711,1,0,0:0:0:0:
402,192,113711,1,0,0:0:0:0:
109,192,113820,1,0,0:0:0:0:
329,192,113928,1,0,0:0:0:0:
402,192,114037,1,0,0:0:0:0:
475,192,114037,1,0,0:0:0:0:
36,192,114037,1,0,0:0:0:0:
182,192,114363,1,0,0:0:0:0:
109,192,114363,1,0,0:0:0:0:
402,192,114363,1,0,0:0:0:0:
329,192,114580,5,0,0:0:0:0:
36,192,114580,1,0,0:0:0:0:
475,192,114580,1,0,0:0:0:0:
109,192,114798,1,0,0:0:0:0:
182,192,114798,1,0,0:0:0:0:
36,192,114798,1,0,0:0:0:0:
402,192,114852,1,0,0:0:0:0:
329,192,114852,1,0,0:0:0:0:
475,192,114852,1,0,0:0:0:0:
109,192,114907,1,0,0:0:0:0:
182,192,114907,1,0,0:0:0:0:
36,192,114907,1,0,0:0:0:0:
256,192,114907,1,0,0:0:0:0:
402,192,115015,1,0,0:0:0:0:
329,192,115124,1,0,0:0:0:0:
182,192,115233,1,0,0:0:0:0:
109,192,115233,1,0,0:0:0:0:
36,192,115233,1,0,0:0:0:0:
256,192,115341,1,0,0:0:0:0:
329,192,115450,1,0,0:0:0:0:
182,192,115450,1,0,0:0:0:0:
475,192,115450,1,0,0:0:0:0:
109,192,115559,1,0,0:0:0:0:
256,192,115667,1,0,0:0:0:0:
36,192,115667,1,0,0:0:0:0:
182,192,115667,1,0,0:0:0:0:
329,192,115722,1,0,0:0:0:0:
402,192,115722,1,0,0:0:0:0:
475,192,115722,1,0,0:0:0:0:
256,192,115776,1,0,0:0:0:0:
182,192,115776,1,0,0:0:0:0:
109,192,115776,1,0,0:0:0:0:
36,192,115776,1,0,0:0:0:0:
256,192,115993,5,0,0:0:0:0:
36,192,115993,1,0,0:0:0:0:
109,192,115993,1,0,0:0:0:0:
182,192,116102,1,0,0:0:0:0:
329,192,116102,1,0,0:0:0:0:
475,192,116102,1,0,0:0:0:0:
256,192,116320,1,0,0:0:0:0:
402,192,116320,1,0,0:0:0:0:
109,192,116320,1,0,0:0:0:0:
182,192,116428,1,0,0:0:0:0:
36,192,116428,1,0,0:0:0:0:
329,192,116428,1,0,0:0:0:0:
475,192,116428,1,0,0:0:0:0:
109,192,116646,1,0,0:0:0:0:
402,192,116646,1,0,0:0:0:0:
182,192,116646,1,0,0:0:0:0:
329,192,116754,1,0,0:0:0:0:
256,192,116754,1,0,0:0:0:0:
36,192,116754,1,0,0:0:0:0:
109,192,116863,1,0,0:0:0:0:
182,192,116863,1,0,0:0:0:0:
475,192,116863,1,0,0:0:0:0:
36,192,116972,1,0,0:0:0:0:
402,192,116972,1,0,0:0:0:0:
329,192,116972,1,0,0:0:0:0:
475,192,117080,5,0,0:0:0:0:
402,192,117080,1,0,0:0:0:0:
329,192,117080,1,0,0:0:0:0:
36,192,117080,128,0,117135:0:0:0:0:
109,192,117135,128,0,117189:0:0:0:0:
329,192,117189,1,0,0:0:0:0:
402,192,117189,1,0,0:0:0:0:
475,192,117189,1,0,0:0:0:0:
182,192,117189,128,0,117243:0:0:0:0:
256,192,117243,128,0,117298:0:0:0:0:
475,192,117298,1,0,0:0:0:0:
402,192,117298,1,0,0:0:0:0:
329,192,117298,1,0,0:0:0:0:
109,192,117298,128,0,117407:0:0:0:0:
475,192,117407,1,0,0:0:0:0:
402,192,117407,1,0,0:0:0:0:
329,192,117407,1,0,0:0:0:0:
182,192,117407,128,0,117461:0:0:0:0:
256,192,117461,128,0,117515:0:0:0:0:
36,192,117515,128,0,119689:0:0:0:0:
109,192,117515,128,0,119907:0:0:0:0:
182,192,117515,128,0,120124:0:0:0:0:
475,192,117515,128,0,119254:0:0:0:0:
402,192,117515,128,0,119472:0:0:0:0:
329,192,117515,128,0,120124:0:0:0:0:
