osu file format v14

[General]
AudioFilename: audio.mp3
AudioLeadIn: 0
PreviewTime: 73191
Countdown: 0
SampleSet: Soft
StackLeniency: 0.4
Mode: 0
LetterboxInBreaks: 0
WidescreenStoryboard: 0

[Editor]
Bookmarks: 1550,15878,30206,44535,58863,73191,87520,92893,101848,102744,116176,130505,144833,159161,173490,187818,202147,216475,230803,245132,259460,273788,274684,288117,302445,316773
DistanceSpacing: 1.72
BeatDivisor: 4
GridSize: 32
TimelineZoom: 1.6

[Metadata]
Title:Ophelia
TitleUnicode:Ophelia
Artist:Nhato
ArtistUnicode:Nhato
Creator:ErunamoJAZZ
Version:unfortunate arrival
Source:
Tags:arrival EDM Electronic Instrumental Dance Progressive AlphaVersion Records reoenl experimental dubstep electro house future house trance japan
BeatmapID:1826185
BeatmapSetID:873693

[Difficulty]
HPDrainRate:6
CircleSize:4.4
OverallDifficulty:7
ApproachRate:9.3
SliderMultiplier:2.2
SliderTickRate:1

[Events]
//Background and Video events
0,0,"ophelia.jpg",0,0
//Break Periods
//Storyboard Layer 0 (Background)
//Storyboard Layer 1 (Fail)
//Storyboard Layer 2 (Pass)
//Storyboard Layer 3 (Foreground)
//Storyboard Layer 4 (Overlay)
//Storyboard Sound Samples

[TimingPoints]
1550,447.761194029851,4,2,1,70,1,0
15878,-100,4,2,1,80,0,0
30206,-66.6666666666667,4,2,1,90,0,0
31102,-90.9090909090909,4,2,1,90,0,0
44535,-83.3333333333333,4,2,1,70,0,0
51699,-76.9230769230769,4,2,1,80,0,0
53490,-71.4285714285714,4,2,1,90,0,0
55281,-66.6666666666667,4,2,1,95,0,0
57072,-62.5,4,2,1,100,0,0
58863,-100,4,2,1,100,0,0
73191,-71.4285714285714,4,2,1,100,0,0
80355,-66.6666666666667,4,2,1,100,0,0
82147,-62.5,4,2,1,100,0,0
83938,-58.8235294117647,4,2,1,100,0,0
85729,-55.5555555555556,4,2,1,100,0,0
87520,-50,4,2,1,100,0,1
94236,-62.5,4,2,1,100,0,1
94460,-55.5555555555556,4,2,1,100,0,1
94684,-50,4,2,1,100,0,1
116176,-71.4285714285714,4,2,1,80,0,0
130505,-83.3333333333333,4,2,1,60,0,0
144833,-100,4,2,1,70,0,0
159161,-90.9090909090909,4,2,1,80,0,0
173490,-83.3333333333333,4,2,1,90,0,0
180654,-76.9230769230769,4,2,1,100,0,0
182445,-71.4285714285714,4,2,1,100,0,0
184236,-66.6666666666667,4,2,1,100,0,0
186027,-62.5,4,2,1,100,0,0
187818,-71.4285714285714,4,2,1,100,0,0
194982,-66.6666666666667,4,2,1,100,0,0
196773,-62.5,4,2,1,100,0,0
198564,-58.8235294117647,4,2,1,100,0,0
200355,-55.5555555555556,4,2,1,100,0,0
202147,-50,4,2,1,100,0,1
244236,-58.8235294117647,4,2,1,100,0,1
245132,-71.4285714285714,4,2,1,70,0,0
252296,-66.6666666666667,4,2,1,80,0,0
254087,-62.5,4,2,1,90,0,0
255878,-58.8235294117647,4,2,1,95,0,0
257669,-55.5555555555556,4,2,1,100,0,0
258564,-200,4,2,1,100,0,0
259460,-50,4,2,1,100,0,1
264833,-100,4,2,1,100,0,1
266624,-50,4,2,1,100,0,1
272893,-40,4,2,1,100,0,1
274684,-50,4,2,1,100,0,1
288117,-71.4285714285714,4,2,1,90,0,0
302445,-83.3333333333333,4,2,1,80,0,0
309609,-83.3333333333333,4,2,1,70,0,0
316773,-100,4,2,1,50,0,0

[Colours]
Combo1 : 252,225,35
Combo2 : 128,255,128
Combo3 : 18,189,254
Combo4 : 240,38,44

[HitObjects]
53,258,1550,5,0,3:0:0:0:
159,163,1773,2,0,P|213:173|282:200,1,110,0|0,0:0|3:0,0:0:0:0:
101,64,2221,1,2,0:0:0:0:
311,266,2445,5,0,3:0:0:0:
320,285,2557,1,0,0:0:0:0:
325,306,2669,1,0,0:0:0:0:
327,327,2781,1,0,0:0:0:0:
322,348,2893,2,0,P|374:341|455:353,1,110,0|0,3:0|0:0,0:0:0:0:
447,203,3341,5,0,3:0:0:0:
333,116,3564,2,0,P|344:58|380:9,1,110,0|0,0:0|3:0,0:0:0:0:
512,6,4012,1,2,0:0:0:0:
230,28,4236,5,0,3:0:0:0:
214,43,4348,1,0,0:0:0:0:
203,62,4460,1,0,0:0:0:0:
196,82,4572,1,0,0:0:0:0:
192,103,4684,2,0,P|143:64|71:51,1,110,0|0,3:0|0:0,0:0:0:0:
224,189,5132,5,0,3:0:0:0:
102,262,5355,2,0,P|92:199|113:146,1,110,0|0,0:0|3:0,0:0:0:0:
198,335,5803,1,2,0:0:0:0:
305,148,6027,5,0,3:0:0:0:
325,140,6139,1,0,0:0:0:0:
346,137,6251,1,0,0:0:0:0:
368,137,6363,1,0,0:0:0:0:
389,140,6475,2,0,P|333:112|299:57,1,110,0|0,3:0|0:0,0:0:0:0:
490,101,6923,5,0,3:0:0:0:
456,300,7147,2,0,P|462:243|456:168,1,110,0|0,0:0|3:0,0:0:0:0:
379,363,7594,1,2,0:0:0:0:
292,196,7818,5,0,3:0:0:0:
271,188,7930,1,0,0:0:0:0:
249,184,8042,2,0,P|221:187|186:200,1,55,8|0,0:3|0:0,0:0:0:0:
158,305,8266,1,0,3:0:0:0:
138,293,8378,1,0,0:0:0:0:
126,274,8490,2,0,P|113:244|112:205,1,55,8|0,0:3|0:0,0:0:0:0:
142,125,8714,5,0,3:0:0:0:
282,151,8938,1,0,0:0:0:0:
375,43,9161,1,0,3:0:0:0:
398,228,9385,6,0,P|354:265|288:282,1,110,2|0,0:0|3:0,0:0:0:0:
282,282,9721,1,0,0:0:0:0:
260,277,9833,1,0,0:0:0:0:
239,268,9945,1,0,0:0:0:0:
222,253,10057,2,0,P|215:289|198:315,1,55,0|0,3:0|0:0,0:0:0:0:
218,109,10281,1,0,0:0:0:0:
222,253,10505,5,0,3:0:0:0:
82,221,10729,1,0,0:0:0:0:
130,354,10952,1,0,3:0:0:0:
305,164,11176,6,0,P|364:172|436:215,1,110,2|0,0:0|3:0,0:0:0:0:
421,211,11512,1,0,0:0:0:0:
426,232,11624,1,0,0:0:0:0:
426,254,11736,1,0,0:0:0:0:
422,275,11848,1,0,3:0:0:0:
288,327,12072,1,0,0:0:0:0:
246,190,12296,5,0,3:0:0:0:
130,105,12520,2,0,P|68:111|-4:147,1,110,0|0,0:0|3:0,0:0:0:0:
207,39,12967,1,2,0:0:0:0:
199,293,13191,5,0,3:0:0:0:
191,272,13303,1,0,0:0:0:0:
176,255,13415,1,0,0:0:0:0:
159,240,13527,1,0,0:0:0:0:
141,226,13639,2,0,P|171:227|216:210,1,55,0|0,3:0|0:0,0:0:0:0:
24,128,13863,1,0,0:0:0:0:
141,226,14087,5,0,3:0:0:0:
154,83,14311,1,0,0:0:0:0:
284,142,14535,1,0,3:0:0:0:
423,113,14758,2,0,P|415:170|437:225,1,110,2|0,0:0|3:0,0:0:0:0:
510,339,15206,1,8,0:3:0:0:
373,297,15430,1,0,3:0:0:0:
242,355,15654,1,8,0:3:0:0:
53,182,15878,5,2,3:2:0:0:
53,182,15990,2,0,P|39:208|40:267,1,55,0|0,0:2|0:2,0:2:0:0:
143,168,16214,1,2,0:2:0:0:
143,168,16326,2,0,P|142:106|112:37,1,110,0|2,3:2|0:2,0:2:0:0:
262,40,16661,1,2,0:2:0:0:
262,40,16773,2,0,P|240:58|203:76,1,55,0|0,3:2|0:2,0:2:0:0:
343,35,16997,1,2,0:2:0:0:
366,39,17109,1,0,0:2:0:0:
381,54,17221,1,0,3:2:0:0:
388,73,17333,2,0,P|390:106|374:145,1,55,2|2,0:2|0:2,0:2:0:0:
134,326,17669,5,2,3:2:0:0:
134,326,17781,2,0,P|166:331|205:353,1,55,0|0,0:2|0:2,0:2:0:0:
279,252,18005,1,2,0:2:0:0:
279,252,18117,2,0,P|251:279|229:316,1,55,0|0,3:2|0:2,0:2:0:0:
175,230,18341,1,2,0:2:0:0:
164,215,18452,1,0,0:2:0:0:
159,196,18564,2,0,P|123:202|90:191,1,55,0|0,3:2|0:2,0:2:0:0:
132,115,18788,1,2,0:2:0:0:
149,109,18900,1,0,0:2:0:0:
166,108,19012,1,0,3:2:0:0:
185,113,19124,2,0,P|174:82|179:51,1,55,2|2,0:2|0:2,0:2:0:0:
426,100,19460,5,2,3:2:0:0:
426,100,19572,2,0,P|451:110|483:142,1,55,0|0,0:2|0:2,0:2:0:0:
424,235,19796,1,2,0:2:0:0:
424,235,19908,2,0,P|411:190|421:151,1,55,0|0,3:2|0:2,0:2:0:0:
475,299,20132,1,2,0:2:0:0:
468,314,20243,1,0,0:2:0:0:
455,325,20355,2,0,P|418:331|374:312,2,55,2|0|0,3:2|0:2|0:2,0:2:0:0:
325,294,20691,1,2,0:2:0:0:
191,250,20803,2,0,B|209:252|209:252|241:273|252:306|252:306|247:326,1,110,0|2,3:2|0:2,0:2:0:0:
238,341,21139,1,0,0:2:0:0:
109,273,21251,5,2,3:2:0:0:
97,263,21363,1,0,0:2:0:0:
90,249,21475,2,0,P|82:212|101:175,1,55,2|0,0:2|0:2,0:2:0:0:
69,89,21699,1,0,3:2:0:0:
69,89,21811,2,0,P|88:107|114:116,2,55,2|0|2,0:2|0:2|0:2,0:2:0:0:
130,39,22147,1,0,3:2:0:0:
413,25,22370,1,8,0:3:0:0:
407,44,22482,1,2,0:2:0:0:
396,61,22594,1,0,3:2:0:0:
386,78,22706,2,0,P|381:47|349:7,1,55,2|8,0:2|0:3,0:2:0:0:
154,178,23042,5,2,3:2:0:0:
154,178,23154,2,0,P|188:172|229:147,1,55,0|0,0:2|0:2,0:2:0:0:
229,344,23378,1,2,0:2:0:0:
229,344,23490,2,0,P|215:289|235:222,1,110,0|2,3:2|0:2,0:2:0:0:
278,187,23825,1,0,0:2:0:0:
345,211,23938,2,0,P|376:204|409:171,1,55,0|0,3:2|0:2,0:2:0:0:
424,51,24161,1,2,0:2:0:0:
433,65,24273,1,0,0:2:0:0:
439,81,24385,1,0,3:2:0:0:
441,102,24497,2,0,P|404:90|370:98,1,55,2|2,0:2|0:2,0:2:0:0:
49,39,24833,5,2,3:2:0:0:
49,39,24945,2,0,P|81:44|119:67,1,55,0|0,0:2|0:2,0:2:0:0:
222,143,25169,1,2,0:2:0:0:
222,143,25281,2,0,P|189:133|150:109,1,55,0|0,3:2|0:2,0:2:0:0:
175,56,25505,1,2,0:2:0:0:
175,56,25616,1,0,0:2:0:0:
100,125,25729,2,0,P|76:141|39:147,1,55,0|0,3:2|0:2,0:2:0:0:
143,191,25952,1,2,0:2:0:0:
156,213,26064,1,0,0:2:0:0:
161,237,26176,1,0,3:2:0:0:
36,265,26288,2,0,P|64:250|108:249,1,55,2|2,0:2|0:2,0:2:0:0:
402,334,26624,5,2,3:2:0:0:
448,280,26736,2,0,P|454:253|449:227,1,55,0|0,0:2|0:2,0:2:0:0:
335,246,26960,1,2,0:2:0:0:
288,300,27072,2,0,P|260:298|236:287,1,55,0|0,3:2|0:2,0:2:0:0:
302,159,27296,1,2,0:2:0:0:
318,139,27407,1,0,0:2:0:0:
347,126,27520,2,0,P|311:119|289:100,2,55,2|0|0,3:2|0:2|0:2,0:2:0:0:
278,30,27855,1,2,0:2:0:0:
453,25,27967,2,0,P|395:25|339:60,1,110,0|2,3:2|0:2,0:2:0:0:
472,40,28303,1,0,0:2:0:0:
427,149,28415,5,2,3:2:0:0:
443,172,28527,1,0,0:2:0:0:
381,202,28639,2,0,L|362:260,1,55,2|0,0:2|0:2,0:2:0:0:
277,152,28863,1,2,3:2:0:0:
214,179,28975,2,0,L|175:137,2,55,0|2|0,0:2|0:2|0:2,0:2:0:0:
266,318,29311,1,2,3:2:0:0:
213,274,29423,2,0,L|144:292,2,55,0|4|0,0:2|3:3|0:2,0:2:0:0:
363,254,29758,1,2,3:2:0:0:
300,231,29870,1,2,0:2:0:0:
350,185,29982,1,8,3:3:0:0:
103,237,30206,5,4,3:3:0:0:
300,231,30430,1,4,3:3:0:0:
103,237,30654,2,2,B|35:217|37:138|16:155|16:155|-3:171|15:205|64:164|51:97,1,247.500009441376,8|0,3:3|0:0,0:0:0:0:
134,62,31102,2,0,P|166:43|186:10,1,60.5000018463135,2|0,3:2|0:2,0:2:0:0:
266,130,31326,2,0,P|232:101|224:70,1,60.5000018463135,2|0,0:2|0:2,0:2:0:0:
292,25,31550,1,8,3:2:0:0:
395,97,31661,2,0,P|358:91|321:100,1,60.5000018463135,2|2,0:2|0:2,0:2:0:0:
212,305,31997,6,0,L|185:378,1,60.5000018463135,2|0,3:2|0:2,0:2:0:0:
285,310,32221,1,0,0:2:0:0:
304,321,32333,1,2,0:2:0:0:
376,363,32445,2,0,L|358:244,1,121.000003692627,8|2,3:2|0:2,0:2:0:0:
447,253,32781,1,0,0:2:0:0:
349,185,32893,2,0,L|358:244,1,60.5000018463135,2|0,3:2|0:2,0:2:0:0:
340,125,33117,2,0,L|349:184,1,60.5000018463135,0|2,0:2|0:2,0:2:0:0:
284,278,33341,1,8,3:2:0:0:
256,269,33452,1,2,0:2:0:0:
209,325,33564,2,0,P|241:270|200:204,1,121.000003692627,2|0,0:2|3:2,0:2:0:0:
168,266,33900,5,2,0:2:0:0:
15,62,34124,1,2,0:2:0:0:
57,116,34236,2,2,P|111:112|181:63,1,121.000003692627,8|2,3:2|0:2,0:2:0:0:
348,83,34572,1,0,0:2:0:0:
394,134,34684,1,0,3:2:0:0:
327,151,34796,2,0,P|268:153|189:230,1,121.000003692627,2|2,0:2|0:2,0:2:0:0:
182,247,35132,1,8,3:2:0:0:
451,284,35355,1,0,0:2:0:0:
435,302,35467,1,0,0:2:0:0:
416,312,35579,1,2,3:2:0:0:
394,134,35803,5,0,0:2:0:0:
450,184,35915,1,2,0:2:0:0:
467,112,36027,2,0,L|483:51,1,60.5000018463135,8|0,3:2|0:2,0:2:0:0:
281,75,36251,2,0,L|340:86,1,60.5000018463135,2|0,0:2|0:2,0:2:0:0:
407,61,36475,1,0,3:2:0:0:
144,91,36699,1,8,0:3:0:0:
168,69,36811,1,2,0:2:0:0:
215,117,36923,2,0,L|223:195,1,60.5000018463135,8|2,3:2|0:2,0:2:0:0:
184,236,37147,1,8,0:3:0:0:
433,291,37370,5,0,3:2:0:0:
435,269,37482,1,2,0:2:0:0:
200,331,37706,1,2,0:2:0:0:
197,355,37818,2,2,L|338:336,1,121.000003692627,8|2,3:2|0:2,0:2:0:0:
363,283,38154,1,0,0:2:0:0:
286,182,38266,2,0,P|289:212|305:239,1,60.5000018463135,0|0,3:2|0:2,0:2:0:0:
227,249,38490,2,0,P|196:241|152:253,1,60.5000018463135,2|2,0:2|0:2,0:2:0:0:
123,301,38714,1,8,3:2:0:0:
112,194,38826,2,0,L|105:135,1,60.5000018463135,2|2,0:2|0:2,0:2:0:0:
97,74,39161,6,0,L|105:135,1,60.5000018463135,0|2,3:2|0:2,0:2:0:0:
178,179,39385,1,0,0:2:0:0:
193,165,39497,1,2,0:2:0:0:
286,96,39609,2,0,P|217:100|169:65,1,121.000003692627,8|2,3:2|0:2,0:2:0:0:
318,30,39945,1,0,0:2:0:0:
361,88,40057,2,0,P|390:105|418:148,1,60.5000018463135,2|0,3:2|0:2,0:2:0:0:
287,190,40281,2,0,P|311:170|351:163,1,60.5000018463135,0|2,0:2|0:2,0:2:0:0:
407,234,40505,1,8,3:2:0:0:
400,212,40616,1,2,0:2:0:0:
441,299,40728,2,0,P|391:256|309:273,1,121.000003692627,2|0,0:2|3:2,0:2:0:0:
368,332,41064,5,2,0:2:0:0:
113,354,41288,1,2,0:2:0:0:
181,376,41400,2,2,P|241:363|283:303,1,121.000003692627,8|2,3:2|0:2,0:2:0:0:
208,155,41736,1,0,0:2:0:0:
162,208,41848,1,2,3:2:0:0:
140,140,41960,2,0,P|102:93|36:77,1,121.000003692627,2|2,0:2|0:2,0:2:0:0:
0,131,42296,1,8,3:2:0:0:
210,71,42519,1,0,0:2:0:0:
230,66,42631,1,0,0:2:0:0:
252,61,42744,2,0,L|332:41,1,60.5000018463135,2|0,3:2|0:2,0:2:0:0:
252,137,42967,1,0,0:2:0:0:
267,151,43079,1,0,0:2:0:0:
333,274,43191,6,0,L|266:249,1,60.5000018463135,10|0,3:2|0:2,0:2:0:0:
342,136,43415,2,0,L|338:208,1,60.5000018463135,0|0,0:2|0:2,0:2:0:0:
209,169,43639,2,0,L|280:146,1,60.5000018463135,0|2,3:2|0:2,0:2:0:0:
201,260,43863,1,8,0:3:0:0:
183,240,43975,1,0,0:2:0:0:
231,323,44087,2,0,L|172:342,1,60.5000018463135,8|2,3:2|0:2,0:2:0:0:
187,360,44311,1,8,0:3:0:0:
404,360,44534,5,8,3:3:0:0:
438,323,44646,1,0,0:0:0:0:
380,291,44758,1,0,0:0:0:0:
398,244,44870,1,2,0:0:0:0:
333,230,44982,5,8,0:0:0:0:
314,179,45094,1,0,0:0:0:0:
263,222,45206,1,2,0:0:0:0:
217,199,45318,1,0,0:0:0:0:
208,264,45430,5,2,0:0:0:0:
240,302,45542,1,0,0:0:0:0:
177,322,45654,1,2,3:2:0:0:
149,359,45766,1,0,3:2:0:0:
109,306,45878,5,2,0:0:0:0:
62,287,45990,1,2,0:0:0:0:
101,234,46102,1,2,0:0:0:0:
127,191,46214,1,0,0:0:0:0:
68,151,46326,6,0,P|34:140|6:106,1,65.9999979858399,8|0,0:3|0:0,0:0:0:0:
74,72,46550,1,0,0:0:0:0:
90,24,46661,1,2,0:0:0:0:
146,69,46773,5,8,0:0:0:0:
193,51,46885,1,0,0:0:0:0:
221,113,46997,1,2,0:0:0:0:
269,132,47109,1,0,0:0:0:0:
307,72,47221,5,2,0:0:0:0:
346,42,47333,1,0,0:0:0:0:
405,80,47445,1,2,3:2:0:0:
435,41,47557,1,0,3:2:0:0:
480,95,47669,5,2,0:0:0:0:
512,132,47781,1,2,0:0:0:0:
456,175,47893,1,2,0:0:0:0:
476,214,48005,1,0,0:0:0:0:
410,237,48117,6,0,P|376:217|335:218,1,65.9999979858399,8|0,0:3|0:0,0:0:0:0:
357,294,48341,1,0,0:0:0:0:
334,321,48452,1,2,0:0:0:0:
299,330,48564,2,0,P|243:298|233:193,1,131.99999597168,8|2,0:0|0:0,0:0:0:0:
252,79,49012,5,2,0:0:0:0:
215,93,49124,1,0,0:0:0:0:
177,81,49236,2,0,P|174:46|187:16,1,65.9999979858399,0|2,0:0|0:0,0:0:0:0:
28,48,49460,5,2,0:0:0:0:
65,34,49572,1,0,0:0:0:0:
103,46,49684,2,0,P|106:81|93:111,1,65.9999979858399,2|0,0:0|0:0,0:0:0:0:
42,155,49908,5,2,0:0:0:0:
82,177,50020,1,0,0:0:0:0:
128,177,50132,1,0,0:0:0:0:
168,154,50244,1,2,0:0:0:0:
223,113,50355,5,0,0:0:0:0:
263,90,50467,1,2,0:0:0:0:
309,90,50579,1,0,0:0:0:0:
349,112,50691,1,2,0:0:0:0:
404,70,50803,6,0,P|426:42|461:29,1,65.9999979858399
467,99,51027,1,8,3:3:0:0:
504,127,51139,1,2,3:2:0:0:
388,202,51363,1,2,3:2:0:0:
399,156,51475,1,8,0:3:0:0:
482,280,51699,6,0,P|478:319|459:365,1,71.4999967269899,8|0,3:3|0:0,0:0:0:0:
366,290,51923,2,0,P|358:247|345:215,1,71.4999967269899,2|0,0:0|0:0,0:0:0:0:
260,306,52147,2,0,P|252:344|230:391,1,71.4999967269899,10|0,0:0|0:0,0:0:0:0:
160,276,52370,2,0,P|145:241|144:205,1,71.4999967269899,2|0,0:0|0:0,0:0:0:0:
269,152,52594,6,0,P|267:117|255:84,1,71.4999967269899,2|0,3:2|0:0,0:0:0:0:
98,241,52818,2,0,P|133:266|190:278,1,71.4999967269899,2|0,0:0|0:0,0:0:0:0:
352,275,53042,2,0,P|385:262|414:241,1,71.4999967269899,10|0,0:0|0:0,0:0:0:0:
162,279,53266,2,0,P|128:266|100:244,1,71.4999967269899,2|0,0:0|0:0,0:0:0:0:
78,63,53490,6,0,L|167:55,1,76.9999976501466,2|0,3:2|0:0,0:0:0:0:
231,49,53714,2,0,L|154:55,1,76.9999976501466,2|0,0:0|0:0,0:0:0:0:
276,110,53938,2,0,L|352:116,1,76.9999976501466,10|0,0:0|0:0,0:0:0:0:
429,124,54162,2,0,L|352:117,1,76.9999976501466,2|0,0:0|0:0,0:0:0:0:
155,255,54385,6,0,P|187:231|207:180,1,76.9999976501466,2|0,3:2|0:0,0:0:0:0:
357,255,54609,2,0,P|325:231|305:180,1,76.9999976501466,2|0,0:0|0:0,0:0:0:0:
135,384,54833,2,0,P|161:360|182:302,1,76.9999976501466,10|0,0:0|0:0,0:0:0:0:
377,384,55057,2,0,P|351:360|330:302,1,76.9999976501466,2|0,0:0|0:0,0:0:0:0:
256,32,55281,6,0,B|248:76|248:76|256:128,1,82.5000031471254,2|0,3:2|0:0,0:0:0:0:
256,269,55505,2,0,B|264:232|264:232|257:184,1,82.5000031471254,2|0,0:0|0:0,0:0:0:0:
96,297,55729,2,0,P|131:297|184:336,1,82.5000031471254,10|0,0:0|0:0,0:0:0:0:
416,297,55952,2,0,P|381:297|328:336,1,82.5000031471254,2|0,0:0|0:0,0:0:0:0:
17,223,56176,6,0,P|61:233|125:206,1,82.5000031471254,2|0,3:2|0:0,0:0:0:0:
495,223,56400,2,0,P|451:233|387:206,1,82.5000031471254,2|0,0:0|0:0,0:0:0:0:
14,49,56624,2,0,P|40:104|83:131,1,82.5000031471254,10|0,0:0|0:0,0:0:0:0:
498,49,56848,2,0,P|472:104|429:131,1,82.5000031471254,2|0,0:0|0:0,0:0:0:0:
124,296,57072,6,0,B|144:305|144:305|172:292|206:289,1,88,4|0,0:3|0:0,0:0:0:0:
256,237,57296,1,2,0:0:0:0:
256,219,57408,1,0,0:0:0:0:
388,296,57520,2,0,B|368:305|368:305|340:292|305:289,1,88,2|0,0:0|0:0,0:0:0:0:
256,356,57744,1,2,0:0:0:0:
256,338,57855,1,0,0:0:0:0:
256,237,57967,6,0,L|256:144,1,88,2|0,0:0|0:0,0:0:0:0:
316,88,58191,1,4,0:3:0:0:
298,61,58303,1,2,0:0:0:0:
216,60,58415,1,0,0:0:0:0:
198,87,58527,1,2,0:0:0:0:
256,149,58639,1,8,0:3:0:0:
256,350,58863,5,4,0:3:0:0:
304,40,59311,2,2,B|280:16|280:16|256:24|232:16|232:16|212:35,1,110
32,192,60654,5,0,0:0:0:0:
277,286,61102,2,2,B|253:257|253:257|212:280|171:253,1,110
246,72,62445,5,0,0:0:0:0:
495,37,62893,2,2,B|494:65|494:65|469:69|469:69|485:94|448:154,1,110
221,334,64236,5,0,0:0:0:0:
453,188,64684,2,0,L|466:183,4,13.75
355,226,64908,2,2,B|345:204|345:204|323:192|323:192|357:126|460:141|477:205,1,220,2|0,0:0|0:0,0:0:0:0:
86,361,66027,5,0,0:0:0:0:
176,112,66475,2,2,B|205:134|205:134|188:174|217:223,1,110
420,63,67818,5,0,0:0:0:0:
158,30,68266,2,2,B|163:47|163:47|184:51|184:51|191:93|238:112,1,110
419,179,69609,5,0,0:0:0:0:
239,351,70057,2,2,B|212:327|212:327|255:339|289:317,1,110
323,48,71400,5,0,0:0:0:0:
141,204,71848,2,0,L|133:216,4,13.75
195,134,72072,2,2,B|206:86|206:86|138:98|107:162|144:245,1,220,2|0,0:0|0:0,0:0:0:0:
256,192,72632,12,8,73191,0:3:0:0:
256,356,73639,5,2,3:2:0:0:
400,188,73863,1,0,0:2:0:0:
396,336,74087,1,0,3:2:0:0:
184,264,74311,6,0,P|145:247|124:217,1,76.9999976501466,2|0,0:2|0:2,0:2:0:0:
225,113,74535,2,0,P|220:154|198:185,1,76.9999976501466,0|0,3:2|0:2,0:2:0:0:
140,121,74758,1,0,0:2:0:0:
402,32,74982,5,2,3:2:0:0:
418,41,75094,1,0,0:2:0:0:
328,220,75318,1,2,0:2:0:0:
305,212,75430,1,0,3:2:0:0:
222,29,75654,1,2,0:2:0:0:
61,148,75878,5,2,3:2:0:0:
55,178,75990,1,0,0:2:0:0:
64,209,76102,2,0,P|97:192|144:193,1,76.9999976501466,0|0,0:2|0:2,0:2:0:0:
264,300,76326,1,2,3:2:0:0:
269,269,76438,1,0,0:2:0:0:
261,239,76550,2,0,P|228:256|181:255,1,76.9999976501466,0|0,0:2|0:2,0:2:0:0:
307,142,76773,5,2,3:2:0:0:
330,153,76885,1,0,0:2:0:0:
444,317,77109,1,2,0:2:0:0:
453,293,77221,1,0,3:2:0:0:
271,353,77445,2,0,P|239:332|197:326,1,76.9999976501466,2|0,0:2|0:2,0:2:0:0:
121,181,77669,5,0,3:2:0:0:
134,208,77781,1,0,0:2:0:0:
135,238,77893,2,0,P|123:278|93:311,1,76.9999976501466,2|0,0:2|0:2,0:2:0:0:
308,239,78117,2,0,B|322:229|322:229|299:212|267:207,1,76.9999976501466,0|0,3:2|0:2,0:2:0:0:
196,180,78341,2,0,B|181:189|181:189|204:206|236:211,1,76.9999976501466,2|0,0:2|0:2,0:2:0:0:
305,90,78564,5,0,3:2:0:0:
330,105,78676,1,0,0:2:0:0:
360,107,78788,1,0,0:2:0:0:
389,95,78900,1,0,0:2:0:0:
408,72,79012,2,0,L|411:41,4,19.2499994125366,2|0|0|0|0,3:2|0:2|0:2|0:2|0:2,0:2:0:0:
417,102,79236,1,0,0:2:0:0:
432,127,79348,1,0,0:2:0:0:
398,209,79460,6,0,P|361:222|323:218,2,76.9999976501466,2|0|0,3:2|0:2|0:2,0:2:0:0:
256,176,79796,1,0,0:2:0:0:
213,105,79908,2,0,P|173:96|122:114,1,76.9999976501466,2|0,3:2|0:2,0:2:0:0:
145,238,80132,2,0,P|169:204|171:143,1,76.9999976501466,0|0,0:2|0:2,0:2:0:0:
3,136,80355,5,4,3:3:0:0:
256,28,80803,1,4,3:3:0:0:
509,136,81251,1,4,3:3:0:0:
256,240,81699,1,4,3:3:0:0:
120,304,82147,5,8,0:3:0:0:
160,176,82370,1,8,0:3:0:0:
392,304,82594,1,8,0:3:0:0:
352,176,82817,1,8,0:3:0:0:
52,208,83042,5,8,0:3:0:0:
460,208,83266,1,8,0:3:0:0:
88,76,83490,1,8,0:3:0:0:
419,76,83714,1,8,0:3:0:0:
160,176,83938,5,0,3:0:0:0:
204,208,84050,1,0,3:0:0:0:
256,216,84161,1,0,3:0:0:0:
308,208,84273,1,0,3:0:0:0:
352,176,84385,5,0,3:0:0:0:
328,104,84497,1,0,3:0:0:0:
256,76,84609,1,0,3:0:0:0:
184,104,84721,1,0,3:0:0:0:
160,176,84833,5,0,3:0:0:0:
200,248,84945,1,0,3:0:0:0:
153,312,85057,1,0,3:0:0:0:
212,364,85169,1,0,3:0:0:0:
300,364,85281,5,0,3:0:0:0:
359,312,85393,1,0,3:0:0:0:
312,248,85505,1,0,3:0:0:0:
352,176,85617,1,0,3:0:0:0:
256,84,85729,6,0,P|238:63|196:40,1,49.4999984893799
214,64,85841,2,0,P|189:52|141:49,1,49.4999984893799
166,67,85952,2,0,P|139:66|94:84,1,49.4999984893799
125,89,86064,2,0,P|100:100|67:135,1,49.4999984893799,0|0,2:0|2:0,2:0:0:0:
83,136,86176,6,0,P|100:156|142:179,1,49.4999984893799
124,155,86288,2,0,P|148:166|196:169,1,49.4999984893799
173,152,86400,2,0,P|199:152|244:134,1,49.4999984893799
213,130,86512,2,0,P|237:118|270:83,1,49.4999984893799,0|0,2:0|2:0,2:0:0:0:
272,56,86624,5,0,0:0:0:0:
368,36,86736,1,0,0:0:0:0:
460,76,86848,1,0,0:0:0:0:
504,164,86960,1,0,0:0:0:0:
480,260,87072,1,0,0:0:0:0:
408,328,87184,1,0,0:0:0:0:
308,336,87296,1,0,0:0:0:0:
224,284,87408,1,0,0:0:0:0:
52,200,87520,6,0,P|108:192|168:224,1,110,0|0,1:0|0:0,0:0:0:0:
94,331,87744,1,0,0:0:0:0:
94,331,87855,1,0,0:0:0:0:
260,184,87967,2,0,P|300:140|372:116,1,110,0|0,3:0|0:0,0:0:0:0:
460,261,88191,2,0,P|403:255|357:220,1,110
126,27,88415,5,0,1:0:0:0:
126,27,88527,2,0,P|216:80|258:218,1,220,0|0,0:0|3:0,0:0:0:0:
259,183,88863,1,0,1:0:0:0:
0,269,89087,1,0,1:0:0:0:
512,269,89311,6,0,B|484:255|484:255|453:283|390:282,1,110,0|0,1:0|0:0,0:0:0:0:
278,271,89535,1,0,0:0:0:0:
278,271,89647,1,0,0:0:0:0:
80,226,89758,2,0,B|105:203|105:203|134:225|185:232,1,110,0|0,3:0|0:0,0:0:0:0:
300,70,89982,2,0,B|258:73|258:73|251:111|215:148,1,110
473,279,90206,5,0,1:0:0:0:
473,279,90318,2,0,B|438:303|438:303|402:255|353:213|353:213|322:220|278:212,1,220,0|0,0:0|3:0,0:0:0:0:
170,62,90654,1,0,1:0:0:0:
191,325,90878,2,0,B|171:303|124:303|124:303|155:295|174:281,1,110,0|0,1:0|0:0,0:0:0:0:
503,155,91102,6,0,B|471:155|471:155|438:175|438:175|361:172|296:212,1,220,0|0,1:0|0:0,0:0:0:0:
269,342,91438,1,0,0:0:0:0:
269,342,91550,1,0,3:0:0:0:
97,118,91661,2,0,B|135:135|168:115|168:115|145:147|149:212|212:236,1,220
42,346,91997,6,0,B|47:311|75:283|75:283|156:293|224:220,1,220,0|0,1:0|0:0,0:0:0:0:
295,132,92333,1,0,3:0:0:0:
295,132,92445,1,0,1:0:0:0:
35,81,92669,2,0,P|77:59|152:70,1,110,0|0,1:0|0:0,0:0:0:0:
269,319,92893,6,0,P|222:280|208:226,1,110,0|0,1:0|0:0,0:0:0:0:
429,156,93117,6,0,B|395:164|364:153|364:153|392:188|392:188|333:178|299:231,1,220,2|0,0:3|0:0,0:0:0:0:
267,152,93452,1,0,3:0:0:0:
267,152,93564,2,0,B|287:114|279:69|279:69|316:101,1,110,0|0,3:0|0:0,3:0:0:0:
398,67,93788,5,0,3:0:0:0:
429,156,93900,1,0,3:0:0:0:
398,67,94012,5,0,3:0:0:0:
429,156,94124,1,0,0:0:0:0:
324,268,94236,6,0,B|360:240|360:240|419:239,1,88,0|0,3:0|0:0,0:0:0:0:
179,348,94460,6,0,B|227:348|227:348|276:314,1,98.9999969787599,2|0,3:2|0:0,0:0:0:0:
101,79,94684,6,0,B|55:52|55:52|0:60,1,110,6|0,1:2|0:0,0:0:0:0:
51,186,94908,1,0,3:0:0:0:
106,228,95020,1,0,3:0:0:0:
174,231,95132,1,0,3:0:0:0:
293,151,95244,2,0,B|235:158|235:158|162:117,1,110,0|0,3:0|0:0,0:0:0:0:
266,25,95467,1,0,3:0:0:0:
450,261,95579,6,0,P|403:173|273:158,1,220,0|0,1:0|0:0,0:0:0:0:
321,280,95915,1,0,3:0:0:0:
292,151,96027,2,0,L|146:171,1,110,0|0,1:0|0:0,0:0:0:0:
51,186,96251,1,0,1:0:0:0:
447,243,96475,6,0,P|452:187|418:133,1,110,0|0,1:0|0:0,0:0:0:0:
320,61,96699,1,0,3:0:0:0:
256,35,96811,1,0,3:0:0:0:
192,60,96923,1,0,3:0:0:0:
91,133,97035,2,0,P|49:103|31:49,1,110,0|0,3:0|0:0,0:0:0:0:
167,130,97258,1,0,3:0:0:0:
360,183,97370,5,0,1:0:0:0:
388,169,97482,2,0,B|421:155|421:155|473:215|431:306|348:285,1,220,0|0,0:0|3:0,0:0:0:0:
239,250,97818,1,0,1:0:0:0:
69,47,98042,2,0,P|125:51|163:97,1,110,0|0,1:0|0:0,0:0:0:0:
98,342,98266,6,0,P|55:221|92:124,1,220,0|0,1:0|0:0,0:0:0:0:
247,48,98602,1,0,0:0:0:0:
247,48,98714,2,0,B|253:121|253:121|279:88,1,110,0|0,3:0|3:0,0:0:0:0:
404,59,98938,1,0,0:0:0:0:
404,59,99050,1,0,0:0:0:0:
260,271,99161,6,0,B|355:132|355:132|380:201,1,220,0|0,1:0|0:0,0:0:0:0:
394,311,99497,1,0,3:0:0:0:
394,311,99609,1,0,1:0:0:0:
176,160,99833,1,0,1:0:0:0:
466,307,100057,6,0,B|508:328|508:328|449:363|449:363|398:322|333:349,1,220,0|0,1:0|0:0,0:0:0:0:
89,342,100393,1,0,0:0:0:0:
112,342,100505,1,0,3:0:0:0:
143,316,100617,1,0,3:0:0:0:
111,286,100729,1,0,0:0:0:0:
65,301,100841,1,0,0:0:0:0:
256,228,100952,6,0,B|298:143|416:170|416:170|400:218|339:210,1,275,2|0,3:0|0:0,0:0:0:0:
260,188,101288,6,0,B|267:93|152:55|152:55|141:105|198:129,1,275,2|0,3:0|0:0,0:0:0:0:
294,164,101624,6,0,B|304:91|365:85|365:85|371:125|350:131,1,165,2|0,3:0|0:0,0:0:0:0:
256,228,101848,6,0,B|241:250|241:250|232:277|224:306|224:306|207:330,2,110,0|2|0,3:0|3:0|0:0,0:0:0:0:
256,228,102296,5,2,3:0:0:0:
39,36,102744,6,0,P|64:74|142:89,1,110,0|0,1:0|0:0,0:0:0:0:
161,69,102967,1,0,0:0:0:0:
200,58,103079,1,0,0:0:0:0:
242,68,103191,1,0,3:0:0:0:
103,166,103415,1,0,3:0:0:0:
339,47,103639,6,0,B|391:12|459:12|503:60|503:60|473:91,1,220,0|0,1:0|0:0,0:0:0:0:
414,154,103975,1,0,0:0:0:0:
436,192,104087,1,0,3:0:0:0:
419,235,104199,2,0,P|449:292|434:338,1,110,0|0,3:0|0:0,0:0:0:0:
379,294,104423,1,0,0:0:0:0:
287,369,104535,6,0,B|315:356|348:363|348:363|283:331|297:249|337:233,1,220,0|0,1:0|0:0,0:0:0:0:
376,180,104870,1,0,3:0:0:0:
319,81,104982,2,0,B|294:89|294:89|376:110,1,110,0|0,1:0|0:0,0:0:0:0:
272,180,105206,2,0,B|296:171|296:171|214:150,1,110,0|0,1:0|0:0,0:0:0:0:
66,119,105430,6,0,B|26:109|26:109|-13:173|12:241|70:273,1,220,0|0,1:0|0:0,0:0:0:0:
144,320,105766,1,0,0:0:0:0:
165,282,105878,1,0,3:0:0:0:
208,272,105990,1,0,3:0:0:0:
167,236,106102,1,0,0:0:0:0:
217,215,106214,1,0,0:0:0:0:
344,282,106326,6,0,B|384:257|384:257|255:220|334:124|334:124,1,220,0|0,1:0|0:0,0:0:0:0:
407,172,106661,1,0,3:0:0:0:
330,128,106773,2,0,P|278:110|224:109,1,110,0|0,1:0|0:0,0:0:0:0:
122,146,106997,2,0,P|181:133|242:93,1,110,0|0,1:0|0:0,0:0:0:0:
344,282,107221,6,0,P|245:240|122:273,1,220,0|0,1:0|0:0,0:0:0:0:
80,329,107557,1,0,0:0:0:0:
16,309,107669,1,0,3:0:0:0:
64,264,107781,1,0,3:0:0:0:
1,243,107893,1,0,0:0:0:0:
50,199,108005,1,0,0:0:0:0:
159,95,108117,6,0,B|139:87|139:87|110:119|54:105,2,110,0|0|0,1:0|0:0|0:0,0:0:0:0:
221,53,108452,1,0,3:2:0:0:
280,97,108564,2,0,B|298:109|298:109|331:80|387:89,1,110,0|0,1:0|0:0,0:0:0:0:
218,140,108788,1,0,1:0:0:0:
287,182,108900,1,0,0:0:0:0:
258,300,109012,6,0,P|209:283|178:228,2,110,0|0|0,1:0|0:0|0:0,0:0:0:0:
317,249,109348,1,0,0:0:0:0:
382,289,109460,1,0,3:0:0:0:
430,229,109572,1,0,3:0:0:0:
494,270,109684,1,0,0:0:0:0:
448,331,109796,1,0,0:0:0:0:
300,358,109908,5,0,1:0:0:0:
300,358,110020,2,0,B|272:342|253:310|253:310|190:375|106:314|106:314,1,220,0|0,0:0|3:0,0:0:0:0:
10,226,110355,5,0,1:0:0:0:
83,250,110467,1,0,0:0:0:0:
109,321,110579,1,0,1:0:0:0:
63,383,110691,1,0,0:0:0:0:
10,226,110803,6,0,B|17:211|30:197|30:197|5:168|13:126,2,110,0|0|0,1:0|0:0|0:0,0:0:0:0:
206,159,111139,1,0,0:0:0:0:
175,88,111251,1,0,3:0:0:0:
110,136,111363,1,0,3:0:0:0:
67,71,111475,1,0,0:0:0:0:
13,128,111587,1,0,0:0:0:0:
203,226,111699,6,0,B|196:263|196:263|186:304|154:326,2,110,0|0|0,1:0|0:0|0:0,0:0:0:0:
256,104,112035,1,0,3:0:0:0:
309,226,112147,2,0,B|316:263|316:263|326:304|358:326,1,110,0|0,1:0|0:0,0:0:0:0:
456,235,112370,1,0,1:0:0:0:
388,121,112482,1,0,0:0:0:0:
146,110,112594,6,0,B|172:126|202:117|202:117|221:212|313:227|313:227,1,220,0|0,1:0|0:0,0:0:0:0:
85,148,112930,1,0,0:0:0:0:
14,264,113042,5,0,3:0:0:0:
82,228,113154,1,0,3:0:0:0:
83,151,113266,1,0,0:0:0:0:
16,112,113378,1,0,0:0:0:0:
134,290,113490,6,0,P|169:323|230:332,2,110,0|0|0,1:0|0:0|0:0,0:0:0:0:
205,92,113826,1,0,3:0:0:0:
249,147,113938,2,0,P|242:204|183:256,1,110,0|0,1:0|0:0,0:0:0:0:
134,290,114161,1,0,1:0:0:0:
142,213,114273,1,0,0:0:0:0:
312,227,114385,6,0,P|352:188|413:169,1,110,0|0,1:0|0:0,0:0:0:0:
476,192,114609,1,0,0:0:0:0:
488,267,114721,1,0,0:0:0:0:
433,321,114833,5,0,3:0:0:0:
359,299,114945,1,0,3:0:0:0:
288,329,115057,1,0,0:0:0:0:
359,299,115169,1,0,0:0:0:0:
288,329,115281,5,0,3:0:0:0:
214,304,115393,1,0,3:0:0:0:
143,334,115505,1,0,0:0:0:0:
214,304,115617,1,0,0:0:0:0:
143,334,115729,5,0,1:0:0:0:
69,309,115841,1,0,3:0:0:0:
7,353,115952,2,0,P|33:303|-2:235,1,110,0|0,3:0|0:0,0:0:0:0:
219,226,116176,5,4,3:1:0:0:
219,226,116288,1,0,0:0:0:0:
417,200,116512,1,0,0:0:0:0:
445,271,116624,2,0,P|406:276|351:233,1,76.9999976501466,8|0,1:0|0:0,0:0:0:0:
361,275,116848,1,0,0:0:0:0:
331,76,117072,6,0,B|348:137|326:185|326:185|298:179|278:146,1,153.999995300293,0|0,3:0|0:0,0:0:0:0:
227,69,117408,1,0,0:0:0:0:
219,142,117520,2,0,P|179:156|148:183,1,76.9999976501466,0|0,1:0|0:0,0:0:0:0:
144,164,117744,1,0,0:0:0:0:
14,17,117967,5,0,3:0:0:0:
33,11,118079,1,0,0:0:0:0:
227,69,118303,1,0,0:0:0:0:
220,91,118415,2,0,B|265:67|316:86|316:86|348:86|376:65,1,153.999995300293,0|0,1:0|0:0,0:0:0:0:
417,20,118751,1,0,0:0:0:0:
367,148,118863,6,0,L|335:240,1,76.9999976501466,0|0,3:0|0:0,0:0:0:0:
274,238,119087,1,0,0:0:0:0:
277,262,119199,1,0,0:0:0:0:
405,283,119311,2,0,P|448:292|500:331,1,76.9999976501466,0|0,1:0|0:0,0:0:0:0:
486,292,119535,1,0,0:0:0:0:
290,330,119758,5,0,3:0:0:0:
299,347,119870,1,0,0:0:0:0:
99,358,120094,1,0,0:0:0:0:
161,313,120206,2,0,P|123:285|60:292,1,76.9999976501466,8|0,1:0|0:0,0:0:0:0:
131,213,120430,1,0,0:0:0:0:
146,204,120542,1,0,0:0:0:0:
239,93,120654,6,0,P|235:137|201:182,2,76.9999976501466,0|0|0,3:0|0:0|0:0,0:0:0:0:
82,105,120990,2,0,P|123:116|161:111,1,76.9999976501466,0|0,0:0|1:0,0:0:0:0:
336,22,121326,1,0,0:0:0:0:
348,36,121438,1,0,0:0:0:0:
363,134,121549,5,0,3:0:0:0:
404,112,121661,1,0,0:0:0:0:
450,116,121773,1,0,0:0:0:0:
488,140,121885,1,0,0:0:0:0:
420,195,121997,2,0,B|394:214|394:214|462:213|497:257|462:277|425:256,1,153.999995300293,0|0,1:0|0:0,0:0:0:0:
326,237,122333,1,0,0:0:0:0:
256,308,122445,5,0,3:0:0:0:
90,194,122669,1,0,0:0:0:0:
55,205,122781,1,0,0:0:0:0:
63,128,122893,2,0,L|86:50,1,76.9999976501466,0|0,1:0|0:0,0:0:0:0:
48,52,123117,1,0,0:0:0:0:
241,104,123341,5,0,3:0:0:0:
264,88,123453,1,0,0:0:0:0:
457,140,123677,1,0,0:0:0:0:
484,126,123789,2,0,P|450:102|427:61,1,76.9999976501466,8|0,1:0|0:0,0:0:0:0:
427,5,124013,1,0,0:0:0:0:
238,135,124237,6,0,P|314:132|392:168,1,153.999995300293,0|0,3:0|0:0,0:0:0:0:
222,151,124573,1,0,0:0:0:0:
263,276,124685,2,0,P|280:241|269:189,1,76.9999976501466,0|0,1:0|0:0,0:0:0:0:
209,226,124909,1,0,0:0:0:0:
56,97,125132,5,0,3:0:0:0:
35,109,125244,1,0,0:0:0:0:
234,94,125468,1,0,0:0:0:0:
239,67,125580,2,0,B|212:72|187:64|187:64|172:116|117:132,1,153.999995300293,0|0,1:0|0:0,0:0:0:0:
263,44,125916,1,0,0:0:0:0:
222,151,126028,6,0,L|245:250,1,76.9999976501466,0|0,3:0|0:0,0:0:0:0:
192,283,126252,1,0,0:0:0:0:
209,305,126364,1,0,0:0:0:0:
349,259,126476,2,0,P|311:268|275:299,1,76.9999976501466,0|0,1:0|0:0,0:0:0:0:
374,270,126700,1,0,0:0:0:0:
499,115,126923,5,0,3:0:0:0:
483,140,127035,1,0,0:0:0:0:
289,89,127259,1,0,0:0:0:0:
295,69,127371,2,0,P|312:104|357:140,1,76.9999976501466,8|0,1:0|0:0,0:0:0:0:
391,43,127595,1,0,0:0:0:0:
390,18,127707,1,0,0:0:0:0:
206,48,127819,6,0,P|168:46|123:16,2,76.9999976501466,0|0|0,3:0|0:0|0:0,0:0:0:0:
267,181,128155,2,0,P|260:143|239:112,1,76.9999976501466,0|0,0:0|1:0,0:0:0:0:
69,220,128491,1,0,0:0:0:0:
88,232,128603,1,0,0:0:0:0:
166,292,128714,5,0,3:0:0:0:
205,267,128826,1,0,0:0:0:0:
251,270,128938,1,0,0:0:0:0:
288,296,129050,1,0,0:0:0:0:
397,261,129162,2,0,L|438:155,2,76.9999976501466,0|0|0,1:0|0:0|0:0,0:0:0:0:
370,335,129498,1,0,0:0:0:0:
332,242,129610,5,0,3:0:0:0:
338,196,129721,1,0,0:0:0:0:
293,183,129833,1,0,0:0:0:0:
302,137,129945,1,0,0:0:0:0:
234,119,130057,5,0,3:0:0:0:
263,56,130169,1,0,3:0:0:0:
180,73,130281,5,0,3:0:0:0:
96,60,130393,1,0,3:0:0:0:
22,15,130505,1,4,3:1:0:0:
128,244,130952,6,0,B|148:252|166:247|166:247|126:291|171:365|235:301|235:301|276:264|336:276|381:293|424:326|408:372|408:372|352:365|339:300,1,527.999983886719,8|2,0:2|0:0,0:0:0:0:
256,192,132072,5,2,0:0:0:0:
233,303,132296,6,0,B|184:362|74:310|186:186|256:192|256:192|227:249|125:283|101:208|101:208|71:123|139:48|241:12|351:29|415:100|437:235|331:307,1,1055.99996777344
256,192,134535,12,0,135878,0:0:0:0:
227,13,137669,5,2,0:0:0:0:
123,120,138564,5,2,0:0:0:0:
336,110,139460,5,2,0:0:0:0:
493,363,140355,5,2,0:0:0:0:
286,321,141251,5,2,0:0:0:0:
413,183,142147,5,2,0:0:0:0:
108,179,143042,6,0,P|140:176|171:186,1,65.9999979858399,2|0,0:0|0:0,0:0:0:0:
291,115,143266,2,0,P|261:132|238:159,1,65.9999979858399
401,204,143490,2,0,P|368:206|337:196,1,65.9999979858399
219,269,143714,2,0,P|249:252|272:225,1,65.9999979858399
169,49,143938,6,0,P|182:89|179:134,1,65.9999979858399
343,335,144161,2,0,P|330:295|333:250,1,65.9999979858399
112,307,144385,2,0,P|131:276|176:242,1,65.9999979858399
400,77,144609,2,0,P|381:108|336:142,1,65.9999979858399
256,192,144833,6,0,P|174:152|128:78,1,165
133,92,145281,2,0,B|128:122|128:122|103:92,1,55,2|0,0:0|0:0,0:0:0:0:
91,34,145505,1,0,0:0:0:0:
12,153,145729,1,0,0:0:0:0:
437,11,146624,5,0,0:0:0:0:
284,253,147072,2,0,B|312:253|312:253|298:281,1,55,2|0,0:0|0:0,0:0:0:0:
233,306,147296,1,0,0:0:0:0:
359,373,147520,1,2,0:0:0:0:
66,356,148415,5,0,0:0:0:0:
133,77,148863,2,0,B|111:101|111:101|148:111,1,55,2|0,0:0|0:0,0:0:0:0:
203,91,149087,1,0,0:0:0:0:
120,208,149311,1,2,0:0:0:0:
120,208,150206,5,0,0:0:0:0:
255,162,150430,1,0,0:0:0:0:
389,173,150542,1,0,0:0:0:0:
384,152,150654,2,0,B|376:160|382:185|382:185|363:147|316:135,1,110,2|0,0:0|0:0,0:0:0:0:
110,137,151214,1,0,0:0:0:0:
176,164,151326,2,0,P|191:141|198:114,1,55
199,115,151661,6,0,P|239:183|319:212,1,165,2|0,0:0|0:0,0:0:0:0:
41,293,152445,2,0,B|12:291|12:291|17:333,1,55,2|0,0:0|0:0,0:0:0:0:
75,356,152669,1,0,0:0:0:0:
175,254,152893,1,0,0:0:0:0:
384,351,153788,5,0,0:0:0:0:
278,85,154236,2,0,B|296:64|296:64|316:85,1,55,2|2,0:0|0:0,0:0:0:0:
293,152,154460,1,0,0:0:0:0:
418,83,154684,1,2,0:0:0:0:
94,83,155579,5,0,0:0:0:0:
363,179,156027,2,0,B|347:169|339:155|339:155|301:144|263:159,1,110,2|0,0:0|0:0,0:0:0:0:
404,122,156475,1,2,0:0:0:0:
264,158,157370,5,2,0:0:0:0:
424,308,157594,1,0,0:0:0:0:
264,158,157818,1,2,0:0:0:0:
49,206,158042,1,0,0:0:0:0:
43,208,158266,5,0,0:0:0:0:
51,239,158377,1,0,0:0:0:0:
70,266,158489,1,0,0:0:0:0:
96,286,158601,1,0,0:0:0:0:
127,296,158713,1,0,0:0:0:0:
160,295,158825,1,0,0:0:0:0:
191,284,158937,1,0,0:0:0:0:
216,263,159049,1,0,0:0:0:0:
256,192,159161,5,4,0:1:0:0:
481,120,159497,1,2,0:0:0:0:
503,148,159609,1,0,0:0:0:0:
351,105,159833,1,2,0:0:0:0:
395,255,160057,2,0,P|412:174|344:103,1,181.500005538941,2|2,0:0|0:0,0:0:0:0:
265,37,160505,2,0,P|292:87|366:102,1,121.000003692627,0|2,0:0|0:0,0:0:0:0:
347,25,160841,1,0,0:0:0:0:
185,42,160952,6,0,P|158:32|111:24,2,60.5000018463135,2|0|0,0:0|0:0|0:0,0:0:0:0:
183,121,161288,1,2,0:0:0:0:
164,126,161400,2,0,P|181:153|192:179,1,60.5000018463135
149,246,161624,1,2,0:0:0:0:
388,281,161848,6,0,P|370:251|361:227,1,60.5000018463135,2|0,0:0|0:0,0:0:0:0:
419,173,162072,1,0,0:0:0:0:
459,240,162184,1,2,0:0:0:0:
409,179,162296,2,0,P|427:154|441:123,1,60.5000018463135
417,50,162520,1,2,0:0:0:0:
193,142,162744,5,2,0:0:0:0:
168,141,162855,2,0,P|174:171|173:212,1,60.5000018463135
114,94,163079,1,2,0:0:0:0:
96,110,163191,2,0,B|81:125|81:125|85:66|38:31,1,121.000003692627,0|2,0:0|0:0,0:0:0:0:
41,279,163639,5,2,0:0:0:0:
21,348,163751,1,0,0:0:0:0:
75,300,163863,2,0,P|94:292|134:292,1,60.5000018463135,0|2,0:0|0:0,0:0:0:0:
203,313,164087,1,0,0:0:0:0:
323,103,164311,5,2,0:0:0:0:
359,165,164423,1,2,0:0:0:0:
390,230,164535,2,0,B|406:223|424:231|424:231|375:264|312:215,1,121.000003692627
152,145,164870,1,0,0:0:0:0:
206,97,164982,6,0,P|258:86|349:122,2,121.000003692627,2|0|0,0:0|0:0|0:0,0:0:0:0:
255,203,165542,1,2,0:0:0:0:
223,210,165654,2,0,P|192:197|168:153,1,60.5000018463135
79,286,165990,2,0,P|152:239|151:152,1,181.500005538941,2|2,0:0|0:0,0:0:0:0:
344,301,166550,6,0,P|356:326|372:371,2,60.5000018463135,0|2|0,0:0|0:0|0:0,0:0:0:0:
440,192,166997,1,2,0:0:0:0:
373,63,167221,6,0,P|404:57|458:52,2,60.5000018463135,2|0|0,0:0|0:0|0:0,0:0:0:0:
301,84,167557,1,2,0:0:0:0:
184,76,167669,2,0,P|243:86|303:88,1,121.000003692627,0|2,0:0|0:0,0:0:0:0:
147,18,168005,1,0,0:0:0:0:
121,118,168117,6,0,P|107:144|90:170,2,60.5000018463135,2|0|0,0:0|0:0|0:0,0:0:0:0:
76,55,168452,1,2,0:0:0:0:
257,226,168564,2,0,P|196:220|137:229,1,121.000003692627,0|2,0:0|0:0,0:0:0:0:
399,260,169012,5,2,0:0:0:0:
255,95,169348,1,2,0:0:0:0:
247,74,169684,2,0,P|259:111|279:152,1,60.5000018463135,2|0,0:0|0:0,0:0:0:0:
298,197,169908,6,0,P|280:228|261:269,2,60.5000018463135,2|0|0,0:0|0:0|0:0,0:0:0:0:
298,197,170244,1,2,0:0:0:0:
464,57,170579,1,2,0:0:0:0:
380,191,170803,6,0,P|373:228|377:275,2,60.5000018463135,2|0|0,0:0|0:0|0:0,0:0:0:0:
501,298,171139,1,2,0:0:0:0:
501,298,171251,2,0,P|470:307|443:312,1,60.5000018463135
445,238,171475,1,2,0:0:0:0:
445,238,171587,1,0,0:0:0:0:
372,321,171699,5,2,0:0:0:0:
187,207,172035,1,2,0:0:0:0:
23,349,172370,1,2,0:0:0:0:
167,359,172594,5,2,0:0:0:0:
176,315,172706,1,2,0:0:0:0:
215,313,172818,1,2,0:0:0:0:
232,290,172930,1,2,0:0:0:0:
233,269,173042,1,2,0:0:0:0:
227,255,173154,1,2,0:0:0:0:
221,249,173266,1,2,0:0:0:0:
215,249,173378,1,2,0:0:0:0:
127,268,173490,5,4,0:1:0:0:
162,113,173714,1,0,0:0:0:0:
160,139,173826,1,2,0:0:0:0:
148,162,173938,2,0,P|104:174|64:164,1,65.9999979858399,0|0,3:2|0:0,0:0:0:0:
21,134,174161,1,2,0:0:0:0:
237,38,174385,6,0,P|309:39|381:76,1,131.99999597168,2|0,3:2|0:2,0:2:0:0:
379,83,174721,1,2,0:2:0:0:
392,105,174833,2,0,P|407:147|413:182,1,65.9999979858399,0|0,3:2|0:2,0:2:0:0:
423,255,175057,1,2,0:2:0:0:
451,237,175169,1,0,0:2:0:0:
342,207,175281,6,0,L|263:205,1,65.9999979858399,2|0,3:2|0:2,0:2:0:0:
140,204,175505,1,0,0:2:0:0:
160,204,175617,1,2,0:2:0:0:
180,204,175729,1,0,3:2:0:0:
276,126,175952,6,0,L|369:128,1,65.9999979858399,2|0,0:2|0:2,0:2:0:0:
420,128,176176,1,2,3:2:0:0:
441,138,176288,1,0,0:2:0:0:
330,304,176512,1,2,0:2:0:0:
309,291,176624,1,0,3:2:0:0:
194,124,176848,1,2,0:2:0:0:
177,143,176960,1,0,0:2:0:0:
176,222,177072,6,0,P|170:258|153:298,2,65.9999979858399,2|0|0,3:2|0:2|0:2,0:2:0:0:
96,224,177408,1,2,0:2:0:0:
97,94,177520,2,0,P|102:121|141:165,1,65.9999979858399,0|0,3:2|0:2,0:2:0:0:
203,146,177744,1,2,0:2:0:0:
420,128,177967,6,0,P|388:116|339:117,2,65.9999979858399,2|0|0,3:2|0:2|0:2,0:2:0:0:
472,64,178303,1,2,0:2:0:0:
464,40,178415,1,0,3:2:0:0:
336,180,178639,5,2,0:2:0:0:
344,207,178751,1,0,0:2:0:0:
341,281,178863,6,0,P|334:313|316:340,1,65.9999979858399,2|0,3:2|0:2,0:2:0:0:
240,313,179087,1,0,0:2:0:0:
203,253,179199,1,2,0:2:0:0:
272,237,179311,1,0,3:2:0:0:
321,110,179535,5,2,0:2:0:0:
307,94,179647,1,0,0:2:0:0:
307,68,179758,2,0,P|324:29|357:1,2,65.9999979858399,2|0|0,3:2|0:2|0:2,0:2:0:0:
386,78,180094,1,2,0:2:0:0:
240,74,180206,2,0,P|206:84|174:119,2,65.9999979858399,0|0|2,3:2|0:2|0:2,0:2:0:0:
244,153,180542,1,0,0:2:0:0:
181,217,180654,5,2,3:2:0:0:
202,234,180766,1,0,0:2:0:0:
441,227,180990,1,2,0:2:0:0:
420,209,181102,1,0,3:2:0:0:
285,337,181326,1,2,0:2:0:0:
92,209,181550,6,0,P|123:208|160:188,1,71.4999967269899,2|0,3:2|0:2,0:2:0:0:
420,209,181885,2,0,P|389:208|352:188,1,71.4999967269899,2|0,0:2|3:2,0:2:0:0:
256,24,182221,5,2,0:2:0:0:
256,92,182333,1,0,0:2:0:0:
256,160,182445,2,0,B|254:187|254:187|259:210|259:210|255:236,1,76.9999976501466,2|0,3:2|0:2,0:2:0:0:
149,328,182669,5,0,0:2:0:0:
170,351,182781,1,2,0:2:0:0:
193,369,182893,2,0,B|218:354|240:354|240:354|291:381|355:349,1,153.999995300293,0|2,3:2|0:2,0:2:0:0:
480,114,183341,5,2,3:2:0:0:
67,73,183676,1,2,0:2:0:0:
435,266,184012,1,2,0:2:0:0:
140,224,184236,6,0,B|117:236|117:236|89:227|46:243,2,82.5000031471254,2|0|0,3:2|0:2|0:2,0:2:0:0:
90,148,184572,1,2,0:2:0:0:
179,160,184684,2,0,P|207:248|113:296,1,165.000006294251,0|2,3:2|0:2,0:2:0:0:
399,215,185132,5,2,3:2:0:0:
48,332,185467,2,0,L|233:270,1,165.000006294251,2|0,0:2|0:2,0:2:0:0:
323,241,185803,5,2,0:2:0:0:
269,197,185915,1,2,0:2:0:0:
318,374,186027,6,0,P|291:351|282:292,1,88,2|0,3:2|0:2,0:2:0:0:
323,241,186251,1,0,0:2:0:0:
391,255,186363,1,2,0:2:0:0:
254,122,186475,6,0,P|287:110|343:131,1,88,0|0,3:2|0:2,0:2:0:0:
366,192,186699,1,2,0:2:0:0:
320,244,186811,1,0,0:2:0:0:
508,199,186923,6,0,P|501:233|454:271,1,88,2|0,3:2|0:2,0:2:0:0:
391,260,187147,1,0,0:2:0:0:
369,195,187259,1,2,0:2:0:0:
215,196,187370,6,0,P|244:162|250:98,1,88,0|0,3:2|0:2,0:2:0:0:
97,86,187594,2,0,P|106:131|137:168,1,88,2|0,0:2|0:2,0:2:0:0:
256,268,187818,5,8,3:3:0:0:
423,190,188154,1,2,0:0:0:0:
415,222,188266,2,0,B|390:198|387:161|387:161|407:118|380:43,1,153.999995300293,0|2,3:0|0:0,0:0:0:0:
195,28,188714,1,2,3:2:0:0:
161,47,188826,1,0,0:0:0:0:
292,198,189050,1,2,0:0:0:0:
299,160,189161,1,0,3:2:0:0:
105,212,189385,5,2,0:0:0:0:
95,251,189497,1,0,0:0:0:0:
87,288,189609,2,0,P|64:246|27:226,1,76.9999976501466,2|0,3:2|0:0,0:0:0:0:
266,284,189945,2,0,P|298:268|331:236,1,76.9999976501466,2|0,0:0|3:2,0:0:0:0:
200,64,190281,1,2,0:0:0:0:
389,167,190505,6,0,P|400:126|401:64,2,76.9999976501466,2|0|0,3:2|0:0|0:0,0:0:0:0:
320,152,190841,1,2,0:0:0:0:
299,217,190952,2,0,P|262:213|188:184,2,76.9999976501466,0|0|2,3:2|0:0|0:0,0:0:0:0:
320,152,191288,1,0,0:0:0:0:
197,87,191400,5,2,3:2:0:0:
229,77,191512,2,0,B|213:116|180:128|180:128|144:160|140:199,1,153.999995300293,0|2,0:0|0:0,0:0:0:0:
184,295,191848,1,0,3:2:0:0:
79,106,192072,5,2,0:0:0:0:
70,76,192184,1,0,0:0:0:0:
58,47,192296,2,0,P|54:81|29:118,1,76.9999976501466,2|0,3:2|0:0,0:0:0:0:
250,41,192632,2,0,P|287:40|342:25,1,76.9999976501466,2|0,0:0|3:2,0:0:0:0:
495,164,192967,5,2,0:0:0:0:
466,151,193079,1,0,0:0:0:0:
435,146,193191,2,0,P|403:153|358:202,1,76.9999976501466,2|0,3:2|0:0,0:0:0:0:
343,308,193415,1,0,0:0:0:0:
374,302,193527,1,2,0:0:0:0:
402,288,193639,2,0,P|423:263|431:197,1,76.9999976501466,0|0,3:2|0:0,0:0:0:0:
311,239,193863,1,2,0:0:0:0:
71,298,194087,5,2,3:2:0:0:
61,268,194199,1,0,0:0:0:0:
211,72,194423,1,2,0:0:0:0:
238,87,194535,1,0,3:2:0:0:
25,121,194758,1,2,0:0:0:0:
217,249,194982,6,0,P|202:290|170:322,1,82.5000031471254,2|0,3:2|0:2,0:2:0:0:
168,180,195206,2,0,P|150:139|154:90,1,82.5000031471254,0|2,3:2|0:2,0:2:0:0:
293,233,195430,2,0,P|329:273|339:326,1,82.5000031471254,0|0,3:2|0:2,0:2:0:0:
248,155,195654,2,0,P|259:120|291:87,1,82.5000031471254,2|0,3:2|0:2,0:2:0:0:
486,68,195878,6,0,P|440:103|373:122,1,82.5000031471254,2|0,3:2|0:2,0:2:0:0:
422,212,196102,2,0,P|372:185|333:175,1,82.5000031471254,0|2,3:2|0:2,0:2:0:0:
166,161,196326,2,0,P|207:162|248:155,1,82.5000031471254,0|0,3:2|0:2,0:2:0:0:
291,83,196550,1,2,3:2:0:0:
256,12,196661,1,2,0:2:0:0:
166,161,196773,6,0,P|126:202|88:222,1,88,2|0,3:2|0:2,0:2:0:0:
157,275,196997,2,0,P|134:318|106:404,1,88,0|2,3:2|0:2,0:2:0:0:
244,238,197221,2,0,P|248:194|263:153,1,88,0|0,3:2|0:2,0:2:0:0:
326,263,197445,2,0,P|345:321|344:366,1,88,2|0,3:2|0:2,0:2:0:0:
512,200,197669,6,0,P|429:176|369:113,1,176,2|0,3:2|3:2,0:2:0:0:
458,70,198005,1,2,0:2:0:0:
296,70,198117,6,0,B|277:60|256:58|256:58|227:70|189:56,1,88,0|0,3:2|0:2,0:2:0:0:
23,98,198341,2,0,B|42:108|63:110|63:110|92:98|130:112,1,88,2|0,3:2|0:2,0:2:0:0:
201,162,198564,6,0,B|245:212|253:276|219:309|167:304|160:262,1,187.000003566742,4|2,0:3|0:2,0:2:0:0:
105,212,198900,1,0,0:2:0:0:
25,260,199012,2,0,P|65:303|66:335,1,93.500001783371,2|0,3:2|0:2,0:2:0:0:
65,335,199236,2,0,P|105:335|154:367,1,93.500001783371,2|0,0:2|0:2,0:2:0:0:
243,355,199460,2,0,P|285:331|302:274,1,93.500001783371,2|0,3:2|0:2,0:2:0:0:
300,215,199684,1,0,0:2:0:0:
262,150,199796,1,2,0:2:0:0:
383,159,199908,2,0,P|434:157|486:123,1,93.500001783371,0|0,3:2|0:2,0:2:0:0:
501,68,200132,1,2,0:2:0:0:
448,14,200244,1,0,0:2:0:0:
381,56,200355,6,0,P|363:77|321:100,1,49.4999984893799,2|0,3:2|0:0,0:0:0:0:
339,76,200468,2,0,P|314:88|266:91,1,49.4999984893799
291,73,200579,2,0,P|264:74|219:56,1,49.4999984893799
250,51,200691,2,0,P|225:40|192:5,1,49.4999984893799,2|0,2:0|2:0,2:0:0:0:
226,18,200803,6,0,P|199:14|153:25,1,49.4999984893799
182,32,200915,2,0,P|156:39|119:69,1,49.4999984893799
148,67,201027,2,0,P|128:84|107:127,1,49.4999984893799,2|0,0:0|0:0,0:0:0:0:
133,110,201139,2,0,P|123:134|122:183,1,49.4999984893799,0|0,2:0|2:0,2:0:0:0:
118,249,201250,5,2,0:2:0:0:
172,333,201363,1,2,0:2:0:0:
266,359,201474,1,2,0:2:0:0:
364,341,201587,1,2,0:2:0:0:
445,286,201698,1,2,3:2:0:0:
479,193,201810,1,2,3:2:0:0:
450,98,201922,1,2,3:2:0:0:
368,41,202034,1,2,3:2:0:0:
256,192,202147,5,4,3:3:0:0:
256,192,202258,2,0,B|221:160|219:85|287:49|287:49|257:57|222:46,1,220,0|2,0:0|0:0,0:0:0:0:
148,25,202594,1,0,1:0:0:0:
349,137,202818,6,0,P|309:123|332:157,1,110
415,190,203042,1,2,1:2:0:0:
400,268,203154,2,0,B|464:277|509:224|487:161|487:161|523:218,1,220,0|2,0:0|0:0,0:0:0:0:
443,89,203490,1,0,1:0:0:0:
190,265,203714,5,2,0:0:0:0:
120,287,203826,1,2,0:0:0:0:
53,252,203938,1,2,1:2:0:0:
42,177,204050,2,0,B|17:98|148:65|201:182,1,220,2|2,0:0|0:0,0:0:0:0:
246,226,204385,1,0,1:0:0:0:
428,35,204609,5,0,0:0:0:0:
414,110,204721,1,0,0:0:0:0:
279,36,204833,2,0,B|301:68|346:81|346:81|301:86,1,110,2|0,1:2|0:0,0:0:0:0:
189,47,205057,1,0,0:0:0:0:
119,106,205169,1,2,0:0:0:0:
139,199,205281,2,0,B|181:189|206:146|206:146|211:182,2,110,0|0|0,1:0|0:0|0:0,0:0:0:0:
152,283,205617,1,0,0:0:0:0:
400,236,205729,6,0,P|361:207|282:197,1,110,2|0,1:2|0:0,0:0:0:0:
232,239,205952,1,0,0:0:0:0:
261,319,206064,1,2,0:0:0:0:
152,283,206176,2,0,B|36:309|-21:249|30:182,1,220,2|0,1:2|0:0,0:0:0:0:
74,123,206512,1,0,0:0:0:0:
262,119,206624,6,0,B|271:92|271:92|227:75|220:27,2,110,2|2|0,1:2|0:0|0:0,0:0:0:0:
237,205,206960,1,2,0:0:0:0:
303,18,207072,2,0,B|387:-7|475:27|488:115,1,220,0|2,1:0|0:0,0:0:0:0:
502,185,207408,1,2,0:0:0:0:
299,177,207520,6,0,B|307:212|295:230|295:230|319:251|317:283,1,110,2|0,1:2|0:0,0:0:0:0:
226,236,207744,1,2,0:0:0:0:
374,216,207855,1,2,0:0:0:0:
65,248,207967,6,0,B|78:234|113:270|113:270|122:220|122:220|159:260|226:236,1,220,2|2,1:2|0:0,0:0:0:0:
371,213,208303,1,0,0:0:0:0:
187,152,208415,5,2,1:2:0:0:
279,332,208527,2,0,B|376:358|441:278|374:217,1,220,0|2,0:0|0:0,0:0:0:0:
432,48,208863,2,0,P|422:106|377:143,1,110,0|2,1:0|0:0,0:0:0:0:
256,113,209087,1,0,0:0:0:0:
364,19,209199,1,0,0:0:0:0:
299,177,209311,5,2,1:2:0:0:
256,232,209423,2,0,B|219:281|251:356|251:356|202:375|174:304,1,220,0|2,0:0|0:2,0:0:0:0:
167,242,209758,1,0,1:0:0:0:
340,318,209982,2,0,P|317:282|356:298,1,110
432,172,210206,6,0,B|403:102|288:56|288:176|179:142|160:64,1,330,2|2,1:2|0:0,0:0:0:0:
238,53,210654,1,0,1:0:0:0:
370,200,210878,5,2,0:0:0:0:
443,292,210990,1,2,0:0:0:0:
348,344,211102,1,0,1:0:0:0:
369,271,211214,2,0,B|281:232|132:361|311:338,1,220,0|2,0:0|0:0,0:0:0:0:
191,237,211549,1,0,1:0:0:0:
16,110,211773,6,0,B|6:76|33:54|33:54|18:24|-11:67,1,110
186,63,211997,2,0,B|132:80|97:60|97:60|139:49,1,110,2|0,1:2|0:0,0:0:0:0:
250,26,212221,1,0,0:0:0:0:
238,134,212333,1,2,0:0:0:0:
401,77,212445,2,0,B|352:68|312:97|312:97|340:100,1,110,0|0,1:0|0:0,0:0:0:0:
334,239,212669,2,0,B|378:217|381:167|381:167|356:187,1,110
120,328,212893,6,0,P|179:325|247:285,1,110,2|0,1:2|0:0,0:0:0:0:
257,207,213117,1,0,0:0:0:0:
265,229,213229,1,2,0:0:0:0:
463,306,213340,2,0,B|514:262|439:176|340:169,1,220,0|0,1:0|0:0,0:0:0:0:
268,214,213676,1,0,0:0:0:0:
177,235,213788,6,0,B|95:254|46:211|55:139|55:139|93:158,1,220,2|0,1:2|0:0,0:0:0:0:
120,328,214124,1,2,0:0:0:0:
120,328,214236,1,0,1:0:0:0:
210,24,214460,1,2,0:0:0:0:
262,68,214572,1,2,0:0:0:0:
138,70,214684,6,0,B|142:108|142:108|122:137|122:137|123:181,1,110,2|0,3:0|0:0,0:0:0:0:
217,96,214908,1,0,0:0:0:0:
246,93,215019,1,2,0:0:0:0:
294,248,215132,6,0,B|294:211|294:211|307:181|307:181|305:140,1,110,2|0,3:0|0:0,0:0:0:0:
230,195,215355,1,0,0:0:0:0:
201,198,215466,1,2,0:0:0:0:
218,285,215579,5,2,3:0:0:0:
283,243,215691,1,0,3:0:0:0:
289,320,215803,1,0,3:0:0:0:
227,361,215914,1,0,3:0:0:0:
210,203,216027,5,2,3:0:0:0:
145,253,216139,1,0,3:0:0:0:
155,336,216251,1,0,3:0:0:0:
218,285,216362,1,0,3:0:0:0:
117,146,216475,6,0,P|45:163|-12:211,1,110,6|0,1:2|0:0,0:0:0:0:
142,157,216699,1,0,0:0:0:0:
115,58,216811,1,2,0:0:0:0:
181,81,216923,2,0,P|240:80|316:34,1,110,8|0,1:2|0:0,0:0:0:0:
471,125,217147,2,0,P|411:118|341:80,1,110
290,30,217370,5,2,1:2:0:0:
317,28,217482,2,0,B|395:100|406:201|329:209|268:174,1,220,0|2,0:0|0:0,0:0:0:0:
195,106,217818,1,8,1:2:0:0:
449,263,218042,5,2,0:0:0:0:
370,297,218154,1,2,0:0:0:0:
299,251,218266,2,0,P|236:273|182:338,1,110,2|0,1:2|0:0,0:0:0:0:
117,198,218490,1,0,0:0:0:0:
197,206,218602,1,2,0:0:0:0:
55,351,218714,2,0,P|104:324|130:260,1,110,8|0,1:2|0:0,0:0:0:0:
32,102,218938,2,0,P|26:158|56:213,1,110
257,41,219161,5,2,1:2:0:0:
273,46,219273,2,0,B|298:54|298:54|289:122|160:154|97:103,1,220,2|2,0:0|0:0,0:0:0:0:
57,31,219609,1,8,1:2:0:0:
363,262,219833,2,0,P|347:205|291:156,1,110
164,40,220057,5,2,1:2:0:0:
137,122,220169,2,0,B|204:142|311:113|305:12,1,220,2|2,0:0|0:0,0:0:0:0:
244,196,220505,1,8,1:2:0:0:
490,60,220729,2,0,P|435:51|368:70,1,110
361,150,220952,5,2,1:2:0:0:
345,125,221064,2,0,B|302:210|341:290|446:332,1,220,2|2,0:0|0:0,0:0:0:0:
405,312,221400,1,8,1:2:0:0:
151,252,221624,5,2,0:0:0:0:
229,228,221736,1,2,0:0:0:0:
198,330,221848,2,0,P|143:347|85:310,1,110,2|0,1:2|0:0,0:0:0:0:
238,135,222072,2,0,P|268:95|351:87,1,110,2|2,0:0|0:0,0:0:0:0:
483,253,222296,6,0,B|472:264|472:264|455:261|455:261|441:270|441:270|379:266|325:214|315:152,1,220,10|0,1:2|0:0,0:0:0:0:
381,13,222632,1,0,0:0:0:0:
51,91,222744,1,2,1:2:0:0:
49,171,222855,2,0,P|140:202|251:60,1,220,2|2,0:0|0:0,0:0:0:0:
436,180,223191,1,8,1:2:0:0:
387,107,223303,2,0,P|343:75|289:70,1,110,2|0,0:0|0:0,0:0:0:0:
302,249,223527,1,2,0:0:0:0:
150,330,223639,6,0,B|121:317|121:317|91:340|34:332,1,110,2|0,1:2|0:0,0:0:0:0:
180,255,223863,1,0,0:0:0:0:
161,176,223975,1,2,0:0:0:0:
249,311,224087,2,0,P|295:315|346:352,1,110,8|0,1:2|0:0,0:0:0:0:
347,256,224311,2,0,P|340:207|371:144,1,110
491,247,224535,5,2,1:2:0:0:
510,274,224646,2,0,P|401:250|288:286,1,220,0|2,0:0|0:0,0:0:0:0:
240,321,224982,1,8,1:2:0:0:
16,246,225206,5,2,0:0:0:0:
68,313,225318,1,2,0:0:0:0:
175,132,225430,2,0,B|159:164|159:164|124:166|91:209,1,110,2|0,1:2|0:0,0:0:0:0:
111,71,225654,1,0,0:0:0:0:
173,10,225766,1,2,0:0:0:0:
242,57,225878,2,0,P|272:98|268:165,1,110,8|0,1:2|0:0,0:0:0:0:
341,77,226102,2,0,P|381:43|454:46,1,110,2|0,0:0|0:0,0:0:0:0:
509,83,226326,5,2,1:2:0:0:
509,83,226438,1,0,0:0:0:0:
167,249,226661,1,2,0:0:0:0:
275,237,226773,2,0,P|224:256|170:253,1,110,8|0,1:2|0:0,0:0:0:0:
280,318,226997,2,0,P|337:303|397:315,1,110
481,218,227221,5,2,1:2:0:0:
426,93,227333,2,0,B|401:85|382:64|382:64|296:103|215:56,1,220,0|2,0:0|0:0,0:0:0:0:
152,14,227669,1,8,1:2:0:0:
326,305,227893,2,0,P|320:253|262:182,1,110
25,259,228117,6,0,B|21:292|50:333|168:327|126:147|311:244|245:324,1,330,2|2,1:2|0:0,0:0:0:0:
155,370,228564,1,8,1:2:0:0:
80,69,228788,1,2,0:0:0:0:
152,14,228900,1,2,0:0:0:0:
281,69,229012,6,0,B|309:118|309:118|293:185,1,110,2|0,3:0|0:0,0:0:0:0:
216,231,229236,1,0,0:0:0:0:
216,231,229348,1,0,0:0:0:0:
216,231,229460,2,0,B|271:217|271:217|296:170,1,110,2|0,3:0|0:0,0:0:0:0:
194,123,229684,2,0,B|166:102|166:102|129:100|129:100|174:89,1,110
281,69,229908,5,2,3:0:0:0:
306,39,230020,1,0,3:0:0:0:
340,77,230132,1,0,3:0:0:0:
386,24,230244,1,0,3:0:0:0:
442,133,230355,5,2,3:0:0:0:
363,224,230467,1,0,3:0:0:0:
246,255,230579,1,0,3:0:0:0:
129,216,230691,1,0,3:0:0:0:
44,130,230803,6,0,P|32:65|57:22,1,110,6|0,1:2|0:0,0:0:0:0:
181,11,231027,1,0,0:0:0:0:
199,32,231139,1,2,0:0:0:0:
323,84,231251,2,0,P|268:80|199:130,1,110,8|0,1:2|0:0,0:0:0:0:
260,207,231475,1,2,0:0:0:0:
289,192,231587,1,2,0:0:0:0:
156,90,231698,5,2,1:2:0:0:
185,121,231811,2,0,B|175:152|186:178|186:178|112:230|124:331,1,220,0|2,0:0|0:0,0:0:0:0:
90,147,232147,1,8,1:2:0:0:
431,327,232370,1,2,0:0:0:0:
478,249,232482,1,2,0:0:0:0:
376,250,232594,6,0,B|348:265|348:265|321:235|264:243,2,110,2|0|0,1:2|0:0|0:0,0:0:0:0:
360,162,232930,1,2,0:0:0:0:
291,319,233042,2,0,P|234:308|200:260,1,110,8|0,1:2|0:0,0:0:0:0:
217,186,233266,1,2,0:0:0:0:
217,186,233378,1,2,0:0:0:0:
346,38,233489,5,2,1:2:0:0:
346,38,233602,2,0,B|311:67|311:67|252:28|180:64|180:64|139:29,1,220,0|2,0:0|0:0,0:0:0:0:
152,40,233937,1,8,1:2:0:0:
227,332,234161,6,0,P|254:284|249:231,1,110,2|2,0:0|0:0,0:0:0:0:
120,311,234385,1,2,1:2:0:0:
117,336,234497,2,0,P|68:253|111:125,1,220,0|2,0:0|0:0,0:0:0:0:
98,139,234833,1,8,1:2:0:0:
337,174,235057,6,0,P|300:214|249:231,1,110,2|2,0:0|0:0,0:0:0:0:
240,340,235280,1,2,1:2:0:0:
353,343,235393,2,0,B|374:343|405:314|388:276|353:246|312:225|247:231,1,220,0|2,0:0|0:0,0:0:0:0:
160,233,235728,1,8,1:2:0:0:
258,16,235952,5,2,0:0:0:0:
287,88,236064,1,2,0:0:0:0:
433,90,236176,2,0,P|403:45|352:28,1,110,2|0,1:2|0:0,0:0:0:0:
380,222,236400,2,0,P|345:156|371:97,1,110,0|2,0:0|0:0,0:0:0:0:
471,191,236624,2,0,P|450:293|327:309,1,220,8|2,1:2|0:0,0:0:0:0:
286,250,236960,1,2,0:0:0:0:
113,260,237072,5,2,1:2:0:0:
130,334,237184,2,0,P|234:340|286:250,1,220,0|2,0:0|0:0,0:0:0:0:
273,155,237519,1,8,1:2:0:0:
261,67,237632,1,0,0:0:0:0:
164,81,237744,2,0,B|146:86|131:81|131:81|124:90|124:90|100:82|55:98,1,110,2|2,0:0|0:0,0:0:0:0:
273,155,237967,6,0,B|291:150|306:155|306:155|313:146|313:146|337:154|381:137,1,110,6|0,1:2|0:0,0:0:0:0:
459,83,238191,1,0,0:0:0:0:
482,179,238303,1,2,0:0:0:0:
397,259,238415,2,0,P|344:271|311:314,1,110,8|0,1:2|0:0,0:0:0:0:
492,288,238639,1,0,0:0:0:0:
417,194,238751,1,0,0:0:0:0:
284,157,238863,6,0,B|257:141|257:141|271:108|249:61,2,110,2|0|0,1:2|0:0|0:0,0:0:0:0:
356,113,239199,1,2,0:0:0:0:
229,215,239311,2,0,B|207:203|207:203|166:228|105:204,1,110,8|0,1:2|0:0,0:0:0:0:
59,137,239535,1,2,0:0:0:0:
150,99,239647,1,2,0:0:0:0:
189,296,239758,6,0,P|142:340|84:348,1,110,6|0,1:2|0:0,0:0:0:0:
35,262,239982,1,0,0:0:0:0:
59,147,240094,1,2,0:0:0:0:
168,106,240206,2,0,P|219:91|300:115,1,110,8|0,1:2|0:0,0:0:0:0:
348,197,240430,1,0,0:0:0:0:
229,215,240542,1,0,0:0:0:0:
305,315,240654,5,2,1:2:0:0:
428,289,240766,1,0,0:0:0:0:
479,173,240878,1,0,0:0:0:0:
348,197,240990,1,2,0:0:0:0:
229,215,241102,2,0,P|176:179|160:102,1,110,8|0,1:2|0:0,0:0:0:0:
199,26,241326,1,0,0:0:0:0:
199,26,241438,1,0,0:0:0:0:
415,62,241550,5,6,1:2:0:0:
415,62,241661,2,0,P|361:74|291:113,2,110,0|0|2,0:0|0:0|0:0,0:0:0:0:
97,62,241997,2,0,P|151:74|221:113,1,110,8|0,1:2|0:0,0:0:0:0:
256,32,242221,1,0,0:0:0:0:
256,32,242333,1,0,0:0:0:0:
192,192,242445,5,6,1:2:0:0:
192,192,242557,2,0,P|136:235|70:258,2,110,0|0|2,0:0|0:0|0:0,0:0:0:0:
320,192,242893,2,0,P|376:235|442:258,1,110,8|0,1:2|0:0,0:0:0:0:
256,32,243117,1,2,0:0:0:0:
256,240,243229,1,2,0:0:0:0:
256,49,243341,6,0,P|235:67|212:109,1,55,2|0,1:2|0:0,0:0:0:0:
236,91,243453,2,0,P|224:116|221:164,1,55
239,139,243564,2,0,P|238:166|256:211,1,55
261,180,243676,2,0,P|272:205|307:238,1,55,0|0,2:0|2:0,2:0:0:0:
294,204,243788,6,0,P|298:231|287:277,1,55
280,248,243900,2,0,P|273:274|243:311,1,55
245,282,244012,2,0,P|228:302|185:323,1,55
202,297,244124,2,0,P|178:307|129:308,1,55,0|0,2:0|2:0,2:0:0:0:
130,282,244236,6,0,B|153:204|236:214|236:214|321:223|346:144,1,280.500005350113,2|2,0:0|0:0,0:0:0:0:
346,115,244684,5,2,0:0:0:0:
330,90,244796,5,2,0:0:0:0:
304,69,244908,5,2,0:0:0:0:
277,62,245020,5,2,0:0:0:0:
245,72,245132,6,0,B|180:138|99:125|99:125|107:81|177:82,1,230.99999295044,4|0,0:3|0:0,0:0:0:0:
166,192,245579,2,0,B|146:255|95:279|95:279|88:262|99:241,1,153.999995300293,2|2,3:3|0:0,0:0:0:0:
243,172,245915,1,0,0:0:0:0:
243,172,246027,2,0,P|273:194|325:201,1,76.9999976501466,0|0,3:2|0:0,0:0:0:0:
307,47,246251,2,0,P|320:86|306:126,2,76.9999976501466,0|0|2,0:0|0:0|3:2,0:0:0:0:
247,85,246587,1,2,0:0:0:0:
247,85,246699,1,2,0:0:0:0:
417,146,246923,5,2,3:2:0:0:
415,184,247035,2,0,B|384:154|384:154|403:229|361:293,1,153.999995300293,2|0,0:0|0:0,0:0:0:0:
174,163,247370,2,0,P|263:169|332:236,1,153.999995300293,2|0,3:3|0:0,0:0:0:0:
308,282,247706,1,0,0:0:0:0:
320,119,247818,2,0,P|322:87|347:37,1,76.9999976501466,2|0,3:2|0:0,0:0:0:0:
222,255,248042,2,0,P|221:289|179:364,2,76.9999976501466,0|0|2,0:0|0:0|3:2,0:0:0:0:
125,273,248378,1,2,0:0:0:0:
125,273,248490,1,2,0:0:0:0:
118,101,248714,5,2,3:2:0:0:
264,80,248826,2,0,P|194:71|77:144,1,153.999995300293,2|0,0:0|0:0,0:0:0:0:
407,74,249161,2,0,P|336:100|264:80,1,153.999995300293,2|0,3:3|0:0,0:0:0:0:
332,14,249497,1,0,0:0:0:0:
202,165,249609,5,2,3:2:0:0:
407,74,249721,2,0,P|397:160|330:218,1,153.999995300293,2|0,0:0|0:0,0:0:0:0:
352,207,250057,1,2,3:2:0:0:
43,49,250281,1,0,0:0:0:0:
116,17,250393,1,0,0:0:0:0:
87,134,250505,5,2,3:2:0:0:
110,147,250617,1,0,0:0:0:0:
118,170,250729,1,0,0:0:0:0:
126,253,250841,1,0,0:0:0:0:
196,208,250952,6,0,B|201:220|193:245|193:245|183:240|183:240|149:279|113:271|113:271|130:255,1,153.999995300293,2|0,3:3|0:0,0:0:0:0:
196,139,251288,1,0,0:0:0:0:
284,121,251400,5,2,3:2:0:0:
218,68,251512,1,0,0:0:0:0:
239,50,251624,1,0,0:0:0:0:
268,40,251736,1,0,0:0:0:0:
368,102,251848,5,2,3:2:0:0:
443,140,251960,1,0,0:0:0:0:
450,106,252072,1,0,0:0:0:0:
445,69,252184,1,0,0:0:0:0:
256,192,252296,5,4,3:3:0:0:
199,251,252744,5,0,3:2:0:0:
171,278,252855,1,0,0:0:0:0:
134,250,252967,1,0,0:0:0:0:
103,294,253079,1,0,0:0:0:0:
64,243,253191,1,2,3:2:0:0:
313,251,253639,5,0,3:2:0:0:
341,278,253750,1,0,0:0:0:0:
378,250,253862,1,0,0:0:0:0:
409,294,253974,1,0,0:0:0:0:
448,243,254086,1,2,3:2:0:0:
147,44,254535,5,0,3:2:0:0:
176,77,254646,1,0,0:0:0:0:
188,124,254758,1,0,0:0:0:0:
164,179,254870,1,0,0:0:0:0:
102,218,254982,1,2,3:2:0:0:
365,44,255430,5,0,3:2:0:0:
336,77,255541,1,0,0:0:0:0:
324,124,255653,1,0,0:0:0:0:
348,179,255765,1,0,0:0:0:0:
410,218,255877,1,2,3:2:0:0:
211,244,256326,5,0,3:2:0:0:
301,244,256437,1,0,0:0:0:0:
195,289,256549,1,0,0:0:0:0:
317,289,256661,1,0,0:0:0:0:
256,160,256773,1,2,3:2:0:0:
352,64,257221,6,0,B|393:64|416:96|416:96|384:96,1,93.500001783371,2|0,3:2|0:0,0:0:0:0:
160,64,257445,2,0,B|119:64|96:96|96:96|128:96,1,93.500001783371,2|0,0:0|0:0,0:0:0:0:
256,49,257669,6,0,P|277:67|300:109,1,49.4999984893799,2|0,3:2|0:0,0:0:0:0:
276,91,257781,2,0,P|288:116|291:164,1,49.4999984893799
273,139,257893,2,0,P|274:166|256:211,1,49.4999984893799
251,180,258005,2,0,P|240:205|205:238,1,49.4999984893799,0|0,2:0|2:0,2:0:0:0:
218,204,258117,6,0,P|214:231|225:277,1,49.4999984893799,2|0,0:0|0:0,0:0:0:0:
232,248,258229,2,0,P|239:274|269:311,1,49.4999984893799,2|0,0:0|0:0,0:0:0:0:
267,282,258341,2,0,P|284:302|327:323,1,49.4999984893799,2|0,0:0|0:0,0:0:0:0:
310,297,258452,2,0,P|334:307|383:308,1,49.4999984893799,2|0,2:0|2:0,2:0:0:0:
394,304,258564,5,2,0:0:0:0:
407,288,258676,1,0,0:0:0:0:
407,275,258788,1,0,0:0:0:0:
403,267,258900,1,0,0:0:0:0:
395,253,259012,1,2,0:0:0:0:
403,222,259124,1,2,0:0:0:0:
441,197,259236,2,0,P|463:200|489:213,1,27.5,2|2,0:0|0:0,0:0:0:0:
410,320,259460,5,4,1:2:0:0:
249,271,259684,2,0,B|247:278|233:288|233:288|203:260|203:211,1,110
334,129,259908,2,0,B|352:132|352:132|330:176|281:185,1,110,0|0,3:0|0:0,0:0:0:0:
223,134,260132,1,0,0:0:0:0:
257,63,260244,1,0,0:0:0:0:
60,35,260355,5,0,1:0:0:0:
60,35,260467,2,0,B|98:61|98:61|61:97|61:97|113:52|192:67,1,220,0|0,0:0|3:0,0:0:0:0:
259,66,260803,1,0,1:0:0:0:
246,142,260915,1,0,0:0:0:0:
319,117,261027,1,0,1:0:0:0:
339,42,261139,1,0,0:0:0:0:
486,55,261251,6,0,P|503:108|470:174,1,110,0|0,1:0|0:0,0:0:0:0:
427,208,261475,1,0,0:0:0:0:
351,191,261587,1,0,0:0:0:0:
418,349,261700,2,0,P|466:325|483:274,1,110,0|0,3:0|3:0,0:0:0:0:
424,212,261923,1,0,0:0:0:0:
373,269,262035,1,0,0:0:0:0:
243,230,262147,5,0,1:0:0:0:
243,230,262258,2,0,B|285:296|285:296|210:272|136:319,1,220,0|0,0:0|3:0,0:0:0:0:
68,208,262594,2,0,P|124:201|169:228,1,110,0|0,1:0|0:0,0:0:0:0:
70,280,262818,1,0,1:0:0:0:
59,300,262930,1,0,0:0:0:0:
36,313,263042,6,0,B|119:255|79:194|18:178|18:178|40:168|56:137,1,220,0|0,1:0|0:0,0:0:0:0:
71,138,263378,1,0,0:0:0:0:
85,108,263490,1,0,3:0:0:0:
83,75,263602,1,0,0:0:0:0:
61,50,263714,1,0,0:0:0:0:
32,33,263826,1,0,0:0:0:0:
169,145,263938,6,0,B|238:181|323:162|349:109|302:59,1,220,0|0,1:0|0:0,0:0:0:0:
241,41,264273,1,0,3:0:0:0:
398,99,264385,2,0,B|400:145|387:175|346:206,1,110,0|0,1:0|0:0,0:0:0:0:
415,245,264609,2,0,B|455:221|492:223|492:223|480:260,1,110,0|0,1:0|0:0,0:0:0:0:
193,287,264833,6,0,B|221:296|221:296|294:280|294:280|297:299|320:274|357:288,1,165,0|2,1:0|0:3,0:0:0:0:
120,187,265281,2,0,L|137:271,1,55,0|0,3:0|3:0,3:0:0:0:
200,185,265505,2,0,L|226:96,1,55,0|0,3:0|3:0,3:0:0:0:
104,115,265729,5,0,3:0:0:0:
130,64,265841,5,0,3:0:0:0:
190,32,265952,5,0,3:0:0:0:
278,34,266064,5,0,3:0:0:0:
365,75,266176,5,0,3:0:0:0:
394,179,266288,5,0,3:0:0:0:
288,262,266400,6,0,B|315:257|315:257|334:238,1,55,0|0,3:0|3:0,3:0:0:0:
490,325,266624,6,0,B|460:298|460:298|375:346|270:325,1,220,4|0,3:2|0:0,0:0:0:0:
121,237,266960,1,0,0:0:0:0:
93,243,267072,2,0,B|101:276|97:301|97:301|119:314|139:355,1,110,0|0,1:0|3:0,0:0:0:0:
203,295,267296,1,0,3:0:0:0:
218,216,267408,1,0,3:0:0:0:
91,155,267519,5,0,1:0:0:0:
72,136,267631,2,0,B|122:113|181:122|181:122|229:157|291:145,1,220,0|0,0:0|3:0,0:0:0:0:
221,44,267967,1,0,1:0:0:0:
180,122,268079,1,0,0:0:0:0:
200,207,268191,1,0,1:0:0:0:
269,260,268303,1,0,0:0:0:0:
386,112,268415,6,0,P|330:122|268:157,1,110,0|0,1:0|0:0,0:0:0:0:
219,208,268639,1,0,3:0:0:0:
253,290,268751,1,0,3:0:0:0:
339,306,268864,2,0,P|377:254|394:197,1,110,0|0,1:0|0:0,0:0:0:0:
393,112,269087,1,0,3:0:0:0:
315,50,269199,1,0,3:0:0:0:
170,18,269311,5,0,1:0:0:0:
155,37,269423,2,0,B|186:61|236:53|236:53|159:101|166:177,1,220,0|0,0:0|3:0,0:0:0:0:
347,136,269758,2,0,B|307:157|256:138|256:138|269:128,1,110,0|0,1:0|0:0,0:0:0:0:
386,108,269982,1,0,1:0:0:0:
386,63,270094,1,0,0:0:0:0:
182,230,270206,6,0,B|159:194|156:146|184:100|184:100|217:103|256:138,1,220,0|0,1:0|0:0,0:0:0:0:
301,226,270542,1,0,3:0:0:0:
295,313,270654,1,0,1:0:0:0:
378,340,270766,1,0,3:0:0:0:
435,273,270878,1,0,3:0:0:0:
388,198,270990,1,0,3:0:0:0:
185,311,271102,6,0,B|148:323|134:359|134:359|84:287|3:321,1,220,0|0,1:0|0:0,0:0:0:0:
256,352,271437,1,0,3:0:0:0:
411,265,271550,2,0,P|447:222|461:158,1,110,0|0,1:0|0:0,0:0:0:0:
315,261,271773,2,0,P|332:312|370:351,1,110,0|0,1:0|0:0,0:0:0:0:
370,176,271997,6,0,B|306:136|239:203|189:197|189:197|216:163,1,220,0|0,1:0|0:0,0:0:0:0:
83,57,272333,1,0,3:0:0:0:
120,87,272445,1,0,1:0:0:0:
138,122,272557,1,0,3:0:0:0:
139,148,272669,1,0,3:0:0:0:
128,165,272781,1,0,3:0:0:0:
256,328,272893,6,0,B|297:299|346:301|346:301|351:263|337:235|337:235|394:257|448:200,1,275,2|0,3:0|3:0,3:0:0:0:
256,328,273229,6,0,B|216:300|167:302|167:302|162:264|176:236|176:236|119:258|74:209,1,275,2|0,3:0|3:0,3:0:0:0:
215,167,273564,6,0,B|226:144|208:120|208:120|236:112|256:96|256:96|275:112|302:120|302:120|284:144|295:167,1,206.25,2|0,3:0|2:0,3:0:0:0:
256,228,273788,1,0,1:0:0:0:
256,328,273900,6,0,B|256:279|256:279|272:271|272:271|240:263|240:263|256:255|256:255|256:236,2,137.5,2|0|0,3:0|2:0|3:0,3:0:0:0:
363,157,274236,2,0,B|378:126|378:95|347:64|347:64|301:49|255:14|255:14|209:49|163:64|163:64|132:95|132:126|147:157,1,412.5,2|0,1:3|3:0,3:0:0:0:
124,312,274684,6,0,B|159:326|203:296|203:296|165:279,1,110,0|0,1:0|0:0,0:0:0:0:
97,241,274908,2,0,B|61:226|17:256|17:256|55:273,1,110,0|0,3:0|0:0,0:0:0:0:
124,312,275132,1,0,1:0:0:0:
388,312,275355,1,0,1:0:0:0:
172,201,275579,6,0,B|69:143|58:69|91:35|152:38,1,220,0|0,1:0|0:0,0:0:0:0:
212,33,275915,1,0,3:0:0:0:
288,77,276027,1,0,1:0:0:0:
216,128,276139,1,0,3:0:0:0:
175,203,276251,1,0,3:0:0:0:
224,275,276363,1,0,3:0:0:0:
389,346,276475,6,0,B|420:361|452:339|461:294|417:228|293:267,1,220,0|0,1:0|0:0,0:0:0:0:
119,287,276811,1,0,3:0:0:0:
119,287,276924,2,0,P|173:295|223:274,1,110,0|0,1:0|0:0,0:0:0:0:
259,193,277147,1,0,1:0:0:0:
231,109,277259,1,0,0:0:0:0:
58,59,277370,6,0,B|127:84|197:36|197:36|239:24|279:42,1,220,0|0,1:0|0:0,0:0:0:0:
349,74,277706,1,0,3:0:0:0:
430,107,277818,1,0,1:0:0:0:
470,28,277930,1,0,3:0:0:0:
430,107,278042,2,0,P|439:159|472:208,1,110,0|0,3:0|0:0,0:0:0:0:
494,290,278266,6,0,P|434:274|364:282,1,110,0|0,1:0|3:0,3:0:0:0:
298,263,278490,5,0,3:0:0:0:
251,337,278602,1,0,3:0:0:0:
280,254,278714,5,0,1:0:0:0:
245,335,278826,1,0,3:0:0:0:
254,247,278938,5,0,3:0:0:0:
239,333,279050,1,0,3:0:0:0:
133,353,279161,6,0,B|85:365|85:365|125:284|73:220|11:222,1,220,0|0,1:0|0:0,0:0:0:0:
12,309,279497,1,0,3:0:0:0:
87,171,279609,2,0,P|53:130|57:63,2,110,0|0|0,1:0|3:0|3:0,0:0:0:0:
129,101,279945,1,0,3:0:0:0:
211,241,280057,6,0,B|307:231|326:109|326:109|287:149,1,220,0|0,1:0|3:0,0:0:0:0:
214,143,280392,1,0,3:0:0:0:
333,37,280505,2,0,P|387:27|440:43,1,110,0|0,1:0|0:0,0:0:0:0:
227,31,280729,2,0,P|279:46|333:36,1,110,0|0,1:0|0:0,0:0:0:0:
493,169,280952,6,0,B|467:164|447:138|447:138|467:249|364:301,1,220,0|0,1:0|3:0,0:0:0:0:
310,310,281287,1,0,3:0:0:0:
225,284,281400,1,0,1:0:0:0:
197,200,281512,1,0,3:0:0:0:
240,123,281624,1,0,3:0:0:0:
327,109,281736,1,0,3:0:0:0:
113,104,281848,6,0,B|175:88|240:124|240:124|278:106|327:109,1,220,0|0,1:0|0:0,0:0:0:0:
424,130,282184,1,0,3:0:0:0:
329,112,282296,2,0,P|274:115|185:168,1,110,0|0,1:0|0:0,0:0:0:0:
177,224,282520,1,0,1:0:0:0:
229,310,282632,1,0,0:0:0:0:
223,135,282744,6,0,B|206:41|118:10|118:10|80:22|57:55,1,220,0|0,1:0|0:0,0:0:0:0:
20,115,283079,1,0,3:0:0:0:
114,146,283191,1,0,1:0:0:0:
44,216,283303,1,0,3:0:0:0:
137,248,283415,1,0,3:0:0:0:
70,321,283527,1,0,3:0:0:0:
249,236,283639,6,0,B|316:206|391:234|391:234|410:271|465:285,1,220,0|0,1:0|0:0,0:0:0:0:
486,187,283975,1,0,3:0:0:0:
491,87,284088,2,0,P|437:100|395:146,1,110,0|0,1:0|0:0,0:0:0:0:
391,234,284311,1,0,1:0:0:0:
318,104,284423,1,0,0:0:0:0:
122,98,284535,6,0,P|168:126|223:135,1,110,0|0,1:0|0:0,0:0:0:0:
316,100,284758,1,0,3:0:0:0:
383,27,284870,1,0,3:0:0:0:
333,112,284982,5,0,1:0:0:0:
388,193,285094,1,0,3:0:0:0:
335,277,285206,5,0,3:0:0:0:
403,205,285318,1,0,3:0:0:0:
287,181,285430,6,0,P|233:193|176:240,1,110,0|0,1:0|0:0,0:0:0:0:
101,273,285654,1,0,3:0:0:0:
39,210,285766,1,0,3:0:0:0:
111,292,285878,5,0,1:0:0:0:
49,354,285990,1,0,3:0:0:0:
137,288,286102,5,0,3:0:0:0:
212,332,286214,1,0,3:0:0:0:
423,361,286326,6,0,B|438:379|438:379|516:331|486:236|486:236|457:250,1,220,0|2,1:0|0:3,0:0:0:0:
348,259,286661,1,0,0:0:0:0:
305,157,286773,2,0,P|247:138|179:150,1,110,2|0,3:2|0:0,0:0:0:0:
128,228,286997,2,0,P|186:247|254:235,1,110,0|0,3:2|0:0,0:0:0:0:
188,35,287221,6,0,P|133:62|93:119,1,110,2|0,3:2|0:0,0:0:0:0:
247,347,287445,2,0,P|301:319|341:262,1,110,0|0,3:2|0:0,0:0:0:0:
359,73,287669,1,2,3:2:0:0:
337,97,287781,1,0,3:0:0:0:
364,122,287893,1,0,3:0:0:0:
384,100,288005,1,0,3:0:0:0:
359,66,288117,5,6,3:2:0:0:
363,59,288229,1,0,0:0:0:0:
143,149,288452,1,2,0:0:0:0:
129,162,288564,2,0,B|165:180|206:162|206:162|247:162|281:207,1,153.999995300293,8|2,1:2|0:0,0:0:0:0:
299,257,288900,1,0,0:0:0:0:
203,244,289012,6,0,P|171:259|145:296,1,76.9999976501466,2|0,3:2|0:0,0:0:0:0:
143,364,289236,1,0,0:2:0:0:
165,359,289348,1,0,0:2:0:0:
86,260,289460,2,0,P|62:228|16:212,1,76.9999976501466,0|2,1:0|0:0,0:0:0:0:
54,192,289684,1,2,0:0:0:0:
177,55,289908,6,0,P|141:75|122:123,1,76.9999976501466,2|0,3:2|0:0,0:0:0:0:
153,169,290132,1,0,0:0:0:0:
174,162,290244,1,2,0:0:0:0:
308,152,290355,2,0,B|326:147|341:131|341:131|294:97|232:115,1,153.999995300293,0|2,1:2|0:0,0:0:0:0:
293,162,290691,1,0,0:0:0:0:
401,170,290803,6,0,P|425:214|429:252,1,76.9999976501466,2|0,3:2|0:0,0:0:0:0:
384,294,291027,1,0,0:0:0:0:
370,290,291139,1,0,0:0:0:0:
245,347,291251,2,0,P|285:322|313:269,1,76.9999976501466,0|2,1:0|0:0,0:0:0:0:
283,291,291475,1,2,0:0:0:0:
225,31,291699,5,2,3:2:0:0:
271,82,291811,2,0,P|274:122|241:165,1,76.9999976501466
205,104,292035,1,2,0:0:0:0:
82,116,292147,2,0,B|61:125|54:145|54:145|103:186|166:152,1,153.999995300293,0|2,1:0|0:0,0:0:0:0:
205,104,292482,1,0,0:0:0:0:
207,223,292594,6,0,P|186:259|145:280,2,76.9999976501466,2|0|0,3:2|0:0|0:0,0:0:0:0:
207,223,292930,1,2,0:0:0:0:
350,216,293042,2,0,P|315:197|265:185,1,76.9999976501466,0|0,1:0|0:0,0:0:0:0:
327,237,293266,1,2,0:0:0:0:
297,26,293490,6,0,P|301:67|334:96,1,76.9999976501466,2|0,3:2|0:0,0:0:0:0:
346,100,293714,1,0,0:0:0:0:
369,99,293826,1,2,0:0:0:0:
427,44,293938,5,2,1:2:0:0:
489,95,294050,1,2,0:2:0:0:
433,153,294161,5,2,0:0:0:0:
425,175,294273,1,2,0:0:0:0:
429,197,294385,1,0,3:2:0:0:
345,307,294609,5,2,0:0:0:0:
367,298,294721,1,2,0:0:0:0:
314,243,294833,2,0,P|284:269|276:324,2,76.9999976501466,0|2|2,1:0|0:0|0:0,0:0:0:0:
97,325,295281,5,2,3:2:0:0:
110,348,295393,1,0,0:0:0:0:
155,217,295616,1,2,0:0:0:0:
137,234,295728,2,0,B|125:212|105:201|105:201|156:158|121:90,1,153.999995300293,0|2,1:0|0:0,0:0:0:0:
80,52,296064,1,0,0:0:0:0:
272,178,296176,6,0,P|256:217|219:240,1,76.9999976501466,2|0,3:2|0:0,0:0:0:0:
203,171,296400,1,0,0:0:0:0:
201,145,296512,1,0,0:0:0:0:
340,91,296624,2,0,P|296:95|259:113,1,76.9999976501466,0|2,1:0|0:0,0:0:0:0:
315,58,296848,1,2,0:0:0:0:
411,265,297072,6,0,P|389:224|388:175,1,76.9999976501466,2|0,3:2|0:0,0:0:0:0:
402,126,297296,1,0,0:0:0:0:
419,109,297408,1,2,0:2:0:0:
459,333,297520,2,0,P|497:282|455:197,1,153.999995300293,0|2,1:0|0:2,0:0:0:0:
452,223,297855,1,0,0:0:0:0:
383,331,297967,6,0,P|344:340|312:361,1,76.9999976501466,2|0,3:2|0:0,0:0:0:0:
291,293,298191,1,0,0:0:0:0:
278,270,298303,1,0,0:0:0:0:
176,373,298415,2,0,P|225:356|263:306,1,76.9999976501466,0|2,1:0|0:0,0:0:0:0:
233,384,298639,1,2,0:0:0:0:
170,172,298863,5,2,3:2:0:0:
193,186,298975,2,0,P|180:232|156:258,1,76.9999976501466
31,161,299199,1,2,0:0:0:0:
20,147,299311,2,0,B|51:114|51:114|61:184|110:202,1,153.999995300293,0|2,1:0|0:0,0:0:0:0:
170,172,299646,1,0,0:0:0:0:
257,68,299758,6,0,P|244:41|200:13,2,76.9999976501466,2|0|0,3:2|0:0|0:0,0:0:0:0:
189,86,300094,1,2,0:0:0:0:
291,198,300206,2,0,P|258:177|240:144,1,76.9999976501466,0|0,1:0|0:0,0:0:0:0:
308,129,300430,1,2,0:0:0:0:
512,131,300654,6,0,P|483:150|416:159,1,76.9999976501466,2|0,3:2|0:0,0:0:0:0:
396,107,300878,1,0,0:0:0:0:
401,90,300990,1,0,0:0:0:0:
380,218,301102,5,2,1:2:0:0:
403,283,301214,1,0,0:0:0:0:
471,294,301325,1,0,0:0:0:0:
446,230,301437,1,0,0:0:0:0:
336,270,301549,5,2,3:2:0:0:
267,257,301661,1,0,0:0:0:0:
245,192,301773,1,0,0:0:0:0:
314,204,301885,1,0,0:0:0:0:
290,323,301997,5,2,1:2:0:0:
239,370,302109,1,2,0:2:0:0:
171,354,302221,1,2,0:2:0:0:
219,304,302333,1,0,0:0:0:0:
148,195,302445,5,2,3:2:0:0:
167,215,302557,2,0,B|168:180|143:150|143:150|138:111|167:84,1,131.99999597168,0|2,0:0|0:2,0:0:0:0:
212,53,302893,1,0,1:0:0:0:
135,195,303117,1,2,0:0:0:0:
212,53,303341,5,0,3:0:0:0:
283,58,303452,1,0,0:0:0:0:
245,120,303564,2,0,P|236:155|243:214,1,65.9999979858399
266,251,303788,1,0,1:0:0:0:
301,187,303900,1,2,0:2:0:0:
228,192,304012,1,2,0:2:0:0:
124,293,304236,5,2,3:2:0:0:
134,310,304348,2,0,B|168:304|168:304|199:361|265:363,1,131.99999597168,0|2,0:0|0:2,0:0:0:0:
315,347,304684,1,0,1:0:0:0:
364,226,304908,1,2,0:2:0:0:
364,226,305132,1,0,3:0:0:0:
405,101,305355,6,0,P|446:120|492:157,1,65.9999979858399
338,84,305579,1,0,1:0:0:0:
338,84,305691,2,0,P|309:74|251:34,1,65.9999979858399,2|2,0:2|0:2,0:0:0:0:
108,25,306027,5,2,3:2:0:0:
122,40,306139,1,2,0:0:0:0:
37,158,306363,1,2,0:0:0:0:
27,147,306475,1,0,1:0:0:0:
164,194,306699,1,2,0:0:0:0:
113,330,306923,5,2,3:2:0:0:
172,287,307035,1,0,0:0:0:0:
216,344,307147,2,0,P|261:341|299:314,1,65.9999979858399,0|2,0:0|0:0,0:0:0:0:
310,266,307370,1,0,1:0:0:0:
308,120,307594,1,2,0:0:0:0:
418,218,307818,5,0,3:0:0:0:
424,236,307930,1,0,0:0:0:0:
425,255,308042,1,0,0:0:0:0:
420,274,308154,1,0,0:0:0:0:
411,291,308266,2,0,P|386:318|334:332,1,65.9999979858399,2|0,1:2|0:0,0:0:0:0:
297,296,308490,2,0,P|322:269|374:255,1,65.9999979858399,0|2,0:0|0:2,0:0:0:0:
294,365,308714,5,0,3:2:0:0:
261,228,308938,1,0,0:0:0:0:
205,174,309050,1,0,0:0:0:0:
128,182,309161,1,0,1:0:0:0:
169,321,309385,1,0,0:0:0:0:
261,209,309609,5,2,3:2:0:0:
399,164,309833,1,0,0:0:0:0:
372,306,310057,1,0,1:2:0:0:
326,167,310281,1,2,0:0:0:0:
225,62,310505,5,0,3:0:0:0:
90,115,310728,1,0,0:0:0:0:
233,137,310952,1,0,1:0:0:0:
125,39,311176,1,0,0:0:0:0:
163,179,311400,5,2,3:2:0:0:
94,307,311624,1,0,0:0:0:0:
237,328,311848,1,0,1:0:0:0:
252,183,312072,1,2,0:0:0:0:
318,312,312296,5,0,3:0:0:0:
414,203,312520,1,0,0:0:0:0:
464,339,312744,1,0,1:0:0:0:
320,356,312967,1,0,0:0:0:0:
255,225,313191,5,2,3:2:0:0:
45,24,313639,1,0,1:0:0:0:
255,225,314087,1,2,3:2:0:0:
467,24,314535,1,0,1:0:0:0:
256,192,314982,12,6,316773,0:0:0:0:
