osu file format v14

[General]
AudioFilename: audio.mp3
AudioLeadIn: 0
PreviewTime: 306328
Countdown: 0
SampleSet: Normal
StackLeniency: 0.7
Mode: 1
LetterboxInBreaks: 0
WidescreenStoryboard: 0

[Editor]
Bookmarks: 448,14993,29538,44084,58629,73175,87720,102266,116811,131357,145902,160448,174993,189538,204084,218629,233175,247720,262266,276811,291357,307720,322266,336811,351357,365902
DistanceSpacing: 0.5
BeatDivisor: 4
GridSize: 32
TimelineZoom: 1.6

[Metadata]
Title:Miss You
TitleUnicode:Miss You
Artist:Nhato
ArtistUnicode:Nhato
Creator:strickluke
Version:Avarice
Source:
Tags:stirup club edition v3 c85 vocaloid lapis aoki i miss you
BeatmapID:1354992
BeatmapSetID:638816

[Difficulty]
HPDrainRate:4
CircleSize:2
OverallDifficulty:5.5
ApproachRate:9
SliderMultiplier:1.4
SliderTickRate:1

[Events]
//Background and Video events
0,0,"miss_blue.png",0,-95
//Break Periods
2,305902,307120
//Storyboard Layer 0 (Background)
//Storyboard Layer 1 (Fail)
//Storyboard Layer 2 (Pass)
//Storyboard Layer 3 (Foreground)
//Storyboard Sound Samples

[TimingPoints]
448,454.545454545455,4,1,0,40,1,0
448,-125,4,1,0,40,0,0
13175,-117.647058823529,4,1,0,40,0,0
13857,-111.111111111111,4,1,0,40,0,0
14993,-105.263157894737,4,1,0,50,0,0
22266,-103.092783505155,4,1,0,50,0,0
29538,-95.2380952380952,4,1,0,70,0,0
36811,-95.2380952380952,4,1,0,72,0,0
44084,-93.4579439252336,4,1,0,75,0,0
51357,-90.9090909090909,4,1,0,77,0,0
54993,-89.2857142857143,4,1,0,80,0,0
57266,-89.2857142857143,4,1,0,70,0,0
57720,-99.9999999999999,4,1,0,60,0,0
58629,-99.9999999999999,4,1,0,50,0,0
60448,-166.666666666667,4,1,0,40,0,0
64993,-166.666666666667,4,1,0,43,0,0
68629,-166.666666666667,4,1,0,45,0,0
73175,-117.647058823529,4,1,0,60,0,0
73629,-117.647058823529,4,1,0,45,0,0
79084,-117.647058823529,4,1,0,65,0,0
80902,-117.647058823529,4,1,0,45,0,0
84538,-117.647058823529,4,1,0,65,0,0
87720,-111.111111111111,4,1,0,60,0,0
88175,-111.111111111111,4,1,0,50,0,0
93629,-108.695652173913,4,1,0,61,0,0
93857,-108.695652173913,4,1,0,62,0,0
94084,-108.695652173913,4,1,0,63,0,0
94311,-108.695652173913,4,1,0,64,0,0
94538,-108.695652173913,4,1,0,65,0,0
94766,-108.695652173913,4,1,0,66,0,0
94993,-105.263157894737,4,1,0,67,0,0
95448,-105.263157894737,4,1,0,65,0,0
102266,-100,4,1,0,60,0,0
103175,-100,4,1,0,61,0,0
103629,-100,4,1,0,62,0,0
104084,-100,4,1,0,63,0,0
104993,-100,4,1,0,64,0,0
106811,-100,4,1,0,66,0,0
108629,-100,4,1,0,68,0,0
108970,-100,4,1,0,69,0,0
109538,-100,4,1,0,70,0,0
113175,-100,4,1,0,75,0,0
114993,-100,4,1,0,77,0,0
116811,-111.111111111111,4,1,0,60,0,0
118175,-111.111111111111,4,1,0,43,0,0
131357,-99.9999999999999,4,1,0,80,0,0
145902,-83.3333333333333,4,1,0,90,0,1
159993,-90.9090909090909,4,1,0,90,0,0
160448,-83.3333333333333,4,1,0,90,0,1
174993,-90.9090909090909,4,1,0,70,0,0
176584,-95.2380952380952,4,1,0,65,0,0
182266,-100,4,1,0,65,0,0
188857,-100,4,1,0,75,0,0
189538,-95.2380952380952,4,1,0,70,0,0
196811,-90.9090909090909,4,1,0,70,0,0
203402,-95.2380952380952,4,1,0,70,0,0
203629,-100,4,1,0,70,0,0
204084,-125,4,1,0,65,0,0
204538,-125,4,1,0,66,0,0
204993,-125,4,1,0,67,0,0
205902,-125,4,1,0,68,0,0
206357,-125,4,1,0,69,0,0
206811,-125,4,1,0,70,0,0
207720,-125,4,1,0,71,0,0
208175,-125,4,1,0,72,0,0
208629,-125,4,1,0,73,0,0
209084,-125,4,1,0,74,0,0
209538,-125,4,1,0,75,0,0
209993,-125,4,1,0,76,0,0
210448,-125,4,1,0,77,0,0
210902,-125,4,1,0,78,0,0
211357,-111.111111111111,4,1,0,79,0,0
212266,-111.111111111111,4,1,0,80,0,0
213175,-111.111111111111,4,1,0,82,0,0
214084,-111.111111111111,4,1,0,84,0,0
214993,-111.111111111111,4,1,0,86,0,0
215220,-111.111111111111,4,1,0,87,0,0
215448,-111.111111111111,4,1,0,88,0,0
215675,-111.111111111111,4,1,0,89,0,0
215902,-111.111111111111,4,1,0,90,0,0
218629,-100,4,1,0,40,0,0
219538,-100,4,1,0,50,0,0
219766,-100,4,1,0,60,0,0
219993,-100,4,1,0,50,0,0
220448,-90.9090909090909,4,1,0,90,0,0
231584,-90.9090909090909,4,1,0,50,0,0
232038,-90.9090909090909,4,1,0,60,0,0
232266,-90.9090909090909,4,1,0,70,0,0
232493,-90.9090909090909,4,1,0,60,0,0
233175,-90.9090909090909,4,1,0,80,0,0
244084,-89.2857142857143,4,1,0,50,0,0
246357,-86.9565217391304,4,1,0,45,0,0
247720,-83.3333333333333,4,1,0,90,0,1
261811,-90.9090909090909,4,1,0,90,0,0
262266,-83.3333333333333,4,1,0,90,0,1
275448,-100,4,1,0,40,0,0
276811,-100,4,1,0,40,0,0
278629,-125,4,1,0,30,0,0
280448,-166.666666666667,4,1,0,30,0,0
289538,-166.666666666667,4,1,0,35,0,0
291357,-125,4,1,0,40,0,0
292266,-125,4,1,0,42,0,0
293175,-125,4,1,0,44,0,0
294993,-125,4,1,0,46,0,0
295902,-125,4,1,0,48,0,0
296811,-125,4,1,0,50,0,0
298629,-125,4,1,0,52,0,0
299538,-125,4,1,0,54,0,0
300448,-125,4,1,0,56,0,0
301357,-125,4,1,0,58,0,0
302266,-125,4,1,0,60,0,0
302720,-125,4,1,0,61,0,0
303175,-125,4,1,0,62,0,0
303629,-125,4,1,0,63,0,0
304084,-125,4,1,0,64,0,0
304538,-125,4,1,0,65,0,0
304993,-125,4,1,0,66,0,0
305448,-125,4,1,0,67,0,0
305902,-125,4,1,0,30,0,0
307720,-83.3333333333333,4,1,0,90,0,1
320902,-83.3333333333333,4,1,0,90,0,0
321129,-83.3333333333333,4,1,0,90,0,1
321584,-83.3333333333333,4,1,0,90,0,0
322266,-83.3333333333333,4,1,0,90,0,1
336357,-90.9090909090909,4,1,0,90,0,1
336811,-100,4,1,0,60,0,0
344084,-105.263157894737,4,1,0,50,0,0
351357,-100,4,1,0,60,0,0
358402,-99.009900990099,4,1,0,40,0,0
358478,-98.0392156862745,4,1,0,40,0,0
358554,-97.0873786407767,4,1,0,40,0,0
358629,-95.2380952380952,4,1,0,40,0,0
360448,-94.3396226415094,4,1,0,45,0,0
362266,-93.4579439252336,4,1,0,50,0,0
364084,-92.5925925925926,4,1,0,55,0,0
365448,-92.5925925925926,4,1,0,60,0,0
365902,-66.6666666666667,4,1,0,40,0,0
367720,-66.6666666666667,4,1,0,30,0,0
369538,-66.6666666666667,4,1,0,20,0,0
371357,-66.6666666666667,4,1,0,10,0,0
372266,-66.6666666666667,4,1,0,5,0,0

[HitObjects]
256,192,448,5,4,0:0:0:0:
256,192,675,1,0,0:0:0:0:
256,192,1357,1,0,0:0:0:0:
256,192,1584,1,0,0:0:0:0:
256,192,2266,1,0,0:0:0:0:
256,192,2493,1,0,0:0:0:0:
256,192,3175,1,0,0:0:0:0:
256,192,3402,1,8,0:0:0:0:
256,192,4084,1,0,0:0:0:0:
256,192,4311,1,0,0:0:0:0:
256,192,4993,1,0,0:0:0:0:
256,192,5220,1,0,0:0:0:0:
256,192,5902,1,0,0:0:0:0:
256,192,6129,1,0,0:0:0:0:
256,192,6811,1,0,0:0:0:0:
256,192,7038,1,8,0:0:0:0:
256,192,7720,1,12,0:0:0:0:
256,192,7948,1,0,0:0:0:0:
256,192,8629,1,0,0:0:0:0:
256,192,8857,1,0,0:0:0:0:
256,192,9538,1,0,0:0:0:0:
256,192,9766,1,0,0:0:0:0:
256,192,10448,1,0,0:0:0:0:
256,192,10675,1,8,0:0:0:0:
256,192,11357,1,0,0:0:0:0:
256,192,11584,1,0,0:0:0:0:
256,192,12266,1,0,0:0:0:0:
256,192,12493,1,0,0:0:0:0:
256,192,13175,1,0,0:0:0:0:
256,192,13402,1,0,0:0:0:0:
256,192,13857,1,8,0:0:0:0:
256,192,13970,1,8,0:0:0:0:
256,192,14084,1,0,0:0:0:0:
256,192,14311,1,0,0:0:0:0:
256,192,14425,1,8,0:0:0:0:
256,192,14538,1,0,0:0:0:0:
256,192,14993,1,0,0:0:0:0:
256,192,15220,1,8,0:0:0:0:
256,192,15448,1,0,0:0:0:0:
256,192,15675,1,8,0:0:0:0:
256,192,15788,1,8,0:0:0:0:
256,192,15902,1,0,0:0:0:0:
256,192,16129,1,8,0:0:0:0:
256,192,16357,1,0,0:0:0:0:
256,192,16811,1,0,0:0:0:0:
256,192,17038,1,8,0:0:0:0:
256,192,17266,1,0,0:0:0:0:
256,192,17493,1,8,0:0:0:0:
256,192,17607,1,8,0:0:0:0:
256,192,17720,1,0,0:0:0:0:
256,192,17948,1,8,0:0:0:0:
256,192,18061,1,0,0:0:0:0:
256,192,18175,1,0,0:0:0:0:
256,192,18629,1,0,0:0:0:0:
256,192,18857,1,8,0:0:0:0:
256,192,19084,1,0,0:0:0:0:
256,192,19311,1,8,0:0:0:0:
256,192,19425,1,8,0:0:0:0:
256,192,19538,1,0,0:0:0:0:
256,192,19766,1,8,0:0:0:0:
256,192,19993,1,0,0:0:0:0:
256,192,20220,1,8,0:0:0:0:
256,192,20296,1,8,0:0:0:0:
256,192,20372,1,8,0:0:0:0:
256,192,20448,1,0,0:0:0:0:
256,192,20675,1,8,0:0:0:0:
256,192,20902,1,0,0:0:0:0:
256,192,21129,1,8,0:0:0:0:
256,192,21243,1,8,0:0:0:0:
256,192,21357,1,0,0:0:0:0:
256,192,21470,1,0,0:0:0:0:
256,192,21584,1,8,0:0:0:0:
256,192,21698,1,0,0:0:0:0:
256,192,21811,1,8,0:0:0:0:
256,192,22266,1,0,0:0:0:0:
256,192,22379,1,0,0:0:0:0:
256,192,22493,1,8,0:0:0:0:
256,192,22720,1,0,0:0:0:0:
256,192,22948,1,8,0:0:0:0:
256,192,23061,1,8,0:0:0:0:
256,192,23175,1,0,0:0:0:0:
256,192,23288,1,0,0:0:0:0:
256,192,23402,1,8,0:0:0:0:
256,192,23629,1,0,0:0:0:0:
256,192,23857,1,8,0:0:0:0:
256,192,24084,1,0,0:0:0:0:
256,192,24198,1,0,0:0:0:0:
256,192,24311,1,8,0:0:0:0:
256,192,24538,1,0,0:0:0:0:
256,192,24766,1,8,0:0:0:0:
256,192,24879,1,8,0:0:0:0:
256,192,24993,1,0,0:0:0:0:
256,192,25107,1,0,0:0:0:0:
256,192,25220,1,8,0:0:0:0:
256,192,25334,1,8,0:0:0:0:
256,192,25448,1,0,0:0:0:0:
256,192,25902,1,0,0:0:0:0:
256,192,26016,1,0,0:0:0:0:
256,192,26129,1,8,0:0:0:0:
256,192,26357,1,0,0:0:0:0:
256,192,26584,1,8,0:0:0:0:
256,192,26698,1,0,0:0:0:0:
256,192,26811,1,0,0:0:0:0:
256,192,26925,1,0,0:0:0:0:
256,192,27038,1,8,0:0:0:0:
256,192,27266,1,0,0:0:0:0:
256,192,27493,1,8,0:0:0:0:
256,192,27720,1,0,0:0:0:0:
256,192,27834,1,0,0:0:0:0:
256,192,27948,1,8,0:0:0:0:
256,192,28175,1,0,0:0:0:0:
256,192,28402,1,8,0:0:0:0:
256,192,28516,1,8,0:0:0:0:
256,192,28629,1,0,0:0:0:0:
256,192,28743,1,0,0:0:0:0:
256,192,28857,1,8,0:0:0:0:
256,192,29084,1,0,0:0:0:0:
256,192,29538,1,4,0:0:0:0:
256,192,29766,1,0,0:0:0:0:
256,192,29993,1,8,0:0:0:0:
256,192,30107,1,8,0:0:0:0:
256,192,30220,1,8,0:0:0:0:
256,192,30334,1,8,0:0:0:0:
256,192,30448,1,0,0:0:0:0:
256,192,30675,1,0,0:0:0:0:
256,192,30902,1,8,0:0:0:0:
256,192,31016,1,0,0:0:0:0:
256,192,31129,1,8,0:0:0:0:
256,192,31243,1,8,0:0:0:0:
256,192,31357,1,0,0:0:0:0:
256,192,31584,1,0,0:0:0:0:
256,192,31811,1,8,0:0:0:0:
256,192,31925,1,0,0:0:0:0:
256,192,32038,1,0,0:0:0:0:
256,192,32152,1,0,0:0:0:0:
256,192,32266,1,8,0:0:0:0:
256,192,32379,1,0,0:0:0:0:
256,192,32493,1,8,0:0:0:0:
256,192,32720,1,8,0:0:0:0:
256,192,32834,1,8,0:0:0:0:
256,192,32948,1,0,0:0:0:0:
256,192,33061,1,0,0:0:0:0:
256,192,33175,1,8,0:0:0:0:
256,192,33402,1,8,0:0:0:0:
256,192,33629,1,0,0:0:0:0:
256,192,33743,1,0,0:0:0:0:
256,192,33857,1,0,0:0:0:0:
256,192,33970,1,0,0:0:0:0:
256,192,34084,1,8,0:0:0:0:
256,192,34311,1,8,0:0:0:0:
256,192,34538,1,0,0:0:0:0:
256,192,34652,1,0,0:0:0:0:
256,192,34766,1,8,0:0:0:0:
256,192,34879,1,0,0:0:0:0:
256,192,34993,1,8,0:0:0:0:
256,192,35220,1,8,0:0:0:0:
256,192,35448,1,0,0:0:0:0:
256,192,35561,1,0,0:0:0:0:
256,192,35675,1,8,0:0:0:0:
256,192,35788,1,8,0:0:0:0:
256,192,35902,1,0,0:0:0:0:
256,192,36016,1,0,0:0:0:0:
256,192,36129,1,8,0:0:0:0:
256,192,36357,1,8,0:0:0:0:
256,192,36470,1,0,0:0:0:0:
256,192,36584,1,0,0:0:0:0:
256,192,36698,1,0,0:0:0:0:
256,192,36811,1,8,0:0:0:0:
256,192,36925,1,0,0:0:0:0:
256,192,37038,1,8,0:0:0:0:
256,192,37266,1,0,0:0:0:0:
256,192,37379,1,0,0:0:0:0:
256,192,37493,1,0,0:0:0:0:
256,192,37607,1,0,0:0:0:0:
256,192,37720,1,8,0:0:0:0:
256,192,37834,1,0,0:0:0:0:
256,192,37948,1,8,0:0:0:0:
256,192,38175,1,8,0:0:0:0:
256,192,38288,1,0,0:0:0:0:
256,192,38402,1,0,0:0:0:0:
256,192,38516,1,0,0:0:0:0:
256,192,38629,1,8,0:0:0:0:
256,192,38743,1,0,0:0:0:0:
256,192,38857,1,8,0:0:0:0:
256,192,39084,1,8,0:0:0:0:
256,192,39198,1,0,0:0:0:0:
256,192,39311,1,0,0:0:0:0:
256,192,39425,1,0,0:0:0:0:
256,192,39538,1,8,0:0:0:0:
256,192,39652,1,8,0:0:0:0:
256,192,39766,1,8,0:0:0:0:
256,192,39993,1,8,0:0:0:0:
256,192,40107,1,8,0:0:0:0:
256,192,40220,1,0,0:0:0:0:
256,192,40334,1,0,0:0:0:0:
256,192,40448,1,8,0:0:0:0:
256,192,40561,1,0,0:0:0:0:
256,192,40675,1,8,0:0:0:0:
256,192,40902,1,0,0:0:0:0:
256,192,41016,1,0,0:0:0:0:
256,192,41129,1,0,0:0:0:0:
256,192,41243,1,0,0:0:0:0:
256,192,41357,1,8,0:0:0:0:
256,192,41470,1,0,0:0:0:0:
256,192,41584,1,8,0:0:0:0:
256,192,41811,1,0,0:0:0:0:
256,192,41925,1,0,0:0:0:0:
256,192,42038,1,8,0:0:0:0:
256,192,42152,1,0,0:0:0:0:
256,192,42266,1,8,0:0:0:0:
256,192,42379,1,0,0:0:0:0:
256,192,42493,1,8,0:0:0:0:
256,192,42720,1,0,0:0:0:0:
256,192,42834,1,0,0:0:0:0:
256,192,42948,1,8,0:0:0:0:
256,192,43061,1,0,0:0:0:0:
256,192,43175,1,8,0:0:0:0:
256,192,43288,1,8,0:0:0:0:
256,192,43402,1,8,0:0:0:0:
256,192,43629,1,0,0:0:0:0:
256,192,44084,1,12,0:0:0:0:
256,192,44311,1,0,0:0:0:0:
256,192,44425,1,0,0:0:0:0:
256,192,44538,1,8,0:0:0:0:
256,192,44652,1,8,0:0:0:0:
256,192,44766,1,0,0:0:0:0:
256,192,44993,1,8,0:0:0:0:
256,192,45107,1,8,0:0:0:0:
256,192,45220,1,8,0:0:0:0:
256,192,45448,1,0,0:0:0:0:
256,192,45561,1,0,0:0:0:0:
256,192,45675,1,0,0:0:0:0:
256,192,45788,1,0,0:0:0:0:
256,192,45902,1,8,0:0:0:0:
256,192,46016,1,0,0:0:0:0:
256,192,46129,1,8,0:0:0:0:
256,192,46357,1,0,0:0:0:0:
256,192,46470,1,0,0:0:0:0:
256,192,46584,1,0,0:0:0:0:
256,192,46698,1,0,0:0:0:0:
256,192,46811,1,8,0:0:0:0:
256,192,46925,1,8,0:0:0:0:
256,192,47038,1,8,0:0:0:0:
256,192,47266,1,0,0:0:0:0:
256,192,47379,1,0,0:0:0:0:
256,192,47493,1,8,0:0:0:0:
256,192,47720,1,8,0:0:0:0:
256,192,47948,1,8,0:0:0:0:
256,192,48061,1,8,0:0:0:0:
256,192,48175,1,0,0:0:0:0:
256,192,48288,1,0,0:0:0:0:
256,192,48402,1,8,0:0:0:0:
256,192,48629,1,8,0:0:0:0:
256,192,48743,1,0,0:0:0:0:
256,192,48857,1,8,0:0:0:0:
256,192,49084,1,0,0:0:0:0:
256,192,49198,1,0,0:0:0:0:
256,192,49311,1,0,0:0:0:0:
256,192,49425,1,0,0:0:0:0:
256,192,49538,1,8,0:0:0:0:
256,192,49652,1,0,0:0:0:0:
256,192,49766,1,8,0:0:0:0:
256,192,49993,1,0,0:0:0:0:
256,192,50107,1,0,0:0:0:0:
256,192,50220,1,8,0:0:0:0:
256,192,50334,1,0,0:0:0:0:
256,192,50448,1,8,0:0:0:0:
256,192,50561,1,8,0:0:0:0:
256,192,50675,1,8,0:0:0:0:
256,192,50902,1,0,0:0:0:0:
256,192,51016,1,0,0:0:0:0:
256,192,51129,1,0,0:0:0:0:
256,192,51357,1,8,0:0:0:0:
256,192,51470,1,0,0:0:0:0:
256,192,51584,1,8,0:0:0:0:
256,192,51811,1,8,0:0:0:0:
256,192,51925,1,8,0:0:0:0:
256,192,52038,1,0,0:0:0:0:
256,192,52152,1,0,0:0:0:0:
256,192,52266,1,8,0:0:0:0:
256,192,52379,1,8,0:0:0:0:
256,192,52493,1,8,0:0:0:0:
256,192,52720,1,0,0:0:0:0:
256,192,52834,1,0,0:0:0:0:
256,192,52948,1,0,0:0:0:0:
256,192,53061,1,0,0:0:0:0:
256,192,53175,1,8,0:0:0:0:
256,192,53288,1,8,0:0:0:0:
256,192,53402,1,8,0:0:0:0:
256,192,53629,1,0,0:0:0:0:
256,192,53743,1,0,0:0:0:0:
256,192,53857,1,8,0:0:0:0:
256,192,53970,1,0,0:0:0:0:
256,192,54084,1,8,0:0:0:0:
256,192,54198,1,8,0:0:0:0:
256,192,54311,1,8,0:0:0:0:
256,192,54538,1,0,0:0:0:0:
256,192,54652,1,0,0:0:0:0:
256,192,54766,1,8,0:0:0:0:
256,192,54993,1,8,0:0:0:0:
256,192,55107,1,8,0:0:0:0:
256,192,55220,1,8,0:0:0:0:
256,192,55334,1,8,0:0:0:0:
256,192,55448,1,0,0:0:0:0:
256,192,55561,1,0,0:0:0:0:
256,192,55675,1,8,0:0:0:0:
256,192,55902,1,8,0:0:0:0:
256,192,56016,1,8,0:0:0:0:
256,192,56129,1,8,0:0:0:0:
256,192,56243,1,8,0:0:0:0:
256,192,56357,1,0,0:0:0:0:
256,192,56470,1,0,0:0:0:0:
256,192,56584,1,8,0:0:0:0:
256,192,56811,1,8,0:0:0:0:
256,192,56925,1,8,0:0:0:0:
256,192,57038,1,8,0:0:0:0:
256,192,57152,1,8,0:0:0:0:
256,192,57266,1,0,0:0:0:0:
256,192,57720,1,8,0:0:0:0:
256,192,57948,1,0,0:0:0:0:
256,192,58175,1,8,0:0:0:0:
256,192,58289,1,0,0:0:0:0:
256,192,58402,1,8,0:0:0:0:
256,192,58516,1,8,0:0:0:0:
256,192,58629,1,4,0:0:0:0:
256,192,61357,1,0,0:0:0:0:
256,192,62266,1,0,0:0:0:0:
256,192,64993,1,0,0:0:0:0:
256,192,65902,1,0,0:0:0:0:
256,192,68629,1,0,0:0:0:0:
256,192,69538,1,0,0:0:0:0:
256,192,72266,1,0,0:0:0:0:
256,192,73175,1,12,0:0:0:0:
256,192,73629,1,0,0:0:0:0:
256,192,73857,1,0,0:0:0:0:
256,192,74084,1,8,0:0:0:0:
256,192,74311,1,0,0:0:0:0:
256,192,74766,1,8,0:0:0:0:
256,192,75220,1,8,0:0:0:0:
256,192,75675,1,0,0:0:0:0:
256,192,76129,1,8,0:0:0:0:
256,192,76357,1,0,0:0:0:0:
256,192,76584,1,8,0:0:0:0:
256,192,77266,1,0,0:0:0:0:
256,192,77493,1,0,0:0:0:0:
256,192,77948,1,0,0:0:0:0:
256,192,78175,1,8,0:0:0:0:
256,192,78629,1,0,0:0:0:0:
256,192,79084,1,8,0:0:0:0:
256,192,79311,1,8,0:0:0:0:
256,192,79538,1,0,0:0:0:0:
256,192,79993,1,8,0:0:0:0:
256,192,80220,1,8,0:0:0:0:
256,192,80448,1,0,0:0:0:0:
256,192,80902,1,0,0:0:0:0:
256,192,81129,1,0,0:0:0:0:
256,192,81357,1,8,0:0:0:0:
256,192,81584,1,8,0:0:0:0:
256,192,82038,1,0,0:0:0:0:
256,192,82493,1,8,0:0:0:0:
256,192,82720,1,8,0:0:0:0:
256,192,82948,1,0,0:0:0:0:
256,192,83402,1,0,0:0:0:0:
256,192,83629,1,8,0:0:0:0:
256,192,83857,1,0,0:0:0:0:
256,192,84538,1,8,0:0:0:0:
256,192,84993,1,8,0:0:0:0:
256,192,85220,1,0,0:0:0:0:
256,192,85448,1,0,0:0:0:0:
256,192,85675,1,8,0:0:0:0:
256,192,86129,1,0,0:0:0:0:
256,192,86357,1,0,0:0:0:0:
256,192,86584,1,8,0:0:0:0:
256,192,87038,1,8,0:0:0:0:
256,192,87720,1,4,0:0:0:0:
256,192,88175,1,8,0:0:0:0:
256,192,88402,1,0,0:0:0:0:
256,192,88629,1,8,0:0:0:0:
256,192,88857,1,8,0:0:0:0:
256,192,89311,1,0,0:0:0:0:
256,192,89766,1,8,0:0:0:0:
256,192,90220,1,8,0:0:0:0:
256,192,90675,1,0,0:0:0:0:
256,192,90902,1,0,0:0:0:0:
256,192,91129,1,8,0:0:0:0:
256,192,91811,1,8,0:0:0:0:
256,192,92038,1,8,0:0:0:0:
256,192,92493,1,0,0:0:0:0:
256,192,92720,1,8,0:0:0:0:
256,192,93175,1,0,0:0:0:0:
256,192,93629,1,8,0:0:0:0:
256,192,93857,1,8,0:0:0:0:
256,192,94084,1,0,0:0:0:0:
256,192,94311,1,0,0:0:0:0:
256,192,94538,1,8,0:0:0:0:
256,192,94766,1,0,0:0:0:0:
256,192,94993,1,12,0:0:0:0:
256,192,95448,1,0,0:0:0:0:
256,192,95675,1,0,0:0:0:0:
256,192,95902,1,8,0:0:0:0:
256,192,96129,1,8,0:0:0:0:
256,192,96584,1,8,0:0:0:0:
256,192,97038,1,0,0:0:0:0:
256,192,97266,1,0,0:0:0:0:
256,192,97493,1,8,0:0:0:0:
256,192,97948,1,0,0:0:0:0:
256,192,98175,1,8,0:0:0:0:
256,192,98402,1,8,0:0:0:0:
256,192,99084,1,8,0:0:0:0:
256,192,99538,1,8,0:0:0:0:
256,192,99766,1,0,0:0:0:0:
256,192,99993,1,0,0:0:0:0:
256,192,100220,1,8,0:0:0:0:
256,192,100675,1,0,0:0:0:0:
256,192,100902,1,0,0:0:0:0:
256,192,101129,1,8,0:0:0:0:
256,192,101357,1,0,0:0:0:0:
256,192,101584,1,8,0:0:0:0:
256,192,101811,1,0,0:0:0:0:
256,192,102266,1,4,0:0:0:0:
256,192,102720,1,0,0:0:0:0:
256,192,102948,1,0,0:0:0:0:
256,192,103175,1,8,0:0:0:0:
256,192,103629,1,0,0:0:0:0:
256,192,104084,1,0,0:0:0:0:
256,192,104538,1,0,0:0:0:0:
256,192,104766,1,0,0:0:0:0:
256,192,104879,1,0,0:0:0:0:
256,192,104993,1,8,0:0:0:0:
256,192,105448,1,0,0:0:0:0:
256,192,105675,1,8,0:0:0:0:
256,192,105751,1,8,0:0:0:0:
256,192,105826,1,8,0:0:0:0:
256,192,105902,1,0,0:0:0:0:
256,192,106357,1,0,0:0:0:0:
256,192,106584,1,0,0:0:0:0:
256,192,106811,1,8,0:0:0:0:
256,192,107266,1,0,0:0:0:0:
256,192,107493,1,8,0:0:0:0:
256,192,107720,1,0,0:0:0:0:
256,192,108061,1,8,0:0:0:0:
256,192,108118,1,8,0:0:0:0:
256,192,108175,1,0,0:0:0:0:
256,192,108402,1,0,0:0:0:0:
256,192,108516,1,0,0:0:0:0:
256,192,108629,1,8,0:0:0:0:
256,192,108970,1,8,0:0:0:0:
256,192,109311,1,0,0:0:0:0:
256,192,109538,1,8,0:0:0:0:
256,192,109766,1,8,0:0:0:0:
256,192,109879,1,8,0:0:0:0:
256,192,109993,1,0,0:0:0:0:
256,192,110220,1,0,0:0:0:0:
256,192,110334,1,0,0:0:0:0:
256,192,110448,1,8,0:0:0:0:
256,192,110675,1,8,0:0:0:0:
256,192,110788,1,0,0:0:0:0:
256,192,110902,1,8,0:0:0:0:
256,192,111129,1,0,0:0:0:0:
256,192,111243,1,0,0:0:0:0:
256,192,111357,1,8,0:0:0:0:
256,192,111584,1,8,0:0:0:0:
256,192,111698,1,8,0:0:0:0:
256,192,111811,1,0,0:0:0:0:
256,192,112038,1,8,0:0:0:0:
256,192,112152,1,0,0:0:0:0:
256,192,112266,1,8,0:0:0:0:
256,192,112493,1,0,0:0:0:0:
256,192,112607,1,0,0:0:0:0:
256,192,112720,1,8,0:0:0:0:
256,192,112948,1,0,0:0:0:0:
256,192,113175,1,8,0:0:0:0:
256,192,113402,1,8,0:0:0:0:
256,192,113629,1,0,0:0:0:0:
256,192,113743,1,0,0:0:0:0:
256,192,113857,1,8,0:0:0:0:
256,192,113970,1,0,0:0:0:0:
256,192,114084,1,8,0:0:0:0:
256,192,114311,1,0,0:0:0:0:
256,192,114538,1,8,0:0:0:0:
256,192,114652,1,0,0:0:0:0:
256,192,114766,1,0,0:0:0:0:
256,192,114879,1,0,0:0:0:0:
256,192,114993,1,8,0:0:0:0:
256,192,115334,1,8,0:0:0:0:
256,192,115675,1,0,0:0:0:0:
256,192,115788,1,0,0:0:0:0:
256,192,115902,1,8,0:0:0:0:
256,192,116129,1,0,0:0:0:0:
256,192,116243,1,8,0:0:0:0:
256,192,116811,1,4,0:0:0:0:
256,192,118175,1,0,0:0:0:0:
256,192,118288,1,0,0:0:0:0:
256,192,118402,1,8,0:0:0:0:
256,192,118516,1,0,0:0:0:0:
256,192,118629,1,8,0:0:0:0:
256,192,119538,1,0,0:0:0:0:
256,192,119879,1,8,0:0:0:0:
256,192,120220,1,8,0:0:0:0:
256,192,120448,1,0,0:0:0:0:
256,192,120675,1,0,0:0:0:0:
256,192,120788,1,8,0:0:0:0:
256,192,120902,1,0,0:0:0:0:
256,192,121016,1,0,0:0:0:0:
256,192,121129,1,8,0:0:0:0:
256,192,121357,1,0,0:0:0:0:
256,192,121811,1,8,0:0:0:0:
256,192,121925,1,8,0:0:0:0:
256,192,122038,1,8,0:0:0:0:
256,192,122266,1,0,0:0:0:0:
256,192,123175,1,8,0:0:0:0:
256,192,123402,1,0,0:0:0:0:
256,192,123516,1,8,0:0:0:0:
256,192,123743,1,8,0:0:0:0:
256,192,123857,1,0,0:0:0:0:
256,192,123970,1,0,0:0:0:0:
256,192,124084,1,8,0:0:0:0:
256,192,124766,1,0,0:0:0:0:
256,192,125220,1,8,0:0:0:0:
256,192,125448,1,0,0:0:0:0:
256,192,125561,1,0,0:0:0:0:
256,192,125675,1,8,0:0:0:0:
256,192,125788,1,8,0:0:0:0:
256,192,125902,1,0,0:0:0:0:
256,192,126811,1,0,0:0:0:0:
256,192,127266,1,8,0:0:0:0:
256,192,127720,1,0,0:0:0:0:
256,192,128175,1,8,0:0:0:0:
256,192,128629,1,8,0:0:0:0:
256,192,129084,1,0,0:0:0:0:
256,192,129311,1,0,0:0:0:0:
256,192,129538,1,8,0:0:0:0:
256,192,130902,1,0,0:0:0:0:
256,192,131357,1,12,0:0:0:0:
256,192,132493,1,0,0:0:0:0:
256,192,132607,1,0,0:0:0:0:
256,192,132720,1,0,0:0:0:0:
256,192,133175,1,12,0:0:0:0:
256,192,134084,1,4,0:0:0:0:
256,192,134993,1,12,0:0:0:0:
256,192,136357,1,8,0:0:0:0:
256,192,136470,1,8,0:0:0:0:
256,192,136584,1,8,0:0:0:0:
256,192,136698,1,8,0:0:0:0:
256,192,136811,1,4,0:0:0:0:
256,192,137720,1,4,0:0:0:0:
256,192,138629,1,12,0:0:0:0:
256,192,139766,1,8,0:0:0:0:
256,192,139879,1,8,0:0:0:0:
256,192,139993,1,0,0:0:0:0:
256,192,140220,1,0,0:0:0:0:
256,192,140448,1,12,0:0:0:0:
256,192,141357,1,4,0:0:0:0:
256,192,142266,1,12,0:0:0:0:
256,192,142720,1,0,0:0:0:0:
256,192,143175,1,0,0:0:0:0:
256,192,143629,1,8,0:0:0:0:
256,192,143857,1,8,0:0:0:0:
256,192,144084,8,0,145220,0:0:0:0:
256,192,145448,5,8,0:0:0:0:
256,192,145902,1,4,0:0:0:0:
256,192,146357,1,4,0:0:0:0:
256,192,146584,1,8,0:0:0:0:
256,192,146698,1,8,0:0:0:0:
256,192,146811,1,0,0:0:0:0:
256,192,146925,1,0,0:0:0:0:
256,192,147038,1,8,0:0:0:0:
256,192,147152,1,0,0:0:0:0:
256,192,147266,1,8,0:0:0:0:
256,192,147720,1,0,0:0:0:0:
256,192,147948,1,8,0:0:0:0:
256,192,148061,1,8,0:0:0:0:
256,192,148175,1,0,0:0:0:0:
256,192,148402,1,8,0:0:0:0:
256,192,148516,1,0,0:0:0:0:
256,192,148629,1,8,0:0:0:0:
256,192,148857,1,0,0:0:0:0:
256,192,148970,1,0,0:0:0:0:
256,192,149084,1,8,0:0:0:0:
256,192,149198,1,8,0:0:0:0:
256,192,149311,1,8,0:0:0:0:
256,192,149425,1,0,0:0:0:0:
256,192,149538,1,8,0:0:0:0:
256,192,149652,1,8,0:0:0:0:
256,192,149766,1,0,0:0:0:0:
256,192,149879,1,0,0:0:0:0:
256,192,149993,1,8,0:0:0:0:
256,192,150107,1,0,0:0:0:0:
256,192,150220,1,8,0:0:0:0:
256,192,150448,1,0,0:0:0:0:
256,192,150675,1,8,0:0:0:0:
256,192,150788,1,8,0:0:0:0:
256,192,150902,1,0,0:0:0:0:
256,192,151016,1,0,0:0:0:0:
256,192,151129,1,0,0:0:0:0:
256,192,151243,1,0,0:0:0:0:
256,192,151357,1,8,0:0:0:0:
256,192,151584,1,8,0:0:0:0:
256,192,151811,1,0,0:0:0:0:
256,192,151925,1,0,0:0:0:0:
256,192,152038,1,8,0:0:0:0:
256,192,152152,1,8,0:0:0:0:
256,192,152266,1,0,0:0:0:0:
256,192,152379,1,0,0:0:0:0:
256,192,152493,1,8,0:0:0:0:
256,192,152607,1,0,0:0:0:0:
256,192,152720,1,8,0:0:0:0:
256,192,153175,1,4,0:0:0:0:
256,192,153629,1,8,0:0:0:0:
256,192,153743,1,0,0:0:0:0:
256,192,153857,1,8,0:0:0:0:
256,192,153970,1,8,0:0:0:0:
256,192,154084,1,8,0:0:0:0:
256,192,154198,1,0,0:0:0:0:
256,192,154311,1,8,0:0:0:0:
256,192,154425,1,0,0:0:0:0:
256,192,154538,1,8,0:0:0:0:
256,192,154652,1,8,0:0:0:0:
256,192,154766,1,0,0:0:0:0:
256,192,154879,1,0,0:0:0:0:
256,192,154993,1,8,0:0:0:0:
256,192,155107,1,0,0:0:0:0:
256,192,155220,1,8,0:0:0:0:
256,192,155334,1,8,0:0:0:0:
256,192,155448,1,8,0:0:0:0:
256,192,155675,1,8,0:0:0:0:
256,192,155902,1,0,0:0:0:0:
256,192,156129,1,0,0:0:0:0:
256,192,156243,1,0,0:0:0:0:
256,192,156357,1,8,0:0:0:0:
256,192,156470,1,8,0:0:0:0:
256,192,156584,1,0,0:0:0:0:
256,192,156698,1,8,0:0:0:0:
256,192,156811,1,4,0:0:0:0:
256,192,157266,1,4,0:0:0:0:
256,192,157720,1,4,0:0:0:0:
256,192,158175,1,4,0:0:0:0:
256,192,158402,1,8,0:0:0:0:
256,192,158629,1,4,0:0:0:0:
256,192,158857,8,0,159766,0:0:0:0:
256,192,159993,5,0,0:0:0:0:
256,192,160448,5,12,0:0:0:0:
256,192,160902,1,12,0:0:0:0:
256,192,161129,1,0,0:0:0:0:
256,192,161243,1,0,0:0:0:0:
256,192,161357,1,8,0:0:0:0:
256,192,161470,1,8,0:0:0:0:
256,192,161584,1,0,0:0:0:0:
256,192,161698,1,0,0:0:0:0:
256,192,161811,1,8,0:0:0:0:
256,192,162266,1,0,0:0:0:0:
256,192,162493,1,8,0:0:0:0:
256,192,162607,1,0,0:0:0:0:
256,192,162720,1,0,0:0:0:0:
256,192,162948,1,8,0:0:0:0:
256,192,163061,1,0,0:0:0:0:
256,192,163175,1,8,0:0:0:0:
256,192,163402,1,0,0:0:0:0:
256,192,163516,1,0,0:0:0:0:
256,192,163629,1,8,0:0:0:0:
256,192,163743,1,8,0:0:0:0:
256,192,163857,1,8,0:0:0:0:
256,192,163970,1,0,0:0:0:0:
256,192,164084,1,8,0:0:0:0:
256,192,164198,1,8,0:0:0:0:
256,192,164311,1,0,0:0:0:0:
256,192,164425,1,0,0:0:0:0:
256,192,164538,1,8,0:0:0:0:
256,192,164652,1,0,0:0:0:0:
256,192,164766,1,8,0:0:0:0:
256,192,164993,1,0,0:0:0:0:
256,192,165220,1,8,0:0:0:0:
256,192,165334,1,8,0:0:0:0:
256,192,165448,1,0,0:0:0:0:
256,192,165561,1,0,0:0:0:0:
256,192,165675,1,8,0:0:0:0:
256,192,165902,1,4,0:0:0:0:
256,192,166243,1,12,0:0:0:0:
256,192,166584,1,4,0:0:0:0:
256,192,166811,1,0,0:0:0:0:
256,192,166925,1,0,0:0:0:0:
256,192,167038,1,8,0:0:0:0:
256,192,167152,1,8,0:0:0:0:
256,192,167266,1,0,0:0:0:0:
256,192,167493,1,12,0:0:0:0:
256,192,168175,1,8,0:0:0:0:
256,192,168288,1,0,0:0:0:0:
256,192,168402,1,0,0:0:0:0:
256,192,168516,1,0,0:0:0:0:
256,192,168629,1,8,0:0:0:0:
256,192,168743,1,8,0:0:0:0:
256,192,168857,1,8,0:0:0:0:
256,192,168970,1,0,0:0:0:0:
256,192,169084,1,8,0:0:0:0:
256,192,169198,1,8,0:0:0:0:
256,192,169311,1,8,0:0:0:0:
256,192,169425,1,0,0:0:0:0:
256,192,169538,1,8,0:0:0:0:
256,192,169652,1,8,0:0:0:0:
256,192,169766,1,0,0:0:0:0:
256,192,169879,1,0,0:0:0:0:
256,192,169993,1,8,0:0:0:0:
256,192,170107,1,8,0:0:0:0:
256,192,170220,1,0,0:0:0:0:
256,192,170448,1,8,0:0:0:0:
256,192,170675,1,0,0:0:0:0:
256,192,170788,1,0,0:0:0:0:
256,192,170902,1,8,0:0:0:0:
256,192,171016,1,8,0:0:0:0:
256,192,171129,1,0,0:0:0:0:
256,192,171243,1,0,0:0:0:0:
256,192,171357,1,12,0:0:0:0:
256,192,171811,1,12,0:0:0:0:
256,192,172266,1,12,0:0:0:0:
256,192,172720,1,4,0:0:0:0:
256,192,172948,1,4,0:0:0:0:
256,192,173175,1,12,0:0:0:0:
256,192,173629,1,12,0:0:0:0:
256,192,174084,1,12,0:0:0:0:
256,192,174538,1,0,0:0:0:0:
256,192,174993,1,12,0:0:0:0:
256,192,175220,1,0,0:0:0:0:
256,192,175334,1,0,0:0:0:0:
256,192,175448,1,0,0:0:0:0:
256,192,175561,1,0,0:0:0:0:
256,192,175675,1,0,0:0:0:0:
256,192,175902,1,8,0:0:0:0:
256,192,176016,1,0,0:0:0:0:
256,192,176129,1,8,0:0:0:0:
256,192,176584,1,8,0:0:0:0:
256,192,176698,1,8,0:0:0:0:
256,192,176811,1,0,0:0:0:0:
256,192,177038,1,8,0:0:0:0:
256,192,177152,1,0,0:0:0:0:
256,192,177266,1,0,0:0:0:0:
256,192,177379,1,0,0:0:0:0:
256,192,177493,1,8,0:0:0:0:
256,192,177720,1,8,0:0:0:0:
288,192,177948,1,0,0:0:0:0:
288,192,178061,1,8,0:0:0:0:
288,192,178175,1,0,0:0:0:0:
288,192,178251,1,0,0:0:0:0:
288,192,178326,1,0,0:0:0:0:
288,192,178402,1,8,0:0:0:0:
288,192,178516,1,8,0:0:0:0:
288,192,178629,1,0,0:0:0:0:
288,192,178857,1,0,0:0:0:0:
288,192,178970,1,8,0:0:0:0:
288,192,179084,1,0,0:0:0:0:
288,192,179198,1,0,0:0:0:0:
288,192,179311,1,8,0:0:0:0:
288,192,179538,1,8,0:0:0:0:
256,192,179766,1,0,0:0:0:0:
256,192,179879,1,0,0:0:0:0:
288,192,179993,1,8,0:0:0:0:
288,192,180107,1,8,0:0:0:0:
288,192,180220,1,0,0:0:0:0:
288,192,180448,1,8,0:0:0:0:
288,192,180561,1,0,0:0:0:0:
288,192,180675,1,8,0:0:0:0:
288,192,180788,1,8,0:0:0:0:
288,192,180902,1,0,0:0:0:0:
288,192,181016,1,0,0:0:0:0:
288,192,181129,1,8,0:0:0:0:
288,192,181243,1,0,0:0:0:0:
288,192,181357,1,8,0:0:0:0:
288,192,181584,1,8,0:0:0:0:
288,192,181811,1,0,0:0:0:0:
256,192,182266,1,8,0:0:0:0:
256,192,182493,1,0,0:0:0:0:
256,192,182607,1,0,0:0:0:0:
256,192,182720,1,8,0:0:0:0:
256,192,182834,1,0,0:0:0:0:
256,192,182948,1,8,0:0:0:0:
256,192,183175,1,8,0:0:0:0:
288,192,183288,1,0,0:0:0:0:
288,192,183402,1,8,0:0:0:0:
288,192,183857,1,8,0:0:0:0:
256,192,184084,1,0,0:0:0:0:
256,192,184311,1,0,0:0:0:0:
256,192,184425,1,0,0:0:0:0:
256,192,184538,1,8,0:0:0:0:
256,192,184652,1,8,0:0:0:0:
256,192,184766,1,0,0:0:0:0:
256,192,184993,1,8,0:0:0:0:
288,192,185220,1,0,0:0:0:0:
288,192,185334,1,8,0:0:0:0:
288,192,185448,1,0,0:0:0:0:
288,192,185523,1,0,0:0:0:0:
288,192,185599,1,0,0:0:0:0:
288,192,185675,1,8,0:0:0:0:
288,192,185788,1,8,0:0:0:0:
256,192,185902,1,0,0:0:0:0:
256,192,186129,1,0,0:0:0:0:
256,192,186357,1,8,0:0:0:0:
256,192,186470,1,0,0:0:0:0:
256,192,186584,1,8,0:0:0:0:
288,192,186811,1,8,0:0:0:0:
288,192,187038,1,0,0:0:0:0:
288,192,187266,1,0,0:0:0:0:
288,192,187379,1,0,0:0:0:0:
288,192,187493,1,8,0:0:0:0:
288,192,187720,1,8,0:0:0:0:
288,192,187834,1,0,0:0:0:0:
288,192,187948,1,8,0:0:0:0:
288,192,188061,1,8,0:0:0:0:
288,192,188175,1,0,0:0:0:0:
288,192,188402,1,8,0:0:0:0:
288,192,188516,1,0,0:0:0:0:
288,192,188629,1,8,0:0:0:0:
288,192,188857,1,8,0:0:0:0:
288,192,188932,1,8,0:0:0:0:
288,192,189008,1,8,0:0:0:0:
288,192,189084,1,0,0:0:0:0:
288,192,189311,1,0,0:0:0:0:
256,192,189538,1,12,0:0:0:0:
256,192,189766,1,0,0:0:0:0:
256,192,189879,1,0,0:0:0:0:
256,192,189993,1,8,0:0:0:0:
256,192,190107,1,0,0:0:0:0:
256,192,190220,1,8,0:0:0:0:
256,192,190334,1,0,0:0:0:0:
256,192,190448,1,8,0:0:0:0:
256,192,190561,1,8,0:0:0:0:
256,192,190675,1,0,0:0:0:0:
256,192,190902,1,0,0:0:0:0:
256,192,191016,1,0,0:0:0:0:
256,192,191129,1,8,0:0:0:0:
256,192,191243,1,8,0:0:0:0:
256,192,191357,1,0,0:0:0:0:
256,192,191584,1,8,0:0:0:0:
256,192,191698,1,8,0:0:0:0:
256,192,191811,1,0,0:0:0:0:
256,192,191925,1,0,0:0:0:0:
256,192,192038,1,8,0:0:0:0:
256,192,192266,1,8,0:0:0:0:
288,192,192493,1,0,0:0:0:0:
288,192,192607,1,8,0:0:0:0:
288,192,192720,1,0,0:0:0:0:
288,192,192834,1,0,0:0:0:0:
288,192,192948,1,8,0:0:0:0:
288,192,193061,1,8,0:0:0:0:
288,192,193175,1,0,0:0:0:0:
288,192,193402,1,0,0:0:0:0:
288,192,193516,1,0,0:0:0:0:
288,192,193629,1,8,0:0:0:0:
288,192,193743,1,8,0:0:0:0:
288,192,193857,1,0,0:0:0:0:
288,192,193970,1,0,0:0:0:0:
288,192,194084,1,8,0:0:0:0:
256,192,194311,1,8,0:0:0:0:
256,192,194425,1,0,0:0:0:0:
288,192,194538,1,8,0:0:0:0:
288,192,194652,1,8,0:0:0:0:
288,192,194766,1,0,0:0:0:0:
288,192,194993,1,8,0:0:0:0:
288,192,195107,1,0,0:0:0:0:
288,192,195220,1,8,0:0:0:0:
288,192,195334,1,8,0:0:0:0:
288,192,195448,1,0,0:0:0:0:
288,192,195561,1,0,0:0:0:0:
288,192,195675,1,8,0:0:0:0:
288,192,195788,1,0,0:0:0:0:
288,192,195902,1,8,0:0:0:0:
288,192,196129,1,0,0:0:0:0:
288,192,196357,1,8,0:0:0:0:
256,192,196811,1,0,0:0:0:0:
256,192,197038,1,0,0:0:0:0:
256,192,197152,1,0,0:0:0:0:
256,192,197266,1,8,0:0:0:0:
256,192,197379,1,0,0:0:0:0:
256,192,197493,1,8,0:0:0:0:
256,192,197607,1,8,0:0:0:0:
256,192,197720,1,8,0:0:0:0:
288,192,197948,1,0,0:0:0:0:
288,192,198061,1,8,0:0:0:0:
288,192,198175,1,0,0:0:0:0:
288,192,198288,1,0,0:0:0:0:
288,192,198402,1,8,0:0:0:0:
256,192,198516,1,8,0:0:0:0:
256,192,198629,1,0,0:0:0:0:
256,192,198857,1,8,0:0:0:0:
256,192,198970,1,0,0:0:0:0:
256,192,199084,1,8,0:0:0:0:
256,192,199198,1,8,0:0:0:0:
256,192,199311,1,0,0:0:0:0:
256,192,199425,1,0,0:0:0:0:
256,192,199538,1,8,0:0:0:0:
288,192,199766,1,0,0:0:0:0:
288,192,199879,1,8,0:0:0:0:
288,192,199993,1,0,0:0:0:0:
288,192,200107,1,0,0:0:0:0:
288,192,200220,1,8,0:0:0:0:
288,192,200334,1,8,0:0:0:0:
288,192,200448,1,0,0:0:0:0:
288,192,200675,1,0,0:0:0:0:
288,192,200788,1,8,0:0:0:0:
288,192,200902,1,8,0:0:0:0:
288,192,201016,1,0,0:0:0:0:
288,192,201129,1,8,0:0:0:0:
256,192,201243,1,0,0:0:0:0:
288,192,201357,1,8,0:0:0:0:
288,192,201584,1,0,0:0:0:0:
256,192,201698,1,8,0:0:0:0:
288,192,201811,1,0,0:0:0:0:
288,192,201925,1,0,0:0:0:0:
288,192,202038,1,8,0:0:0:0:
288,192,202266,1,8,0:0:0:0:
288,192,202379,1,0,0:0:0:0:
288,192,202493,1,8,0:0:0:0:
288,192,202607,1,8,0:0:0:0:
288,192,202720,1,0,0:0:0:0:
256,192,202834,1,0,0:0:0:0:
288,192,202948,1,8,0:0:0:0:
288,192,203061,1,0,0:0:0:0:
288,192,203175,1,8,0:0:0:0:
288,192,203402,1,8,0:0:0:0:
288,192,203629,1,0,0:0:0:0:
256,192,204084,1,8,0:0:0:0:
256,192,204538,1,0,0:0:0:0:
256,192,204993,1,8,0:0:0:0:
256,192,205902,1,0,0:0:0:0:
256,192,206357,1,0,0:0:0:0:
256,192,206811,1,8,0:0:0:0:
256,192,207720,1,8,0:0:0:0:
256,192,208175,1,0,0:0:0:0:
256,192,208629,1,8,0:0:0:0:
256,192,209538,1,0,0:0:0:0:
256,192,209993,1,0,0:0:0:0:
256,192,210448,1,8,0:0:0:0:
256,192,210902,1,8,0:0:0:0:
256,192,211357,1,0,0:0:0:0:
256,192,211584,1,0,0:0:0:0:
256,192,211811,1,0,0:0:0:0:
256,192,212038,1,0,0:0:0:0:
256,192,212266,1,8,0:0:0:0:
256,192,212493,1,8,0:0:0:0:
256,192,212720,1,0,0:0:0:0:
256,192,212948,1,8,0:0:0:0:
256,192,213175,1,0,0:0:0:0:
256,192,213402,1,8,0:0:0:0:
256,192,213629,1,8,0:0:0:0:
256,192,213857,1,8,0:0:0:0:
256,192,214084,1,0,0:0:0:0:
256,192,214311,1,8,0:0:0:0:
256,192,214538,1,8,0:0:0:0:
256,192,214766,1,0,0:0:0:0:
256,192,214993,1,8,0:0:0:0:
256,192,215220,1,8,0:0:0:0:
256,192,215448,1,8,0:0:0:0:
256,192,215675,1,0,0:0:0:0:
256,192,215902,1,8,0:0:0:0:
256,192,216129,1,8,0:0:0:0:
256,192,216357,1,8,0:0:0:0:
256,192,216584,1,8,0:0:0:0:
256,192,216811,2,0,P|230:169|244:301,1,377.999979452134
256,192,218629,1,0,0:0:0:0:
256,192,218857,8,0,220220,0:0:0:0:
256,192,220448,5,8,0:0:0:0:
256,192,220561,1,0,0:0:0:0:
256,192,220675,1,8,0:0:0:0:
256,192,220788,1,8,0:0:0:0:
256,192,220902,1,8,0:0:0:0:
256,192,221129,1,0,0:0:0:0:
256,192,221243,1,0,0:0:0:0:
256,192,221357,1,8,0:0:0:0:
256,192,221470,1,8,0:0:0:0:
256,192,221584,1,0,0:0:0:0:
256,192,221698,1,0,0:0:0:0:
256,192,221811,1,8,0:0:0:0:
256,192,222038,1,0,0:0:0:0:
256,192,222152,1,0,0:0:0:0:
256,192,222266,1,8,0:0:0:0:
256,192,222379,1,0,0:0:0:0:
256,192,222493,1,8,0:0:0:0:
256,192,222607,1,0,0:0:0:0:
256,192,222720,1,8,0:0:0:0:
256,192,222948,1,0,0:0:0:0:
256,192,223061,1,0,0:0:0:0:
256,192,223175,1,8,0:0:0:0:
256,192,223402,1,8,0:0:0:0:
256,192,223516,1,8,0:0:0:0:
256,192,223629,1,0,0:0:0:0:
256,192,223743,1,0,0:0:0:0:
256,192,223857,1,8,0:0:0:0:
256,192,223970,1,8,0:0:0:0:
256,192,224084,1,0,0:0:0:0:
256,192,224311,1,0,0:0:0:0:
256,192,224425,1,0,0:0:0:0:
256,192,224538,1,8,0:0:0:0:
256,192,224766,1,0,0:0:0:0:
256,192,224879,1,8,0:0:0:0:
256,192,224993,1,8,0:0:0:0:
256,192,225220,1,0,0:0:0:0:
256,192,225334,1,0,0:0:0:0:
256,192,225448,1,8,0:0:0:0:
256,192,225561,1,0,0:0:0:0:
256,192,225902,1,8,0:0:0:0:
256,192,226016,1,8,0:0:0:0:
256,192,226129,1,0,0:0:0:0:
256,192,226243,1,0,0:0:0:0:
256,192,226357,1,8,0:0:0:0:
256,192,226584,1,8,0:0:0:0:
256,192,226698,1,8,0:0:0:0:
256,192,226811,1,0,0:0:0:0:
256,192,226925,1,8,0:0:0:0:
256,192,227038,1,8,0:0:0:0:
256,192,227152,1,8,0:0:0:0:
256,192,227266,1,0,0:0:0:0:
256,192,227720,1,8,0:0:0:0:
256,192,227834,1,8,0:0:0:0:
256,192,227948,1,0,0:0:0:0:
256,192,228061,1,8,0:0:0:0:
256,192,228175,1,0,0:0:0:0:
256,192,228288,1,0,0:0:0:0:
256,192,228402,1,8,0:0:0:0:
256,192,228629,1,8,0:0:0:0:
256,192,228743,1,0,0:0:0:0:
256,192,228857,1,8,0:0:0:0:
256,192,229084,1,0,0:0:0:0:
256,192,229198,1,0,0:0:0:0:
256,192,229311,1,8,0:0:0:0:
256,192,229538,1,8,0:0:0:0:
256,192,229652,1,8,0:0:0:0:
256,192,229766,1,0,0:0:0:0:
256,192,229879,1,0,0:0:0:0:
256,192,229993,1,8,0:0:0:0:
256,192,230107,1,0,0:0:0:0:
256,192,230220,1,0,0:0:0:0:
256,192,230334,1,0,0:0:0:0:
256,192,230448,1,8,0:0:0:0:
256,192,230561,1,8,0:0:0:0:
256,192,230675,1,0,0:0:0:0:
256,192,230902,1,8,0:0:0:0:
256,192,231016,1,8,0:0:0:0:
256,192,231129,1,0,0:0:0:0:
256,192,231243,1,0,0:0:0:0:
256,192,231357,1,8,0:0:0:0:
256,192,231584,8,0,232720,0:0:0:0:
256,192,233175,5,8,0:0:0:0:
256,192,233288,1,0,0:0:0:0:
256,192,233402,1,8,0:0:0:0:
256,192,233516,1,8,0:0:0:0:
256,192,233629,1,0,0:0:0:0:
256,192,233743,1,0,0:0:0:0:
256,192,233857,1,8,0:0:0:0:
256,192,233970,1,8,0:0:0:0:
256,192,234084,1,8,0:0:0:0:
256,192,234198,1,0,0:0:0:0:
256,192,234311,1,8,0:0:0:0:
256,192,234425,1,0,0:0:0:0:
256,192,234538,1,8,0:0:0:0:
256,192,234766,1,0,0:0:0:0:
256,192,234879,1,0,0:0:0:0:
256,192,234993,1,8,0:0:0:0:
256,192,235107,1,0,0:0:0:0:
256,192,235220,1,8,0:0:0:0:
256,192,235334,1,8,0:0:0:0:
256,192,235448,1,0,0:0:0:0:
256,192,235561,1,0,0:0:0:0:
256,192,235675,1,8,0:0:0:0:
256,192,235788,1,0,0:0:0:0:
256,192,235902,1,8,0:0:0:0:
256,192,236016,1,0,0:0:0:0:
256,192,236129,1,8,0:0:0:0:
256,192,236243,1,8,0:0:0:0:
256,192,236357,1,8,0:0:0:0:
256,192,236584,1,8,0:0:0:0:
256,192,236698,1,0,0:0:0:0:
256,192,236811,1,8,0:0:0:0:
256,192,236925,1,0,0:0:0:0:
256,192,237038,1,0,0:0:0:0:
256,192,237152,1,0,0:0:0:0:
256,192,237266,1,8,0:0:0:0:
256,192,237379,1,8,0:0:0:0:
256,192,237493,1,0,0:0:0:0:
256,192,237607,1,0,0:0:0:0:
256,192,237720,1,8,0:0:0:0:
256,192,237834,1,8,0:0:0:0:
256,192,237948,1,8,0:0:0:0:
256,192,238061,1,8,0:0:0:0:
256,192,238175,1,0,0:0:0:0:
256,192,238288,1,0,0:0:0:0:
256,192,238402,1,0,0:0:0:0:
256,192,238516,1,0,0:0:0:0:
256,192,238629,1,8,0:0:0:0:
256,192,238857,1,0,0:0:0:0:
256,192,238970,1,0,0:0:0:0:
256,192,239084,1,8,0:0:0:0:
256,192,239311,1,0,0:0:0:0:
256,192,239425,1,0,0:0:0:0:
256,192,239538,1,8,0:0:0:0:
256,192,239652,1,8,0:0:0:0:
256,192,239766,1,0,0:0:0:0:
256,192,239879,1,0,0:0:0:0:
256,192,239993,1,8,0:0:0:0:
256,192,240220,1,0,0:0:0:0:
256,192,240334,1,0,0:0:0:0:
256,192,240448,1,8,0:0:0:0:
256,192,240561,1,8,0:0:0:0:
256,192,240675,1,8,0:0:0:0:
256,192,240788,1,0,0:0:0:0:
256,192,240902,1,8,0:0:0:0:
256,192,241016,1,0,0:0:0:0:
256,192,241129,1,0,0:0:0:0:
256,192,241243,1,0,0:0:0:0:
256,192,241357,1,8,0:0:0:0:
256,192,241470,1,8,0:0:0:0:
256,192,241584,1,0,0:0:0:0:
256,192,241698,1,0,0:0:0:0:
256,192,241811,1,8,0:0:0:0:
256,192,242266,1,8,0:0:0:0:
256,192,242379,1,8,0:0:0:0:
256,192,242493,1,0,0:0:0:0:
256,192,242607,1,0,0:0:0:0:
256,192,242720,1,8,0:0:0:0:
256,192,242834,1,8,0:0:0:0:
256,192,242948,1,8,0:0:0:0:
256,192,243061,1,0,0:0:0:0:
256,192,243175,1,0,0:0:0:0:
256,192,243402,1,8,0:0:0:0:
256,192,243516,1,8,0:0:0:0:
256,192,243629,1,0,0:0:0:0:
256,192,243743,1,0,0:0:0:0:
256,192,243857,1,8,0:0:0:0:
256,192,244084,2,0,B|196:49|196:49|334:115|334:115|179:124|179:124|143:191|143:191|179:286,1,627.199992702637
256,192,246357,1,8,0:0:0:0:
256,192,246508,1,0,0:0:0:0:
256,192,246584,1,0,0:0:0:0:
256,192,246660,1,0,0:0:0:0:
256,192,246811,1,8,0:0:0:0:
256,192,246963,1,0,0:0:0:0:
256,192,247038,1,0,0:0:0:0:
256,192,247114,1,8,0:0:0:0:
256,192,247266,1,8,0:0:0:0:
256,192,247417,1,0,0:0:0:0:
256,192,247493,1,0,0:0:0:0:
256,192,247569,1,8,0:0:0:0:
256,192,247720,1,4,0:0:0:0:
256,192,248175,1,8,0:0:0:0:
256,192,248288,1,8,0:0:0:0:
256,192,248402,1,0,0:0:0:0:
256,192,248516,1,8,0:0:0:0:
256,192,248629,1,0,0:0:0:0:
256,192,248743,1,0,0:0:0:0:
256,192,248857,1,8,0:0:0:0:
256,192,248970,1,0,0:0:0:0:
256,192,249084,1,8,0:0:0:0:
256,192,249311,1,0,0:0:0:0:
256,192,249538,1,0,0:0:0:0:
256,192,249766,1,8,0:0:0:0:
256,192,249879,1,8,0:0:0:0:
256,192,249993,1,0,0:0:0:0:
256,192,250220,1,8,0:0:0:0:
256,192,250334,1,0,0:0:0:0:
256,192,250448,1,8,0:0:0:0:
256,192,250675,1,0,0:0:0:0:
256,192,250788,1,0,0:0:0:0:
256,192,250902,1,8,0:0:0:0:
256,192,251016,1,8,0:0:0:0:
256,192,251129,1,8,0:0:0:0:
256,192,251243,1,0,0:0:0:0:
256,192,251357,1,8,0:0:0:0:
256,192,251470,1,8,0:0:0:0:
256,192,251584,1,0,0:0:0:0:
256,192,251698,1,0,0:0:0:0:
256,192,251811,1,8,0:0:0:0:
256,192,251925,1,8,0:0:0:0:
256,192,252038,1,8,0:0:0:0:
256,192,252266,1,0,0:0:0:0:
256,192,252493,1,8,0:0:0:0:
256,192,252607,1,8,0:0:0:0:
256,192,252720,1,0,0:0:0:0:
256,192,252834,1,0,0:0:0:0:
256,192,252948,1,8,0:0:0:0:
256,192,253061,1,0,0:0:0:0:
256,192,253175,1,8,0:0:0:0:
256,192,253402,1,8,0:0:0:0:
256,192,253629,1,0,0:0:0:0:
256,192,253743,1,0,0:0:0:0:
256,192,253857,1,8,0:0:0:0:
256,192,253970,1,8,0:0:0:0:
256,192,254084,1,0,0:0:0:0:
256,192,254198,1,0,0:0:0:0:
256,192,254311,1,8,0:0:0:0:
256,192,254425,1,0,0:0:0:0:
256,192,254538,1,8,0:0:0:0:
256,192,254766,1,8,0:0:0:0:
256,192,254993,1,4,0:0:0:0:
256,192,255448,1,8,0:0:0:0:
256,192,255561,1,0,0:0:0:0:
256,192,255675,1,8,0:0:0:0:
256,192,255788,1,8,0:0:0:0:
256,192,255902,1,8,0:0:0:0:
256,192,256016,1,0,0:0:0:0:
256,192,256129,1,8,0:0:0:0:
256,192,256243,1,0,0:0:0:0:
256,192,256357,1,8,0:0:0:0:
256,192,256470,1,8,0:0:0:0:
256,192,256584,1,0,0:0:0:0:
256,192,256698,1,0,0:0:0:0:
256,192,256811,1,8,0:0:0:0:
256,192,256925,1,8,0:0:0:0:
256,192,257038,1,8,0:0:0:0:
256,192,257152,1,0,0:0:0:0:
256,192,257266,1,8,0:0:0:0:
256,192,257493,1,8,0:0:0:0:
256,192,257720,1,0,0:0:0:0:
256,192,257948,1,0,0:0:0:0:
256,192,258061,1,0,0:0:0:0:
256,192,258175,1,8,0:0:0:0:
256,192,258288,1,8,0:0:0:0:
256,192,258402,1,0,0:0:0:0:
256,192,258516,1,8,0:0:0:0:
256,192,258629,1,4,0:0:0:0:
256,192,259084,1,4,0:0:0:0:
256,192,259538,1,4,0:0:0:0:
256,192,259993,1,4,0:0:0:0:
256,192,260220,1,8,0:0:0:0:
256,192,260448,1,4,0:0:0:0:
256,192,260675,8,0,261584,0:0:0:0:
256,192,261811,5,0,0:0:0:0:
256,192,262266,5,12,0:0:0:0:
256,192,262720,1,12,0:0:0:0:
256,192,262948,1,0,0:0:0:0:
256,192,263061,1,0,0:0:0:0:
256,192,263175,1,8,0:0:0:0:
256,192,263288,1,0,0:0:0:0:
256,192,263402,1,8,0:0:0:0:
256,192,263516,1,8,0:0:0:0:
256,192,263629,1,8,0:0:0:0:
256,192,263857,1,8,0:0:0:0:
256,192,264084,1,0,0:0:0:0:
256,192,264311,1,8,0:0:0:0:
256,192,264425,1,8,0:0:0:0:
256,192,264538,1,0,0:0:0:0:
256,192,264766,1,8,0:0:0:0:
256,192,264879,1,0,0:0:0:0:
256,192,264993,1,8,0:0:0:0:
256,192,265220,1,0,0:0:0:0:
256,192,265334,1,0,0:0:0:0:
256,192,265448,1,8,0:0:0:0:
256,192,265561,1,0,0:0:0:0:
256,192,265675,1,8,0:0:0:0:
256,192,265788,1,0,0:0:0:0:
256,192,265902,1,8,0:0:0:0:
256,192,266016,1,8,0:0:0:0:
256,192,266129,1,0,0:0:0:0:
256,192,266243,1,0,0:0:0:0:
256,192,266357,1,8,0:0:0:0:
256,192,266470,1,0,0:0:0:0:
256,192,266584,1,8,0:0:0:0:
256,192,266811,1,0,0:0:0:0:
256,192,267038,1,8,0:0:0:0:
256,192,267152,1,8,0:0:0:0:
256,192,267266,1,0,0:0:0:0:
256,192,267379,1,0,0:0:0:0:
256,192,267493,1,8,0:0:0:0:
256,192,267720,1,4,0:0:0:0:
256,192,268061,1,12,0:0:0:0:
256,192,268402,1,4,0:0:0:0:
256,192,268857,1,8,0:0:0:0:
256,192,268970,1,8,0:0:0:0:
256,192,269084,1,0,0:0:0:0:
256,192,269311,1,12,0:0:0:0:
256,192,269993,1,8,0:0:0:0:
256,192,270107,1,0,0:0:0:0:
256,192,270220,1,0,0:0:0:0:
256,192,270334,1,0,0:0:0:0:
256,192,270448,1,8,0:0:0:0:
256,192,270561,1,8,0:0:0:0:
256,192,270675,1,8,0:0:0:0:
256,192,270788,1,0,0:0:0:0:
256,192,270902,1,8,0:0:0:0:
256,192,271016,1,0,0:0:0:0:
256,192,271129,1,8,0:0:0:0:
256,192,271243,1,0,0:0:0:0:
256,192,271357,1,8,0:0:0:0:
256,192,271470,1,8,0:0:0:0:
256,192,271584,1,0,0:0:0:0:
256,192,271698,1,0,0:0:0:0:
256,192,271811,1,8,0:0:0:0:
256,192,271925,1,8,0:0:0:0:
256,192,272038,1,0,0:0:0:0:
256,192,272266,1,8,0:0:0:0:
256,192,272493,1,0,0:0:0:0:
256,192,272607,1,0,0:0:0:0:
256,192,272720,1,8,0:0:0:0:
256,192,272834,1,8,0:0:0:0:
256,192,272948,1,0,0:0:0:0:
256,192,273061,1,0,0:0:0:0:
256,192,273175,1,12,0:0:0:0:
256,192,273629,1,12,0:0:0:0:
256,192,274084,1,12,0:0:0:0:
256,192,274538,1,4,0:0:0:0:
256,192,274766,1,4,0:0:0:0:
256,192,274993,1,12,0:0:0:0:
256,192,275448,1,0,0:0:0:0:
256,192,275902,1,0,0:0:0:0:
256,192,276357,1,0,0:0:0:0:
256,192,276811,1,12,0:0:0:0:
256,192,280448,1,0,0:0:0:0:
256,192,284084,1,8,0:0:0:0:
256,192,287720,1,0,0:0:0:0:
256,192,289538,1,0,0:0:0:0:
256,192,291357,1,8,0:0:0:0:
256,192,292266,1,8,0:0:0:0:
256,192,293175,1,0,0:0:0:0:
256,192,294993,1,8,0:0:0:0:
256,192,295902,1,0,0:0:0:0:
256,192,296811,1,8,0:0:0:0:
256,192,298629,1,0,0:0:0:0:
256,192,299538,1,0,0:0:0:0:
256,192,300448,1,8,0:0:0:0:
256,192,301357,1,0,0:0:0:0:
256,192,302266,1,8,0:0:0:0:
256,192,302720,1,0,0:0:0:0:
256,192,303175,1,8,0:0:0:0:
256,192,303629,1,0,0:0:0:0:
256,192,304084,1,8,0:0:0:0:
256,192,304538,1,8,0:0:0:0:
256,192,304993,1,0,0:0:0:0:
256,192,305448,1,8,0:0:0:0:
256,192,307720,5,12,0:0:0:0:
256,192,308175,1,4,0:0:0:0:
256,192,308402,1,12,0:0:0:0:
256,192,308629,1,12,0:0:0:0:
256,192,308857,1,0,0:0:0:0:
256,192,308970,1,0,0:0:0:0:
256,192,309084,1,8,0:0:0:0:
256,192,309198,1,8,0:0:0:0:
256,192,309311,1,0,0:0:0:0:
256,192,309538,1,0,0:0:0:0:
256,192,309766,1,8,0:0:0:0:
256,192,309879,1,8,0:0:0:0:
256,192,309993,1,0,0:0:0:0:
256,192,310220,1,8,0:0:0:0:
256,192,310296,1,8,0:0:0:0:
256,192,310372,1,8,0:0:0:0:
256,192,310448,1,0,0:0:0:0:
256,192,310561,1,0,0:0:0:0:
256,192,310675,1,8,0:0:0:0:
256,192,310788,1,0,0:0:0:0:
256,192,310902,1,8,0:0:0:0:
256,192,311016,1,8,0:0:0:0:
256,192,311129,1,0,0:0:0:0:
256,192,311243,1,0,0:0:0:0:
256,192,311357,1,12,0:0:0:0:
256,192,311584,1,12,0:0:0:0:
256,192,311811,1,12,0:0:0:0:
256,192,312038,1,12,0:0:0:0:
256,192,312266,1,0,0:0:0:0:
256,192,312493,1,8,0:0:0:0:
256,192,312607,1,8,0:0:0:0:
256,192,312720,1,0,0:0:0:0:
256,192,312834,1,0,0:0:0:0:
256,192,312948,1,8,0:0:0:0:
256,192,313061,1,0,0:0:0:0:
256,192,313175,1,8,0:0:0:0:
256,192,313288,1,8,0:0:0:0:
256,192,313402,1,8,0:0:0:0:
256,192,313629,1,0,0:0:0:0:
256,192,313857,1,8,0:0:0:0:
256,192,313970,1,8,0:0:0:0:
256,192,314084,1,0,0:0:0:0:
256,192,314198,1,8,0:0:0:0:
256,192,314311,1,0,0:0:0:0:
256,192,314538,1,8,0:0:0:0:
256,192,314652,1,0,0:0:0:0:
256,192,314766,1,0,0:0:0:0:
256,192,314879,1,0,0:0:0:0:
256,192,314993,1,12,0:0:0:0:
256,192,315448,1,0,0:0:0:0:
256,192,315561,1,8,0:0:0:0:
256,192,315675,1,0,0:0:0:0:
256,192,315788,1,0,0:0:0:0:
256,192,315902,1,8,0:0:0:0:
256,192,316016,1,8,0:0:0:0:
256,192,316129,1,0,0:0:0:0:
256,192,316243,1,0,0:0:0:0:
256,192,316357,1,8,0:0:0:0:
256,192,316470,1,0,0:0:0:0:
256,192,316584,1,8,0:0:0:0:
256,192,316698,1,0,0:0:0:0:
256,192,316811,1,8,0:0:0:0:
256,192,316925,1,8,0:0:0:0:
256,192,317038,1,0,0:0:0:0:
256,192,317152,1,0,0:0:0:0:
256,192,317266,1,12,0:0:0:0:
256,192,317493,1,12,0:0:0:0:
256,192,317720,1,4,0:0:0:0:
256,192,317948,1,8,0:0:0:0:
256,192,318061,1,8,0:0:0:0:
256,192,318175,1,0,0:0:0:0:
256,192,318288,1,8,0:0:0:0:
256,192,318402,1,0,0:0:0:0:
256,192,318516,1,0,0:0:0:0:
256,192,318629,1,12,0:0:0:0:
256,192,319084,1,12,0:0:0:0:
256,192,319538,1,12,0:0:0:0:
256,192,319993,1,4,0:0:0:0:
256,192,320220,1,4,0:0:0:0:
256,192,320448,1,12,0:0:0:0:
256,192,320902,1,0,0:0:0:0:
256,192,321016,1,0,0:0:0:0:
256,192,321129,1,12,0:0:0:0:
256,192,321584,1,0,0:0:0:0:
256,192,321698,1,0,0:0:0:0:
256,192,321811,1,8,0:0:0:0:
256,192,321925,1,8,0:0:0:0:
256,192,322038,1,0,0:0:0:0:
256,192,322152,1,0,0:0:0:0:
256,192,322266,1,12,0:0:0:0:
256,192,322720,1,12,0:0:0:0:
256,192,322948,1,0,0:0:0:0:
256,192,323061,1,0,0:0:0:0:
256,192,323175,1,8,0:0:0:0:
256,192,323288,1,0,0:0:0:0:
256,192,323402,1,8,0:0:0:0:
256,192,323516,1,8,0:0:0:0:
256,192,323629,1,0,0:0:0:0:
256,192,323743,1,0,0:0:0:0:
256,192,323857,1,8,0:0:0:0:
256,192,324084,1,0,0:0:0:0:
256,192,324198,1,0,0:0:0:0:
256,192,324311,1,8,0:0:0:0:
256,192,324425,1,8,0:0:0:0:
256,192,324538,1,0,0:0:0:0:
256,192,324766,1,8,0:0:0:0:
256,192,324841,1,8,0:0:0:0:
256,192,324917,1,8,0:0:0:0:
256,192,324993,1,0,0:0:0:0:
256,192,325107,1,0,0:0:0:0:
256,192,325220,1,8,0:0:0:0:
256,192,325334,1,0,0:0:0:0:
256,192,325448,1,8,0:0:0:0:
256,192,325561,1,8,0:0:0:0:
256,192,325675,1,0,0:0:0:0:
256,192,325788,1,0,0:0:0:0:
256,192,325902,1,12,0:0:0:0:
256,192,326129,1,12,0:0:0:0:
256,192,326357,1,12,0:0:0:0:
256,192,326584,1,12,0:0:0:0:
256,192,326811,1,0,0:0:0:0:
256,192,326925,1,0,0:0:0:0:
256,192,327038,1,8,0:0:0:0:
256,192,327152,1,0,0:0:0:0:
256,192,327266,1,8,0:0:0:0:
256,192,327720,1,4,0:0:0:0:
256,192,328061,1,12,0:0:0:0:
256,192,328402,1,0,0:0:0:0:
256,192,328629,1,0,0:0:0:0:
256,192,328743,1,0,0:0:0:0:
256,192,328857,1,12,0:0:0:0:
256,192,329311,1,12,0:0:0:0:
256,192,329993,1,8,0:0:0:0:
256,192,330107,1,8,0:0:0:0:
256,192,330220,1,0,0:0:0:0:
256,192,330334,1,0,0:0:0:0:
256,192,330448,1,8,0:0:0:0:
256,192,330561,1,0,0:0:0:0:
256,192,330675,1,8,0:0:0:0:
256,192,330788,1,8,0:0:0:0:
256,192,330902,1,8,0:0:0:0:
256,192,331016,1,0,0:0:0:0:
256,192,331129,1,0,0:0:0:0:
256,192,331243,1,0,0:0:0:0:
256,192,331357,1,8,0:0:0:0:
256,192,331470,1,8,0:0:0:0:
256,192,331584,1,0,0:0:0:0:
256,192,331811,1,8,0:0:0:0:
256,192,331925,1,8,0:0:0:0:
256,192,332038,1,0,0:0:0:0:
256,192,332152,1,0,0:0:0:0:
256,192,332266,1,8,0:0:0:0:
256,192,332493,1,8,0:0:0:0:
256,192,332607,1,8,0:0:0:0:
256,192,332720,1,0,0:0:0:0:
256,192,332834,1,8,0:0:0:0:
256,192,332948,1,0,0:0:0:0:
256,192,333061,1,0,0:0:0:0:
256,192,333175,1,12,0:0:0:0:
256,192,333629,1,12,0:0:0:0:
256,192,334084,1,12,0:0:0:0:
256,192,334538,1,4,0:0:0:0:
256,192,334766,1,4,0:0:0:0:
256,192,334993,1,12,0:0:0:0:
256,192,335448,1,12,0:0:0:0:
256,192,335902,1,12,0:0:0:0:
256,192,336357,1,0,0:0:0:0:
256,192,336811,1,12,0:0:0:0:
256,192,337038,1,0,0:0:0:0:
256,192,337266,1,8,0:0:0:0:
256,192,337493,1,0,0:0:0:0:
256,192,337607,1,0,0:0:0:0:
256,192,337720,1,8,0:0:0:0:
256,192,337948,1,8,0:0:0:0:
256,192,338175,1,0,0:0:0:0:
256,192,338629,1,8,0:0:0:0:
256,192,338857,1,0,0:0:0:0:
256,192,338970,1,0,0:0:0:0:
256,192,339084,1,8,0:0:0:0:
256,192,339311,1,8,0:0:0:0:
256,192,339425,1,8,0:0:0:0:
256,192,339538,1,0,0:0:0:0:
256,192,339652,1,0,0:0:0:0:
256,192,339766,1,8,0:0:0:0:
256,192,339993,1,8,0:0:0:0:
256,192,340448,1,8,0:0:0:0:
256,192,340675,1,0,0:0:0:0:
256,192,340902,1,8,0:0:0:0:
256,192,341129,1,0,0:0:0:0:
256,192,341243,1,0,0:0:0:0:
256,192,341357,1,8,0:0:0:0:
256,192,341584,1,8,0:0:0:0:
256,192,341811,1,0,0:0:0:0:
256,192,342266,1,8,0:0:0:0:
256,192,342493,1,0,0:0:0:0:
256,192,342607,1,0,0:0:0:0:
256,192,342720,1,8,0:0:0:0:
256,192,342948,1,0,0:0:0:0:
256,192,343061,1,0,0:0:0:0:
256,192,343175,1,8,0:0:0:0:
256,192,343288,1,0,0:0:0:0:
256,192,343402,1,8,0:0:0:0:
256,192,343629,1,8,0:0:0:0:
256,192,344084,1,8,0:0:0:0:
256,192,344311,1,0,0:0:0:0:
256,192,344538,1,8,0:0:0:0:
256,192,344766,1,0,0:0:0:0:
256,192,344993,1,8,0:0:0:0:
256,192,345220,1,8,0:0:0:0:
256,192,345448,1,8,0:0:0:0:
256,192,345902,1,8,0:0:0:0:
256,192,346129,1,0,0:0:0:0:
256,192,346243,1,0,0:0:0:0:
256,192,346357,1,8,0:0:0:0:
256,192,346584,1,0,0:0:0:0:
256,192,346811,1,8,0:0:0:0:
256,192,347038,1,8,0:0:0:0:
256,192,347266,1,0,0:0:0:0:
256,192,347720,1,8,0:0:0:0:
256,192,347948,1,0,0:0:0:0:
256,192,348175,1,8,0:0:0:0:
256,192,348402,1,0,0:0:0:0:
256,192,348629,1,8,0:0:0:0:
256,192,348857,1,0,0:0:0:0:
256,192,349084,1,8,0:0:0:0:
256,192,349538,1,8,0:0:0:0:
256,192,349766,1,0,0:0:0:0:
256,192,349993,1,8,0:0:0:0:
256,192,350220,1,0,0:0:0:0:
256,192,350448,1,8,0:0:0:0:
256,192,350675,1,8,0:0:0:0:
256,192,350902,1,0,0:0:0:0:
256,192,351357,1,12,0:0:0:0:
256,192,351584,1,0,0:0:0:0:
256,192,351698,1,0,0:0:0:0:
256,192,351811,1,8,0:0:0:0:
256,192,352038,1,0,0:0:0:0:
256,192,352266,1,0,0:0:0:0:
256,192,352493,1,8,0:0:0:0:
256,192,352720,1,8,0:0:0:0:
256,192,353175,1,8,0:0:0:0:
256,192,353402,1,0,0:0:0:0:
256,192,353516,1,0,0:0:0:0:
256,192,353629,1,8,0:0:0:0:
256,192,353857,1,0,0:0:0:0:
256,192,354084,1,0,0:0:0:0:
256,192,354311,1,8,0:0:0:0:
256,192,354425,1,0,0:0:0:0:
256,192,354538,1,8,0:0:0:0:
256,192,354993,1,8,0:0:0:0:
256,192,355220,1,0,0:0:0:0:
256,192,355334,1,0,0:0:0:0:
256,192,355448,1,8,0:0:0:0:
256,192,355675,1,0,0:0:0:0:
256,192,355902,1,0,0:0:0:0:
256,192,356129,1,8,0:0:0:0:
256,192,356357,1,8,0:0:0:0:
256,192,356811,1,8,0:0:0:0:
256,192,357038,1,0,0:0:0:0:
256,192,357152,1,0,0:0:0:0:
256,192,357266,1,8,0:0:0:0:
256,192,357493,1,0,0:0:0:0:
256,192,357720,1,0,0:0:0:0:
256,192,357948,1,8,0:0:0:0:
256,192,358061,1,0,0:0:0:0:
256,192,358175,1,8,0:0:0:0:
256,192,358402,1,0,0:0:0:0:
256,192,358478,1,0,0:0:0:0:
256,192,358554,1,0,0:0:0:0:
256,192,358629,1,8,0:0:0:0:
256,192,358743,1,0,0:0:0:0:
256,192,358857,1,0,0:0:0:0:
256,192,358970,1,0,0:0:0:0:
256,192,359084,1,8,0:0:0:0:
256,192,359198,1,8,0:0:0:0:
256,192,359311,1,0,0:0:0:0:
256,192,359425,1,0,0:0:0:0:
256,192,359538,1,8,0:0:0:0:
256,192,359652,1,8,0:0:0:0:
256,192,359766,1,0,0:0:0:0:
256,192,359879,1,0,0:0:0:0:
256,192,359993,1,8,0:0:0:0:
256,192,360107,1,0,0:0:0:0:
256,192,360220,1,8,0:0:0:0:
256,192,360334,1,0,0:0:0:0:
256,192,360448,1,8,0:0:0:0:
256,192,360561,1,8,0:0:0:0:
256,192,360675,1,0,0:0:0:0:
256,192,360788,1,0,0:0:0:0:
256,192,360902,1,8,0:0:0:0:
256,192,361016,1,8,0:0:0:0:
256,192,361129,1,0,0:0:0:0:
256,192,361243,1,0,0:0:0:0:
256,192,361357,1,8,0:0:0:0:
256,192,361470,1,0,0:0:0:0:
256,192,361584,1,8,0:0:0:0:
256,192,361698,1,8,0:0:0:0:
256,192,361811,1,8,0:0:0:0:
256,192,361925,1,0,0:0:0:0:
256,192,362038,1,0,0:0:0:0:
256,192,362152,1,0,0:0:0:0:
256,192,362266,1,8,0:0:0:0:
256,192,362379,1,8,0:0:0:0:
256,192,362493,1,0,0:0:0:0:
256,192,362607,1,0,0:0:0:0:
256,192,362720,1,8,0:0:0:0:
256,192,362834,1,0,0:0:0:0:
256,192,362948,1,0,0:0:0:0:
256,192,363061,1,0,0:0:0:0:
256,192,363175,1,8,0:0:0:0:
256,192,363288,1,8,0:0:0:0:
256,192,363402,1,0,0:0:0:0:
256,192,363516,1,0,0:0:0:0:
256,192,363629,1,8,0:0:0:0:
256,192,363743,1,0,0:0:0:0:
256,192,363857,1,0,0:0:0:0:
256,192,363970,1,0,0:0:0:0:
256,192,364084,1,8,0:0:0:0:
256,192,364198,1,8,0:0:0:0:
256,192,364311,1,0,0:0:0:0:
256,192,364425,1,0,0:0:0:0:
256,192,364538,1,8,0:0:0:0:
256,192,364652,1,0,0:0:0:0:
256,192,364766,1,0,0:0:0:0:
256,192,364879,1,0,0:0:0:0:
256,192,364993,1,8,0:0:0:0:
256,192,365107,1,0,0:0:0:0:
256,192,365220,1,0,0:0:0:0:
256,192,365334,1,0,0:0:0:0:
256,192,365448,1,8,0:0:0:0:
256,192,365561,1,8,0:0:0:0:
256,192,365675,1,8,0:0:0:0:
256,192,365788,1,8,0:0:0:0:
256,192,365902,8,0,373175,0:0:0:0:
