osu file format v14

[General]
AudioFilename: Magic.mp3
AudioLeadIn: 0
PreviewTime: 139
Countdown: 0
SampleSet: Soft
StackLeniency: 0.3
Mode: 0
LetterboxInBreaks: 1
WidescreenStoryboard: 1

[Editor]
DistanceSpacing: 0.9
BeatDivisor: 8
GridSize: 4
TimelineZoom: 3.700004

[Metadata]
Title:Magic (Original Mix)
TitleUnicode:Magic (Original Mix)
Artist:Nhato
ArtistUnicode:Nhato
Creator:KogumaX
Version:AR10
Source:
Tags:cysmix voodooism kusemono records electro house
BeatmapID:0
BeatmapSetID:307275

[Difficulty]
HPDrainRate:7
CircleSize:4.2
OverallDifficulty:8
ApproachRate:10
SliderMultiplier:2.56
SliderTickRate:2

[Events]
//Background and Video events
0,0,"Magic.jpg",0,0
//Break Periods
2,180339,191876
//Storyboard Layer 0 (Background)
//Storyboard Layer 1 (Fail)
//Storyboard Layer 2 (Pass)
//Storyboard Layer 3 (Foreground)
//Storyboard Sound Samples

[TimingPoints]
139,468.75,4,2,1,50,1,0
373,-400,4,2,1,50,0,0
11506,-400,4,2,1,5,0,0
11623,-400,4,2,1,50,0,0
11974,-400,4,2,1,5,0,0
12092,-400,4,2,1,50,0,0
12443,-400,4,2,1,5,0,0
12560,-400,4,2,1,50,0,0
12912,-400,4,2,1,5,0,0
13029,-400,4,2,1,50,0,0
13381,-400,4,2,1,5,0,0
13498,-400,4,2,1,50,0,0
13849,-400,4,2,1,5,0,0
13967,-400,4,2,1,50,0,0
14318,-400,4,2,1,5,0,0
14435,-400,4,2,1,50,0,0
14787,-400,4,2,1,5,0,0
14904,-400,4,2,1,50,0,0
15373,-200,4,2,1,50,0,0
16193,-200,4,2,1,5,0,0
16310,-200,4,2,1,50,0,0
17599,-200,4,2,1,5,0,0
17717,-200,4,2,1,50,0,0
19474,-200,4,2,1,5,0,0
19592,-200,4,2,1,50,0,0
19943,-200,4,2,1,5,0,0
20060,-200,4,2,1,50,0,0
20412,-200,4,2,1,5,0,0
20529,-200,4,2,1,50,0,0
20881,-200,4,2,1,5,0,0
20998,-200,4,2,1,50,0,0
22756,-200,4,2,99,5,0,0
26623,-200,4,2,1,50,0,0
30139,-100,4,2,20,65,0,0
30256,-100,4,2,1,5,0,0
30373,-133.333333333333,4,2,1,65,0,0
30607,-133.333333333333,4,2,20,65,0,0
30842,-133.333333333333,4,2,1,65,0,0
31076,-133.333333333333,4,2,20,65,0,0
31310,-133.333333333333,4,2,1,65,0,0
31545,-133.333333333333,4,2,20,65,0,0
31779,-133.333333333333,4,2,1,65,0,0
32014,-133.333333333333,4,2,20,65,0,0
32248,-133.333333333333,4,2,1,65,0,0
32482,-133.333333333333,4,2,20,65,0,0
32717,-133.333333333333,4,2,1,65,0,0
32951,-133.333333333333,4,2,20,65,0,0
33185,-133.333333333333,4,2,1,65,0,0
33420,-133.333333333333,4,2,20,65,0,0
33654,-133.333333333333,4,2,1,65,0,0
33889,-133.333333333333,4,2,20,65,0,0
34123,-133.333333333333,4,2,1,65,0,0
34357,-133.333333333333,4,2,20,65,0,0
34592,-133.333333333333,4,2,1,65,0,0
34826,-133.333333333333,4,2,20,65,0,0
35060,-133.333333333333,4,2,1,65,0,0
35295,-133.333333333333,4,2,20,65,0,0
35529,-133.333333333333,4,2,1,65,0,0
35764,-133.333333333333,4,2,20,65,0,0
35998,-133.333333333333,4,2,1,65,0,0
36232,-133.333333333333,4,2,20,65,0,0
36467,-133.333333333333,4,2,1,65,0,0
36701,-133.333333333333,4,2,20,65,0,0
36935,-133.333333333333,4,2,1,65,0,0
37170,-133.333333333333,4,2,20,65,0,0
37404,-133.333333333333,4,2,1,65,0,0
37639,-133.333333333333,4,2,20,65,0,0
37873,-133.333333333333,4,2,1,65,0,0
38107,-133.333333333333,4,2,20,65,0,0
38221,-133.333333333333,4,2,1,5,0,0
38342,-133.333333333333,4,2,1,65,0,0
38576,-133.333333333333,4,2,20,65,0,0
38693,-133.333333333333,4,2,1,5,0,0
38810,-133.333333333333,4,2,1,65,0,0
39045,-133.333333333333,4,2,20,65,0,0
39279,-133.333333333333,4,2,1,65,0,0
39514,-133.333333333333,4,2,20,65,0,0
39631,-133.333333333333,4,2,1,5,0,0
39748,-133.333333333333,4,2,1,65,0,0
39982,-133.333333333333,4,2,20,65,0,0
40217,-133.333333333333,4,2,1,65,0,0
40451,-133.333333333333,4,2,20,65,0,0
40568,-133.333333333333,4,2,1,5,0,0
40685,-133.333333333333,4,2,1,65,0,0
40920,-133.333333333333,4,2,20,65,0,0
41037,-133.333333333333,4,2,1,5,0,0
41154,-133.333333333333,4,2,1,65,0,0
41389,-133.333333333333,4,2,20,65,0,0
41623,-133.333333333333,4,2,1,65,0,0
41857,-133.333333333333,4,2,20,65,0,0
42092,-133.333333333333,4,2,1,65,0,0
42326,-133.333333333333,4,2,20,65,0,0
42560,-133.333333333333,4,2,1,65,0,0
42795,-133.333333333333,4,2,20,65,0,0
43029,-133.333333333333,4,2,1,65,0,0
43264,-133.333333333333,4,2,20,65,0,0
43498,-133.333333333333,4,2,1,65,0,0
43732,-133.333333333333,4,2,20,65,0,0
43967,-133.333333333333,4,2,1,65,0,0
44201,-133.333333333333,4,2,20,65,0,0
44435,-133.333333333333,4,2,1,65,0,0
44670,-79.9999999999999,4,2,1,75,0,0
45021,-79.9999999999999,4,2,1,5,0,0
45139,-133.333333333333,4,2,1,70,0,0
47482,-133.333333333333,4,2,10,70,0,0
47599,-133.333333333333,4,2,1,5,0,0
47717,-133.333333333333,4,2,1,70,0,0
48420,-133.333333333333,4,2,10,70,0,0
48537,-133.333333333333,4,2,1,5,0,0
48654,-133.333333333333,4,2,1,70,0,0
50764,-133.333333333333,4,2,10,70,0,0
50881,-133.333333333333,4,2,1,5,0,0
50998,-133.333333333333,4,2,1,70,0,0
51701,-133.333333333333,4,2,10,70,0,0
52404,-133.333333333333,4,2,1,70,0,0
59435,-200,4,2,1,70,0,0
59670,-200,4,2,10,70,0,0
59787,-200,4,2,10,5,0,0
59904,-400,4,2,1,70,0,0
60080,-400,4,2,1,5,0,0
60139,-133.333333333333,4,2,1,75,0,0
60607,-100,4,2,2,75,0,0
75139,-100,4,2,3,40,0,0
75256,-100,4,2,2,75,0,0
75373,-100,4,2,3,40,0,0
75490,-100,4,2,2,75,0,0
75607,-100,4,2,3,40,0,0
75959,-100,4,2,3,70,0,0
76076,-100,4,2,3,40,0,0
76193,-100,4,2,3,70,0,0
76310,-100,4,2,3,40,0,0
76662,-100,4,2,3,70,0,0
76779,-100,4,2,3,40,0,0
76896,-100,4,2,3,70,0,0
77014,-100,4,2,3,40,0,0
77365,-133.333333333333,4,2,3,70,0,0
77482,-100,4,2,3,40,0,0
77834,-100,4,2,3,70,0,0
77951,-100,4,2,3,40,0,0
78068,-100,4,2,3,70,0,0
78185,-100,4,2,3,40,0,0
78303,-100,4,2,3,70,0,0
78420,-100,4,2,3,40,0,0
78771,-133.333333333333,4,2,3,70,0,0
78889,-100,4,2,3,40,0,0
79006,-100,4,2,3,70,0,0
79123,-100,4,2,3,40,0,0
79240,-100,4,2,3,70,0,0
79357,-100,4,2,3,40,0,0
79709,-133.333333333333,4,2,3,70,0,0
79826,-200,4,2,3,40,0,0
79943,-200,4,2,3,70,0,0
80060,-200,4,2,3,40,0,0
80646,-200,4,2,3,5,0,0
80764,-200,4,2,3,40,0,0
80881,-200,4,2,3,70,0,0
80998,-200,4,2,3,40,0,0
81115,-200,4,2,3,70,0,0
81232,-200,4,2,3,40,0,0
81349,-200,4,2,3,70,0,0
81467,-200,4,2,3,40,0,0
81584,-200,4,2,3,70,0,0
81701,-200,4,2,3,40,0,0
81818,-200,4,2,3,70,0,0
81935,-133.333333333333,4,2,3,40,0,0
82287,-133.333333333333,4,2,3,70,0,0
82404,-133.333333333333,4,2,3,40,0,0
82521,-133.333333333333,4,2,3,70,0,0
82639,-133.333333333333,4,2,3,40,0,0
82756,-133.333333333333,4,2,3,70,0,0
82873,-133.333333333333,4,2,3,40,0,0
82990,-133.333333333333,4,2,3,70,0,0
83107,-133.333333333333,4,2,3,40,0,0
83459,-133.333333333333,4,2,3,70,0,0
83576,-133.333333333333,4,2,3,40,0,0
83693,-133.333333333333,4,2,3,70,0,0
83810,-133.333333333333,4,2,3,40,0,0
84162,-133.333333333333,4,2,3,70,0,0
84279,-133.333333333333,4,2,3,40,0,0
84396,-133.333333333333,4,2,3,70,0,0
84514,-133.333333333333,4,2,3,40,0,0
84865,-133.333333333333,4,2,3,70,0,0
84982,-133.333333333333,4,2,3,40,0,0
85334,-133.333333333333,4,2,3,70,0,0
85451,-133.333333333333,4,2,3,40,0,0
85568,-133.333333333333,4,2,3,70,0,0
85685,-133.333333333333,4,2,3,40,0,0
85803,-133.333333333333,4,2,3,70,0,0
85920,-133.333333333333,4,2,3,40,0,0
86037,-133.333333333333,4,2,3,70,0,0
86154,-133.333333333333,4,2,3,40,0,0
86506,-133.333333333333,4,2,3,70,0,0
86623,-133.333333333333,4,2,3,40,0,0
86857,-133.333333333333,4,2,30,40,0,0
87092,-133.333333333333,4,2,3,40,0,0
87795,-133.333333333333,4,2,30,40,0,0
88029,-133.333333333333,4,2,3,40,0,0
88615,-133.333333333333,4,2,3,70,0,0
88732,-133.333333333333,4,2,3,40,0,0
89357,-133.333333333333,4,2,3,70,0,0
89435,-100,4,2,3,40,0,0
89592,-100,4,2,3,70,0,0
89670,-79.9999999999999,4,2,1,75,0,0
89904,-79.9999999999999,4,2,3,40,0,0
90139,-100,4,1,1,70,0,0
95764,-133.333333333333,4,1,1,70,0,0
97404,-86.9565217391304,4,1,1,70,0,0
97482,-86.9565217391304,4,1,1,100,0,0
97639,-100,4,1,1,70,0,0
105490,-133.333333333333,4,1,1,70,0,0
106310,-100,4,1,1,70,0,0
112482,-100,4,1,1,100,0,0
112639,-100,4,1,1,75,0,0
115217,-100,4,1,1,60,0,0
115451,-100,4,1,1,75,0,0
115568,-100,4,1,1,60,0,0
115803,-100,4,1,1,75,0,0
118264,-200,4,2,20,100,0,0
118381,-200,4,1,1,75,0,0
119084,-200,4,2,1,5,0,0
119201,-100,4,1,1,75,0,0
120139,-400,4,1,1,80,0,1
120607,-100,4,1,1,80,0,1
121545,-79.9999999999999,4,1,1,80,0,1
122011,-79.9999999999999,4,1,1,80,0,1
122482,-60.6060606060605,4,1,1,90,0,1
122951,-79.9999999999999,4,1,1,80,0,1
123420,-133.333333333333,4,1,1,60,0,1
123889,-79.9999999999999,4,1,5,45,0,1
124357,-79.9999999999999,4,1,1,60,0,1
124709,-60.6060606060605,4,1,1,80,0,1
125060,-50,4,1,1,90,0,1
125295,-79.9999999999999,4,1,1,80,0,1
125764,-66.6666666666667,4,1,1,80,0,1
128224,-79.9999999999999,4,1,5,60,0,1
128459,-100,4,1,1,80,0,1
129279,-133.333333333333,4,1,1,80,0,1
130451,-79.9999999999999,4,1,5,60,0,1
130685,-79.9999999999999,4,1,5,80,0,1
131154,-50,4,1,1,80,0,1
131389,-100,4,1,1,80,0,1
131857,-100,4,1,1,55,0,1
131974,-100,4,1,1,80,0,1
133381,-79.9999999999999,4,1,1,90,0,1
133732,-57.1428571428571,4,1,1,90,0,1
134084,-44.4444444444445,4,1,1,90,0,1
134435,-57.1428571428571,4,1,1,90,0,1
134787,-79.9999999999999,4,1,1,90,0,1
135139,-100,4,1,1,80,0,1
135373,-100,4,1,1,90,0,1
135607,-100,4,1,1,80,0,1
136545,-79.9999999999999,4,1,1,80,0,1
137014,-66.6666666666667,4,1,1,80,0,1
137482,-79.9999999999999,4,1,1,90,0,1
137951,-79.9999999999999,4,1,1,80,0,1
138420,-79.9999999999999,4,1,1,90,0,1
138889,-133.333333333333,4,1,1,60,0,1
139357,-79.9999999999999,4,1,1,60,0,1
139709,-79.9999999999999,4,1,1,80,0,1
140060,-133.333333333333,4,1,1,90,0,1
140412,-66.6666666666667,4,1,10,55,0,1
140764,-66.6666666666667,4,1,5,60,0,1
140998,-79.9999999999999,4,1,1,80,0,1
143107,-133.333333333333,4,1,5,60,0,1
143576,-100,4,1,1,85,0,1
144279,-133.333333333333,4,1,1,85,0,1
144514,-100,4,1,1,85,0,1
145451,-57.1428571428571,4,1,5,60,0,1
145803,-80,4,1,1,85,0,1
146506,-66.6666666666667,4,1,1,90,0,1
147209,-79.9999999999999,4,1,1,90,0,1
147560,-66.6666666666667,4,1,1,90,0,1
148264,-79.9999999999999,4,1,1,90,0,1
148967,-200,4,1,1,70,0,1
149670,-50,4,2,1,80,0,1
149699,-50,4,2,1,5,0,1
149875,-50,4,1,1,60,0,1
150139,-79.9999999999999,4,1,1,80,0,0
151193,-79.9999999999999,4,1,10,70,0,0
151310,-79.9999999999999,4,1,1,80,0,0
152248,-79.9999999999999,4,1,10,70,0,0
152482,-100,4,1,1,80,0,0
152717,-66.6666666666667,4,1,5,70,0,0
152951,-100,4,1,1,80,0,0
153654,-100,4,1,5,60,0,0
153732,-100,4,1,1,80,0,0
154357,-100,4,1,1,100,0,0
154826,-66.6666666666667,4,1,1,80,0,0
155060,-100,4,1,1,85,0,0
155529,-100,4,1,1,80,0,0
155764,-100,4,1,1,90,0,0
155998,-57.1428571428571,4,1,1,90,0,0
157170,-86.9565217391304,4,1,5,60,0,0
157639,-100,4,1,1,80,0,0
158342,-100,4,1,1,60,0,0
158693,-100,4,1,10,60,0,0
159045,-100,4,1,1,80,0,0
159748,-100,4,1,10,70,0,0
160217,-79.9999999999999,4,1,5,70,0,0
160334,-79.9999999999999,4,1,1,80,0,0
161154,-66.6666666666667,4,1,5,70,0,0
161389,-100,4,1,1,80,0,0
161857,-100,4,1,1,90,0,0
162326,-100,4,1,1,80,0,0
162678,-133.333333333333,4,1,1,80,0,0
162912,-100,4,1,1,80,0,0
163146,-100,4,1,1,65,0,0
163264,-200,4,1,1,60,0,0
164142,-200,4,1,1,5,0,0
164201,-400,4,1,1,60,0,0
164670,-400,4,1,1,90,0,0
165139,-200,4,1,1,80,0,0
165373,-100,4,1,1,80,0,0
165607,-100,4,1,1,80,0,1
166076,-100,4,1,1,80,0,1
167014,-79.9999999999999,4,1,1,80,0,1
167482,-66.6666666666667,4,1,1,90,0,1
167717,-100,4,1,1,90,0,1
167951,-79.9999999999999,4,1,1,80,0,1
168420,-100,4,1,1,90,0,1
168889,-133.333333333333,4,1,1,80,0,1
169357,-79.9999999999999,4,1,1,60,0,1
169709,-60.6060606060606,4,1,1,80,0,1
170060,-50,4,1,1,100,0,1
170295,-79.9999999999999,4,1,1,80,0,1
170412,-79.9999999999999,4,1,10,70,0,1
170529,-79.9999999999999,4,1,1,80,0,1
170646,-79.9999999999999,4,1,10,70,0,1
170764,-79.9999999999999,4,1,1,80,0,1
171115,-79.9999999999999,4,1,1,95,0,1
171232,-79.9999999999999,4,1,1,80,0,1
171935,-100,4,1,1,80,0,1
173107,-80,4,1,5,60,0,1
173576,-80,4,1,1,85,0,1
175451,-57.1428571428571,4,1,5,60,0,1
175685,-57.1428571428571,4,1,1,85,0,1
176506,-66.6666666666667,4,1,1,90,0,1
177209,-79.9999999999999,4,1,1,90,0,1
177560,-66.6666666666667,4,1,1,90,0,1
178264,-79.9999999999999,4,1,1,90,0,1
178967,-200,4,1,1,70,0,1
179670,-50,4,1,1,80,0,1
179904,-50,4,2,1,40,0,1
180139,-50,4,3,50,15,0,0
192326,-50,4,2,99,5,0,0
195139,-200,4,2,6,20,0,0
195373,-200,4,2,1,40,0,0
196545,-200,4,2,6,20,0,0
196779,-200,4,2,1,40,0,0
197014,-200,4,2,6,20,0,0
197248,-200,4,2,1,40,0,0
197951,-200,4,2,6,25,0,0
198185,-200,4,2,1,40,0,0
198889,-200,4,2,6,30,0,0
199123,-200,4,2,1,40,0,0
200764,-200,4,2,6,35,0,0
200998,-200,4,2,1,45,0,0
202639,-200,4,2,6,35,0,0
202990,-200,4,2,1,45,0,0
204514,-200,4,2,6,25,0,0
204748,-200,4,2,1,35,0,0
205451,-200,4,2,6,35,0,0
205685,-200,4,2,1,45,0,0
206389,-200,4,2,6,35,0,0
206740,-200,4,2,1,45,0,0
208264,-200,4,2,6,40,0,0
208498,-200,4,2,1,45,0,0
210139,-79.9999999999999,4,2,6,75,0,0
210314,-133.333333333333,4,2,2,5,0,0
210373,-133.333333333333,4,2,44,75,0,0
225139,-133.333333333333,4,1,1,55,0,0
227014,-133.333333333333,4,1,1,60,0,0
228889,-133.333333333333,4,1,1,65,0,0
230764,-133.333333333333,4,1,1,75,0,0
232639,-133.333333333333,4,1,1,85,0,0
234514,-133.333333333333,4,1,2,95,0,0
236389,-133.333333333333,4,2,2,95,0,0
236418,-133.333333333333,4,2,2,5,0,0
236857,-133.333333333333,4,1,2,60,0,0
237326,-133.333333333333,4,1,2,70,0,0
238264,-200,4,1,1,70,0,0
238732,-133.333333333333,4,1,35,55,0,0
239670,-133.333333333333,4,1,2,70,0,0
239787,-200,4,1,2,70,0,0
240139,-66.6666666666667,4,1,1,60,0,1
240373,-66.6666666666667,4,1,1,50,0,0
240607,-57.1428571428571,4,1,1,80,0,1
240842,-80,4,1,1,80,0,1
242482,-80,4,1,1,90,0,1
242951,-80,4,1,1,80,0,1
243185,-133.333333333333,4,1,1,80,0,1
243420,-133.333333333333,4,1,1,60,0,1
243889,-79.9999999999999,4,1,5,45,0,1
244357,-79.9999999999999,4,1,1,60,0,1
244709,-60.6060606060605,4,1,1,80,0,1
245060,-50,4,1,1,90,0,1
245295,-100,4,1,1,80,0,1
245764,-66.6666666666667,4,1,1,80,0,1
248224,-79.9999999999999,4,1,5,60,0,1
248576,-100,4,1,1,80,0,1
249279,-133.333333333333,4,1,1,80,0,1
249631,-100,4,1,1,80,0,1
250217,-133.333333333333,4,1,1,80,0,1
250451,-79.9999999999999,4,1,5,60,0,1
250685,-79.9999999999999,4,1,1,80,0,1
251154,-50,4,1,1,80,0,1
251389,-100,4,1,1,80,0,1
251857,-100,4,1,1,55,0,1
251974,-100,4,1,1,80,0,1
253381,-79.9999999999999,4,1,1,80,0,1
253732,-57.1428571428571,4,1,1,80,0,1
254084,-44.4444444444445,4,1,1,90,0,1
254435,-57.1428571428571,4,1,1,90,0,1
254787,-80,4,1,1,90,0,1
255139,-100,4,1,1,80,0,1
257482,-100,4,1,1,90,0,1
257951,-100,4,1,1,80,0,1
258420,-100,4,1,1,90,0,1
258889,-133.333333333333,4,1,1,60,0,1
259357,-79.9999999999999,4,1,1,60,0,1
259709,-79.9999999999999,4,1,1,80,0,1
260060,-66.6666666666667,4,1,1,90,0,1
260412,-66.6666666666667,4,1,10,55,0,1
260764,-133.333333333333,4,1,5,60,0,1
260998,-133.333333333333,4,1,1,80,0,1
261232,-79.9999999999999,4,1,1,80,0,1
263107,-133.333333333333,4,1,5,60,0,1
263576,-100,4,1,1,85,0,1
264279,-133.333333333333,4,1,1,85,0,1
264514,-100,4,1,1,85,0,1
265451,-57.1428571428571,4,1,5,60,0,1
265685,-57.1428571428571,4,1,1,85,0,1
265803,-80,4,1,1,85,0,1
266506,-105.263157894737,4,1,1,90,0,1
268967,-200,4,1,1,70,0,1
269670,-50,4,2,1,80,0,1
269699,-50,4,2,1,5,0,1
269875,-50,4,1,1,60,0,1
270139,-79.9999999999999,4,1,1,80,0,0
271193,-79.9999999999999,4,1,10,70,0,0
271310,-79.9999999999999,4,1,1,80,0,0
272248,-79.9999999999999,4,1,10,70,0,0
272365,-79.9999999999999,4,1,1,80,0,0
272482,-100,4,1,1,80,0,0
272717,-66.6666666666667,4,1,5,60,0,0
272951,-100,4,1,1,80,0,0
273654,-100,4,1,5,60,0,0
273732,-100,4,1,1,80,0,0
274357,-133.333333333333,4,1,1,100,0,0
274826,-66.6666666666667,4,1,1,80,0,0
275060,-100,4,1,1,85,0,0
275529,-100,4,1,1,80,0,0
275764,-100,4,1,1,90,0,0
275998,-57.1428571428571,4,1,1,90,0,0
277170,-86.9565217391304,4,1,5,60,0,0
277521,-86.9565217391304,4,1,1,80,0,0
277990,-100,4,1,1,80,0,0
278693,-100,4,1,10,60,0,0
278928,-100,4,1,1,80,0,0
279748,-100,4,1,10,70,0,0
280217,-100,4,1,5,60,0,0
280451,-100,4,1,1,80,0,0
281154,-66.6666666666667,4,1,5,60,0,0
281389,-66.6666666666667,4,1,1,80,0,0
281857,-66.6666666666667,4,1,1,90,0,0
282326,-100,4,1,1,80,0,0
282678,-133.333333333333,4,1,1,80,0,0
283146,-133.333333333333,4,1,1,65,0,0
283264,-200,4,1,1,60,0,0
284142,-200,4,1,1,5,0,0
284201,-200,4,1,1,60,0,0
284670,-200,4,1,1,90,0,0
285139,-200,4,1,1,80,0,0
285373,-100,4,1,1,80,0,0
285607,-133.333333333333,4,1,1,80,0,1
285842,-100,4,1,1,80,0,1
287014,-79.9999999999999,4,1,1,80,0,1
287482,-79.9999999999999,4,1,1,90,0,1
287951,-79.9999999999999,4,1,1,80,0,1
288420,-79.9999999999999,4,1,1,90,0,1
288889,-133.333333333333,4,1,1,60,0,1
289357,-79.9999999999999,4,1,1,60,0,1
289709,-60.6060606060606,4,1,1,80,0,1
290060,-50,4,1,1,100,0,1
290295,-79.9999999999999,4,1,1,80,0,1
290412,-79.9999999999999,4,1,10,70,0,1
290529,-79.9999999999999,4,1,1,80,0,1
290646,-79.9999999999999,4,1,10,70,0,1
290764,-79.9999999999999,4,1,1,80,0,1
291115,-79.9999999999999,4,1,1,95,0,1
291232,-79.9999999999999,4,1,1,80,0,1
293107,-79.9999999999999,4,1,5,60,0,1
293576,-79.9999999999999,4,1,1,80,0,1
295451,-57.1428571428571,4,1,5,60,0,1
295685,-57.1428571428571,4,1,1,80,0,1
296506,-66.6666666666667,4,1,1,90,0,1
297209,-80,4,1,1,90,0,1
297560,-66.6666666666667,4,1,1,90,0,1
298264,-79.9999999999999,4,1,1,90,0,1
298967,-200,4,1,1,70,0,1
299670,-50,4,1,1,60,0,1
299904,-50,4,2,1,40,0,1
300139,-133.333333333333,4,3,50,35,0,0
300373,-133.333333333333,4,2,2,75,0,0
301076,-133.333333333333,4,2,10,55,0,0
301310,-133.333333333333,4,2,1,75,0,0
301545,-133.333333333333,4,2,30,35,0,0
301779,-133.333333333333,4,2,1,55,0,0
302014,-133.333333333333,4,2,1,55,0,0
302248,-133.333333333333,4,2,1,75,0,0
302482,-133.333333333333,4,2,30,35,0,0
302717,-133.333333333333,4,2,1,75,0,0
302951,-133.333333333333,4,2,1,55,0,0
303185,-133.333333333333,4,2,1,75,0,0
303420,-79.9999999999999,4,2,5,75,0,0
303654,-79.9999999999999,4,2,5,35,0,0
303889,-133.333333333333,4,2,1,55,0,0
304123,-133.333333333333,4,2,1,75,0,0
304592,-133.333333333333,4,2,1,55,0,0
305060,-133.333333333333,4,2,1,75,0,0
305529,-133.333333333333,4,2,1,55,0,0
305764,-133.333333333333,4,2,1,55,0,0
305998,-133.333333333333,4,2,1,75,0,0
306467,-133.333333333333,4,2,1,55,0,0
306701,-79.9999999999999,4,2,1,55,0,0
306935,-79.9999999999999,4,2,5,60,0,0
307053,-79.9999999999999,4,2,1,75,0,0
307170,-200,4,2,5,65,0,0
307521,-133.333333333333,4,2,1,5,0,0
307639,-133.333333333333,4,2,1,55,0,0
307873,-133.333333333333,4,2,1,75,0,0
308342,-133.333333333333,4,2,1,55,0,0
308576,-133.333333333333,4,2,1,50,0,0
308810,-133.333333333333,4,2,1,75,0,0
309279,-133.333333333333,4,2,1,55,0,0
309748,-181.818181818181,4,2,1,75,0,0
309982,-181.818181818181,4,2,30,35,0,0
310217,-133.333333333333,4,2,1,55,0,0
310920,-79.9999999999999,4,2,1,85,0,0
311183,-79.9999999999999,4,2,1,95,0,0
311389,-133.333333333333,4,2,1,55,0,0
311623,-133.333333333333,4,2,1,75,0,0
312092,-133.333333333333,4,2,1,55,0,0
312326,-133.333333333333,4,2,10,55,0,0
312560,-133.333333333333,4,2,1,75,0,0
312795,-133.333333333333,4,2,30,35,0,0
313029,-133.333333333333,4,2,1,55,0,0
313498,-133.333333333333,4,2,1,75,0,0
314201,-79.9999999999999,4,2,5,65,0,0
314846,-79.9999999999999,4,2,5,5,0,0
314904,-200,4,2,1,75,0,0
315139,-133.333333333333,4,3,50,35,0,0
315373,-133.333333333333,4,2,1,75,0,0
315842,-133.333333333333,4,2,1,55,0,0
316076,-133.333333333333,4,2,1,75,0,0
316310,-133.333333333333,4,2,1,55,0,0
316545,-133.333333333333,4,2,1,75,0,0
317717,-133.333333333333,4,2,1,55,0,0
317951,-133.333333333333,4,2,1,75,0,0
320998,-133.333333333333,4,2,1,55,0,0
321232,-133.333333333333,4,2,1,75,0,0
322404,-200,4,2,1,75,0,0
322580,-200,4,2,1,5,0,0
322639,-133.333333333333,4,2,1,45,0,0
325685,-133.333333333333,4,2,1,55,0,0
326623,-133.333333333333,4,2,1,55,0,0
326857,-133.333333333333,4,2,30,15,0,0
327092,-133.333333333333,4,2,1,55,0,0
328264,-133.333333333333,4,2,1,45,0,0
329904,-133.333333333333,4,2,1,25,0,0

[Colours]
Combo1 : 255,157,60
Combo2 : 128,0,255
Combo3 : 128,64,0
Combo4 : 255,255,128

[HitObjects]
148,84,373,6,0,B|128:84|116:92|108:100|84:100,1,64
364,300,1310,2,0,B|384:300|396:292|404:284|428:284,1,64
168,104,2248,6,0,B|148:104|136:112|128:120|104:120,1,64
344,280,3185,2,0,B|364:280|376:272|384:264|408:264,1,64
132,284,4123,6,0,B|121:324|121:324|115:311|108:306,1,64
380,100,5060,2,0,B|390:59|390:59|396:72|403:77,1,64
152,264,5998,6,0,B|141:304|141:304|135:291|128:286,1,64
360,120,6935,2,0,B|370:79|370:79|376:92|383:97,1,64
256,192,7873,5,0,0:0:0:0:
165,218,8342,1,0,0:0:0:0:
112,140,8810,1,0,0:0:0:0:
170,65,9279,1,0,0:0:0:0:
259,97,9748,5,0,0:0:0:0:
349,128,10216,1,0,0:0:0:0:
276,191,10685,1,0,0:0:0:0:
308,40,11154,2,0,B|320:73|320:73|315:86,1,48
292,52,11623,6,0,B|312:84|312:84|312:100,1,48
276,64,12092,2,0,B|288:97|288:97|283:110,1,48
260,76,12560,2,0,B|280:108|280:108|280:124,1,48
244,88,13029,2,0,B|256:121|256:121|251:134,1,48
228,100,13497,2,0,B|248:132|248:132|248:148,1,48
212,112,13967,2,0,B|224:145|224:145|219:158,1,48
196,124,14435,2,0,B|216:156|216:156|216:172,1,48
176,136,14904,1,0,0:0:0:0:
176,136,15373,5,0,0:0:0:0:
68,124,15842,2,0,L|104:224,1,96
80,208,16310,1,0,0:0:0:0:
156,348,16779,1,0,0:0:0:0:
20,308,17248,2,0,L|120:272,1,96
104,296,17716,1,0,0:0:0:0:
244,220,18185,1,0,0:0:0:0:
104,144,18654,1,0,0:0:0:0:
209,239,19123,6,0,L|328:256,1,96
416,224,19592,2,0,P|425:280|398:319,1,96
383,155,20060,2,0,P|382:108|413:72,1,96
308,88,20529,2,0,L|212:101,1,96
468,132,20998,6,0,L|515:125,2,32,2|0|2,0:0|0:0|0:0,0:0:0:0:
372,164,21467,5,2,0:0:0:0:
364,152,21584,2,0,L|395:156,1,32,0|2,0:0|0:0,0:0:0:0:
264,132,21935,6,0,L|311:125,1,32,2|0,0:0|0:0,0:0:0:0:
220,80,22170,1,2,0:0:0:0:
160,152,22404,6,0,L|191:156,1,32,2|0,0:0|0:0,0:0:0:0:
244,212,22639,1,2,0:0:0:0:
256,192,22756,12,0,26506,0:0:0:0:
154,127,26623,6,0,B|217:213|276:248|338:129|207:121|167:294|178:318|178:318|116:241|39:303|39:303|88:326|145:295|145:295|95:252|63:173|82:182|82:182|78:175|78:175|55:146|56:111|68:67|90:44|124:37,1,896
239,106,30139,6,0,B|249:77|249:77|220:92,1,64
266,9,30373,6,0,B|329:25|322:121,1,96.0000036621095,2|0,0:0|0:0,0:0:0:0:
320,257,30842,2,0,L|295:164,1,96.0000036621095,2|0,0:0|0:0,0:0:0:0:
374,240,31310,5,2,0:0:0:0:
347,247,31427,1,0,0:0:0:0:
320,257,31545,2,0,L|295:164,1,96.0000036621095,0|2,0:0|0:0,0:0:0:0:
204,28,32014,5,0,0:0:0:0:
192,160,32248,2,0,L|283:130,1,96.0000036621095,2|0,0:0|0:0,0:0:0:0:
94,239,32717,2,0,P|97:192|64:160,1,96.0000036621095,2|0,0:0|0:0,0:0:0:0:
192,51,33186,5,2,0:0:0:0:
128,19,33303,1,0,0:0:0:0:
112,92,33420,2,0,P|160:83|193:50,2,96.0000036621095,0|2|0,0:0|0:0|0:0,0:0:0:0:
212,216,34123,6,0,B|230:255|230:255|237:261|237:261|262:315,1,96.0000036621095,2|0,0:0|0:0,0:0:0:0:
43,254,34592,2,0,P|81:282|128:275,1,96.0000036621095,2|0,0:0|0:0,0:0:0:0:
172,360,35060,2,0,B|153:320|153:320|146:315|146:315|128:275,1,96.0000036621095,2|0,0:0|0:0,0:0:0:0:
286,170,35529,2,0,P|258:208|212:215,1,96.0000036621095,2|0,0:0|0:0,0:0:0:0:
200,76,35998,5,2,0:0:0:0:
210,107,36115,1,2,0:0:0:0:
220,136,36232,1,0,0:0:0:0:
144,136,36467,5,2,0:0:0:0:
145,151,36584,1,2,0:0:0:0:
147,166,36701,1,0,0:0:0:0:
76,172,36935,5,2,0:0:0:0:
74,178,37052,1,2,0:0:0:0:
73,186,37169,1,0,0:0:0:0:
4,172,37404,5,2,0:0:0:0:
1,173,37521,1,2,0:0:0:0:
0,178,37638,1,0,0:0:0:0:
44,68,37873,6,0,B|125:56|125:56|104:66|76:95,1,144.000005493164,2|0,0:0|0:0,0:0:0:0:
152,122,38342,2,0,P|188:92|160:-2,1,144.000005493164,2|0,0:0|0:0,0:0:0:0:
132,140,38810,1,2,0:0:0:0:
220,220,39045,1,0,0:0:0:0:
112,160,39279,2,0,P|136:224|92:276,1,144.000005493164,2|0,0:0|0:0,0:0:0:0:
40,204,39748,5,2,0:0:0:0:
268,64,39982,1,0,0:0:0:0:
232,192,40217,2,0,B|198:103|198:103|216:124|238:139,1,144.000005493164,2|0,0:0|0:0,0:0:0:0:
304,172,40685,2,0,B|337:260|337:260|320:240|297:224,1,144.000005493164,2|0,0:0|0:0,0:0:0:0:
240,264,41154,1,2,0:0:0:0:
352,368,41389,5,0,0:0:0:0:
392,229,41623,2,0,P|369:312|285:293,1,192.000007324219,2|2,0:0|0:0,0:0:0:0:
314,195,42326,1,0,0:0:0:0:
422,131,42560,2,0,P|337:112|315:196,1,192.000007324219,2|2,0:0|0:0,0:0:0:0:
228,343,43264,5,0,0:0:0:0:
228,343,43498,1,2,0:0:0:0:
228,135,43733,5,0,0:0:0:0:
228,135,43967,1,2,0:0:0:0:
408,240,44201,5,0,0:0:0:0:
408,240,44435,1,2,0:0:0:0:
280,244,44670,6,0,B|372:101|372:101|378:138|391:171,1,240,4|0,3:2|0:0,0:0:0:0:
362,28,45139,6,0,P|412:27|432:87,1,96.0000036621095,4|2,1:3|0:0,0:0:0:0:
383,316,45607,2,0,P|428:319|456:282,1,96.0000036621095,0|2,1:0|0:0,0:0:0:0:
296,200,46076,1,0,1:0:0:0:
412,172,46310,1,2,0:0:0:0:
420,168,46428,1,0,0:0:0:0:
428,164,46545,2,0,P|390:191|394:237,1,96.0000036621095,0|2,1:0|0:0,0:0:0:0:
420,68,47014,5,0,1:0:0:0:
320,92,47248,2,0,B|224:116|224:116|268:76,1,144.000005493164,2|0,0:0|0:0,0:0:0:0:
152,96,47717,2,0,P|140:144|188:176,1,96.0000036621095,2|0,0:0|1:0,0:0:0:0:
48,48,48185,2,0,B|7:5|7:5|3:42|3:42|39:87,1,144.000005493164,2|0,0:0|0:0,0:0:0:0:
40,152,48654,2,0,B|48:216|48:216|12:192,1,96.0000036621095,2|0,0:0|1:0,0:0:0:0:
120,276,49123,5,2,0:0:0:0:
209,300,49357,1,0,1:0:0:0:
144,366,49592,1,2,0:0:0:0:
209,300,49826,1,0,1:0:0:0:
302,300,50060,1,2,0:0:0:0:
367,366,50294,1,0,1:0:0:0:
256,384,50529,2,0,L|256:236,1,144.000005493164,2|0,0:0|0:0,0:0:0:0:
224,172,50998,6,0,B|182:189|182:189|184:260,1,96.0000036621095,2|0,0:0|1:0,0:0:0:0:
393,25,51467,2,0,B|332:60|366:106|356:164|273:191,2,192.000007324219,2|2|2,0:0|0:0|0:0,0:0:0:0:
413,144,52638,5,0,1:0:0:0:
280,108,52872,1,2,0:0:0:0:
316,243,53107,1,0,1:0:0:0:
336,164,53342,1,2,0:2:0:0:
132,68,53576,5,0,1:0:0:0:
239,40,53810,1,2,0:0:0:0:
210,148,54045,1,0,1:0:0:0:
194,84,54280,1,2,0:2:0:0:
169,312,54514,5,0,1:0:0:0:
146,226,54748,1,2,0:0:0:0:
232,248,54982,1,0,1:0:0:0:
182,261,55218,1,2,0:2:0:0:
296,56,55451,5,0,1:0:0:0:
365,38,55685,1,2,0:0:0:0:
347,107,55919,1,0,1:0:0:0:
337,67,56155,1,2,0:2:0:0:
312,259,56389,5,0,1:0:0:0:
398,282,56623,1,2,0:0:0:0:
376,196,56857,1,0,1:0:0:0:
363,246,57093,1,2,0:2:0:0:
169,220,57326,5,0,1:0:0:0:
276,192,57560,1,2,0:0:0:0:
247,300,57795,1,0,1:0:0:0:
231,236,58030,1,2,0:2:0:0:
3,196,58264,5,0,1:0:0:0:
100,295,58498,1,2,0:0:0:0:
136,160,58732,1,0,1:0:0:0:
80,216,58968,1,2,0:2:0:0:
80,216,59201,5,0,1:0:0:0:
72,54,59435,2,0,P|51:96|59:143,1,96,2|0,0:0|0:0,0:0:0:0:
128,132,59904,2,0,L|154:126,1,24,2|0,0:0|0:0,0:0:0:0:
128,132,60139,6,0,L|234:107,1,96.0000036621095,4|2,1:2|0:0,0:0:0:0:
328,40,60607,2,0,B|380:80|380:80|340:144,1,128,4|2,0:1|0:0,0:0:0:0:
20,180,61076,2,0,L|169:145,1,128,0|2,1:0|0:0,0:0:0:0:
180,12,61428,1,2,0:0:0:0:
136,68,61545,2,0,P|201:83|246:33,1,128,4|2,0:1|0:0,0:0:0:0:
184,324,62014,5,0,1:0:0:0:
132,208,62248,1,2,0:0:0:0:
120,196,62365,1,2,0:0:0:0:
108,184,62482,2,0,B|156:192|156:192|172:184|172:184|272:196,1,128,4|0,0:1|0:0,0:0:0:0:
476,216,62951,5,0,1:0:0:0:
346,157,63185,1,2,0:0:0:0:
332,143,63302,1,2,0:0:0:0:
318,130,63419,2,0,B|327:184|327:184|318:202|318:202|331:315,1,128,4|0,0:1|0:0,0:0:0:0:
436,359,63889,5,0,1:0:0:0:
255,82,64123,2,0,P|236:134|252:154,1,64,2|2,0:0|0:0,0:0:0:0:
213,27,64357,2,0,P|199:87|237:137,1,128,4|0,0:1|0:0,0:0:0:0:
76,359,64826,5,0,1:0:0:0:
239,193,65060,2,0,P|249:164|236:136,1,64,2|2,0:0|0:0,0:0:0:0:
297,229,65294,2,0,P|288:168|236:136,1,128,4|0,0:1|0:0,0:0:0:0:
256,324,65764,5,0,1:0:0:0:
140,224,65998,1,2,0:0:0:0:
168,220,66115,2,0,L|182:318,1,64,2|4,0:0|0:1,0:0:0:0:
72,384,66467,1,2,0:0:0:0:
140,224,66701,5,0,1:0:0:0:
168,220,66818,2,0,L|189:367,1,128,2|2,0:0|0:0,0:0:0:0:
244,212,67170,2,0,B|231:122|231:122|192:184,1,128,4|2,0:1|0:0,0:0:0:0:
332,196,67639,5,0,1:0:0:0:
131,24,67873,2,0,P|120:48|127:83,1,64,2|2,0:0|0:0,0:0:0:0:
197,55,68107,2,0,P|258:48|301:92,1,128,4|0,0:1|0:0,0:0:0:0:
335,277,68576,5,0,1:0:0:0:
478,154,68810,1,2,0:0:0:0:
478,154,68928,1,2,0:0:0:0:
478,154,69045,2,0,P|422:174|385:122,1,128,4|2,0:1|0:0,0:0:0:0:
301,92,69396,1,0,0:0:0:0:
301,92,69514,6,0,P|357:72|394:124,1,128,0|2,1:0|0:0,0:0:0:0:
352,176,69865,1,0,0:0:0:0:
352,176,69982,2,0,L|436:56,1,128,4|2,0:1|0:0,0:0:0:0:
316,296,70451,6,0,L|212:222,1,128,0|2,1:0|0:0,0:0:0:0:
280,168,70803,1,0,0:0:0:0:
256,144,70920,2,0,L|241:271,1,128,4|2,0:1|0:0,0:0:0:0:
168,240,71271,1,0,0:0:0:0:
156,256,71389,6,0,L|282:231,1,128,0|0,1:0|0:0,0:0:0:0:
304,228,71740,1,0,0:0:0:0:
360,156,71858,2,0,P|403:217|367:283,1,128,4|0,0:1|0:0,0:0:0:0:
108,188,72326,5,0,1:0:0:0:
164,56,72560,2,0,P|168:81|121:137,1,64,2|0,0:0|0:0,0:0:0:0:
108,188,72795,1,4,0:1:0:0:
72,72,73029,1,2,0:0:0:0:
108,188,73264,5,0,1:0:0:0:
78,281,73498,1,2,0:0:0:0:
189,195,73732,5,4,0:1:0:0:
197,294,73967,1,2,0:0:0:0:
267,171,74201,5,0,1:0:0:0:
311,260,74435,1,2,0:0:0:0:
331,120,74670,5,4,0:1:0:0:
404,185,74904,1,2,0:0:0:0:
124,98,75139,5,10,0:1:0:0:
161,105,75256,1,2,0:0:0:0:
200,100,75373,1,2,0:1:0:0:
235,85,75490,1,2,0:0:0:0:
263,59,75607,1,6,0:1:0:0:
176,6,75842,5,2,0:1:0:0:
188,52,75959,1,2,0:0:0:0:
200,100,76076,1,10,0:1:0:0:
210,145,76193,1,2,0:0:0:0:
222,191,76310,1,2,0:1:0:0:
44,181,76545,5,6,0:1:0:0:
76,200,76662,1,2,0:0:0:0:
100,230,76779,1,2,0:1:0:0:
116,266,76896,1,2,0:0:0:0:
119,303,77013,5,10,0:1:0:0:
92,72,77248,1,2,0:1:0:0:
92,72,77365,2,0,P|110:92|120:133,1,48.0000018310548,2|6,0:0|0:1,0:0:0:0:
16,284,77717,5,2,0:1:0:0:
42,265,77834,1,2,0:0:0:0:
69,248,77951,1,10,0:1:0:0:
96,231,78068,1,2,0:0:0:0:
123,214,78185,1,2,0:1:0:0:
150,197,78302,1,2,0:0:0:0:
177,180,78420,1,6,0:1:0:0:
184,348,78654,1,2,0:1:0:0:
184,348,78771,2,0,P|202:328|212:287,1,48.0000018310548,2|10,0:0|0:1,0:0:0:0:
204,163,79006,5,2,0:0:0:0:
256,100,79123,2,0,P|275:120|279:181,1,64,2|2,0:1|0:0,0:0:0:0:
252,228,79357,1,6,0:1:0:0:
208,44,79592,5,2,0:1:0:0:
280,28,79709,2,0,P|304:38|331:71,1,48.0000018310548,2|10,0:0|0:1,0:0:0:0:
372,248,79943,2,0,P|404:231|417:214,1,32,2|2,0:0|0:1,0:0:0:0:
172,336,80295,5,4,0:1:0:0:
92,120,80529,2,0,P|98:155|110:172,1,32,2|0,0:1|0:0,0:0:0:0:
122,110,80764,6,0,P|118:145|125:164,1,32,10|2,0:1|0:0,0:0:0:0:
142,120,80998,6,0,P|148:155|160:172,1,32,2|2,0:1|0:0,0:0:0:0:
162,110,81232,6,0,P|158:145|165:164,1,32,6|2,0:1|0:0,0:0:0:0:
182,120,81467,6,0,P|188:155|200:172,1,32,2|2,0:1|0:0,0:0:0:0:
261,129,81701,5,10,0:1:0:0:
261,129,81818,1,2,0:0:0:0:
261,129,81935,2,0,L|336:119,1,48.0000018310548,2|2,0:1|0:0,0:0:0:0:
428,108,82170,1,6,0:1:0:0:
428,108,82287,6,0,B|457:104|457:104|428:133,2,48.0000018310548,2|2|2,0:0|0:1|0:0,0:0:0:0:
396,264,82639,5,10,0:1:0:0:
398,230,82756,1,2,0:0:0:0:
400,196,82873,1,2,0:1:0:0:
424,220,82990,1,2,0:0:0:0:
443,248,83107,1,6,0:1:0:0:
268,120,83342,5,2,0:1:0:0:
311,99,83459,1,2,0:0:0:0:
345,134,83576,1,10,0:1:0:0:
322,176,83693,1,2,0:0:0:0:
275,168,83810,1,2,0:1:0:0:
438,38,84045,5,6,0:1:0:0:
440,72,84162,1,2,0:0:0:0:
442,106,84279,1,2,0:1:0:0:
466,82,84396,1,2,0:0:0:0:
485,54,84514,5,10,0:1:0:0:
471,87,84748,5,2,0:1:0:0:
490,59,84865,2,0,B|489:88|489:88|514:105,1,48.0000018310548,2|6,0:0|0:1,0:0:0:0:
436,240,85217,5,2,0:1:0:0:
399,254,85334,1,2,0:0:0:0:
360,246,85451,1,10,0:1:0:0:
331,220,85568,1,2,0:0:0:0:
321,215,85685,1,2,0:1:0:0:
312,208,85803,1,2,0:0:0:0:
275,196,85920,1,6,0:1:0:0:
237,209,86037,1,2,0:0:0:0:
214,242,86154,2,0,P|228:278|223:319,1,48.0000018310548,2|2,0:1|0:0,0:0:0:0:
152,284,86389,5,10,0:1:0:0:
115,216,86506,1,2,0:0:0:0:
135,142,86623,6,0,B|173:219|163:272|124:292|96:276|94:210|118:192|136:228,1,192.000007324219,2|2,0:1|0:1,0:0:0:0:
124,360,87326,1,8,0:1:0:0:
60,163,87560,2,0,B|44:55|44:55|88:24|151:53,1,192.000007324219,2|2,0:1|0:1,0:0:0:0:
52,292,88264,5,10,0:1:0:0:
148,52,88498,1,2,0:1:0:0:
167,65,88615,1,0,0:0:0:0:
191,69,88732,1,6,0:1:0:0:
181,309,88967,1,2,0:1:0:0:
395,197,89201,6,0,P|419:233|433:270,1,64.0000024414063,10|0,0:1|0:0,0:0:0:0:
284,92,89435,2,0,L|332:182,1,85.3333333333333,2|0,0:1|0:0,0:0:0:0:
308,316,89670,2,0,P|303:243|299:312,1,160,4|2,3:2|0:1,0:0:0:0:
240,292,90021,1,2,0:1:0:0:
320,276,90139,6,0,L|416:260,1,64,6|0,0:0|0:0,0:0:0:0:
472,252,90373,1,0,0:0:0:0:
446,179,90490,5,2,0:0:0:0:
398,118,90607,1,0,0:0:0:0:
427,47,90724,1,0,0:0:0:0:
477,106,90842,6,0,B|517:98|517:98|495:84,2,64,2|0|0,0:0|0:0|0:0,0:0:0:0:
350,60,91193,5,2,0:0:0:0:
321,131,91310,1,0,0:0:0:0:
369,192,91427,1,0,0:0:0:0:
369,192,91545,6,0,P|379:231|369:274,1,64,2|0,0:0|0:0,0:0:0:0:
290,203,91779,2,0,P|258:204|227:195,1,64,0|2,0:0|0:0,0:0:0:0:
168,158,92014,5,2,0:0:0:0:
232,124,92131,2,0,B|244:228|244:228|220:236,1,128,0|2,0:0|0:0,0:0:0:0:
144,248,92482,2,0,P|196:321|233:317,1,128,0|2,0:0|0:0,0:0:0:0:
100,172,92834,1,0,0:0:0:0:
87,201,92951,5,2,0:0:0:0:
62,220,93068,1,0,0:0:0:0:
30,225,93185,1,0,0:0:0:0:
1,215,93302,1,2,0:0:0:0:
10,108,93420,2,0,B|30:144|30:144|63:33,1,128,2|2,0:0|0:0,0:0:0:0:
64,36,93771,1,0,0:0:0:0:
64,36,93889,5,2,0:0:0:0:
163,317,94123,1,2,0:0:0:0:
139,309,94240,2,0,B|222:284|222:284|186:264,1,128
263,229,94592,2,0,P|290:319|266:339,1,128,2|0,0:0|0:0,0:0:0:0:
185,175,94943,1,2,0:0:0:0:
200,196,95060,2,0,B|212:168|212:168|237:151|254:126|250:97|227:63,1,128,2|2,0:0|0:0,0:0:0:0:
153,83,95412,1,0,0:0:0:0:
168,104,95529,1,2,0:0:0:0:
213,7,95646,1,0,0:0:0:0:
198,28,95764,6,0,L|258:47,1,48.0000018310548,2|0,0:0|0:0,0:0:0:0:
213,45,95998,2,0,L|273:52,1,48.0000018310548,0|2,0:0|0:0,0:0:0:0:
236,40,96232,2,0,L|296:59,1,48.0000018310548
251,57,96467,2,0,L|311:64,1,48.0000018310548,2|0,0:0|0:0,0:0:0:0:
277,151,96701,6,0,L|337:132,1,48.0000018310548,0|2,0:0|0:0,0:0:0:0:
292,134,96935,2,0,L|352:127,1,48.0000018310548
315,139,97169,2,0,L|375:120,1,48.0000018310548,2|0,0:0|0:0,0:0:0:0:
330,122,97404,2,0,L|377:116,2,49.0666676025391,2|0|0,3:1|3:0|3:0,0:0:0:0:
328,208,97639,5,2,0:0:0:0:
284,274,97756,1,0,0:0:0:0:
204,283,97873,1,0,0:0:0:0:
128,307,97990,1,2,0:0:0:0:
61,264,98107,2,0,B|43:289|43:289|77:379,1,64
92,144,98342,2,0,B|110:169|110:169|76:259,1,64,2|0,0:0|0:0,0:0:0:0:
72,68,98576,5,0,0:0:0:0:
148,87,98693,1,2,0:0:0:0:
220,121,98810,1,0,0:0:0:0:
292,89,98927,1,0,0:0:0:0:
288,168,99045,5,2,0:0:0:0:
291,216,99162,1,0,0:0:0:0:
312,259,99279,1,0,0:0:0:0:
347,291,99396,1,2,0:0:0:0:
391,309,99514,5,2,0:0:0:0:
394,179,99631,2,0,P|375:223|415:196,1,128,0|2,0:0|0:0,0:0:0:0:
454,127,99982,1,0,0:0:0:0:
228,316,100217,1,2,0:0:0:0:
231,300,100334,1,2,0:0:0:0:
236,284,100451,2,0,B|246:318|275:335,2,64
120,272,100803,1,2,0:0:0:0:
140,252,100920,2,0,B|131:320|167:373,1,128
52,320,101271,1,0,0:0:0:0:
73,336,101389,5,2,0:0:0:0:
68,157,101623,5,0,0:0:0:0:
80,180,101741,1,2,0:0:0:0:
209,57,101974,5,0,0:0:0:0:
210,82,102092,1,2,0:0:0:0:
222,260,102326,5,0,0:0:0:0:
232,237,102443,1,2,0:0:0:0:
240,216,102560,2,0,B|146:233|146:233|171:195,1,128,0|2,0:0|0:0,0:0:0:0:
296,164,102912,1,0,0:0:0:0:
276,152,103029,2,0,P|309:181|314:217,1,64,2|0,0:0|0:0,0:0:0:0:
352,87,103264,5,2,0:0:0:0:
364,124,103381,1,0,0:0:0:0:
369,133,103498,1,2,0:0:0:0:
374,143,103616,1,2,0:0:0:0:
398,173,103733,1,2,0:0:0:0:
186,311,103967,1,2,0:0:0:0:
262,224,104201,5,0,0:0:0:0:
149,201,104435,1,2,0:0:0:0:
34,184,104670,2,0,P|35:269|76:310,1,128,0|2,0:0|0:0,0:0:0:0:
192,91,105021,1,0,0:0:0:0:
112,78,105139,6,0,L|150:207,1,128,0|2,0:0|0:0,0:0:0:0:
186,311,105490,2,0,B|164:354|164:354|123:325,2,96.0000036621095,0|2|0,0:0|0:0|0:0,0:0:0:0:
250,273,106076,2,0,P|260:306|257:331,1,48.0000018310548,2|0,0:2|0:0,0:0:0:0:
214,204,106310,2,0,B|305:180|305:180|261:169,2,128
249,356,107014,5,0,0:0:0:0:
377,128,107248,1,2,0:0:0:0:
349,120,107365,2,0,P|384:169|344:251,1,128,0|2,0:0|0:0,0:0:0:0:
488,174,107834,1,0,0:0:0:0:
512,158,107951,5,2,0:2:0:0:
504,74,108068,1,0,0:0:0:0:
480,90,108185,2,0,B|421:62|421:62|418:52|418:52|360:25,1,128,0|2,0:0|0:2,0:0:0:0:
286,67,108537,1,0,0:0:0:0:
302,93,108654,1,0,0:0:0:0:
331,105,108771,1,2,0:2:0:0:
276,37,108889,6,0,P|218:60|191:135,1,128,0|2,0:0|0:0,0:0:0:0:
128,320,109240,2,0,P|70:297|43:222,2,128,0|2|0,0:0|0:0|0:0,0:0:0:0:
187,225,109826,6,0,L|124:236,1,64,2|0,0:2|0:0,0:0:0:0:
320,270,110060,1,0,0:0:0:0:
177,220,110295,6,0,L|113:230,1,64,2|0,0:2|0:0,0:0:0:0:
330,275,110529,2,0,L|393:264,1,64,0|2,0:0|0:2,0:0:0:0:
316,124,110764,6,0,P|260:187|263:244,1,128,0|2,0:0|0:0,0:0:0:0:
200,310,111115,2,0,P|246:268|257:205,2,128,0|2|0,0:0|0:0|0:0,0:0:0:0:
171,164,111701,6,0,P|172:195|182:226,1,64,2|0,0:2|0:0,0:0:0:0:
89,196,111935,2,0,P|94:134|140:92,1,128
220,100,112287,1,2,0:2:0:0:
292,68,112404,5,0,0:0:0:0:
287,63,112482,1,0,3:0:0:0:
282,58,112560,1,0,3:0:0:0:
276,52,112639,6,0,L|405:40,1,128,0|2,0:0|0:0,0:0:0:0:
338,126,112990,2,0,B|408:119|408:119|361:165,1,128,0|2,0:0|0:0,0:0:0:0:
463,160,113342,2,0,P|478:100|437:55,1,128,0|2,0:0|0:0,0:0:0:0:
280,176,113693,2,0,P|301:233|361:247,2,128,0|2|2,0:0|0:0|0:0,0:0:0:0:
248,288,114279,1,0,0:0:0:0:
152,152,114514,6,0,L|24:163,1,128,0|2,0:0|0:0,0:0:0:0:
208,216,114865,2,0,L|335:204,1,128
142,147,115217,6,0,L|14:158,1,128,2|0,0:0|0:0,0:0:0:0:
218,221,115568,2,0,L|345:209,1,128,2|0,0:0|0:0,0:0:0:0:
245,59,115920,2,0,B|253:91|253:91|234:171,1,64,2|0,0:2|0:0,0:0:0:0:
168,296,116154,2,0,B|160:328|160:328|167:358,1,64,0|2,0:0|0:2,0:0:0:0:
52,288,116389,5,0,0:0:0:0:
32,208,116506,2,0,B|80:212|120:240|120:240|144:228|164:228,2,128,0|2|0,0:0|0:0|0:0,0:0:0:0:
12,127,117092,1,2,0:0:0:0:
92,148,117209,5,0,0:0:0:0:
112,308,117326,1,0,0:0:0:0:
184,164,117443,2,0,P|144:154|101:182,1,64,2|0,0:0|0:0,0:0:0:0:
436,84,117795,6,0,P|454:108|456:140,1,64,2|0,0:2|0:0,0:0:0:0:
383,282,118029,2,0,P|386:313|405:339,1,64,0|2,0:0|0:2,0:0:0:0:
396,196,118264,6,0,B|441:225|456:251|465:269|465:269|480:284|495:266|495:266|506:250|484:215|437:213,1,224
383,282,119201,5,2,0:2:0:0:
344,293,119319,1,0,0:0:0:0:
279,239,119435,5,0,0:0:0:0:
227,252,119552,1,0,0:0:0:0:
165,193,119670,5,0,0:0:0:0:
100,210,119787,2,0,L|117:271,2,64,2|0|0,0:2|0:0|0:0,0:0:0:0:
28,224,120139,6,0,P|25:253|38:254,1,48,4|0,0:0|2:0,0:0:0:0:
214,98,120607,6,0,L|26:137,1,192,2|0,0:0|2:0,0:0:0:0:
232,179,121076,2,0,L|422:216,1,192,2|2,0:0|0:0,0:0:0:0:
204,255,121545,6,0,L|95:276,1,80,2|0,0:0|0:0,0:0:0:0:
244,319,121779,2,0,L|353:340,1,80,0|2,0:0|0:0,0:0:0:0:
256,218,122014,6,0,P|229:145|250:221,1,240,2|2,0:0|0:0,0:0:0:0:
236,184,122482,5,2,3:2:0:0:
216,188,122560,1,2,3:2:0:0:
195,192,122638,1,2,3:2:0:0:
174,197,122716,1,2,3:2:0:0:
153,200,122794,1,2,3:2:0:0:
132,205,122872,1,2,3:2:0:0:
111,208,122951,6,0,B|179:234|179:234|175:236|175:236|200:269|178:326,1,160,2|0,0:0|0:0,0:0:0:0:
351,192,123303,1,0,0:0:0:0:
293,240,123420,6,2,P|232:272|174:235,1,144.000005493164,0|0,0:0|2:0,0:0:0:0:
245,160,123889,6,0,B|314:88|314:88|422:77|422:77|396:95,1,240,12|0,0:0|2:0,0:0:0:0:
428,4,124357,2,0,P|492:44|486:120,1,160,2|2,0:0|0:0,0:0:0:0:
255,248,124709,2,0,B|298:70|298:70|328:102,1,211.20000201416,2|0,0:0|0:0,0:0:0:0:
368,177,125060,2,2,B|314:116|314:116|318:91|318:91|260:29,1,192,2|0,0:0|2:0,0:0:0:0:
238,106,125295,6,0,L|317:90,1,80,2|0,0:0|0:0,0:0:0:0:
180,132,125529,2,0,L|259:116,1,80,0|2,0:0|0:0,0:0:0:0:
100,132,125764,6,0,P|115:162|107:137,1,128.000004882813,2|0,0:3|2:0,0:0:0:0:
100,132,125998,2,0,P|150:140|110:172,1,128.000004882813,2|0,0:3|2:0,0:0:0:0:
112,264,126232,5,2,0:0:0:0:
180,230,126349,1,0,0:0:0:0:
199,218,126467,1,0,0:0:0:0:
274,219,126584,1,2,0:0:0:0:
259,306,126701,6,0,B|214:317|214:317|256:289,1,96.0000036621095,2|0,0:0|0:0,0:0:0:0:
324,108,126935,2,0,P|327:154|362:187,1,96.0000036621095,2|0,0:0|0:0,0:0:0:0:
414,51,127170,2,0,B|440:80|440:80|397:118,1,96.0000036621095,2|0,0:0|0:0,0:0:0:0:
198,256,127404,2,0,B|136:300|136:300|144:270,1,96.0000036621095,2|0,0:0|0:0,0:0:0:0:
45,152,127639,5,2,0:0:0:0:
120,128,127756,1,0,0:0:0:0:
101,204,127873,1,2,0:0:0:0:
67,275,127990,1,0,0:0:0:0:
99,347,128107,1,4,0:0:0:0:
142,281,128224,6,0,B|139:291|139:291|170:269,4,40,8|0|0|0|0,0:0|0:0|0:0|0:0|0:0,0:0:0:0:
120,128,128576,1,2,0:0:0:0:
73,272,128693,2,0,P|82:332|139:356,2,128,0|2|0,0:0|0:0|0:0,0:0:0:0:
100,136,129279,2,0,L|145:193,1,72.0000027465821,2|0,0:0|2:0,0:0:0:0:
32,164,129514,5,0,0:0:0:0:
100,56,129631,2,0,L|191:102,1,96.0000036621095,2|2,0:0|0:0,0:0:0:0:
32,28,130099,2,0,P|24:50|27:74,1,48.0000018310548,2|2,0:0|0:0,0:0:0:0:
68,248,130334,1,0,0:0:0:0:
120,304,130451,6,0,B|205:283|238:254|228:221|206:218|181:234|172:280,1,160,10|0,0:2|0:0,0:0:0:0:
230,161,130803,2,0,P|293:213|266:300,1,160,2|2,0:2|0:2,0:0:0:0:
227,26,131154,2,0,P|188:107|254:168,1,192,2|0,0:2|2:0,0:0:0:0:
312,104,131389,6,0,L|304:59,1,32
318,123,131506,2,0,L|325:77,1,32
324,142,131623,2,0,L|380:44,1,96,0|0,0:0|2:0,0:0:0:0:
312,220,131857,2,0,L|343:275,1,64,4|0,0:3|0:0,0:0:0:0:
253,167,132092,2,0,L|197:265,1,64
157,266,132326,5,2,0:0:0:0:
153,188,132444,1,0,0:0:0:0:
79,166,132561,1,0,0:0:0:0:
34,229,132678,1,2,0:0:0:0:
81,290,132795,2,0,B|57:349,1,64,2|0,0:0|0:0,0:0:0:0:
112,48,133029,2,0,B|135:107,1,64,2|0,0:0|0:0,0:0:0:0:
376,248,133381,6,0,P|394:173|341:119,1,160,2|0,0:0|2:0,0:0:0:0:
103,228,133732,6,0,B|175:192|175:192|247:208|247:208|315:192,1,224.00000213623,2|0,0:0|2:0,0:0:0:0:
501,156,134084,6,0,B|418:205|418:205|357:265|357:265|236:294,1,288.000010986329,2|0,0:0|2:0,0:0:0:0:
103,228,134435,6,0,B|2:251|2:251|-41:235|-41:235|30:215,1,224.00000213623,2|0,0:0|2:0,0:0:0:0:
170,90,134787,6,0,P|116:144|134:219,1,160,2|0,0:0|2:0,0:0:0:0:
239,163,135139,6,0,L|217:242,1,64,2|0,0:0|0:0,0:0:0:0:
272,72,135373,1,2,3:2:0:0:
289,67,135451,1,2,3:2:0:0:
305,62,135529,1,2,3:2:0:0:
322,58,135607,6,0,L|343:137,1,64,6|0,0:0|2:0,0:0:0:0:
364,188,135842,2,0,L|379:235,1,32
392,188,135959,2,0,L|407:235,1,32
424,188,136076,6,0,L|464:314,1,128,2|0,0:0|0:0,0:0:0:0:
508,224,136428,1,2,0:0:0:0:
492,152,136545,2,0,P|468:123|423:114,1,80,2|0,0:0|0:0,0:0:0:0:
364,300,136779,2,0,P|338:329|300:338,1,80,0|2,0:0|0:0,0:0:0:0:
248,80,137014,6,0,B|301:266|301:266|237:196,1,288.000010986329,2|2,0:0|0:0,0:0:0:0:
361,154,137482,2,0,L|384:232,1,80,2|2,3:2|2:0,0:0:0:0:
175,44,137717,2,0,L|248:80,1,80,2|2,3:2|2:0,0:0:0:0:
168,180,137951,2,0,B|121:316|121:316|189:250,1,240,2|2,0:0|0:0,0:0:0:0:
65,210,138420,5,2,3:2:0:0:
82,205,138498,1,2,3:2:0:0:
99,200,138576,1,2,3:2:0:0:
116,195,138654,1,2,3:2:0:0:
133,190,138732,1,2,3:2:0:0:
150,185,138810,1,2,3:2:0:0:
168,180,138889,6,2,B|130:288|130:288|184:235,1,144.000005493164,0|0,0:0|2:0,0:0:0:0:
88,119,139357,2,0,B|108:98|108:98|153:222,1,160,2|2,0:0|0:0,0:0:0:0:
160,12,139709,2,0,B|204:135|204:135|224:114,1,160,2|2,0:0|0:0,0:0:0:0:
272,56,140060,2,0,P|304:92|296:140,1,96.0000036621095,2|2,0:0|0:0,0:0:0:0:
337,200,140412,6,0,B|293:152|301:128|301:128|309:104|309:104|325:60|293:12,1,192.000007324219,10|10,0:0|0:0,0:0:0:0:
320,40,140764,5,8,0:0:0:0:
212,184,140998,2,0,P|219:223|247:251,1,80,2|0,0:3|0:0,0:0:0:0:
456,99,141232,2,0,P|427:127|389:135,1,80,2|0,0:0|0:0,0:0:0:0:
416,366,141467,2,0,P|406:328|379:300,1,80,0|2,0:0|0:0,0:0:0:0:
304,188,141701,6,0,P|331:215|370:223,1,80,2|0,0:0|0:0,0:0:0:0:
452,248,141935,1,0,0:0:0:0:
447,262,142053,1,2,0:0:0:0:
500,168,142170,1,0,0:0:0:0:
501,182,142288,1,0,0:0:0:0:
420,168,142404,1,2,0:0:0:0:
426,180,142522,1,0,0:0:0:0:
312,254,142639,5,2,0:0:0:0:
332,244,142756,1,0,0:0:0:0:
352,234,142873,2,0,P|313:242|275:229,1,80,2|0,0:0|0:0,0:0:0:0:
281,32,143107,2,0,B|292:91|292:91|308:108|308:108|320:168,1,144.000005493164,8|0,0:0|2:0,0:0:0:0:
280,260,143576,1,2,0:0:0:0:
268,279,143693,6,0,L|239:154,2,128,0|2|0,0:0|0:0|0:0,0:0:0:0:
268,279,144279,2,0,L|344:306,1,72.0000027465821,2|0,0:0|2:0,0:0:0:0:
132,252,144514,6,0,L|252:209,1,128,2|0,0:0|0:0,0:0:0:0:
64,304,144865,2,0,L|184:346,2,128,2|2|0,0:0|0:0|0:0,0:0:0:0:
100,164,145451,6,0,P|60:143|104:180,1,224.00000213623,10|0,0:2|0:0,0:0:0:0:
216,137,145803,2,0,B|157:148|157:148|136:167|136:167|66:181,1,160,2|2,0:2|0:2,0:0:0:0:
76,64,146154,1,2,0:2:0:0:
96,84,146389,5,0,0:0:0:0:
86,201,146506,2,0,B|169:184|169:184|194:161|194:161|265:148,1,192.000007324219,2|0,0:0|2:0,0:0:0:0:
320,104,146857,2,0,B|373:47|373:47|379:96|379:96|331:155,1,192.000007324219,2|0,0:0|0:0,0:0:0:0:
302,207,147209,2,0,B|308:252|296:300|296:300|312:268|344:240,1,160,2|0,0:0|0:0,0:0:0:0:
132,339,147560,2,0,P|205:281|297:298,1,192.000007324219,2|0,0:0|0:0,0:0:0:0:
320,104,147912,2,0,P|392:162|484:145,1,192.000007324219,2|0,0:0|0:0,0:0:0:0:
392,76,148264,6,0,B|427:41|427:41|476:42|476:42|435:88,1,160,2|0,0:0|2:0,0:0:0:0:
307,75,148615,2,0,B|272:109|272:109|223:108|223:108|264:62,1,160,2|0,0:0|2:0,0:0:0:0:
346,148,148967,2,2,B|305:194|305:194|354:195|354:195|388:161,1,160,2|0,0:0|2:0,0:0:0:0:
216,92,149670,6,2,B|244:130|224:172|224:172|209:212|242:260|242:260|204:282|171:295|91:287|63:215,1,384,4|0,3:2|2:0,0:0:0:0:
48,188,150139,5,6,0:0:0:0:
48,188,150256,1,0,0:0:0:0:
100,128,150373,2,0,P|132:148|136:188,1,80,0|2,0:0|0:0,0:0:0:0:
24,72,150607,2,2,P|96:40|176:68,1,160,0|2,0:0|0:2,0:0:0:0:
208,272,150959,1,0,0:0:0:0:
136,226,151076,5,0,0:0:0:0:
135,311,151192,1,8,0:0:0:0:
160,268,151310,2,0,P|232:300|312:272,1,160,0|2,0:0|0:0,0:0:0:0:
484,268,151662,1,0,0:0:0:0:
418,239,151779,2,0,P|412:275|429:314,1,80,0|2,0:0|0:0,0:0:0:0:
472,96,152014,6,0,P|488:131|482:170,1,80,0|2,0:0|0:0,0:0:0:0:
412,64,152248,2,0,P|448:70|487:53,1,80,8|2,0:0|0:0,0:0:0:0:
408,144,152482,2,0,L|288:162,1,96,2|0,0:0|2:0,0:0:0:0:
408,144,152717,6,0,L|319:181,1,96,8|0,0:0|0:0,0:0:0:0:
408,144,152951,6,0,L|308:212,1,64,2|0,0:0|0:0,0:0:0:0:
296,28,153303,1,2,0:0:0:0:
312,32,153420,1,0,0:0:0:0:
280,24,153654,2,0,L|272:80,2,42.6666666666667,8|0|0,0:0|0:0|0:0,0:0:0:0:
210,85,153889,5,2,0:0:0:0:
190,45,154006,2,0,B|274:66|274:66|222:86,1,128,0|2,0:0|0:0,0:0:0:0:
208,176,154357,5,2,2:3:0:0:
57,229,154514,5,2,2:3:0:0:
178,332,154670,5,2,2:3:0:0:
149,232,154826,6,0,L|139:263,5,32.0000012207032,2|0|0|0|0|0,0:0|0:0|0:0|0:0|0:0|0:0,0:0:0:0:
148,231,155060,2,0,P|154:273|135:311,1,85.3333333333333,2|0,0:2|2:0,0:0:0:0:
115,162,155295,2,0,P|108:121|128:84,1,85.3333333333333,2|0,0:2|2:0,0:0:0:0:
72,224,155529,1,2,0:0:0:0:
372,180,155764,6,0,P|384:210|415:228,1,64,2|0,0:2|0:0,0:0:0:0:
372,328,155998,2,0,P|394:226|301:179,1,225.000008583069,2|0,0:2|0:0,0:0:0:0:
105,316,156349,2,0,B|160:278|215:285|215:285|263:308|314:265,1,224.00000213623,2|0,0:2|0:0,0:0:0:0:
281,68,156701,2,0,B|344:109|344:109|400:96|400:96|328:42,1,224.00000213623,2|0,0:2|0:0,0:0:0:0:
428,166,157053,1,0,0:0:0:0:
332,190,157170,2,2,B|432:166|432:166|476:182|476:182|404:202,1,220.800004211426,8|0,0:2|0:0,0:0:0:0:
271,171,157639,6,0,P|303:175|332:189,1,64,2|0,0:0|0:0,0:0:0:0:
352,102,157873,1,0,0:0:0:0:
340,114,157990,2,0,B|483:79,1,128,2|0,0:0|2:0,0:0:0:0:
256,80,158342,2,2,B|131:110,1,128,0|0,0:0|2:0,0:0:0:0:
12,212,158693,2,2,B|136:181,1,128,8|0,0:0|2:0,0:0:0:0:
164,176,159045,5,2,0:0:0:0:
255,150,159162,1,0,0:0:0:0:
308,229,159280,1,0,0:0:0:0:
250,304,159396,1,2,0:0:0:0:
161,272,159514,5,2,0:0:0:0:
147,227,159631,1,0,0:0:0:0:
136,181,159748,2,0,B|15:211,1,64,8|2,0:0|0:0,0:0:0:0:
228,228,159982,2,0,B|351:197,1,96,2|0,0:0|2:0,0:0:0:0:
116,172,160217,2,0,B|18:196,1,80,8|0,0:0|0:0,0:0:0:0:
168,100,160451,5,2,0:0:0:0:
157,44,160568,1,0,0:0:0:0:
64,300,160803,1,2,0:0:0:0:
75,356,160920,1,0,0:0:0:0:
36,156,161154,2,0,B|175:191,1,144.000005493164,8|0,0:0|2:0,0:0:0:0:
175,191,161389,6,0,P|159:227|175:275,1,64,2|0,0:0|0:0,0:0:0:0:
22,96,161623,2,0,P|36:124|35:155,1,64,0|2,0:0|0:0,0:0:0:0:
80,24,161857,5,2,3:2:0:0:
103,59,161935,1,2,3:2:0:0:
111,101,162014,1,2,3:2:0:0:
139,92,162092,1,2,3:2:0:0:
168,85,162170,1,2,3:2:0:0:
196,77,162248,1,2,3:2:0:0:
224,69,162326,6,0,P|253:129|240:210,1,128,2|0,0:0|0:0,0:0:0:0:
223,260,162678,2,0,L|240:216,1,48.0000018310548,0|2,0:0|0:0,0:0:0:0:
152,304,162912,2,0,B|152:330|152:330|221:362|221:362|242:346,1,128,2|2,0:0|0:0,0:0:0:0:
152,304,163264,6,2,P|252:261|242:346,1,240,0|0,2:1|2:0,0:0:0:0:
210,301,164201,2,2,L|231:258,1,48,0|0,2:1|2:0,0:0:0:0:
220,96,164670,5,2,3:2:0:0:
228,124,164748,1,2,3:2:0:0:
235,153,164826,1,2,3:2:0:0:
244,181,164904,1,2,3:2:0:0:
202,189,164983,1,2,3:2:0:0:
167,212,165061,1,2,3:2:0:0:
148,250,165139,6,0,P|142:260|143:286,1,32,4|0,2:3|2:0,0:0:0:0:
136,132,165373,6,0,L|72:138,1,64
420,183,165607,6,0,L|515:173,1,96,2|0,0:0|2:0,0:0:0:0:
280,276,165842,2,0,L|248:279,3,32,0|0|0|0,0:0|2:0|0:0|0:0,0:0:0:0:
376,176,166076,6,0,L|520:162,1,128,2|0,0:0|2:0,0:0:0:0:
308,288,166428,2,0,L|180:300,1,128,2|2,0:0|0:0,0:0:0:0:
18,239,166896,1,0,0:0:0:0:
59,161,167014,6,0,B|116:218|98:268|88:271|66:329|124:380,1,240,2|2,0:0|0:0,0:0:0:0:
180,300,167482,2,0,L|308:288,1,96.0000036621095,2|2,3:2|2:0,0:0:0:0:
18,239,167717,2,0,P|6:275|7:323,1,64,2|2,3:2|2:0,0:0:0:0:
59,161,167951,6,0,B|116:218|98:268|88:271|66:329|124:380,1,240,2|2,0:0|0:0,0:0:0:0:
180,300,168420,6,0,L|244:294,2,42.6666666666667,2|2|2,3:2|3:2|3:2,0:0:0:0:
288,224,168654,2,0,L|337:265,2,42.6666666666667,2|2|2,3:2|3:2|3:2,0:0:0:0:
407,223,168889,6,2,L|469:354,1,144.000005493164,0|0,0:0|2:0,0:0:0:0:
420,88,169357,6,0,B|450:116|457:155|457:155|493:179|500:221,1,160,2|2,0:0|0:0,0:0:0:0:
442,51,169709,2,0,P|376:100|458:106,1,211.20000201416,2|0,0:0|0:0,0:0:0:0:
419,87,170060,2,0,B|277:118|277:118|328:64,1,192,2|0,0:0|2:0,0:0:0:0:
212,92,170295,6,0,P|248:184|280:188,1,80,2|8,0:0|0:0,0:0:0:0:
181,25,170529,2,0,P|220:19|256:35,1,80,2|8,0:0|0:0,0:0:0:0:
100,96,170764,6,0,P|108:148|116:216,1,106.666666666667,2|0,0:3|2:0,0:0:0:0:
128,108,170998,2,0,P|136:160|144:228,1,80,2|2,0:3|0:3,0:0:0:0:
40,164,171232,5,2,0:0:0:0:
12,176,171349,1,0,0:0:0:0:
36,72,171467,1,0,0:0:0:0:
64,84,171584,1,2,0:0:0:0:
81,239,171701,1,2,0:0:0:0:
109,227,171818,1,0,0:0:0:0:
192,164,171935,6,0,L|228:243,1,64,0|2,0:0|0:0,0:0:0:0:
128,332,172170,2,0,L|186:305,1,64,2|0,0:0|0:0,0:0:0:0:
236,56,172404,2,0,P|275:105|270:145,1,64,0|2,0:0|0:0,0:0:0:0:
332,344,172639,5,2,0:0:0:0:
350,335,172756,1,0,0:0:0:0:
336,330,172873,1,0,0:0:0:0:
345,348,172990,1,2,0:0:0:0:
256,288,173107,6,0,B|313:231|363:249|366:259|424:281|475:223,1,240,8|0,0:0|2:0,0:0:0:0:
344,112,173576,2,0,L|462:91,1,80,2|0,0:0|0:0,0:0:0:0:
160,76,173928,2,0,B|138:150|138:150|194:224,1,160,2|0,0:0|0:0,0:0:0:0:
252,128,174279,1,2,0:0:0:0:
160,76,174514,6,0,B|138:150|138:150|194:224,1,160,2|0,0:0|0:0,0:0:0:0:
344,112,174865,2,0,L|502:84,1,160,2|0,0:0|0:0,0:0:0:0:
252,128,175217,1,2,0:0:0:0:
471,155,175451,6,0,B|439:112|380:143|349:112|335:53|374:47|414:58|439:112,1,224.00000213623,10|2,0:2|0:2,0:0:0:0:
502,84,175803,2,0,L|287:126,1,224.00000213623,2|0,0:2|0:0,0:0:0:0:
309,154,176154,2,0,B|337:126|392:144|413:110|406:68|375:72|344:73|340:123,1,168.000001602173,2|0,0:2|2:0,0:0:0:0:
152,88,176389,5,0,0:0:0:0:
224,40,176506,2,0,B|241:90|224:127|224:127|212:143|212:143|212:204|212:204|252:171,1,192.000007324219,2|0,0:0|2:0,0:0:0:0:
139,344,176857,2,0,B|187:363|235:340|235:340|280:357|328:344,1,192.000007324219,2|0,0:0|2:0,0:0:0:0:
351,267,177209,2,0,P|274:279|232:343,1,160,2|0,0:0|2:0,0:0:0:0:
126,210,177560,2,0,P|218:206|275:279,1,192.000007324219,2|0,0:0|0:0,0:0:0:0:
371,139,177912,2,0,P|278:135|221:208,1,192.000007324219,2|0,0:0|0:0,0:0:0:0:
152,63,178264,6,0,P|228:74|271:139,1,160,2|0,0:0|2:0,0:0:0:0:
351,0,178615,2,0,P|274:11|231:76,1,160,2|0,0:0|2:0,0:0:0:0:
68,216,178967,2,2,P|144:204|187:139,1,160,2|0,0:0|2:0,0:0:0:0:
211,109,179670,6,0,B|207:172|248:205|248:205|247:211|247:211|253:207|253:207|250:214|250:214|257:210|257:210|256:216|256:216|261:213|261:213|320:254|300:343,1,256,4|6,3:2|0:1,0:0:0:0:
224,32,180139,5,0,3:0:0:0:
256,192,192326,12,0,195021,0:0:0:0:
260,144,195139,5,2,0:0:0:0:
264,96,195373,5,2,0:0:0:0:
255,192,195490,2,0,L|342:174,1,64
272,216,195842,2,0,L|209:203,1,64,2|0,0:0|0:0,0:0:0:0:
256,240,196193,2,0,L|343:222,1,64,2|2,0:0|0:0,0:0:0:0:
272,264,196545,2,0,L|209:251,1,64,2|2,0:0|0:0,0:0:0:0:
448,300,197014,5,2,0:0:0:0:
465,164,197248,1,2,0:0:0:0:
413,120,197365,2,0,B|384:116|384:116|400:180,1,96
64,300,197951,5,2,0:0:0:0:
47,164,198185,1,2,0:0:0:0:
99,120,198302,2,0,B|128:116|128:116|112:180,1,96,0|2,0:0|0:0,0:0:0:0:
176,296,198889,5,2,0:0:0:0:
224,176,199123,1,0,0:0:0:0:
228,196,199240,1,2,0:0:0:0:
208,32,199474,1,0,0:0:0:0:
188,36,199592,2,0,L|204:103,1,64,2|0,0:0|0:0,0:0:0:0:
262,331,199943,2,0,L|248:269,1,64,2|0,0:0|0:0,0:0:0:0:
227,188,200295,1,2,0:0:0:0:
227,188,200529,1,2,0:0:0:0:
416,156,200764,5,2,0:0:0:0:
364,80,200998,2,0,B|321:104|345:136|338:177|280:196,1,128,2|0,0:0|0:0,0:0:0:0:
96,228,201701,5,0,0:0:0:0:
148,304,201935,1,2,0:0:0:0:
148,304,202053,2,0,B|182:284|163:258|168:226|215:211,1,96,0|2,0:0|0:0,0:0:0:0:
108,104,202639,6,0,B|127:138|153:119|185:124|200:171,1,96,2|0,0:0|0:0,0:0:0:0:
348,256,203342,2,0,B|328:221|302:240|270:235|255:188,1,96,2|0,0:0|0:0,0:0:0:0:
384,44,203928,1,0,0:0:0:0:
320,80,204045,2,0,L|276:126,1,64,0|2,0:0|0:0,0:0:0:0:
420,176,204514,5,2,0:0:0:0:
384,44,204748,1,2,0:0:0:0:
320,80,204865,2,0,L|225:123,1,96,0|2,0:0|0:0,0:0:0:0:
420,176,205451,5,2,0:0:0:0:
384,44,205685,1,2,0:0:0:0:
320,80,205802,2,0,L|216:79,1,96,0|2,0:0|0:0,0:0:0:0:
156,10,206389,6,0,L|224:79,1,96,2|0,0:0|0:0,0:0:0:0:
155,147,207092,2,0,L|223:78,1,96
222,78,207795,1,0,0:0:0:0:
259,180,208029,1,2,0:0:0:0:
295,283,208264,6,0,L|286:350,1,64,2|0,0:0|0:0,0:0:0:0:
357,234,208615,2,0,P|366:246|370:285,1,32,0|2,0:0|0:0,0:0:0:0:
380,284,208849,2,0,P|390:253|409:228,2,64,0|2|0,0:0|0:0|0:0,0:0:0:0:
456,296,209435,2,0,L|480:356,1,64,2|2,0:0|0:0,0:0:0:0:
494,222,209904,1,0,0:0:0:0:
424,152,210139,6,0,P|456:164|428:160,1,120,4|0,0:2|2:0,0:0:0:0:
268,56,210373,6,0,P|253:83|266:131,1,48.0000018310548
381,75,210607,2,0,B|322:98|322:98|383:121,1,96.0000036621095,6|2,0:0|0:0,0:0:0:0:
313,189,210959,2,0,B|323:156|323:156|316:143|316:143|327:97,2,96.0000036621095,2|0|0,0:0|0:0|0:0,0:0:0:0:
241,271,211545,2,0,B|287:260|287:260|300:267|300:267|345:253,1,96.0000036621095,4|2,0:0|0:0,0:0:0:0:
67,311,212014,6,0,B|161:290,1,96.0000036621095,2|2,0:0|0:0,0:0:0:0:
136,228,212365,1,0,0:0:0:0:
116,217,212482,2,0,P|154:244|161:290,1,96.0000036621095,4|2,0:0|0:0,0:0:0:0:
96,208,212834,1,2,0:0:0:0:
148,150,212952,5,2,0:0:0:0:
111,82,213069,1,0,0:0:0:0:
35,94,213186,1,2,0:0:0:0:
25,171,213303,1,0,0:0:0:0:
205,95,213420,5,6,0:0:0:0:
224,166,213537,1,0,0:0:0:0:
276,114,213654,1,0,0:0:0:0:
232,280,213771,1,2,0:0:0:0:
304,188,213889,6,0,L|408:168,1,96.0000036621095,2|2,0:0|0:0,0:0:0:0:
384,196,214240,1,0,0:0:0:0:
492,160,214357,2,0,L|473:254,1,96.0000036621095,6|2,0:0|0:0,0:0:0:0:
380,75,214709,2,0,L|398:170,2,96.0000036621095,2|2|0,0:0|0:0|0:0,0:0:0:0:
440,4,215295,2,0,P|475:38|472:95,1,96.0000036621095,6|0,0:0|0:0,0:0:0:0:
380,75,215646,1,0,0:0:0:0:
316,136,215764,6,0,L|256:155,1,48.0000018310548,2|0,0:0|0:0,0:0:0:0:
301,153,215998,2,0,L|241:160,1,48.0000018310548,0|2,0:0|0:0,0:0:0:0:
278,148,216232,2,0,L|218:167,1,48.0000018310548,4|0,0:0|0:0,0:0:0:0:
263,165,216467,2,0,L|203:172,1,48.0000018310548,2|0,0:0|0:0,0:0:0:0:
32,224,216701,6,0,L|92:205,1,48.0000018310548,0|2,0:0|0:0,0:0:0:0:
47,207,216935,2,0,L|107:200,1,48.0000018310548,0|2,0:0|0:0,0:0:0:0:
70,212,217170,2,0,L|130:193,1,48.0000018310548,6|0,0:0|0:0,0:0:0:0:
85,195,217404,2,0,L|145:188,1,48.0000018310548,2|0,0:0|0:0,0:0:0:0:
200,228,217639,5,2,0:0:0:0:
372,72,217873,1,0,0:0:0:0:
352,62,217990,1,0,0:0:0:0:
332,52,218107,2,4,L|327:147,1,96.0000036621095,4|0,0:0|0:0,0:0:0:0:
212,32,218459,2,0,L|248:121,1,96.0000036621095,2|0,0:0|0:0,0:0:0:0:
120,240,218810,2,0,L|197:181,1,96.0000036621095,2|6,0:0|0:0,0:0:0:0:
206,337,219162,2,0,L|250:250,1,96.0000036621095,0|2,0:0|0:0,0:0:0:0:
268,183,219514,5,2,0:0:0:0:
417,56,219748,5,2,0:0:0:0:
384,50,219865,1,0,0:0:0:0:
351,44,219982,2,0,L|432:124,1,96.0000036621095,6|2,0:0|0:0,0:0:0:0:
334,142,220334,5,0,0:0:0:0:
287,133,220451,1,0,0:0:0:0:
240,124,220568,2,0,L|347:162,1,96.0000036621095,2|0,0:0|0:0,0:0:0:0:
447,230,220920,5,6,0:0:0:0:
48,208,221154,1,2,0:0:0:0:
54,279,221271,1,0,0:0:0:0:
61,352,221389,1,2,0:0:0:0:
115,239,221623,5,0,0:0:0:0:
48,208,221740,1,2,0:0:0:0:
54,279,221857,1,4,0:0:0:0:
165,183,222092,5,0,0:0:0:0:
191,253,222209,1,2,0:0:0:0:
242,139,222443,5,2,0:0:0:0:
255,173,222560,1,0,0:0:0:0:
310,61,222795,5,4,0:0:0:0:
316,76,222912,2,0,L|352:174,1,96.0000036621095,2|0,0:0|0:0,0:0:0:0:
258,266,223264,5,2,0:0:0:0:
264,250,223381,1,0,0:0:0:0:
332,215,223498,1,0,0:0:0:0:
338,231,223615,1,2,0:0:0:0:
405,267,223732,1,6,0:0:0:0:
411,251,223849,1,0,0:0:0:0:
477,211,223967,1,2,0:0:0:0:
483,227,224084,1,0,0:0:0:0:
404,176,224201,5,0,0:0:0:0:
397,157,224318,1,2,0:0:0:0:
320,117,224435,1,0,0:0:0:0:
313,136,224552,1,0,0:0:0:0:
236,176,224669,1,6,0:0:0:0:
230,158,224786,1,0,0:0:0:0:
155,113,224904,1,2,0:0:0:0:
147,131,225021,1,0,0:0:0:0:
112,208,225139,5,4,3:2:0:0:
68,279,225373,1,0,0:0:0:0:
203,238,225607,1,0,0:0:0:0:
175,333,225842,1,0,0:0:0:0:
284,244,226076,1,0,0:0:0:0:
293,342,226310,1,0,0:0:0:0:
362,219,226545,1,0,0:0:0:0:
407,306,226779,1,0,0:0:0:0:
362,219,227014,5,0,0:0:0:0:
424,142,227248,1,0,0:0:0:0:
289,183,227482,1,0,0:0:0:0:
317,88,227717,1,0,0:0:0:0:
208,177,227951,1,0,0:0:0:0:
199,79,228185,1,0,0:0:0:0:
130,202,228420,1,0,0:0:0:0:
85,115,228654,1,0,0:0:0:0:
62,75,228771,1,0,0:0:0:0:
40,36,228889,5,0,0:0:0:0:
64,144,229123,1,0,0:0:0:0:
183,19,229357,1,0,0:0:0:0:
195,138,229592,1,0,0:0:0:0:
331,19,229826,1,0,0:0:0:0:
319,138,230060,1,0,0:0:0:0:
474,36,230295,1,0,0:0:0:0:
450,144,230529,1,0,0:0:0:0:
450,250,230764,5,0,0:0:0:0:
474,358,230998,1,0,0:0:0:0:
319,256,231232,1,0,0:0:0:0:
331,375,231467,1,0,0:0:0:0:
195,256,231701,1,0,0:0:0:0:
183,375,231935,1,0,0:0:0:0:
64,250,232170,1,0,0:0:0:0:
40,358,232404,1,0,0:0:0:0:
136,128,232639,5,0,0:0:0:0:
127,297,232873,1,0,0:0:0:0:
217,101,233107,1,0,0:0:0:0:
207,285,233342,1,0,0:0:0:0:
309,101,233576,1,0,0:0:0:0:
319,285,233810,1,0,0:0:0:0:
390,128,234045,1,0,0:0:0:0:
399,297,234280,1,0,0:0:0:0:
399,297,234396,1,0,0:0:0:0:
456,236,234514,6,0,P|473:254|484:292,1,48.0000018310548,0|4,0:0|0:0,0:0:0:0:
390,128,234748,2,0,P|407:110|418:72,1,48.0000018310548,0|4,0:0|0:0,0:0:0:0:
280,204,234982,2,0,P|263:222|252:260,1,48.0000018310548,0|4,0:0|0:0,0:0:0:0:
256,76,235217,2,0,P|239:58|228:20,1,48.0000018310548,0|4,0:0|0:0,0:0:0:0:
192,296,235451,6,0,P|213:305|231:322,1,48.0000018310548,0|4,0:0|0:0,0:0:0:0:
96,300,235685,2,0,P|74:309|56:326,1,48.0000018310548,0|4,0:0|0:0,0:0:0:0:
20,156,235920,2,0,P|12:184|24:228,1,48.0000018310548,0|4,0:0|0:0,0:0:0:0:
131,45,236154,2,0,L|135:117,1,48.0000018310548,0|4,0:0|0:0,0:0:0:0:
273,138,236389,6,2,B|243:152|217:149|217:149|184:171|146:177|146:177|86:168|85:185|85:185|111:189|111:189|125:193|177:182|177:182|179:224|231:243,1,360.000013732911,4|0,2:3|2:0,0:0:0:0:
284,216,237326,5,4,3:2:0:0:
304,56,237639,1,8,2:3:0:0:
376,200,237951,1,8,0:3:0:0:
313,156,238264,6,0,P|313:120|331:152,1,96,4|0,0:0|0:0,0:0:0:0:
408,64,238732,2,0,P|428:96|436:136,2,64.0000024414063,8|8|8,0:0|0:0|0:0,0:0:0:0:
364,272,239201,2,0,P|332:292|292:300,2,64.0000024414063,8|8|8,0:0|0:0|0:0,0:0:0:0:
391,195,239670,5,2,3:2:0:0:
284,185,239787,2,0,B|302:228|302:228|312:195,1,64,2|2,0:2|0:2,0:0:0:0:
216,96,240139,6,2,B|178:184|178:184|158:116,1,144.000005493164,0|0,0:0|2:0,0:0:0:0:
32,96,240373,2,2,B|69:184|69:184|89:116,1,144.000005493164,0|0,0:0|2:0,0:0:0:0:
124,68,240607,6,2,L|124:281,1,168.000001602173,0|0,0:0|2:0,0:0:0:0:
124,356,240842,2,0,L|124:236,1,120,0|0,0:0|2:0,0:0:0:0:
85,220,241076,2,0,P|168:242|82:230,1,240,2|2,0:0|0:0,0:0:0:0:
12,215,241545,5,2,0:0:0:0:
10,246,241662,1,0,0:0:0:0:
48,123,241779,1,0,0:0:0:0:
50,154,241896,1,2,0:0:0:0:
63,53,242014,6,0,B|175:16|175:16|214:74|94:97,1,240,2|2,0:0|0:0,0:0:0:0:
124,167,242482,5,2,3:2:0:0:
144,175,242560,1,2,3:2:0:0:
164,177,242638,1,2,3:2:0:0:
185,172,242716,1,2,3:2:0:0:
203,159,242794,1,2,3:2:0:0:
215,142,242872,1,2,3:2:0:0:
220,124,242951,6,0,B|232:204|232:204|295:156,1,160,2|0,0:0|2:0,0:0:0:0:
244,52,243303,1,0,0:0:0:0:
264,49,243420,2,2,B|237:37|214:35|190:44|187:53|162:62|152:59|113:42,1,144.000005493164,0|0,0:0|2:0,0:0:0:0:
200,123,243889,6,0,B|161:147|161:147|137:179|103:197|103:197|44:208|48:224|48:224|74:220|74:220|89:219|129:192|129:192|171:186,1,320,8|2,1:0|0:0,0:0:0:0:
282,129,244474,2,0,P|274:90|251:59,1,80,2|0,0:0|0:0,0:0:0:0:
200,123,244709,2,0,L|260:344,1,211.20000201416,2|0,0:0|0:0,0:0:0:0:
128,255,245060,2,2,B|218:231|218:231|228:216|228:216|306:195,1,192,2|0,0:0|2:0,0:0:0:0:
476,148,245295,6,0,L|456:223,1,64,2|0,0:0|0:0,0:0:0:0:
335,186,245529,2,0,L|422:160,1,64,2|0,0:0|0:0,0:0:0:0:
421,29,245764,6,0,B|388:15|388:15|418:101,1,128.000004882813,2|0,0:3|2:0,0:0:0:0:
270,152,245998,2,0,B|239:238|239:238|272:224,1,128.000004882813,2|0,0:3|2:0,0:0:0:0:
335,186,246232,5,2,0:0:0:0:
401,167,246349,1,0,0:0:0:0:
468,149,246466,1,0,0:0:0:0:
449,215,246583,1,2,0:0:0:0:
271,258,246701,5,2,0:0:0:0:
205,277,246818,1,0,0:0:0:0:
138,295,246935,1,2,0:0:0:0:
157,229,247052,1,0,0:0:0:0:
262,71,247170,5,2,0:0:0:0:
277,147,247287,1,0,0:0:0:0:
311,218,247404,1,2,0:0:0:0:
279,290,247521,1,0,0:0:0:0:
229,226,247639,6,0,L|124:247,1,96.0000036621095,2|0,0:0|0:0,0:0:0:0:
336,99,247873,2,0,L|440:77,1,96.0000036621095,2|0,0:0|0:0,0:0:0:0:
161,193,248107,1,4,0:0:0:0:
200,211,248224,6,0,L|147:221,4,40,8|0|0|0|0,0:0|0:0|0:0|0:0|0:0,0:0:0:0:
392,143,248576,5,2,0:0:0:0:
364,123,248693,2,0,L|495:95,2,128,0|2|0,0:0|0:0|0:0,0:0:0:0:
284,95,249279,2,0,P|275:124|301:175,1,72.0000027465821,2|0,0:0|2:0,0:0:0:0:
360,211,249514,5,2,0:0:0:0:
364,27,249631,2,0,B|325:37|325:37|278:6|213:47,2,128,0|2|0,0:0|0:0|0:0,0:0:0:0:
292,251,250217,2,0,L|305:325,1,72.0000027465821,2|0,0:0|2:0,0:0:0:0:
315,179,250451,6,0,B|279:134|279:134|283:97|283:97|328:144,1,160,8|2,0:0|0:2,0:0:0:0:
239,198,250803,2,0,B|119:222|119:222|139:190,1,160,2|2,0:2|0:2,0:0:0:0:
51,187,251154,2,0,P|53:276|141:296,1,192,2|0,0:2|2:0,0:0:0:0:
282,206,251389,6,0,L|331:192,1,32
384,177,251506,2,0,L|433:163,1,32
451,159,251623,2,0,P|467:124|439:141,1,96,0|0,0:0|2:0,0:0:0:0:
361,44,251857,6,0,P|377:80|377:124,1,64,4|0,0:3|0:0,0:0:0:0:
242,297,252092,2,0,P|226:261|226:217,1,64
238,236,252326,5,2,0:0:0:0:
303,277,252444,1,0,0:0:0:0:
281,350,252561,1,0,0:0:0:0:
205,352,252678,1,2,0:0:0:0:
178,281,252795,2,0,B|118:258,1,64,2|0,0:0|0:0,0:0:0:0:
304,200,253029,2,0,B|364:223,1,64,2|0,0:0|0:0,0:0:0:0:
46,6,253381,6,0,B|196:64,1,160,2|0,0:0|2:0,0:0:0:0:
125,208,253732,6,0,B|39:174|39:174|58:228|58:228|125:262,1,224.00000213623,2|0,0:0|2:0,0:0:0:0:
304,220,254084,6,0,B|364:204|403:221|403:221|474:250|536:228|534:184|512:161|494:174|464:194|453:224,1,288.000010986329,2|0,0:0|2:0,0:0:0:0:
400,84,254435,6,0,P|327:56|390:103,1,224.00000213623,2|0,0:0|2:0,0:0:0:0:
352,296,254787,6,0,P|428:317|508:313,1,160,2|0,0:0|2:0,0:0:0:0:
368,324,255139,5,2,0:0:0:0:
381,353,255256,1,0,0:0:0:0:
265,167,255373,2,0,L|240:113,2,42.6666666666667,2|2|2,3:2|3:2|3:2,0:0:0:0:
239,186,255607,2,0,L|285:279,1,96,2|0,0:0|2:0,0:0:0:0:
356,192,255842,2,0,P|365:204|368:220,3,32
373,103,256076,5,2,0:0:0:0:
356,192,256193,2,0,B|400:160|460:154|460:154|440:152,1,128,0|2,0:0|0:0,0:0:0:0:
440,232,256545,2,0,P|437:265|443:324,1,64
304,88,256779,2,0,P|300:120|324:92,1,64,0|2,0:0|0:0,0:0:0:0:
296,15,257014,6,0,B|392:17|403:118|403:118|407:83,1,192,2|2,0:0|0:0,0:0:0:0:
228,60,257482,5,2,3:2:0:0:
197,62,257599,1,2,2:0:0:0:
124,205,257717,1,2,3:2:0:0:
155,203,257834,1,2,2:0:0:0:
135,125,257951,6,0,B|231:127|242:228|242:228|246:193,1,192,2|2,0:0|0:0,0:0:0:0:
298,157,258420,5,2,3:2:0:0:
311,178,258498,1,2,3:2:0:0:
316,203,258577,1,2,3:2:0:0:
385,209,258654,5,2,3:2:0:0:
380,234,258732,1,2,3:2:0:0:
365,255,258811,1,2,3:2:0:0:
339,325,258889,6,2,B|370:327|404:316|404:316|361:341|337:374,1,144.000005493164,0|0,0:0|2:0,0:0:0:0:
125,327,259357,2,0,B|179:331|225:363|225:363|252:349|275:349,1,160,2|2,0:0|0:0,0:0:0:0:
172,80,259709,2,0,B|192:186|192:186|194:153|216:124,1,160,2|2,0:0|0:0,0:0:0:0:
266,200,260060,2,0,P|238:250|117:192,1,192.000007324219,2|2,0:0|0:0,0:0:0:0:
197,346,260412,5,8,0:0:0:0:
412,160,260646,1,8,0:0:0:0:
350,89,260764,2,0,B|325:100|317:125|331:150|303:169,1,96.0000036621095,8|2,0:0|0:3,0:0:0:0:
364,240,261115,1,0,0:0:0:0:
219,148,261232,6,0,L|228:233,1,80,2|0,0:0|0:0,0:0:0:0:
135,180,261467,1,2,0:0:0:0:
141,235,261584,1,0,0:0:0:0:
125,101,261701,6,0,L|116:16,1,80,2|0,0:0|0:0,0:0:0:0:
209,69,261936,1,2,0:0:0:0:
203,14,262053,1,0,0:0:0:0:
285,101,262170,5,2,0:0:0:0:
385,179,262288,1,0,0:0:0:0:
363,105,262405,5,2,0:0:0:0:
322,224,262522,1,2,0:0:0:0:
261,177,262639,6,0,B|163:216,1,80,2|0,0:0|0:0,0:0:0:0:
376,28,262873,2,0,B|450:57,1,80,2|0,0:0|0:0,0:0:0:0:
376,272,263107,2,0,B|509:218,1,144.000005493164,8|0,0:0|2:0,0:0:0:0:
322,156,263576,5,2,0:0:0:0:
322,156,263693,2,0,B|238:191|238:191|258:156,2,128,0|2|0,0:0|0:0|0:0,0:0:0:0:
164,204,264279,2,0,P|181:246|216:266,1,72.0000027465821,2|0,0:0|2:0,0:0:0:0:
148,120,264514,6,0,P|106:137|79:222,1,128,2|0,0:0|0:0,0:0:0:0:
138,42,264865,2,0,P|198:58|227:113,2,128,2|2|0,0:0|0:0|0:0,0:0:0:0:
116,283,265451,6,0,B|148:315|148:315|284:315|284:315|316:283,1,224.00000213623,8|2,0:0|0:2,0:0:0:0:
259,192,265803,2,0,P|223:244|183:168,1,160,2|2,0:2|0:2,0:0:0:0:
216,125,266154,1,2,0:2:0:0:
216,125,266389,5,0,0:0:0:0:
216,196,266506,2,0,B|216:284|216:284|206:252|178:232,1,121.59999675293,2|0,0:0|2:0,0:0:0:0:
255,64,266857,2,0,B|305:-7|305:-7|294:21|306:53,1,121.59999675293,2|0,0:0|2:0,0:0:0:0:
151,152,267209,2,0,B|67:182|67:182|93:163|102:131,1,121.59999675293,2|0,0:0|2:0,0:0:0:0:
282,146,267560,2,0,B|366:168|366:168|334:168|308:190,1,121.59999675293,2|0,0:0|2:0,0:0:0:0:
172,73,267912,2,0,B|115:4|115:4|141:22|174:19,1,121.59999675293,2|0,0:0|2:0,0:0:0:0:
217,196,268264,6,0,B|224:282|224:282|213:253|183:236,1,121.59999675293,2|0,0:0|2:0,0:0:0:0:
255,64,268615,2,0,B|298:-11|298:-11|291:18|306:48,1,121.59999675293,2|0,0:0|2:0,0:0:0:0:
151,152,268967,6,2,B|66:189|66:189|91:167|98:130,1,160,2|0,0:0|2:0,0:0:0:0:
205,103,269670,6,2,B|228:128|238:156|233:193|201:226|201:226|221:272|253:295|300:311|348:311|397:277|408:237,1,384,4|0,3:2|2:0,0:0:0:0:
338,9,270139,5,2,0:0:0:0:
303,76,270256,1,0,0:0:0:0:
336,144,270373,2,0,P|318:172|313:219,1,80,0|2,0:0|0:0,0:0:0:0:
408,200,270607,2,2,B|427:270|427:270|438:281|438:281|469:390,1,160,0|2,0:0|0:2,0:0:0:0:
226,279,270959,5,0,0:0:0:0:
288,323,271076,1,0,0:0:0:0:
351,280,271193,2,0,P|379:262|426:257,2,80,8|0|0,0:0|0:0|2:0,0:0:0:0:
338,9,271545,5,2,0:0:0:0:
303,76,271662,1,0,0:0:0:0:
336,144,271779,2,0,P|318:172|313:219,1,80,2|0,0:0|0:0,0:0:0:0:
289,144,272014,6,0,P|307:172|312:219,1,80,2|0,0:0|0:0,0:0:0:0:
494,111,272248,2,0,P|476:83|471:36,1,80,10|0,0:0|0:0,0:0:0:0:
383,75,272482,2,0,L|471:38,1,96,2|0,0:0|2:0,0:0:0:0:
411,147,272717,6,0,L|488:204,1,96,8|0,0:0|0:0,0:0:0:0:
379,219,272951,6,0,L|413:271,1,64,2|0,0:0|0:0,0:0:0:0:
133,219,273303,2,0,L|98:271,1,64,2|0,0:0|0:0,0:0:0:0:
256,288,273654,6,0,L|256:344,2,42.6666666666667,8|0|0,0:0|0:0|0:0,0:0:0:0:
256,200,273889,5,2,0:0:0:0:
256,152,274006,1,0,0:0:0:0:
256,76,274123,1,0,0:0:0:0:
256,28,274240,1,2,0:0:0:0:
343,112,274357,6,0,L|423:188,1,64.0000024414063,2|2,2:3|2:3,0:0:0:0:
169,112,274670,6,0,L|127:151,1,48.0000018310548,2|0,2:3|2:0,0:0:0:0:
256,152,274826,6,0,L|256:200,5,32.0000012207032,2|0|0|0|0|0,0:0|0:0|0:0|0:0|0:0|0:0,0:0:0:0:
256,76,275060,6,0,P|293:94|335:88,1,85.3333333333333,2|0,0:2|2:0,0:0:0:0:
482,69,275295,2,0,P|445:48|403:55,1,85.3333333333333,2|0,0:2|2:0,0:0:0:0:
342,13,275529,1,2,0:0:0:0:
481,161,275764,6,0,P|496:194|489:224,1,64,2|0,0:2|0:0,0:0:0:0:
268,256,275998,6,0,B|425:198|425:198|326:136,1,224.00000213623,2|0,0:2|0:0,0:0:0:0:
254,278,276349,6,0,B|411:220|411:220|312:158,1,224.00000213623,2|0,0:2|0:0,0:0:0:0:
240,300,276701,6,0,B|397:242|397:242|298:180,1,224.00000213623,2|0,0:2|0:0,0:0:0:0:
265,206,277053,1,0,0:0:0:0:
238,127,277170,2,2,B|155:173|201:234|188:312|76:349,1,220.800004211426,8|0,0:0|0:0,0:0:0:0:
112,116,277639,5,0,0:0:0:0:
116,188,277756,1,2,0:0:0:0:
178,69,277873,1,0,0:0:0:0:
44,76,277990,6,0,B|15:163|15:163|0:96,1,128,2|0,0:0|2:0,0:0:0:0:
140,360,278342,2,2,B|169:273|169:273|184:340,1,128,0|0,0:0|2:0,0:0:0:0:
305,76,278693,2,2,B|334:163|334:163|349:96,1,128,8|0,0:0|0:0,0:0:0:0:
332,7,279045,5,2,0:0:0:0:
457,77,279162,1,0,0:0:0:0:
417,3,279279,5,2,0:0:0:0:
409,147,279396,1,0,0:0:0:0:
380,72,279514,5,2,0:0:0:0:
348,208,279631,1,0,0:0:0:0:
237,112,279748,2,0,L|260:183,1,64,8|0,0:0|0:0,0:0:0:0:
144,104,279982,2,0,L|173:195,1,96,2|0,0:0|2:0,0:0:0:0:
232,256,280217,2,0,L|204:340,1,64,10|0,0:0|2:0,0:0:0:0:
88,275,280451,5,2,0:0:0:0:
144,264,280568,1,0,0:0:0:0:
400,357,280803,1,2,0:0:0:0:
344,368,280920,1,0,0:0:0:0:
272,224,281154,2,0,L|215:394,1,96.0000036621095,8|0,0:0|2:0,0:0:0:0:
340,176,281389,5,2,0:0:0:0:
355,223,281506,1,0,0:0:0:0:
368,96,281623,1,0,0:0:0:0:
409,122,281740,1,2,0:0:0:0:
289,112,281857,5,2,3:2:0:0:
280,131,281935,1,2,3:2:0:0:
267,147,282013,1,2,3:2:0:0:
249,158,282091,1,2,3:2:0:0:
227,162,282169,1,2,3:2:0:0:
206,158,282247,1,2,3:2:0:0:
190,149,282326,6,0,P|250:225|255:254,1,128,2|0,0:0|0:0,0:0:0:0:
92,281,282678,2,0,L|168:233,1,48.0000018310548,0|2,0:0|0:0,0:0:0:0:
100,60,282912,2,0,P|100:132|80:152,1,96.0000036621095,2|2,0:0|0:0,0:0:0:0:
148,188,283264,6,2,B|217:205|265:177|265:177|313:205|381:186,1,240,0|0,2:1|2:0,0:0:0:0:
307,113,284201,2,2,P|262:96|211:122,1,96,0|0,2:1|2:0,0:0:0:0:
266,252,284670,5,2,3:2:0:0:
266,266,284748,1,2,3:2:0:0:
266,280,284826,1,2,3:2:0:0:
266,295,284904,1,2,3:2:0:0:
266,309,284982,1,2,3:2:0:0:
266,324,285060,1,2,3:2:0:0:
266,340,285139,6,0,L|266:371,1,32,4|0,2:3|2:0,0:0:0:0:
352,304,285373,6,0,L|382:369,1,64
180,304,285607,6,0,L|149:369,1,72.0000027465821,2|0,0:0|2:0,0:0:0:0:
266,174,285842,2,0,L|266:140,3,32
342,84,286076,1,2,0:0:0:0:
310,19,286193,2,0,B|265:-4|265:-4|266:73,1,128,0|2,0:0|0:0,0:0:0:0:
164,80,286545,5,0,0:0:0:0:
195,17,286662,1,0,0:0:0:0:
56,184,286779,5,0,0:0:0:0:
87,121,286896,1,2,0:0:0:0:
244,214,287014,6,0,B|136:217|136:217|182:172,1,160,2|0,0:0|2:0,0:0:0:0:
237,122,287365,1,2,0:0:0:0:
296,276,287482,5,2,3:2:0:0:
265,339,287599,1,2,2:0:0:0:
376,236,287716,5,2,3:2:0:0:
407,173,287833,1,2,2:0:0:0:
244,214,287951,6,0,B|136:217|136:217|182:172,1,160,2|0,0:0|2:0,0:0:0:0:
237,122,288303,1,2,0:0:0:0:
288,60,288420,5,2,3:2:0:0:
311,95,288498,1,2,3:2:0:0:
319,137,288577,1,2,3:2:0:0:
347,128,288655,1,2,3:2:0:0:
376,121,288733,1,2,3:2:0:0:
404,113,288811,1,2,3:2:0:0:
432,105,288889,6,2,P|461:165|448:246,1,144.000005493164,0|0,0:0|2:0,0:0:0:0:
336,160,289357,6,0,P|384:204|328:192,1,160,2|2,0:0|0:0,0:0:0:0:
250,210,289709,2,0,L|453:154,1,211.20000201416,2|2,0:0|0:0,0:0:0:0:
321,82,290060,2,2,B|345:172|345:172|360:182|360:182|381:260,1,192,2|0,0:0|2:0,0:0:0:0:
384,24,290295,6,0,L|404:101,1,80,2|8,0:0|0:0,0:0:0:0:
316,320,290529,2,0,L|295:242,1,80,2|8,0:0|0:0,0:0:0:0:
192,270,290764,6,0,L|295:242,1,106.666666666667,2|0,0:3|2:0,0:0:0:0:
97,153,290998,2,0,L|19:174,1,80,2|2,0:3|0:3,0:0:0:0:
107,235,291232,5,2,0:0:0:0:
99,253,291349,1,0,0:0:0:0:
93,239,291466,1,0,0:0:0:0:
111,247,291583,1,2,0:0:0:0:
238,139,291701,5,2,0:0:0:0:
230,157,291818,1,0,0:0:0:0:
224,144,291935,1,2,0:0:0:0:
242,152,292052,1,0,0:0:0:0:
87,95,292170,5,2,0:0:0:0:
79,113,292287,1,0,0:0:0:0:
73,99,292404,1,2,0:0:0:0:
91,108,292521,1,0,0:0:0:0:
149,173,292639,5,2,0:0:0:0:
140,155,292756,1,0,0:0:0:0:
135,169,292873,1,2,0:0:0:0:
153,160,292990,1,0,0:0:0:0:
196,88,293107,6,0,B|253:145|235:195|225:198|203:256|261:307,1,240,8|0,0:0|2:0,0:0:0:0:
378,210,293576,2,0,L|300:228,1,80,2|0,0:0|0:0,0:0:0:0:
300,228,293928,6,0,B|412:204|412:204|356:176,1,160,2|0,0:0|0:0,0:0:0:0:
308,156,294279,2,0,P|349:116|424:142,1,120,2|0,0:0|2:0,0:0:0:0:
318,35,294514,2,0,B|339:111|339:111|352:119|352:119|371:183,1,160,2|0,0:0|2:0,0:0:0:0:
208,212,294865,2,0,B|226:276|226:276|239:284|239:284|260:359,2,160,2|2|0,0:0|0:0|0:0,0:0:0:0:
152,156,295451,6,0,B|108:124|61:171|22:150|-8:98|27:81|69:79|108:124,1,224.00000213623,10|2,0:2|0:2,0:0:0:0:
73,179,295803,2,0,B|91:128|156:140|177:102|173:41|134:47|99:69|91:128,1,224.00000213623,2|0,0:2|0:0,0:0:0:0:
133,231,296154,2,0,B|169:340|169:340|240:300,1,168.000001602173,2|0,0:2|2:0,0:0:0:0:
241,300,296389,5,0,0:0:0:0:
268,40,296506,2,0,B|253:125|253:125|230:150|230:150|216:221,1,192.000007324219,2|0,0:0|2:0,0:0:0:0:
304,180,296857,2,0,P|245:111|136:144,1,192.000007324219,2|0,0:0|2:0,0:0:0:0:
108,288,297209,2,0,P|142:343|231:357,1,160,2|0,0:0|2:0,0:0:0:0:
210,240,297560,2,0,B|236:253|236:253|238:257|238:257|246:252|246:252|246:261|246:261|253:256|253:256|253:265|253:265|259:259|259:259|260:268|260:268|267:262|267:262|268:271|268:271|274:266|274:266|274:275|274:275|282:269|282:269|282:278|282:278|289:272|289:272|289:281|289:281|297:276|297:276|296:285|296:285|303:280|303:280|305:284,1,192.000007324219,2|0,0:0|1:0,0:0:0:0:
121,135,297912,2,0,B|133:184|125:239|125:239|139:202|171:167,1,192.000007324219,2|0,0:0|0:0,0:0:0:0:
207,9,298264,6,0,B|174:48|174:48|180:97|180:97|219:52,1,160,2|0,0:0|2:0,0:0:0:0:
236,324,298615,2,0,B|203:284|203:284|209:235|209:235|248:280,1,160,2|0,0:0|2:0,0:0:0:0:
284,166,298967,2,2,B|323:133|323:133|372:139|372:139|327:178,1,160,2|0,0:0|2:0,0:0:0:0:
150,66,299670,6,0,B|213:62|246:103|246:103|252:102|252:102|248:108|248:108|255:105|255:105|251:112|251:112|257:111|257:111|254:116|254:116|295:175|384:155,1,256,4|6,3:2|0:1,0:0:0:0:
253,107,300139,6,0,P|257:154|232:195,1,96.0000036621095,2|2,0:2|0:0,0:0:0:0:
148,308,300607,1,0,3:0:0:0:
259,147,300842,2,0,B|212:169|171:147|171:147|167:143|167:143|133:114|63:143,2,192.000007324219,2|2|2,0:0|0:0|0:0,0:0:0:0:
120,212,302014,5,0,1:2:0:0:
214,78,302248,2,0,B|254:80|284:57|284:57|331:53|352:74|359:110|352:165,1,192.000007324219,2|2,0:0|0:0,0:0:0:0:
325,289,302951,1,0,1:0:0:0:
306,220,303185,2,0,B|346:205|384:247,1,72.0000027465821,2|0,0:0|2:0,0:0:0:0:
397,255,303420,6,0,B|446:266|477:237|497:187,1,106.666666666667,8|0,0:1|2:0,0:0:0:0:
416,179,303654,2,0,P|410:154|410:129,5,26.6666666666667,8|0|8|0|0|0,0:1|0:0|0:1|0:0|0:0|0:0,0:0:0:0:
415,123,303889,5,0,1:0:0:0:
464,328,304123,1,2,0:0:0:0:
357,248,304357,2,0,B|328:281|328:281|328:285|328:285|374:311,1,96.0000036621095,0|2,3:0|0:0,0:0:0:0:
180,312,304826,1,0,1:0:0:0:
248,252,305060,2,0,L|266:349,2,96.0000036621095,2|0|2,0:0|3:0|0:0,0:0:0:0:
276,156,305764,6,0,L|179:174,1,96.0000036621095,0|2,1:2|0:0,0:0:0:0:
396,156,306232,2,0,L|299:174,1,96.0000036621095,0|2,3:0|0:0,0:0:0:0:
200,88,306701,6,0,B|259:77|259:77|267:80|267:80|274:70|274:70|287:76|287:76|297:62|297:62|315:75|315:75|286:48,1,160,4|8,1:1|0:0,0:0:0:0:
382,55,307053,1,0,0:0:0:0:
382,55,307170,2,0,P|382:103|343:141,1,96,8|0,0:0|2:0,0:0:0:0:
331,156,307639,5,2,1:2:0:0:
361,249,307873,1,2,0:0:0:0:
250,163,308107,5,0,3:0:0:0:
242,262,308342,1,2,0:0:0:0:
172,139,308576,5,0,1:2:0:0:
128,228,308810,1,2,0:0:0:0:
108,88,309045,5,0,3:0:0:0:
35,153,309279,1,2,0:0:0:0:
258,8,309514,5,0,1:0:0:0:
180,44,309748,2,0,P|238:84|308:76,1,140.800004296875,2|2,0:0|0:0,0:0:0:0:
144,124,310451,2,0,P|208:165|235:165,1,96.0000036621095,0|2,1:0|0:0,0:0:0:0:
368,40,310920,6,0,P|377:61|378:85,4,40,4|0|0|0|0,0:3|0:0|0:0|0:0|0:0,0:0:0:0:
336,144,311183,2,0,P|328:127|327:108,6,20,0|0|0|0|0|0|0,0:3|0:0|0:0|0:0|0:0|0:0|0:0,0:0:0:0:
344,164,311389,6,0,P|364:207|367:256,1,96.0000036621095,0|2,1:0|0:0,0:0:0:0:
328,348,311857,1,0,3:0:0:0:
280,84,312092,6,0,B|228:120|246:168|256:171|277:228|221:277,2,192.000007324219,2|2|2,0:0|0:0|0:0,0:0:0:0:
230,26,313264,5,0,1:0:0:0:
287,167,313498,1,2,2:0:0:0:
324,18,313732,1,0,3:0:0:0:
207,118,313967,1,2,2:0:0:0:
359,105,314201,6,0,L|403:97,6,26.6666666666667,8|0|0|0|0|0|0,0:0|0:0|0:0|0:0|0:0|0:0|0:0,0:0:0:0:
372,176,314465,2,0,L|391:173,6,20,8|0|0|0|0|0|0,0:1|0:0|0:0|0:0|0:0|0:0|0:0,0:0:0:0:
281,89,314670,2,0,L|306:240,1,120,8|0,0:0|2:0,0:0:0:0:
316,283,314904,2,0,L|324:330,1,48,0|0,0:0|2:0,0:0:0:0:
316,283,315139,6,0,L|335:397,1,96.0000036621095,0|2,0:2|0:0,0:0:0:0:
316,283,315607,2,0,P|304:335|248:377,1,96.0000036621095,0|2,3:0|0:0,0:0:0:0:
316,283,316076,2,0,P|283:325|214:340,1,96.0000036621095,0|2,0:0|0:0,0:0:0:0:
316,283,316545,2,0,P|268:307|200:292,1,96.0000036621095,0|2,3:0|0:0,0:0:0:0:
199,143,317014,6,0,L|179:257,1,96.0000036621095,0|2,0:0|0:0,0:0:0:0:
199,143,317482,2,0,P|211:195|266:237,1,96.0000036621095,0|2,3:0|0:0,0:0:0:0:
199,143,317951,2,0,P|231:185|300:200,1,96.0000036621095,0|2,0:0|0:0,0:0:0:0:
199,143,318420,2,0,P|246:167|314:152,1,96.0000036621095,0|2,3:0|0:0,0:0:0:0:
278,6,318889,6,0,P|254:54|269:122,3,96.0000036621095,0|2|0|2,0:0|0:0|3:0|0:0,0:0:0:0:
417,86,319826,2,0,P|369:62|301:77,3,96.0000036621095,0|2|0|2,0:0|0:0|3:0|0:0,0:0:0:0:
360,140,320764,5,0,0:0:0:0:
359,307,320998,1,2,0:0:0:0:
275,224,321232,1,0,3:0:0:0:
443,223,321467,1,2,0:0:0:0:
359,173,321701,5,0,0:0:0:0:
359,273,321935,1,2,0:0:0:0:
308,223,322169,1,0,3:0:0:0:
409,223,322404,2,0,L|468:224,1,48
487,252,322639,6,0,L|391:250,1,96.0000036621095,6|2,1:2|0:0,0:0:0:0:
216,208,323107,2,0,P|200:252|223:292,1,96.0000036621095,0|2,3:0|0:0,0:0:0:0:
176,356,323576,2,0,B|224:368|224:368|271:357,3,96.0000036621095,0|2|0|2,0:0|0:0|3:0|0:0,0:0:0:0:
223,199,324514,5,0,0:0:0:0:
197,263,324748,2,0,P|222:296|250:264,2,96.0000036621095,2|0|2,0:0|3:0|0:0,0:0:0:0:
223,120,325451,5,0,0:0:0:0:
249,56,325685,2,0,P|223:22|195:54,2,96.0000036621095,2|0|2,0:0|3:0|0:0,0:0:0:0:
223,167,326389,5,0,0:0:0:0:
142,153,326623,2,0,B|140:193|163:223|163:223|167:270|146:291|110:298|55:291,2,192.000007324219,2|2|2,0:0|0:0|0:0,0:0:0:0:
181,86,327795,2,0,P|216:124|219:183,1,96.0000036621095,0|2,3:0|0:0,0:0:0:0:
272,336,328264,6,0,P|237:298|234:239,1,96.0000036621095,0|2,0:0|0:0,0:0:0:0:
188,105,328732,2,0,P|217:137|220:187,1,96.0000036621095,0|2,3:0|0:0,0:0:0:0:
264,316,329201,2,0,P|235:284|232:234,1,96.0000036621095,0|2,0:0|0:0,0:0:0:0:
188,105,329670,2,0,P|217:137|220:187,1,96.0000036621095,0|2,3:0|0:0,0:0:0:0:
