osu file format v14

[General]
AudioFilename: audio.mp3
AudioLeadIn: 0
PreviewTime: -1
Countdown: 1
SampleSet: Soft
StackLeniency: 0.7
Mode: 1
LetterboxInBreaks: 0
WidescreenStoryboard: 0

[Editor]
Bookmarks: 90152,103745
DistanceSpacing: 2.2
BeatDivisor: 4
GridSize: 32
TimelineZoom: 1.9

[Metadata]
Title:Magic
TitleUnicode:Magic
Artist:Nhato
ArtistUnicode:Nhato
Creator:[Eve]
Version:Converted Oni
Source:
Tags:
BeatmapID:1140188
BeatmapSetID:538205

[Difficulty]
HPDrainRate:5
CircleSize:2
OverallDifficulty:5
ApproachRate:5
SliderMultiplier:1.39559974409104
SliderTickRate:1

[Events]
//Background and Video events
//Break Periods
//Storyboard Layer 0 (Background)
//Storyboard Layer 1 (Fail)
//Storyboard Layer 2 (Pass)
//Storyboard Layer 3 (Foreground)
//Storyboard Sound Samples

[TimingPoints]
152,468.75,4,2,0,100,1,0
30152,-90.9090909090909,4,2,0,100,0,0
30386,-100,4,2,0,100,0,0
30620,-90.9090909090909,4,2,0,100,0,0
30854,-100,4,2,0,100,0,0
31089,-90.9090909090909,4,2,0,100,0,0
31323,-100,4,2,0,100,0,0
31558,-90.9090909090909,4,2,0,100,0,0
31792,-100,4,2,0,100,0,0
32027,-90.9090909090909,4,2,0,100,0,0
32261,-100,4,2,0,100,0,0
32495,-90.9090909090909,4,2,0,100,0,0
32729,-100,4,2,0,100,0,0
32964,-90.9090909090909,4,2,0,100,0,0
33198,-100,4,2,0,100,0,0
33433,-90.9090909090909,4,2,0,100,0,0
33667,-100,4,2,0,100,0,0
33902,-90.9090909090909,4,2,0,100,0,0
34136,-100,4,2,0,100,0,0
34370,-90.9090909090909,4,2,0,100,0,0
34604,-100,4,2,0,100,0,0
34839,-90.9090909090909,4,2,0,100,0,0
35073,-100,4,2,0,100,0,0
35308,-90.9090909090909,4,2,0,100,0,0
35542,-100,4,2,0,100,0,0
35777,-90.9090909090909,4,2,0,100,0,0
36011,-100,4,2,0,100,0,0
36245,-90.9090909090909,4,2,0,100,0,0
36479,-100,4,2,0,100,0,0
36714,-90.9090909090909,4,2,0,100,0,0
36948,-100,4,2,0,100,0,0
37183,-90.9090909090909,4,2,0,100,0,0
37417,-100,4,2,0,100,0,0
37652,-90.9090909090909,4,2,0,100,0,0
37886,-100,4,2,0,100,0,0
38120,-90.9090909090909,4,2,0,100,0,0
38354,-100,4,2,0,100,0,0
38589,-90.9090909090909,4,2,0,100,0,0
38823,-100,4,2,0,100,0,0
39058,-90.9090909090909,4,2,0,100,0,0
39292,-100,4,2,0,100,0,0
39527,-90.9090909090909,4,2,0,100,0,0
39761,-100,4,2,0,100,0,0
39995,-90.9090909090909,4,2,0,100,0,0
40229,-100,4,2,0,100,0,0
40464,-90.9090909090909,4,2,0,100,0,0
40698,-100,4,2,0,100,0,0
40933,-90.9090909090909,4,2,0,100,0,0
41167,-100,4,2,0,100,0,0
41402,-90.9090909090909,4,2,0,100,0,0
41636,-100,4,2,0,100,0,0
41870,-90.9090909090909,4,2,0,100,0,0
42104,-100,4,2,0,100,0,0
42339,-90.9090909090909,4,2,0,100,0,0
42573,-100,4,2,0,100,0,0
42808,-90.9090909090909,4,2,0,100,0,0
43042,-100,4,2,0,100,0,0
43277,-90.9090909090909,4,2,0,100,0,0
43511,-100,4,2,0,100,0,0
43745,-90.9090909090909,4,2,0,100,0,0
43979,-100,4,2,0,100,0,0
44214,-90.9090909090909,4,2,0,100,0,0
44448,-100,4,2,0,100,0,0
44683,-50,4,2,0,100,0,0
45152,-90.9090909090909,4,2,0,100,0,0
45386,-100,4,2,0,100,0,0
45620,-90.9090909090909,4,2,0,100,0,0
45854,-100,4,2,0,100,0,0
46089,-90.9090909090909,4,2,0,100,0,0
46323,-100,4,2,0,100,0,0
46558,-90.9090909090909,4,2,0,100,0,0
46792,-100,4,2,0,100,0,0
47027,-90.9090909090909,4,2,0,100,0,0
47261,-100,4,2,0,100,0,0
47495,-90.9090909090909,4,2,0,100,0,0
47729,-100,4,2,0,100,0,0
47964,-90.9090909090909,4,2,0,100,0,0
48198,-100,4,2,0,100,0,0
48433,-90.9090909090909,4,2,0,100,0,0
48667,-100,4,2,0,100,0,0
48902,-90.9090909090909,4,2,0,100,0,0
49136,-100,4,2,0,100,0,0
49370,-90.9090909090909,4,2,0,100,0,0
49604,-100,4,2,0,100,0,0
49839,-90.9090909090909,4,2,0,100,0,0
50073,-100,4,2,0,100,0,0
50308,-90.9090909090909,4,2,0,100,0,0
50542,-100,4,2,0,100,0,0
50777,-90.9090909090909,4,2,0,100,0,0
51011,-100,4,2,0,100,0,0
51245,-90.9090909090909,4,2,0,100,0,0
51479,-100,4,2,0,100,0,0
51714,-90.9090909090909,4,2,0,100,0,0
51948,-100,4,2,0,100,0,0
52183,-90.9090909090909,4,2,0,100,0,0
52417,-100,4,2,0,100,0,0
52652,-90.9090909090909,4,2,0,100,0,0
52886,-100,4,2,0,100,0,0
53120,-90.9090909090909,4,2,0,100,0,0
53354,-100,4,2,0,100,0,0
53589,-90.9090909090909,4,2,0,100,0,0
53823,-100,4,2,0,100,0,0
54058,-90.9090909090909,4,2,0,100,0,0
54292,-100,4,2,0,100,0,0
54527,-90.9090909090909,4,2,0,100,0,0
54761,-100,4,2,0,100,0,0
54995,-90.9090909090909,4,2,0,100,0,0
55229,-100,4,2,0,100,0,0
55464,-90.9090909090909,4,2,0,100,0,0
55698,-100,4,2,0,100,0,0
55933,-90.9090909090909,4,2,0,100,0,0
56167,-100,4,2,0,100,0,0
56402,-90.9090909090909,4,2,0,100,0,0
56636,-100,4,2,0,100,0,0
56870,-90.9090909090909,4,2,0,100,0,0
57104,-100,4,2,0,100,0,0
57339,-90.9090909090909,4,2,0,100,0,0
57573,-100,4,2,0,100,0,0
57808,-90.9090909090909,4,2,0,100,0,0
58042,-100,4,2,0,100,0,0
58277,-90.9090909090909,4,2,0,100,0,0
58511,-100,4,2,0,100,0,0
58745,-90.9090909090909,4,2,0,100,0,0
58979,-100,4,2,0,100,0,0
59214,-90.9090909090909,4,2,0,100,0,0
59448,-100,4,2,0,100,0,0
75152,-90.9090909090909,4,2,0,100,0,0
118511,-100,4,2,0,100,0,0
119214,-66.6666666666667,4,2,0,100,0,0
120152,-90.9090909090909,4,2,0,100,0,1
120386,-76.9230769230769,4,2,0,100,0,1
120796,-66.6666666666667,4,2,0,100,0,1
121206,-90.9090909090909,4,2,0,100,0,1
121968,-66.6666666666667,4,2,0,100,0,1
122495,-66.6666666666667,4,2,0,100,0,1
122964,-66.6666666666667,4,2,0,100,0,1
123433,-83.3333333333333,4,2,0,100,0,1
126362,-90.9090909090909,4,2,0,100,0,1
128120,-76.9230769230769,4,2,0,100,0,1
128823,-90.9090909090909,4,2,0,100,0,1
130464,-76.9230769230769,4,2,0,100,0,1
131089,-66.6666666666667,4,2,0,100,0,1
131402,-76.9230769230769,4,2,0,100,0,1
131870,-66.6666666666667,4,2,0,100,0,1
132456,-90.9090909090909,4,2,0,100,0,1
133433,-76.9230769230769,4,2,0,100,0,1
135152,-90.9090909090909,4,2,0,100,0,1
135386,-66.6666666666667,4,2,0,100,0,1
135737,-76.9230769230769,4,2,0,100,0,1
136323,-90.9090909090909,4,2,0,100,0,1
136968,-66.6666666666667,4,2,0,100,0,1
137495,-71.4285714285714,4,2,0,100,0,1
137964,-66.6666666666667,4,2,0,100,0,1
138433,-76.9230769230769,4,2,0,100,0,1
138902,-71.4285714285714,4,2,0,100,0,1
139370,-83.3333333333333,4,2,0,100,0,1
139487,-66.6666666666667,4,2,0,100,0,1
140308,-90.9090909090909,4,2,0,100,0,1
140777,-76.9230769230769,4,2,0,100,0,1
141362,-90.9090909090909,4,2,0,100,0,1
143120,-71.4285714285714,4,2,0,100,0,1
143589,-76.9230769230769,4,2,0,100,0,1
143823,-66.6666666666667,4,2,0,100,0,1
144058,-76.9230769230769,4,2,0,100,0,1
144175,-66.6666666666667,4,2,0,100,0,1
144527,-76.9230769230769,4,2,0,100,0,1
144761,-66.6666666666667,4,2,0,100,0,1
144995,-76.9230769230769,4,2,0,100,0,1
145112,-66.6666666666667,4,2,0,100,0,1
145464,-71.4285714285714,4,2,0,100,0,1
146050,-76.9230769230769,4,2,0,100,0,1
146402,-66.6666666666667,4,2,0,100,0,1
146519,-71.4285714285714,4,2,0,100,0,1
146870,-83.3333333333333,4,2,0,100,0,1
147222,-90.9090909090909,4,2,0,100,0,1
147573,-76.9230769230769,4,2,0,100,0,1
147925,-71.4285714285714,4,2,0,100,0,1
148277,-66.6666666666667,4,2,0,100,0,1
148628,-76.9230769230769,4,2,0,100,0,1
148980,-71.4285714285714,4,2,0,100,0,1
149448,-71.4285714285714,4,2,0,100,0,1
150152,-90.9090909090909,4,2,0,100,0,1
150620,-76.9230769230769,4,2,0,100,0,1
151206,-90.9090909090909,4,2,0,100,0,1
152144,-66.6666666666667,4,2,0,100,0,1
152378,-90.9090909090909,4,2,0,100,0,1
152495,-76.9230769230769,4,2,0,100,0,1
153081,-90.9090909090909,4,2,0,100,0,1
153198,-76.9230769230769,4,2,0,100,0,1
154019,-90.9090909090909,4,2,0,100,0,1
154370,-66.6666666666667,4,2,0,100,0,1
155191,-90.9090909090909,4,2,0,100,0,1
157183,-71.4285714285714,4,2,0,100,0,1
157769,-90.9090909090909,4,2,0,100,0,1
158120,-76.9230769230769,4,2,0,100,0,1
159175,-90.9090909090909,4,2,0,100,0,1
159761,-66.6666666666667,4,2,0,100,0,1
160464,-83.3333333333333,4,2,0,100,0,1
161167,-71.4285714285714,4,2,0,100,0,1
161870,-62.5,4,2,0,100,0,1
162339,-50,4,2,0,100,0,1
162691,-83.3333333333333,4,2,0,100,0,1
165230,-90.9090909090909,4,2,0,100,0,1
166323,-83.3333333333333,4,2,0,100,0,1
166558,-90.9090909090909,4,2,0,100,0,1
167027,-71.4285714285714,4,2,0,100,0,1
167495,-66.6666666666667,4,2,0,100,0,1
168198,-71.4285714285714,4,2,0,100,0,1
168433,-76.9230769230769,4,2,0,100,0,1
169292,-66.6666666666667,4,2,0,100,0,1
169605,-71.4285714285714,4,2,0,100,0,1
170425,-90.9090909090909,4,2,0,100,0,1
173706,-66.6666666666667,4,2,0,100,0,1
174527,-90.9090909090909,4,2,0,100,0,1
174644,-66.6666666666667,4,2,0,100,0,1
175464,-76.9230769230769,4,2,0,100,0,1
179448,-25,4,2,0,100,0,1
180152,-100,4,2,0,100,0,0
234878,-83.3333333333333,4,2,0,100,0,0
235112,-71.4285714285714,4,2,0,100,0,0
235347,-62.5,4,2,0,100,0,0
235581,-55.5555555555556,4,2,0,100,0,0
235816,-50,4,2,0,100,0,0
236050,-45.4545454545455,4,2,0,100,0,0
236284,-41.6666666666667,4,2,0,100,0,0
240620,-100,4,2,0,100,0,1
300152,-100,4,2,0,100,0,0

[HitObjects]
256,192,152,5,0,0:0:0:0:
256,192,386,1,2,0:0:0:0:
256,192,855,1,2,0:0:0:0:
256,192,1323,1,0,0:0:0:0:
256,192,1792,1,2,0:0:0:0:
256,192,2261,1,0,0:0:0:0:
256,192,2730,1,2,0:0:0:0:
256,192,3199,1,2,0:0:0:0:
256,192,3667,1,0,0:0:0:0:
256,192,4136,1,2,0:0:0:0:
256,192,4605,1,0,0:0:0:0:
256,192,5073,1,2,0:0:0:0:
256,192,5542,1,2,0:0:0:0:
256,192,6011,1,0,0:0:0:0:
256,192,6480,1,2,0:0:0:0:
256,192,6948,1,2,0:0:0:0:
256,192,7417,1,0,0:0:0:0:
256,192,7886,1,0,0:0:0:0:
256,192,8355,1,2,0:0:0:0:
256,192,8823,1,0,0:0:0:0:
256,192,9292,1,2,0:0:0:0:
256,192,9761,1,0,0:0:0:0:
256,192,10230,1,2,0:0:0:0:
256,192,10698,1,2,0:0:0:0:
256,192,11167,1,0,0:0:0:0:
256,192,11636,1,2,0:0:0:0:
256,192,12105,1,0,0:0:0:0:
256,192,12573,1,2,0:0:0:0:
256,192,13042,1,2,0:0:0:0:
256,192,13511,1,0,0:0:0:0:
256,192,13980,1,2,0:0:0:0:
256,192,14448,1,2,0:0:0:0:
256,192,14917,1,0,0:0:0:0:
256,192,15386,5,2,0:0:0:0:
256,192,15855,1,2,0:0:0:0:
256,192,16323,1,0,0:0:0:0:
256,192,16792,1,2,0:0:0:0:
256,192,17261,1,0,0:0:0:0:
256,192,17730,1,2,0:0:0:0:
256,192,18198,1,2,0:0:0:0:
256,192,18667,1,0,0:0:0:0:
256,192,19136,1,2,0:0:0:0:
256,192,19605,1,0,0:0:0:0:
256,192,20073,1,2,0:0:0:0:
256,192,20542,1,2,0:0:0:0:
256,192,21011,1,0,0:0:0:0:
256,192,21480,1,2,0:0:0:0:
256,192,21948,1,2,0:0:0:0:
256,192,22417,1,0,0:0:0:0:
256,192,22886,12,0,29917,0:0:0:0:
256,192,30152,5,0,0:0:0:0:
256,192,30386,1,2,0:0:0:0:
256,192,30620,1,0,0:0:0:0:
256,192,30855,1,2,0:0:0:0:
256,192,31089,1,0,0:0:0:0:
256,192,31323,1,0,0:0:0:0:
256,192,31558,1,0,0:0:0:0:
256,192,31792,1,2,0:0:0:0:
256,192,32027,1,0,0:0:0:0:
256,192,32261,1,0,0:0:0:0:
256,192,32495,1,0,0:0:0:0:
256,192,32730,1,2,0:0:0:0:
256,192,32964,1,0,0:0:0:0:
256,192,33199,1,2,0:0:0:0:
256,192,33433,1,0,0:0:0:0:
256,192,33667,1,0,0:0:0:0:
256,192,33902,1,0,0:0:0:0:
256,192,34136,1,2,0:0:0:0:
256,192,34370,1,0,0:0:0:0:
256,192,34605,1,0,0:0:0:0:
256,192,34839,1,0,0:0:0:0:
256,192,35073,1,2,0:0:0:0:
256,192,35308,1,0,0:0:0:0:
256,192,35542,1,2,0:0:0:0:
256,192,35777,1,0,0:0:0:0:
256,192,36011,1,0,0:0:0:0:
256,192,36245,1,0,0:0:0:0:
256,192,36480,1,2,0:0:0:0:
256,192,36714,1,0,0:0:0:0:
256,192,36948,1,2,0:0:0:0:
256,192,37183,1,0,0:0:0:0:
256,192,37417,1,0,0:0:0:0:
256,192,37652,1,0,0:0:0:0:
256,192,37886,1,0,0:0:0:0:
256,192,38120,1,0,0:0:0:0:
256,192,38355,1,2,0:0:0:0:
256,192,38589,1,0,0:0:0:0:
256,192,38823,1,0,0:0:0:0:
256,192,39058,1,0,0:0:0:0:
256,192,39292,1,2,0:0:0:0:
256,192,39527,1,0,0:0:0:0:
256,192,39761,1,0,0:0:0:0:
256,192,39995,1,0,0:0:0:0:
256,192,40230,1,2,0:0:0:0:
256,192,40464,1,0,0:0:0:0:
256,192,40698,1,2,0:0:0:0:
256,192,40933,1,0,0:0:0:0:
256,192,41167,1,0,0:0:0:0:
256,192,41402,1,0,0:0:0:0:
256,192,41636,1,2,0:0:0:0:
256,192,41870,1,0,0:0:0:0:
256,192,42105,1,0,0:0:0:0:
256,192,42339,1,0,0:0:0:0:
256,192,42573,1,2,0:0:0:0:
256,192,42808,1,0,0:0:0:0:
256,192,43042,1,2,0:0:0:0:
256,192,43277,1,0,0:0:0:0:
256,192,43511,1,0,0:0:0:0:
256,192,43745,1,0,0:0:0:0:
256,192,43980,1,2,0:0:0:0:
256,192,44214,1,0,0:0:0:0:
256,192,44448,1,2,0:0:0:0:
128,64,44683,6,2,L|352:96,1,195.999991989136
256,192,45152,1,0,0:0:0:0:
256,192,45386,5,2,0:0:0:0:
256,192,45620,1,0,0:0:0:0:
256,192,45855,1,2,0:0:0:0:
256,192,46089,1,0,0:0:0:0:
256,192,46323,1,0,0:0:0:0:
256,192,46558,1,0,0:0:0:0:
256,192,46792,1,2,0:0:0:0:
256,192,47027,1,0,0:0:0:0:
256,192,47261,1,0,0:0:0:0:
256,192,47495,1,0,0:0:0:0:
256,192,47730,1,2,0:0:0:0:
256,192,47964,1,0,0:0:0:0:
256,192,48198,1,2,0:0:0:0:
256,192,48433,1,0,0:0:0:0:
256,192,48667,1,0,0:0:0:0:
256,192,48902,1,0,0:0:0:0:
256,192,49136,1,2,0:0:0:0:
256,192,49370,1,0,0:0:0:0:
256,192,49605,1,0,0:0:0:0:
256,192,49839,1,0,0:0:0:0:
256,192,50073,1,2,0:0:0:0:
256,192,50308,1,0,0:0:0:0:
256,192,50542,1,2,0:0:0:0:
256,192,50777,1,0,0:0:0:0:
256,192,51011,1,0,0:0:0:0:
256,192,51245,1,0,0:0:0:0:
256,192,51480,1,2,0:0:0:0:
256,192,51714,1,0,0:0:0:0:
256,192,51948,1,2,0:0:0:0:
256,192,52183,1,0,0:0:0:0:
256,192,52417,1,0,0:0:0:0:
256,192,52652,1,0,0:0:0:0:
256,192,52886,1,2,0:0:0:0:
256,192,53120,1,0,0:0:0:0:
256,192,53355,1,2,0:0:0:0:
256,192,53589,1,0,0:0:0:0:
256,192,53823,1,0,0:0:0:0:
256,192,54058,1,0,0:0:0:0:
256,192,54292,1,2,0:0:0:0:
256,192,54527,1,0,0:0:0:0:
256,192,54761,1,2,0:0:0:0:
256,192,54995,1,0,0:0:0:0:
256,192,55230,1,0,0:0:0:0:
256,192,55464,1,0,0:0:0:0:
256,192,55698,1,2,0:0:0:0:
256,192,55933,1,0,0:0:0:0:
256,192,56167,1,2,0:0:0:0:
256,192,56402,1,0,0:0:0:0:
256,192,56636,1,2,0:0:0:0:
256,192,56870,1,0,0:0:0:0:
256,192,57105,1,0,0:0:0:0:
256,192,57339,1,0,0:0:0:0:
256,192,57573,1,2,0:0:0:0:
256,192,57808,1,0,0:0:0:0:
256,192,58042,1,2,0:0:0:0:
256,192,58277,1,0,0:0:0:0:
256,192,58511,1,2,0:0:0:0:
256,192,58745,1,0,0:0:0:0:
256,192,58980,1,2,0:0:0:0:
256,192,59214,1,0,0:0:0:0:
256,192,59448,1,2,0:0:0:0:
256,192,59683,1,0,0:0:0:0:
256,192,59917,1,0,0:0:0:0:
256,192,60152,1,2,0:0:0:0:
256,192,60386,1,2,0:0:0:0:
256,192,60503,1,0,0:0:0:0:
256,192,60620,1,2,0:0:0:0:
256,192,60855,1,2,0:0:0:0:
256,192,61089,1,0,0:0:0:0:
256,192,61323,1,2,0:0:0:0:
256,192,61441,1,0,0:0:0:0:
256,192,61558,1,2,0:0:0:0:
256,192,61792,1,2,0:0:0:0:
256,192,62027,1,0,0:0:0:0:
256,192,62261,1,2,0:0:0:0:
256,192,62378,1,2,0:0:0:0:
256,192,62495,1,2,0:0:0:0:
256,192,62730,1,0,0:0:0:0:
256,192,62964,1,2,0:0:0:0:
256,192,63198,1,2,0:0:0:0:
256,192,63316,1,2,0:0:0:0:
256,192,63433,1,2,0:0:0:0:
256,192,63667,1,2,0:0:0:0:
256,192,63902,1,0,0:0:0:0:
256,192,64136,1,0,0:0:0:0:
256,192,64253,1,0,0:0:0:0:
256,192,64370,1,2,0:0:0:0:
256,192,64605,1,0,0:0:0:0:
256,192,64839,1,2,0:0:0:0:
256,192,65073,1,0,0:0:0:0:
256,192,65191,1,0,0:0:0:0:
256,192,65308,1,2,0:0:0:0:
256,192,65542,1,0,0:0:0:0:
256,192,65777,1,2,0:0:0:0:
256,192,66011,1,0,0:0:0:0:
256,192,66128,1,0,0:0:0:0:
256,192,66245,1,2,0:0:0:0:
256,192,66480,1,2,0:0:0:0:
256,192,66714,1,2,0:0:0:0:
256,192,66948,1,2,0:0:0:0:
256,192,67066,1,2,0:0:0:0:
256,192,67183,1,2,0:0:0:0:
256,192,67417,1,2,0:0:0:0:
256,192,67652,1,0,0:0:0:0:
256,192,67886,1,2,0:0:0:0:
256,192,68003,1,0,0:0:0:0:
256,192,68120,1,2,0:0:0:0:
256,192,68355,1,2,0:0:0:0:
256,192,68589,1,0,0:0:0:0:
256,192,68823,1,2,0:0:0:0:
256,192,68941,1,0,0:0:0:0:
256,192,69058,1,2,0:0:0:0:
256,192,69292,1,2,0:0:0:0:
256,192,69527,1,0,0:0:0:0:
256,192,69761,1,2,0:0:0:0:
256,192,69878,1,2,0:0:0:0:
256,192,69995,1,2,0:0:0:0:
256,192,70230,1,0,0:0:0:0:
256,192,70464,1,2,0:0:0:0:
256,192,70698,1,2,0:0:0:0:
256,192,70816,1,2,0:0:0:0:
256,192,70933,1,2,0:0:0:0:
256,192,71167,1,2,0:0:0:0:
256,192,71402,1,0,0:0:0:0:
256,192,71636,1,0,0:0:0:0:
256,192,71753,1,0,0:0:0:0:
256,192,71870,1,2,0:0:0:0:
256,192,72105,1,0,0:0:0:0:
256,192,72339,1,2,0:0:0:0:
256,192,72573,1,0,0:0:0:0:
256,192,72691,1,0,0:0:0:0:
256,192,72808,1,2,0:0:0:0:
256,192,73042,1,0,0:0:0:0:
256,192,73277,1,2,0:0:0:0:
256,192,73511,1,0,0:0:0:0:
256,192,73628,1,0,0:0:0:0:
256,192,73745,1,2,0:0:0:0:
256,192,73980,1,2,0:0:0:0:
256,192,74214,1,2,0:0:0:0:
256,192,74448,1,2,0:0:0:0:
256,192,74566,1,2,0:0:0:0:
256,192,74683,1,2,0:0:0:0:
256,192,74917,1,2,0:0:0:0:
256,192,75152,1,2,0:0:0:0:
256,192,75269,1,0,0:0:0:0:
256,192,75503,1,2,0:0:0:0:
256,192,75620,1,0,0:0:0:0:
256,192,75855,1,0,0:0:0:0:
256,192,75972,1,2,0:0:0:0:
256,192,76089,1,0,0:0:0:0:
256,192,76206,1,2,0:0:0:0:
256,192,76323,1,0,0:0:0:0:
256,192,76441,1,0,0:0:0:0:
256,192,76558,1,2,0:0:0:0:
256,192,76792,1,0,0:0:0:0:
256,192,76909,1,2,0:0:0:0:
256,192,77027,1,2,0:0:0:0:
256,192,77144,1,0,0:0:0:0:
256,192,77378,1,2,0:0:0:0:
256,192,77495,1,0,0:0:0:0:
256,192,77730,1,0,0:0:0:0:
256,192,77847,1,2,0:0:0:0:
256,192,77964,1,2,0:0:0:0:
256,192,78081,1,0,0:0:0:0:
256,192,78198,1,2,0:0:0:0:
256,192,78316,1,2,0:0:0:0:
256,192,78433,1,2,0:0:0:0:
256,192,78550,1,0,0:0:0:0:
256,192,78667,1,0,0:0:0:0:
256,192,78784,1,2,0:0:0:0:
256,192,78902,1,2,0:0:0:0:
256,192,79019,1,0,0:0:0:0:
256,192,79253,1,2,0:0:0:0:
256,192,79370,1,0,0:0:0:0:
256,192,79605,1,2,0:0:0:0:
256,192,79722,1,0,0:0:0:0:
256,192,79956,1,2,0:0:0:0:
256,192,80073,1,0,0:0:0:0:
256,192,80191,1,0,0:0:0:0:
256,192,80308,1,2,0:0:0:0:
256,192,80425,1,0,0:0:0:0:
256,192,80542,1,0,0:0:0:0:
256,192,80659,1,2,0:0:0:0:
256,192,80777,1,2,0:0:0:0:
256,192,80894,1,0,0:0:0:0:
256,192,81128,1,2,0:0:0:0:
256,192,81245,1,0,0:0:0:0:
256,192,81480,1,0,0:0:0:0:
256,192,81597,1,2,0:0:0:0:
256,192,81714,1,0,0:0:0:0:
256,192,81831,1,2,0:0:0:0:
256,192,81948,1,2,0:0:0:0:
256,192,82066,1,0,0:0:0:0:
256,192,82183,1,2,0:0:0:0:
256,192,82300,1,0,0:0:0:0:
256,192,82417,1,0,0:0:0:0:
256,192,82534,1,0,0:0:0:0:
256,192,82652,1,2,0:0:0:0:
256,192,82769,1,0,0:0:0:0:
256,192,83003,1,2,0:0:0:0:
256,192,83120,1,0,0:0:0:0:
256,192,83355,1,0,0:0:0:0:
256,192,83472,1,2,0:0:0:0:
256,192,83589,1,0,0:0:0:0:
256,192,83706,1,0,0:0:0:0:
256,192,83823,1,2,0:0:0:0:
256,192,83941,1,2,0:0:0:0:
256,192,84058,1,0,0:0:0:0:
256,192,84175,1,2,0:0:0:0:
256,192,84292,1,2,0:0:0:0:
256,192,84409,1,0,0:0:0:0:
256,192,84527,1,2,0:0:0:0:
256,192,84644,1,0,0:0:0:0:
256,192,84878,1,2,0:0:0:0:
256,192,84995,1,0,0:0:0:0:
256,192,85230,1,0,0:0:0:0:
256,192,85347,1,2,0:0:0:0:
256,192,85464,1,2,0:0:0:0:
256,192,85581,1,0,0:0:0:0:
256,192,85698,1,0,0:0:0:0:
256,192,85816,1,2,0:0:0:0:
256,192,85933,1,2,0:0:0:0:
256,192,86050,1,0,0:0:0:0:
256,192,86167,1,0,0:0:0:0:
256,192,86284,1,2,0:0:0:0:
256,192,86402,1,0,0:0:0:0:
256,192,86636,1,2,0:0:0:0:
256,192,86753,1,0,0:0:0:0:
256,192,86987,1,0,0:0:0:0:
256,192,87105,1,2,0:0:0:0:
256,192,87222,1,0,0:0:0:0:
256,192,87339,1,2,0:0:0:0:
256,192,87456,1,0,0:0:0:0:
256,192,87573,1,2,0:0:0:0:
256,192,87691,1,2,0:0:0:0:
256,192,87808,1,0,0:0:0:0:
256,192,87925,1,0,0:0:0:0:
256,192,88042,1,0,0:0:0:0:
256,192,88159,1,2,0:0:0:0:
256,192,88277,5,2,0:0:0:0:
256,192,88394,1,2,0:0:0:0:
256,192,88511,1,0,0:0:0:0:
256,192,88628,1,2,0:0:0:0:
256,192,88745,1,2,0:0:0:0:
256,192,88980,1,0,0:0:0:0:
256,192,89214,1,2,0:0:0:0:
256,192,89448,1,0,0:0:0:0:
256,192,89683,1,6,0:0:0:0:
256,192,90152,1,2,0:0:0:0:
256,192,90269,1,2,0:0:0:0:
256,192,90386,1,0,0:0:0:0:
256,192,90503,1,2,0:0:0:0:
256,192,90620,1,2,0:0:0:0:
256,192,90737,1,0,0:0:0:0:
256,192,90855,1,2,0:0:0:0:
256,192,90972,1,0,0:0:0:0:
256,192,91089,1,0,0:0:0:0:
256,192,91206,1,2,0:0:0:0:
256,192,91323,1,2,0:0:0:0:
256,192,91441,1,0,0:0:0:0:
256,192,91558,1,2,0:0:0:0:
256,192,91675,1,2,0:0:0:0:
256,192,91792,1,0,0:0:0:0:
256,192,91909,1,2,0:0:0:0:
256,192,92027,1,2,0:0:0:0:
256,192,92144,1,2,0:0:0:0:
256,192,92261,1,0,0:0:0:0:
256,192,92378,1,2,0:0:0:0:
256,192,92495,1,2,0:0:0:0:
256,192,92612,1,0,0:0:0:0:
256,192,92730,1,2,0:0:0:0:
256,192,92847,1,2,0:0:0:0:
256,192,92964,1,2,0:0:0:0:
256,192,93081,1,0,0:0:0:0:
256,192,93198,1,2,0:0:0:0:
256,192,93316,1,2,0:0:0:0:
256,192,93433,1,2,0:0:0:0:
256,192,93550,1,0,0:0:0:0:
256,192,93667,1,0,0:0:0:0:
256,192,93784,1,2,0:0:0:0:
256,192,93902,1,2,0:0:0:0:
256,192,94019,1,0,0:0:0:0:
256,192,94136,1,0,0:0:0:0:
256,192,94253,1,2,0:0:0:0:
256,192,94370,1,2,0:0:0:0:
256,192,94487,1,0,0:0:0:0:
256,192,94605,1,2,0:0:0:0:
256,192,94722,1,0,0:0:0:0:
256,192,94839,1,2,0:0:0:0:
256,192,94956,1,2,0:0:0:0:
256,192,95073,1,0,0:0:0:0:
256,192,95191,1,0,0:0:0:0:
256,192,95308,1,2,0:0:0:0:
256,192,95425,1,0,0:0:0:0:
256,192,95542,1,2,0:0:0:0:
256,192,95659,1,0,0:0:0:0:
256,192,95777,1,2,0:0:0:0:
256,192,95894,1,2,0:0:0:0:
256,192,96011,1,2,0:0:0:0:
256,192,96128,1,0,0:0:0:0:
256,192,96245,1,2,0:0:0:0:
256,192,96362,1,2,0:0:0:0:
256,192,96480,1,0,0:0:0:0:
256,192,96597,1,2,0:0:0:0:
256,192,96714,1,0,0:0:0:0:
256,192,96831,1,2,0:0:0:0:
256,192,96948,1,2,0:0:0:0:
256,192,97066,1,0,0:0:0:0:
256,192,97183,1,2,0:0:0:0:
256,192,97300,1,0,0:0:0:0:
256,192,97417,1,0,0:0:0:0:
256,192,97534,1,2,0:0:0:0:
256,192,97652,1,2,0:0:0:0:
256,192,97769,1,0,0:0:0:0:
256,192,97886,1,0,0:0:0:0:
256,192,98003,1,0,0:0:0:0:
256,192,98120,1,2,0:0:0:0:
256,192,98237,1,2,0:0:0:0:
256,192,98355,1,0,0:0:0:0:
256,192,98472,1,2,0:0:0:0:
256,192,98589,1,0,0:0:0:0:
256,192,98706,1,0,0:0:0:0:
256,192,98823,1,2,0:0:0:0:
256,192,98941,1,2,0:0:0:0:
256,192,99058,1,0,0:0:0:0:
256,192,99175,1,2,0:0:0:0:
256,192,99292,1,2,0:0:0:0:
256,192,99409,1,0,0:0:0:0:
256,192,99527,1,2,0:0:0:0:
256,192,99644,1,2,0:0:0:0:
256,192,99761,1,2,0:0:0:0:
256,192,99878,1,0,0:0:0:0:
256,192,99995,1,2,0:0:0:0:
256,192,100112,1,2,0:0:0:0:
256,192,100230,1,0,0:0:0:0:
256,192,100347,1,0,0:0:0:0:
256,192,100464,1,2,0:0:0:0:
256,192,100581,1,2,0:0:0:0:
256,192,100698,1,0,0:0:0:0:
256,192,100816,1,2,0:0:0:0:
256,192,100933,1,2,0:0:0:0:
256,192,101050,1,0,0:0:0:0:
256,192,101167,1,0,0:0:0:0:
256,192,101284,1,2,0:0:0:0:
256,192,101402,1,0,0:0:0:0:
256,192,101519,1,0,0:0:0:0:
256,192,101636,1,2,0:0:0:0:
256,192,101753,1,2,0:0:0:0:
256,192,101870,1,0,0:0:0:0:
256,192,101987,1,0,0:0:0:0:
256,192,102105,1,2,0:0:0:0:
256,192,102222,1,0,0:0:0:0:
256,192,102339,1,2,0:0:0:0:
256,192,102456,1,0,0:0:0:0:
256,192,102573,1,2,0:0:0:0:
256,192,102691,1,2,0:0:0:0:
256,192,102808,1,0,0:0:0:0:
256,192,102925,1,0,0:0:0:0:
256,192,103042,1,0,0:0:0:0:
256,192,103159,1,2,0:0:0:0:
256,192,103277,5,2,0:0:0:0:
256,192,103394,1,2,0:0:0:0:
256,192,103511,1,0,0:0:0:0:
256,192,103628,1,2,0:0:0:0:
256,192,103745,1,2,0:0:0:0:
256,192,103980,1,0,0:0:0:0:
256,192,104214,1,2,0:0:0:0:
256,192,104448,1,0,0:0:0:0:
256,192,104566,1,0,0:0:0:0:
256,192,104683,1,2,0:0:0:0:
256,192,104917,1,2,0:0:0:0:
256,192,105034,1,0,0:0:0:0:
256,192,105152,1,2,0:0:0:0:
256,192,105269,1,2,0:0:0:0:
256,192,105386,1,0,0:0:0:0:
256,192,105503,1,2,0:0:0:0:
256,192,105620,1,2,0:0:0:0:
256,192,105737,1,0,0:0:0:0:
256,192,105855,1,2,0:0:0:0:
256,192,105972,1,2,0:0:0:0:
256,192,106089,1,0,0:0:0:0:
256,192,106206,1,2,0:0:0:0:
256,192,106323,1,2,0:0:0:0:
256,192,106441,1,0,0:0:0:0:
256,192,106558,1,2,0:0:0:0:
256,192,106675,1,2,0:0:0:0:
256,192,106792,1,0,0:0:0:0:
256,192,106909,1,0,0:0:0:0:
256,192,107027,1,2,0:0:0:0:
256,192,107144,1,2,0:0:0:0:
256,192,107261,1,0,0:0:0:0:
256,192,107378,1,2,0:0:0:0:
256,192,107495,1,2,0:0:0:0:
256,192,107612,1,0,0:0:0:0:
256,192,107730,1,2,0:0:0:0:
256,192,107847,1,2,0:0:0:0:
256,192,107964,1,0,0:0:0:0:
256,192,108081,1,2,0:0:0:0:
256,192,108198,1,2,0:0:0:0:
256,192,108316,1,0,0:0:0:0:
256,192,108433,1,2,0:0:0:0:
256,192,108550,1,2,0:0:0:0:
256,192,108667,1,0,0:0:0:0:
256,192,108784,1,0,0:0:0:0:
256,192,108902,1,2,0:0:0:0:
256,192,109019,1,2,0:0:0:0:
256,192,109136,1,0,0:0:0:0:
256,192,109253,1,2,0:0:0:0:
256,192,109370,1,2,0:0:0:0:
256,192,109487,1,0,0:0:0:0:
256,192,109605,1,2,0:0:0:0:
256,192,109722,1,2,0:0:0:0:
256,192,109839,1,0,0:0:0:0:
256,192,109956,1,2,0:0:0:0:
256,192,110073,1,2,0:0:0:0:
256,192,110191,1,0,0:0:0:0:
256,192,110308,1,2,0:0:0:0:
256,192,110425,1,2,0:0:0:0:
256,192,110542,1,0,0:0:0:0:
256,192,110659,1,0,0:0:0:0:
256,192,110777,1,2,0:0:0:0:
256,192,110894,1,2,0:0:0:0:
256,192,111011,1,0,0:0:0:0:
256,192,111128,1,2,0:0:0:0:
256,192,111245,1,2,0:0:0:0:
256,192,111362,1,0,0:0:0:0:
256,192,111480,1,2,0:0:0:0:
256,192,111597,1,2,0:0:0:0:
256,192,111714,1,0,0:0:0:0:
256,192,111831,1,2,0:0:0:0:
256,192,111948,1,2,0:0:0:0:
256,192,112066,1,0,0:0:0:0:
256,192,112183,1,2,0:0:0:0:
256,192,112300,1,2,0:0:0:0:
256,192,112417,1,0,0:0:0:0:
256,192,112534,1,0,0:0:0:0:
256,192,112652,1,2,0:0:0:0:
256,192,112769,1,2,0:0:0:0:
256,192,112886,1,0,0:0:0:0:
256,192,113003,1,2,0:0:0:0:
256,192,113120,1,2,0:0:0:0:
256,192,113237,1,0,0:0:0:0:
256,192,113355,1,2,0:0:0:0:
256,192,113472,1,2,0:0:0:0:
256,192,113589,1,0,0:0:0:0:
256,192,113706,1,2,0:0:0:0:
256,192,113823,1,2,0:0:0:0:
256,192,113941,1,0,0:0:0:0:
256,192,114058,1,2,0:0:0:0:
256,192,114175,1,2,0:0:0:0:
256,192,114292,1,0,0:0:0:0:
256,192,114409,1,2,0:0:0:0:
256,192,114527,1,2,0:0:0:0:
256,192,114644,1,2,0:0:0:0:
256,192,114761,1,0,0:0:0:0:
256,192,114878,1,2,0:0:0:0:
256,192,114995,1,2,0:0:0:0:
256,192,115112,1,0,0:0:0:0:
256,192,115230,1,2,0:0:0:0:
256,192,115347,1,2,0:0:0:0:
256,192,115464,1,0,0:0:0:0:
256,192,115581,1,2,0:0:0:0:
256,192,115698,1,2,0:0:0:0:
256,192,115816,1,0,0:0:0:0:
256,192,115933,1,2,0:0:0:0:
256,192,116050,1,2,0:0:0:0:
256,192,116167,1,2,0:0:0:0:
256,192,116284,1,0,0:0:0:0:
256,192,116402,1,2,0:0:0:0:
256,192,116519,1,2,0:0:0:0:
256,192,116636,1,0,0:0:0:0:
256,192,116753,1,2,0:0:0:0:
256,192,116870,1,2,0:0:0:0:
256,192,116987,1,0,0:0:0:0:
256,192,117105,1,2,0:0:0:0:
256,192,117222,1,2,0:0:0:0:
256,192,117339,1,0,0:0:0:0:
256,192,117456,1,2,0:0:0:0:
256,192,117573,1,2,0:0:0:0:
256,192,117691,1,0,0:0:0:0:
256,192,117808,1,2,0:0:0:0:
256,192,117925,1,2,0:0:0:0:
256,192,118042,1,0,0:0:0:0:
256,192,118159,1,0,0:0:0:0:
256,192,118277,1,2,0:0:0:0:
256,192,118511,1,0,0:0:0:0:
256,192,118980,1,2,0:0:0:0:
256,192,119214,1,0,0:0:0:0:
256,192,119292,1,0,0:0:0:0:
256,192,119370,1,0,0:0:0:0:
256,192,119448,1,2,0:0:0:0:
256,192,119527,1,2,0:0:0:0:
256,192,119605,1,0,0:0:0:0:
256,192,119683,1,2,0:0:0:0:
256,192,119761,1,0,0:0:0:0:
256,192,119839,1,0,0:0:0:0:
256,192,119917,1,0,0:0:0:0:
256,192,119995,1,2,0:0:0:0:
256,192,120073,1,2,0:0:0:0:
256,192,120152,1,0,0:0:0:0:
256,192,120269,1,2,0:0:0:0:
256,192,120386,1,2,0:0:0:0:
256,192,120444,1,0,0:0:0:0:
256,192,120503,1,0,0:0:0:0:
256,192,120562,1,0,0:0:0:0:
256,192,120620,1,2,0:0:0:0:
256,192,120796,1,0,0:0:0:0:
256,192,120855,1,2,0:0:0:0:
256,192,121031,1,2,0:0:0:0:
256,192,121089,1,0,0:0:0:0:
256,192,121206,1,2,0:0:0:0:
256,192,121441,1,0,0:0:0:0:
256,192,121499,1,0,0:0:0:0:
256,192,121558,1,2,0:0:0:0:
256,192,121675,1,0,0:0:0:0:
256,192,121792,1,0,0:0:0:0:
256,192,121909,1,2,0:0:0:0:
256,192,121968,1,0,0:0:0:0:
256,192,122027,1,2,0:0:0:0:
256,192,122319,1,2,0:0:0:0:
256,192,122377,1,0,0:0:0:0:
256,192,122495,1,0,0:0:0:0:
256,192,122534,1,0,0:0:0:0:
256,192,122612,1,2,0:0:0:0:
256,192,122652,1,0,0:0:0:0:
256,192,122730,1,2,0:0:0:0:
256,192,122769,1,2,0:0:0:0:
256,192,122847,1,2,0:0:0:0:
256,192,122886,1,0,0:0:0:0:
256,192,122964,1,2,0:0:0:0:
256,192,123198,1,0,0:0:0:0:
256,192,123316,1,2,0:0:0:0:
256,192,123375,1,0,0:0:0:0:
256,192,123433,1,2,0:0:0:0:
256,192,123511,1,2,0:0:0:0:
256,192,123589,1,2,0:0:0:0:
256,192,123667,1,2,0:0:0:0:
256,192,123745,1,2,0:0:0:0:
256,192,123823,1,2,0:0:0:0:
256,192,123902,1,0,0:0:0:0:
288,192,123960,1,0,0:0:0:0:
256,192,124019,1,0,0:0:0:0:
256,192,124077,1,2,0:0:0:0:
256,192,124136,1,2,0:0:0:0:
256,192,124194,1,0,0:0:0:0:
256,192,124253,1,0,0:0:0:0:
256,192,124312,1,0,0:0:0:0:
256,192,124370,1,2,0:0:0:0:
256,192,124605,1,2,0:0:0:0:
256,192,124722,1,0,0:0:0:0:
256,192,124956,1,0,0:0:0:0:
256,192,125073,1,2,0:0:0:0:
256,192,125152,1,2,0:0:0:0:
256,192,125230,1,2,0:0:0:0:
256,192,125308,1,2,0:0:0:0:
256,192,125425,1,0,0:0:0:0:
256,192,125542,1,0,0:0:0:0:
256,192,125659,1,2,0:0:0:0:
256,192,125777,1,0,0:0:0:0:
256,192,125835,1,2,0:0:0:0:
256,192,125894,1,2,0:0:0:0:
256,192,125952,1,2,0:0:0:0:
256,192,126011,1,0,0:0:0:0:
256,192,126069,1,2,0:0:0:0:
256,192,126128,1,2,0:0:0:0:
256,192,126187,1,2,0:0:0:0:
256,192,126245,1,0,0:0:0:0:
256,192,126362,1,0,0:0:0:0:
256,192,126480,1,0,0:0:0:0:
256,192,126597,1,2,0:0:0:0:
256,192,126714,1,2,0:0:0:0:
256,192,126831,1,2,0:0:0:0:
256,192,126948,1,0,0:0:0:0:
256,192,127066,1,2,0:0:0:0:
256,192,127183,1,2,0:0:0:0:
256,192,127300,1,0,0:0:0:0:
256,192,127417,1,2,0:0:0:0:
256,192,127534,1,0,0:0:0:0:
256,192,127652,1,2,0:0:0:0:
256,192,127769,1,2,0:0:0:0:
256,192,127886,1,0,0:0:0:0:
256,192,128003,1,2,0:0:0:0:
256,192,128120,1,0,0:0:0:0:
256,192,128198,1,0,0:0:0:0:
256,192,128277,1,0,0:0:0:0:
256,192,128355,1,0,0:0:0:0:
256,192,128433,1,0,0:0:0:0:
256,192,128511,1,0,0:0:0:0:
256,192,128589,1,2,0:0:0:0:
256,192,128823,1,2,0:0:0:0:
256,192,128941,1,0,0:0:0:0:
256,192,129058,1,2,0:0:0:0:
256,192,129175,1,2,0:0:0:0:
256,192,129292,1,0,0:0:0:0:
256,192,129409,1,2,0:0:0:0:
256,192,129527,1,0,0:0:0:0:
256,192,129644,1,0,0:0:0:0:
256,192,129761,1,2,0:0:0:0:
256,192,129878,1,0,0:0:0:0:
256,192,129995,1,0,0:0:0:0:
256,192,130112,1,2,0:0:0:0:
256,192,130230,1,2,0:0:0:0:
256,192,130464,1,0,0:0:0:0:
256,192,130542,1,0,0:0:0:0:
256,192,130620,1,0,0:0:0:0:
256,192,130698,1,2,0:0:0:0:
256,192,130777,1,0,0:0:0:0:
256,192,130855,1,0,0:0:0:0:
256,192,130933,1,2,0:0:0:0:
256,192,131089,1,2,0:0:0:0:
256,192,131167,1,0,0:0:0:0:
256,192,131402,1,0,0:0:0:0:
256,192,131480,1,0,0:0:0:0:
256,192,131558,1,0,0:0:0:0:
256,192,131636,1,0,0:0:0:0:
256,192,131714,1,0,0:0:0:0:
256,192,131792,1,0,0:0:0:0:
256,192,131870,1,2,0:0:0:0:
256,192,131929,1,2,0:0:0:0:
256,192,131987,1,2,0:0:0:0:
256,192,132046,1,0,0:0:0:0:
256,192,132105,1,0,0:0:0:0:
256,192,132163,1,0,0:0:0:0:
256,192,132222,1,2,0:0:0:0:
256,192,132280,1,2,0:0:0:0:
256,192,132339,1,0,0:0:0:0:
256,192,132456,1,2,0:0:0:0:
256,192,132573,1,0,0:0:0:0:
256,192,132691,1,2,0:0:0:0:
256,192,132808,1,2,0:0:0:0:
256,192,132925,1,0,0:0:0:0:
256,192,133042,1,2,0:0:0:0:
256,192,133159,1,2,0:0:0:0:
256,192,133277,1,0,0:0:0:0:
256,192,133433,1,2,0:0:0:0:
256,192,133511,1,2,0:0:0:0:
256,192,133589,1,2,0:0:0:0:
256,192,133667,1,2,0:0:0:0:
256,192,133745,1,0,0:0:0:0:
256,192,133823,1,0,0:0:0:0:
256,192,133902,1,0,0:0:0:0:
256,192,133980,1,0,0:0:0:0:
256,192,134058,1,0,0:0:0:0:
256,192,134136,1,2,0:0:0:0:
256,192,134214,1,2,0:0:0:0:
256,192,134292,1,2,0:0:0:0:
256,192,134370,1,2,0:0:0:0:
256,192,134448,1,0,0:0:0:0:
256,192,134527,1,0,0:0:0:0:
256,192,134605,1,0,0:0:0:0:
256,192,134683,1,0,0:0:0:0:
256,192,134761,1,2,0:0:0:0:
256,192,134839,1,2,0:0:0:0:
256,192,134917,1,0,0:0:0:0:
256,192,135152,1,2,0:0:0:0:
256,192,135269,1,0,0:0:0:0:
256,192,135386,1,0,0:0:0:0:
256,192,135464,1,2,0:0:0:0:
256,192,135542,1,2,0:0:0:0:
256,192,135620,1,0,0:0:0:0:
256,192,135737,1,2,0:0:0:0:
256,192,135796,1,2,0:0:0:0:
256,192,135855,1,0,0:0:0:0:
256,192,135913,1,0,0:0:0:0:
256,192,135972,1,0,0:0:0:0:
256,192,136030,1,0,0:0:0:0:
256,192,136089,1,2,0:0:0:0:
256,192,136323,1,0,0:0:0:0:
256,192,136441,1,2,0:0:0:0:
256,192,136558,1,2,0:0:0:0:
256,192,136675,1,2,0:0:0:0:
256,192,136792,1,0,0:0:0:0:
256,192,136909,1,2,0:0:0:0:
256,192,136968,1,0,0:0:0:0:
256,192,137027,1,2,0:0:0:0:
256,192,137319,1,0,0:0:0:0:
256,192,137377,1,2,0:0:0:0:
256,192,137495,1,0,0:0:0:0:
256,192,137534,1,2,0:0:0:0:
256,192,137612,1,2,0:0:0:0:
256,192,137651,1,2,0:0:0:0:
256,192,137729,1,0,0:0:0:0:
256,192,137769,1,2,0:0:0:0:
256,192,137847,1,0,0:0:0:0:
256,192,137886,1,0,0:0:0:0:
256,192,137964,1,2,0:0:0:0:
256,192,138257,1,0,0:0:0:0:
256,192,138316,1,2,0:0:0:0:
256,192,138433,1,0,0:0:0:0:
256,192,138511,1,2,0:0:0:0:
256,192,138589,1,0,0:0:0:0:
256,192,138667,1,0,0:0:0:0:
256,192,138745,1,2,0:0:0:0:
256,192,138823,1,2,0:0:0:0:
256,192,138902,1,0,0:0:0:0:
256,192,138980,1,0,0:0:0:0:
256,192,139058,1,0,0:0:0:0:
256,192,139136,1,0,0:0:0:0:
256,192,139214,1,0,0:0:0:0:
256,192,139292,1,0,0:0:0:0:
256,192,139370,1,2,0:0:0:0:
256,192,139605,1,2,0:0:0:0:
256,192,139722,1,0,0:0:0:0:
256,192,139956,1,0,0:0:0:0:
256,192,140073,1,2,0:0:0:0:
256,192,140308,1,2,0:0:0:0:
256,192,140425,1,0,0:0:0:0:
256,192,140542,1,0,0:0:0:0:
256,192,140659,1,2,0:0:0:0:
256,192,140777,1,2,0:0:0:0:
256,192,140855,1,0,0:0:0:0:
256,192,140933,1,0,0:0:0:0:
256,192,141011,1,2,0:0:0:0:
256,192,141089,1,0,0:0:0:0:
256,192,141167,1,2,0:0:0:0:
256,192,141245,1,0,0:0:0:0:
256,192,141362,1,2,0:0:0:0:
256,192,141480,1,0,0:0:0:0:
256,192,141597,1,2,0:0:0:0:
256,192,141714,1,2,0:0:0:0:
256,192,141831,1,2,0:0:0:0:
256,192,141948,1,0,0:0:0:0:
256,192,142066,1,2,0:0:0:0:
256,192,142183,1,2,0:0:0:0:
256,192,142300,1,0,0:0:0:0:
256,192,142417,1,2,0:0:0:0:
256,192,142534,1,2,0:0:0:0:
256,192,142652,1,0,0:0:0:0:
256,192,142769,1,2,0:0:0:0:
256,192,142886,1,0,0:0:0:0:
256,192,143003,1,2,0:0:0:0:
256,192,143120,1,2,0:0:0:0:
256,192,143179,5,2,0:0:0:0:
256,192,143237,1,2,0:0:0:0:
256,192,143296,1,2,0:0:0:0:
256,192,143355,1,0,0:0:0:0:
256,192,143413,1,0,0:0:0:0:
256,192,143472,1,0,0:0:0:0:
256,192,143530,1,0,0:0:0:0:
256,192,143589,1,2,0:0:0:0:
256,192,143667,1,2,0:0:0:0:
256,192,143745,1,2,0:0:0:0:
256,192,143823,1,0,0:0:0:0:
256,192,143882,1,0,0:0:0:0:
256,192,143941,1,0,0:0:0:0:
256,192,144058,1,2,0:0:0:0:
256,192,144175,1,0,0:0:0:0:
256,192,144234,1,0,0:0:0:0:
256,192,144292,1,2,0:0:0:0:
256,192,144527,1,2,0:0:0:0:
256,192,144761,1,0,0:0:0:0:
256,192,144819,1,0,0:0:0:0:
256,192,144878,1,0,0:0:0:0:
256,192,144995,1,2,0:0:0:0:
256,192,145112,1,0,0:0:0:0:
256,192,145171,1,0,0:0:0:0:
256,192,145230,1,2,0:0:0:0:
256,192,145464,1,2,0:0:0:0:
256,192,145523,1,2,0:0:0:0:
256,192,145581,1,2,0:0:0:0:
256,192,145640,1,0,0:0:0:0:
256,192,145698,1,2,0:0:0:0:
256,192,145757,1,2,0:0:0:0:
256,192,145816,1,0,0:0:0:0:
256,192,146050,1,0,0:0:0:0:
256,192,146167,1,2,0:0:0:0:
256,192,146402,1,2,0:0:0:0:
256,192,146460,1,0,0:0:0:0:
256,192,146519,1,10,0:0:0:0:
256,192,146870,1,4,0:0:0:0:
256,192,147222,1,4,0:0:0:0:
256,192,147573,1,6,0:0:0:0:
256,192,147925,1,4,0:0:0:0:
256,192,148277,1,6,0:0:0:0:
256,192,148628,1,4,0:0:0:0:
256,192,148980,1,6,0:0:0:0:
256,192,149448,1,0,0:0:0:0:
256,192,149527,1,0,0:0:0:0:
256,192,149605,1,2,0:0:0:0:
256,192,149683,1,2,0:0:0:0:
256,192,149761,1,0,0:0:0:0:
256,192,149839,1,0,0:0:0:0:
256,192,149917,1,0,0:0:0:0:
256,192,149995,1,2,0:0:0:0:
256,192,150152,1,2,0:0:0:0:
256,192,150269,1,0,0:0:0:0:
256,192,150386,1,0,0:0:0:0:
256,192,150503,1,2,0:0:0:0:
256,192,150620,1,2,0:0:0:0:
256,192,150698,1,2,0:0:0:0:
256,192,150777,1,2,0:0:0:0:
256,192,150855,1,0,0:0:0:0:
256,192,150933,1,0,0:0:0:0:
256,192,151011,1,0,0:0:0:0:
256,192,151089,1,0,0:0:0:0:
256,192,151206,1,0,0:0:0:0:
256,192,151323,1,2,0:0:0:0:
256,192,151441,1,2,0:0:0:0:
256,192,151558,1,0,0:0:0:0:
256,192,151675,1,2,0:0:0:0:
256,192,151792,1,0,0:0:0:0:
256,192,151909,1,2,0:0:0:0:
256,192,152027,1,2,0:0:0:0:
256,192,152144,1,0,0:0:0:0:
256,192,152202,1,0,0:0:0:0:
256,192,152261,1,0,0:0:0:0:
256,192,152378,1,2,0:0:0:0:
256,192,152495,1,0,0:0:0:0:
256,192,152573,1,0,0:0:0:0:
256,192,152652,1,0,0:0:0:0:
256,192,152730,1,2,0:0:0:0:
256,192,152808,1,0,0:0:0:0:
256,192,152886,1,0,0:0:0:0:
256,192,152964,1,2,0:0:0:0:
256,192,153081,1,0,0:0:0:0:
256,192,153198,1,2,0:0:0:0:
256,192,153277,1,2,0:0:0:0:
256,192,153355,1,0,0:0:0:0:
256,192,153433,1,2,0:0:0:0:
256,192,153589,1,2,0:0:0:0:
256,192,153667,1,0,0:0:0:0:
256,192,153745,1,0,0:0:0:0:
256,192,153823,1,0,0:0:0:0:
256,192,153902,1,2,0:0:0:0:
256,192,154019,1,0,0:0:0:0:
256,192,154136,1,0,0:0:0:0:
256,192,154253,1,2,0:0:0:0:
256,192,154370,1,2,0:0:0:0:
256,192,154410,1,0,0:0:0:0:
256,192,154488,1,0,0:0:0:0:
256,192,154527,1,0,0:0:0:0:
256,192,154605,1,0,0:0:0:0:
256,192,154644,1,0,0:0:0:0:
256,192,154722,1,0,0:0:0:0:
256,192,154761,1,0,0:0:0:0:
256,192,154839,1,2,0:0:0:0:
256,192,154898,1,2,0:0:0:0:
256,192,154956,1,2,0:0:0:0:
256,192,155015,1,2,0:0:0:0:
256,192,155073,1,0,0:0:0:0:
256,192,155191,1,0,0:0:0:0:
256,192,155308,1,2,0:0:0:0:
256,192,155542,1,0,0:0:0:0:
256,192,155777,1,2,0:0:0:0:
256,192,155894,1,2,0:0:0:0:
256,192,156011,1,0,0:0:0:0:
256,192,156128,1,2,0:0:0:0:
256,192,156245,1,2,0:0:0:0:
256,192,156362,1,0,0:0:0:0:
256,192,156480,1,2,0:0:0:0:
256,192,156597,1,0,0:0:0:0:
128,96,156714,2,0,L|256:64,1,115.829990427074
256,192,157183,1,2,0:0:0:0:
256,192,157241,1,0,0:0:0:0:
256,192,157300,1,0,0:0:0:0:
256,192,157359,1,0,0:0:0:0:
256,192,157417,1,2,0:0:0:0:
256,192,157476,1,2,0:0:0:0:
256,192,157534,1,2,0:0:0:0:
256,192,157593,1,2,0:0:0:0:
256,192,157652,1,0,0:0:0:0:
256,192,157769,1,2,0:0:0:0:
256,192,157886,1,0,0:0:0:0:
256,192,158003,1,2,0:0:0:0:
256,192,158120,1,0,0:0:0:0:
256,192,158198,1,0,0:0:0:0:
256,192,158277,1,0,0:0:0:0:
256,192,158355,1,2,0:0:0:0:
256,192,158433,1,2,0:0:0:0:
256,192,158511,1,2,0:0:0:0:
256,192,158589,1,0,0:0:0:0:
256,192,158667,1,2,0:0:0:0:
256,192,158745,1,2,0:0:0:0:
256,192,158823,1,0,0:0:0:0:
256,192,158902,1,0,0:0:0:0:
256,192,158980,1,2,0:0:0:0:
256,192,159058,1,2,0:0:0:0:
256,192,159175,1,0,0:0:0:0:
256,192,159292,1,0,0:0:0:0:
256,192,159409,1,2,0:0:0:0:
256,192,159527,1,2,0:0:0:0:
256,192,159644,1,0,0:0:0:0:
256,192,159761,1,0,0:0:0:0:
256,192,159819,1,0,0:0:0:0:
256,192,159878,1,2,0:0:0:0:
256,192,159995,1,2,0:0:0:0:
256,192,160054,1,0,0:0:0:0:
256,192,160112,1,2,0:0:0:0:
256,192,160171,1,0,0:0:0:0:
256,192,160230,1,0,0:0:0:0:
256,192,160308,1,0,0:0:0:0:
256,192,160386,1,0,0:0:0:0:
256,192,160464,1,2,0:0:0:0:
256,192,160581,1,2,0:0:0:0:
256,192,160698,1,0,0:0:0:0:
256,192,160816,1,2,0:0:0:0:
256,192,160933,1,2,0:0:0:0:
256,192,161050,1,0,0:0:0:0:
256,192,161167,1,0,0:0:0:0:
256,192,161245,1,2,0:0:0:0:
256,192,161323,1,2,0:0:0:0:
256,192,161402,1,0,0:0:0:0:
256,192,161519,1,2,0:0:0:0:
256,192,161636,1,0,0:0:0:0:
256,192,161753,1,2,0:0:0:0:
256,192,161870,1,2,0:0:0:0:
256,192,161909,1,0,0:0:0:0:
256,192,161987,1,2,0:0:0:0:
256,192,162027,1,0,0:0:0:0:
256,192,162105,1,2,0:0:0:0:
256,192,162144,1,2,0:0:0:0:
256,192,162222,1,2,0:0:0:0:
256,192,162261,1,0,0:0:0:0:
256,192,162339,1,2,0:0:0:0:
256,192,162378,1,2,0:0:0:0:
256,192,162417,1,2,0:0:0:0:
256,192,162456,1,2,0:0:0:0:
256,192,162495,1,2,0:0:0:0:
256,192,162534,1,2,0:0:0:0:
256,192,162573,1,0,0:0:0:0:
256,192,162691,1,2,0:0:0:0:
256,192,162808,1,0,0:0:0:0:
256,192,162925,1,2,0:0:0:0:
256,192,163042,1,0,0:0:0:0:
256,192,163159,1,2,0:0:0:0:
256,192,163277,1,2,0:0:0:0:
256,192,163394,12,2,164214,0:0:0:0:
256,192,164214,12,0,165152,0:0:0:0:
256,192,165230,5,0,0:0:0:0:
256,192,165308,1,0,0:0:0:0:
256,192,165386,1,0,0:0:0:0:
256,192,165620,1,2,0:0:0:0:
256,192,165777,1,0,0:0:0:0:
256,192,165855,1,0,0:0:0:0:
256,192,165933,1,0,0:0:0:0:
256,192,166011,1,0,0:0:0:0:
256,192,166089,1,2,0:0:0:0:
256,192,166323,1,0,0:0:0:0:
256,192,166402,1,2,0:0:0:0:
256,192,166558,1,2,0:0:0:0:
256,192,166675,1,2,0:0:0:0:
256,192,166792,1,0,0:0:0:0:
256,192,166909,1,2,0:0:0:0:
256,192,167027,1,2,0:0:0:0:
256,192,167261,1,0,0:0:0:0:
256,192,167378,1,2,0:0:0:0:
256,192,167495,1,2,0:0:0:0:
256,192,167534,1,2,0:0:0:0:
256,192,167612,1,2,0:0:0:0:
256,192,167652,1,0,0:0:0:0:
256,192,167730,1,2,0:0:0:0:
256,192,167769,1,0,0:0:0:0:
256,192,167847,1,2,0:0:0:0:
256,192,167886,1,0,0:0:0:0:
256,192,167964,1,2,0:0:0:0:
256,192,168198,1,0,0:0:0:0:
256,192,168316,1,2,0:0:0:0:
256,192,168433,1,0,0:0:0:0:
256,192,168511,1,0,0:0:0:0:
256,192,168589,1,0,0:0:0:0:
256,192,168667,1,2,0:0:0:0:
256,192,168745,1,2,0:0:0:0:
256,192,168823,1,2,0:0:0:0:
256,192,168902,1,0,0:0:0:0:
256,192,169292,1,0,0:0:0:0:
256,192,169370,1,0,0:0:0:0:
256,192,169605,1,2,0:0:0:0:
256,192,169722,1,0,0:0:0:0:
256,192,169956,1,0,0:0:0:0:
256,192,170073,1,2,0:0:0:0:
256,192,170152,1,2,0:0:0:0:
256,192,170230,1,2,0:0:0:0:
256,192,170308,1,2,0:0:0:0:
256,192,170425,1,0,0:0:0:0:
256,192,170542,1,0,0:0:0:0:
256,192,170659,1,2,0:0:0:0:
256,192,170777,1,0,0:0:0:0:
256,192,170894,1,0,0:0:0:0:
256,192,171011,1,0,0:0:0:0:
256,192,171089,1,0,0:0:0:0:
256,192,171167,1,0,0:0:0:0:
256,192,171245,1,2,0:0:0:0:
256,192,171362,1,0,0:0:0:0:
256,192,171480,1,0,0:0:0:0:
256,192,171597,1,2,0:0:0:0:
256,192,171714,1,2,0:0:0:0:
256,192,171831,1,0,0:0:0:0:
256,192,171948,1,2,0:0:0:0:
256,192,172066,1,2,0:0:0:0:
256,192,172183,1,0,0:0:0:0:
256,192,172300,1,2,0:0:0:0:
256,192,172417,1,2,0:0:0:0:
256,192,172534,1,0,0:0:0:0:
256,192,172652,1,0,0:0:0:0:
256,192,172769,1,0,0:0:0:0:
256,192,172886,1,2,0:0:0:0:
256,192,173003,1,2,0:0:0:0:
256,192,173120,1,2,0:0:0:0:
256,192,173198,1,2,0:0:0:0:
256,192,173277,1,2,0:0:0:0:
256,192,173355,1,0,0:0:0:0:
256,192,173433,1,0,0:0:0:0:
256,192,173511,1,0,0:0:0:0:
256,192,173589,1,2,0:0:0:0:
256,192,173706,1,0,0:0:0:0:
256,192,173765,1,0,0:0:0:0:
256,192,173823,1,2,0:0:0:0:
256,192,174058,1,0,0:0:0:0:
256,192,174117,1,0,0:0:0:0:
256,192,174175,1,0,0:0:0:0:
256,192,174234,1,0,0:0:0:0:
256,192,174292,1,2,0:0:0:0:
256,192,174527,1,2,0:0:0:0:
256,192,174644,1,0,0:0:0:0:
256,192,174702,1,0,0:0:0:0:
256,192,174761,1,2,0:0:0:0:
256,192,174995,1,0,0:0:0:0:
256,192,175054,1,0,0:0:0:0:
256,192,175112,1,0,0:0:0:0:
256,192,175171,1,0,0:0:0:0:
256,192,175230,1,2,0:0:0:0:
256,224,175464,1,2,0:0:0:0:
256,224,175542,1,2,0:0:0:0:
256,224,175620,1,0,0:0:0:0:
256,224,175698,1,0,0:0:0:0:
256,224,175777,1,2,0:0:0:0:
256,224,175874,1,0,0:0:0:0:
256,224,176050,1,0,0:0:0:0:
256,224,176167,1,2,0:0:0:0:
256,192,176402,1,0,0:0:0:0:
256,192,176519,1,6,0:0:0:0:
256,192,176870,1,4,0:0:0:0:
256,192,177222,1,4,0:0:0:0:
256,192,177573,1,6,0:0:0:0:
256,192,177925,1,6,0:0:0:0:
256,192,178277,1,6,0:0:0:0:
256,192,178628,1,4,0:0:0:0:
256,192,178980,1,6,0:0:0:0:
256,192,179214,12,0,180152,0:0:0:0:
128,96,179448,6,0,L|416:96,2,279.119948818208
96,96,180386,2,0,L|256:96,1,139.559974409104
96,96,181323,2,0,L|256:96,1,139.559974409104
96,96,182261,2,0,L|256:96,1,139.559974409104
96,96,183198,2,0,L|256:96,1,139.559974409104
96,96,184136,2,0,L|256:96,1,139.559974409104
96,96,185073,2,0,L|256:96,1,139.559974409104
96,96,186011,2,0,L|256:96,1,139.559974409104
96,96,186948,2,0,L|256:96,1,139.559974409104
96,96,187886,2,0,L|256:96,1,139.559974409104
96,96,188823,2,0,L|256:96,1,139.559974409104
96,96,189761,2,0,L|256:96,1,139.559974409104
96,96,190698,2,0,L|256:96,1,139.559974409104
96,96,191636,2,0,L|256:96,1,139.559974409104
96,96,192573,2,0,L|256:96,1,139.559974409104
96,96,193511,2,0,L|256:96,1,139.559974409104
96,96,194448,2,0,L|256:96,1,139.559974409104
256,192,195152,1,0,0:0:0:0:
256,192,195503,1,0,0:0:0:0:
256,192,195620,1,0,0:0:0:0:
256,192,195855,1,0,0:0:0:0:
256,192,196206,1,0,0:0:0:0:
256,192,196558,1,0,0:0:0:0:
256,192,196792,1,0,0:0:0:0:
256,192,197027,1,2,0:0:0:0:
256,192,197378,1,2,0:0:0:0:
256,192,197730,1,0,0:0:0:0:
256,192,197964,1,2,0:0:0:0:
256,192,198316,1,2,0:0:0:0:
256,192,198667,1,2,0:0:0:0:
256,192,198902,1,0,0:0:0:0:
256,192,199253,1,0,0:0:0:0:
256,192,199605,1,0,0:0:0:0:
256,192,199956,1,0,0:0:0:0:
256,192,200308,1,0,0:0:0:0:
256,192,200542,1,0,0:0:0:0:
256,192,200777,1,2,0:0:0:0:
224,192,201128,1,2,0:0:0:0:
224,192,201480,1,2,0:0:0:0:
224,192,201831,1,2,0:0:0:0:
224,192,202183,1,0,0:0:0:0:
224,192,202417,1,0,0:0:0:0:
224,192,202652,1,2,0:0:0:0:
256,192,203003,1,2,0:0:0:0:
256,192,203120,1,0,0:0:0:0:
256,192,203355,1,2,0:0:0:0:
256,192,203706,1,2,0:0:0:0:
256,192,204058,1,0,0:0:0:0:
256,192,204292,1,0,0:0:0:0:
256,192,204527,1,2,0:0:0:0:
256,192,204878,1,0,0:0:0:0:
256,192,205230,1,0,0:0:0:0:
256,192,205464,1,2,0:0:0:0:
256,192,205816,1,2,0:0:0:0:
256,192,206167,1,2,0:0:0:0:
256,192,206402,1,0,0:0:0:0:
256,192,206753,1,0,0:0:0:0:
256,192,207105,1,0,0:0:0:0:
256,192,207456,1,0,0:0:0:0:
256,192,207808,1,0,0:0:0:0:
256,192,208042,1,0,0:0:0:0:
256,192,208277,1,2,0:0:0:0:
256,192,208628,1,2,0:0:0:0:
256,192,208980,1,2,0:0:0:0:
256,192,209331,1,2,0:0:0:0:
256,192,209683,1,2,0:0:0:0:
256,192,209917,1,2,0:0:0:0:
256,192,210152,1,2,0:0:0:0:
256,192,210620,1,2,0:0:0:0:
256,192,211089,1,0,0:0:0:0:
256,192,211558,1,2,0:0:0:0:
256,192,212027,1,0,0:0:0:0:
256,192,212495,1,2,0:0:0:0:
256,192,212964,1,0,0:0:0:0:
256,192,213433,1,2,0:0:0:0:
256,192,213902,1,0,0:0:0:0:
256,192,214370,1,2,0:0:0:0:
256,192,214839,1,0,0:0:0:0:
256,192,215308,1,2,0:0:0:0:
256,192,215777,1,0,0:0:0:0:
256,192,216245,1,2,0:0:0:0:
256,192,216714,1,0,0:0:0:0:
256,192,217183,1,2,0:0:0:0:
256,192,217417,1,0,0:0:0:0:
256,192,217652,1,0,0:0:0:0:
256,192,218120,1,2,0:0:0:0:
256,192,218589,1,0,0:0:0:0:
256,192,219058,1,2,0:0:0:0:
256,192,219527,1,0,0:0:0:0:
256,192,219995,1,2,0:0:0:0:
256,192,220464,1,0,0:0:0:0:
256,192,220933,1,2,0:0:0:0:
256,192,221402,1,0,0:0:0:0:
256,192,221870,1,2,0:0:0:0:
256,192,222339,1,0,0:0:0:0:
256,192,222808,1,2,0:0:0:0:
256,192,223042,1,2,0:0:0:0:
256,192,223277,1,0,0:0:0:0:
256,192,223745,1,2,0:0:0:0:
256,192,224214,1,0,0:0:0:0:
256,192,224683,1,2,0:0:0:0:
256,192,225152,1,2,0:0:0:0:
256,192,225386,1,2,0:0:0:0:
256,192,225620,1,2,0:0:0:0:
256,192,225855,1,2,0:0:0:0:
256,192,226089,1,2,0:0:0:0:
256,192,226323,1,2,0:0:0:0:
256,192,226558,1,0,0:0:0:0:
256,192,226792,1,0,0:0:0:0:
256,192,227027,1,2,0:0:0:0:
256,192,227261,1,2,0:0:0:0:
256,192,227495,1,2,0:0:0:0:
256,192,227730,1,2,0:0:0:0:
256,192,227964,1,2,0:0:0:0:
256,192,228081,1,2,0:0:0:0:
256,192,228198,1,2,0:0:0:0:
256,192,228433,1,0,0:0:0:0:
256,192,228667,1,0,0:0:0:0:
256,192,228902,1,2,0:0:0:0:
256,192,229136,1,2,0:0:0:0:
256,192,229253,1,2,0:0:0:0:
256,192,229370,1,2,0:0:0:0:
256,192,229605,1,2,0:0:0:0:
256,192,229839,1,2,0:0:0:0:
256,192,229956,1,2,0:0:0:0:
256,192,230073,1,2,0:0:0:0:
256,192,230308,1,0,0:0:0:0:
256,192,230542,1,0,0:0:0:0:
256,192,230777,1,2,0:0:0:0:
256,192,231011,1,2,0:0:0:0:
256,192,231128,1,2,0:0:0:0:
256,192,231245,1,2,0:0:0:0:
256,192,231480,1,2,0:0:0:0:
256,192,231714,1,2,0:0:0:0:
256,192,231831,1,2,0:0:0:0:
256,192,231948,1,2,0:0:0:0:
256,192,232183,1,0,0:0:0:0:
256,192,232417,1,0,0:0:0:0:
256,192,232652,1,2,0:0:0:0:
256,192,232886,1,2,0:0:0:0:
256,192,233003,1,2,0:0:0:0:
256,192,233120,1,2,0:0:0:0:
256,192,233355,1,2,0:0:0:0:
256,192,233472,1,2,0:0:0:0:
256,192,233589,1,2,0:0:0:0:
256,192,233823,1,2,0:0:0:0:
256,192,233941,1,2,0:0:0:0:
256,192,234058,1,0,0:0:0:0:
256,192,234292,1,0,0:0:0:0:
256,192,234409,1,2,0:0:0:0:
256,192,234527,1,2,0:0:0:0:
256,192,234761,1,2,0:0:0:0:
256,192,234878,1,0,0:0:0:0:
256,192,234995,1,2,0:0:0:0:
256,192,235112,1,0,0:0:0:0:
256,192,235230,1,2,0:0:0:0:
256,192,235347,1,0,0:0:0:0:
256,192,235464,1,2,0:0:0:0:
256,192,235581,1,0,0:0:0:0:
256,192,235698,1,2,0:0:0:0:
256,192,235816,1,0,0:0:0:0:
256,192,235933,1,2,0:0:0:0:
256,192,236050,1,0,0:0:0:0:
256,192,236167,1,2,0:0:0:0:
256,192,236284,1,0,0:0:0:0:
0,64,236402,2,0,P|283:127|568:67,1,586.151874630301
256,192,237339,1,6,0:0:0:0:
256,192,237652,1,4,0:0:0:0:
256,192,237964,1,4,0:0:0:0:
256,192,238277,1,2,0:0:0:0:
256,192,238394,1,2,0:0:0:0:
256,192,238511,1,0,0:0:0:0:
256,192,238628,1,2,0:0:0:0:
256,192,238745,1,2,0:0:0:0:
256,192,238980,1,0,0:0:0:0:
256,192,239214,1,2,0:0:0:0:
256,192,239448,1,0,0:0:0:0:
256,192,239683,1,2,0:0:0:0:
256,192,239761,1,2,0:0:0:0:
256,192,239839,1,0,0:0:0:0:
256,192,239917,1,0,0:0:0:0:
256,192,239995,1,2,0:0:0:0:
256,192,240073,1,2,0:0:0:0:
256,192,240152,1,0,0:0:0:0:
256,192,240386,1,2,0:0:0:0:
256,192,240620,1,6,0:0:0:0:
256,192,240855,1,4,0:0:0:0:
256,192,241089,1,6,0:0:0:0:
