osu file format v14

[General]
AudioFilename: LIMBO.ogg
AudioLeadIn: 0
PreviewTime: 91000
Countdown: 0
SampleSet: Normal
StackLeniency: 0.7
Mode: 3
LetterboxInBreaks: 0
SpecialStyle: 0
WidescreenStoryboard: 0

[Editor]
DistanceSpacing: 0.8
BeatDivisor: 4
GridSize: 32
TimelineZoom: 1

[Metadata]
Title:LIMBO
TitleUnicode:LIMBO
Artist:Nhato
ArtistUnicode:Nhato
Creator:riktoi
Version:Deadly Dance
Source:東方妖々夢 ~ Perfect Cherry Blossom.
Tags:loud megaphone Tatsuya Fukumuro 福室達也 otographic music Yuyuko Saigyouji 西行寺幽々子 ZUN doujin Touhou Youyoumu Ghostly Dream alstroemeria records degenerate dancehall 例大祭 reitaisai 10 toho 2hu ARCD0040 博麗神社例大祭 th07 太田顺也 oota jun'ya Touhou Project 上海アリス幻樂団 Team Shanghai Alice marathon electronic instrumental 春風の夢 harukaze no yume Dream of a Spring Breeze electro house PCB
BeatmapID:2044954
BeatmapSetID:977030

[Difficulty]
HPDrainRate:8.5
CircleSize:4
OverallDifficulty:7.4
ApproachRate:5
SliderMultiplier:1.4
SliderTickRate:1

[Events]
//Background and Video events
0,0,"bg.png",0,0
//Break Periods
//Storyboard Layer 0 (Background)
//Storyboard Layer 1 (Fail)
//Storyboard Layer 2 (Pass)
//Storyboard Layer 3 (Foreground)
//Storyboard Layer 4 (Overlay)
//Storyboard Sound Samples

[TimingPoints]
1000,468.75,4,1,1,60,1,0
31000,-100,4,1,1,40,0,0
46000,-100,4,1,1,50,0,0
59125,-100,4,1,1,60,0,0
60531,-100,4,1,1,50,0,0
61000,-100,4,1,1,60,0,0
89125,-100,4,1,1,50,0,0
90531,-100,4,1,1,65,0,0
91000,-100,4,1,1,60,0,1
104125,-100,4,1,1,65,0,0
106000,-100,4,1,1,60,0,1
119125,-100,4,1,1,55,0,0
121000,-100,4,1,1,40,0,0
149125,-100,4,1,1,45,0,0
151000,-100,4,1,1,50,0,0
166000,-100,4,1,1,55,0,0
173500,-100,4,1,1,60,0,0
180531,-100,4,1,1,50,0,0
181000,-100,4,1,1,60,0,1
186625,-100,4,1,1,65,0,0
188500,-100,4,1,1,60,0,1
194125,-100,4,1,1,50,0,0
196000,-100,4,1,1,60,0,1
209125,-100,4,1,1,50,0,0
211000,-100,4,1,1,60,0,0
224125,-100,4,1,1,65,0,0
226000,-100,4,1,1,60,0,0
239125,-100,4,1,1,50,0,0
241000,-100,4,1,1,60,0,0

[HitObjects]
320,192,1000,5,0,0:0:0:0:
320,192,1351,1,0,0:0:0:0:
448,192,1468,1,0,0:0:0:0:
64,192,1468,1,0,0:0:0:0:
320,192,1703,1,0,0:0:0:0:
192,192,1937,1,0,0:0:0:0:
320,192,2054,1,0,0:0:0:0:
192,192,2289,1,0,0:0:0:0:
448,192,2406,1,0,0:0:0:0:
64,192,2406,1,0,0:0:0:0:
448,192,2640,1,0,0:0:0:0:
320,192,2875,1,0,0:0:0:0:
320,192,3226,1,0,0:0:0:0:
448,192,3343,1,0,0:0:0:0:
64,192,3343,1,0,0:0:0:0:
320,192,3578,1,0,0:0:0:0:
192,192,3812,1,0,0:0:0:0:
320,192,3929,1,0,0:0:0:0:
192,192,4046,128,0,4281:0:0:0:0:
448,192,4281,128,0,4632:0:0:0:0:
64,192,4281,1,0,0:0:0:0:
320,192,4750,1,0,0:0:0:0:
320,192,5101,1,0,0:0:0:0:
448,192,5218,1,0,0:0:0:0:
64,192,5218,1,0,0:0:0:0:
320,192,5453,1,0,0:0:0:0:
192,192,5687,1,0,0:0:0:0:
320,192,5804,1,0,0:0:0:0:
192,192,6039,1,0,0:0:0:0:
448,192,6156,1,0,0:0:0:0:
64,192,6156,1,0,0:0:0:0:
448,192,6390,1,0,0:0:0:0:
320,192,6625,1,0,0:0:0:0:
320,192,6976,1,0,0:0:0:0:
448,192,7093,1,0,0:0:0:0:
64,192,7093,1,0,0:0:0:0:
320,192,7328,1,0,0:0:0:0:
192,192,7562,1,0,0:0:0:0:
320,192,7679,1,0,0:0:0:0:
192,192,7796,128,0,8031:0:0:0:0:
448,192,8031,128,0,8382:0:0:0:0:
64,192,8031,1,0,0:0:0:0:
320,192,8500,1,0,0:0:0:0:
320,192,8851,1,0,0:0:0:0:
448,192,8968,1,0,0:0:0:0:
64,192,8968,1,0,0:0:0:0:
320,192,9203,1,0,0:0:0:0:
192,192,9437,1,0,0:0:0:0:
320,192,9554,1,0,0:0:0:0:
192,192,9789,1,0,0:0:0:0:
448,192,9906,1,0,0:0:0:0:
64,192,9906,1,0,0:0:0:0:
448,192,10140,1,0,0:0:0:0:
320,192,10375,1,0,0:0:0:0:
320,192,10726,1,0,0:0:0:0:
448,192,10843,1,0,0:0:0:0:
64,192,10843,1,0,0:0:0:0:
320,192,11078,1,0,0:0:0:0:
192,192,11312,1,0,0:0:0:0:
320,192,11429,1,0,0:0:0:0:
192,192,11546,128,0,11781:0:0:0:0:
448,192,11781,128,0,12132:0:0:0:0:
64,192,11781,1,0,0:0:0:0:
320,192,12250,1,0,0:0:0:0:
320,192,12601,1,0,0:0:0:0:
448,192,12718,1,0,0:0:0:0:
64,192,12718,1,0,0:0:0:0:
320,192,12953,1,0,0:0:0:0:
192,192,13187,1,0,0:0:0:0:
320,192,13304,1,0,0:0:0:0:
192,192,13539,1,0,0:0:0:0:
448,192,13656,1,0,0:0:0:0:
64,192,13656,1,0,0:0:0:0:
448,192,13890,1,0,0:0:0:0:
320,192,14125,1,0,0:0:0:0:
320,192,14476,1,0,0:0:0:0:
448,192,14593,1,0,0:0:0:0:
64,192,14593,1,0,0:0:0:0:
320,192,14828,1,0,0:0:0:0:
192,192,15062,1,0,0:0:0:0:
320,192,15179,1,0,0:0:0:0:
192,192,15296,128,0,15531:0:0:0:0:
448,192,15531,128,0,15882:0:0:0:0:
320,192,16000,1,0,0:0:0:0:
320,192,16351,1,0,0:0:0:0:
448,192,16468,1,0,0:0:0:0:
64,192,16468,1,0,0:0:0:0:
320,192,16703,1,0,0:0:0:0:
192,192,16937,1,0,0:0:0:0:
320,192,17054,1,0,0:0:0:0:
192,192,17289,1,0,0:0:0:0:
448,192,17406,1,0,0:0:0:0:
64,192,17406,1,0,0:0:0:0:
448,192,17640,1,0,0:0:0:0:
320,192,17875,1,0,0:0:0:0:
320,192,18226,1,0,0:0:0:0:
448,192,18343,1,0,0:0:0:0:
64,192,18343,1,0,0:0:0:0:
320,192,18578,1,0,0:0:0:0:
192,192,18812,1,0,0:0:0:0:
320,192,18929,1,0,0:0:0:0:
192,192,19046,128,0,19281:0:0:0:0:
448,192,19281,128,0,19632:0:0:0:0:
64,192,19281,1,0,0:0:0:0:
320,192,19750,1,0,0:0:0:0:
320,192,20101,1,0,0:0:0:0:
448,192,20218,1,0,0:0:0:0:
64,192,20218,1,0,0:0:0:0:
320,192,20453,1,0,0:0:0:0:
192,192,20687,1,0,0:0:0:0:
320,192,20804,1,0,0:0:0:0:
192,192,21039,1,0,0:0:0:0:
448,192,21156,1,0,0:0:0:0:
64,192,21156,1,0,0:0:0:0:
448,192,21390,1,0,0:0:0:0:
320,192,21625,1,0,0:0:0:0:
320,192,21976,1,0,0:0:0:0:
448,192,22093,1,0,0:0:0:0:
64,192,22093,1,0,0:0:0:0:
320,192,22328,1,0,0:0:0:0:
192,192,22562,1,0,0:0:0:0:
320,192,22679,1,0,0:0:0:0:
192,192,22796,128,0,23031:0:0:0:0:
448,192,23031,128,0,23382:0:0:0:0:
64,192,23031,1,0,0:0:0:0:
320,192,23500,1,0,0:0:0:0:
320,192,23851,1,0,0:0:0:0:
448,192,23968,1,0,0:0:0:0:
64,192,23968,1,0,0:0:0:0:
320,192,24203,1,0,0:0:0:0:
192,192,24437,1,0,0:0:0:0:
320,192,24554,1,0,0:0:0:0:
192,192,24789,1,0,0:0:0:0:
448,192,24906,1,0,0:0:0:0:
64,192,24906,1,0,0:0:0:0:
448,192,25140,1,0,0:0:0:0:
320,192,25375,1,0,0:0:0:0:
320,192,25726,1,0,0:0:0:0:
448,192,25843,1,0,0:0:0:0:
64,192,25843,1,0,0:0:0:0:
320,192,26078,1,0,0:0:0:0:
192,192,26312,1,0,0:0:0:0:
320,192,26429,1,0,0:0:0:0:
192,192,26546,128,0,26781:0:0:0:0:
448,192,26781,128,0,27132:0:0:0:0:
64,192,26781,1,0,0:0:0:0:
320,192,27250,1,0,0:0:0:0:
320,192,27601,1,0,0:0:0:0:
448,192,27718,1,0,0:0:0:0:
64,192,27718,1,0,0:0:0:0:
320,192,27953,1,0,0:0:0:0:
192,192,28187,1,0,0:0:0:0:
320,192,28304,1,0,0:0:0:0:
192,192,28539,1,0,0:0:0:0:
448,192,28656,1,0,0:0:0:0:
64,192,28656,1,0,0:0:0:0:
448,192,28890,1,0,0:0:0:0:
320,192,29125,1,0,0:0:0:0:
320,192,29476,1,0,0:0:0:0:
448,192,29593,1,0,0:0:0:0:
320,192,29828,1,0,0:0:0:0:
192,192,30062,1,0,0:0:0:0:
320,192,30179,1,0,0:0:0:0:
192,192,30296,128,0,30531:0:0:0:0:
448,192,30531,128,0,30882:0:0:0:0:
320,192,31000,1,0,0:0:0:0:
192,192,31000,1,0,0:0:0:0:
320,192,33109,1,0,0:0:0:0:
192,192,33343,1,0,0:0:0:0:
320,192,33460,1,0,0:0:0:0:
64,192,33812,1,0,0:0:0:0:
448,192,34046,1,0,0:0:0:0:
320,192,34984,1,0,0:0:0:0:
192,192,35218,1,0,0:0:0:0:
448,192,35687,1,0,0:0:0:0:
320,192,36039,1,0,0:0:0:0:
320,192,36859,1,0,0:0:0:0:
192,192,37093,1,0,0:0:0:0:
320,192,37210,1,0,0:0:0:0:
64,192,37562,1,0,0:0:0:0:
448,192,37796,1,0,0:0:0:0:
192,192,37914,1,0,0:0:0:0:
320,192,38734,1,0,0:0:0:0:
192,192,38968,1,0,0:0:0:0:
448,192,39437,1,0,0:0:0:0:
320,192,39789,1,0,0:0:0:0:
320,192,40609,1,0,0:0:0:0:
192,192,40843,1,0,0:0:0:0:
320,192,40960,1,0,0:0:0:0:
64,192,41312,1,0,0:0:0:0:
448,192,41546,1,0,0:0:0:0:
192,192,41664,1,0,0:0:0:0:
320,192,42484,1,0,0:0:0:0:
192,192,42718,1,0,0:0:0:0:
448,192,43187,1,0,0:0:0:0:
320,192,43539,1,0,0:0:0:0:
320,192,44359,1,0,0:0:0:0:
192,192,44593,1,0,0:0:0:0:
320,192,44710,1,0,0:0:0:0:
64,192,45062,1,0,0:0:0:0:
448,192,45296,1,0,0:0:0:0:
192,192,45414,1,0,0:0:0:0:
320,192,46000,1,0,0:0:0:0:
192,192,46000,1,0,0:0:0:0:
192,192,46234,1,0,0:0:0:0:
192,192,46468,1,0,0:0:0:0:
192,192,46703,1,0,0:0:0:0:
192,192,46937,1,0,0:0:0:0:
192,192,47171,1,0,0:0:0:0:
192,192,47406,1,0,0:0:0:0:
192,192,47640,1,0,0:0:0:0:
64,192,47875,1,0,0:0:0:0:
64,192,48109,1,0,0:0:0:0:
64,192,48343,1,0,0:0:0:0:
64,192,48578,1,0,0:0:0:0:
448,192,48812,1,0,0:0:0:0:
448,192,49046,1,0,0:0:0:0:
448,192,49281,1,0,0:0:0:0:
448,192,49515,1,0,0:0:0:0:
192,192,49750,1,0,0:0:0:0:
192,192,49984,1,0,0:0:0:0:
192,192,50218,1,0,0:0:0:0:
192,192,50453,1,0,0:0:0:0:
192,192,50687,1,0,0:0:0:0:
192,192,50921,1,0,0:0:0:0:
192,192,51156,1,0,0:0:0:0:
192,192,51390,1,0,0:0:0:0:
64,192,51625,1,0,0:0:0:0:
64,192,51859,1,0,0:0:0:0:
64,192,52093,1,0,0:0:0:0:
64,192,52328,1,0,0:0:0:0:
448,192,52562,1,0,0:0:0:0:
448,192,52796,1,0,0:0:0:0:
448,192,53031,1,0,0:0:0:0:
448,192,53265,1,0,0:0:0:0:
192,192,53500,1,0,0:0:0:0:
320,192,53617,1,0,0:0:0:0:
192,192,53734,1,0,0:0:0:0:
320,192,53851,1,0,0:0:0:0:
192,192,53968,1,0,0:0:0:0:
320,192,54085,1,0,0:0:0:0:
192,192,54203,1,0,0:0:0:0:
320,192,54320,1,0,0:0:0:0:
192,192,54437,1,0,0:0:0:0:
448,192,54554,1,0,0:0:0:0:
192,192,54671,1,0,0:0:0:0:
448,192,54789,1,0,0:0:0:0:
192,192,54906,1,0,0:0:0:0:
448,192,55023,1,0,0:0:0:0:
192,192,55140,1,0,0:0:0:0:
448,192,55257,1,0,0:0:0:0:
64,192,55375,1,0,0:0:0:0:
320,192,55492,1,0,0:0:0:0:
64,192,55609,1,0,0:0:0:0:
320,192,55726,1,0,0:0:0:0:
64,192,55843,1,0,0:0:0:0:
320,192,55960,1,0,0:0:0:0:
64,192,56078,1,0,0:0:0:0:
320,192,56195,1,0,0:0:0:0:
448,192,56312,1,0,0:0:0:0:
64,192,56429,1,0,0:0:0:0:
448,192,56546,1,0,0:0:0:0:
64,192,56664,1,0,0:0:0:0:
448,192,56781,1,0,0:0:0:0:
64,192,56898,1,0,0:0:0:0:
448,192,57015,1,0,0:0:0:0:
64,192,57132,1,0,0:0:0:0:
192,192,57250,1,0,0:0:0:0:
320,192,57367,1,0,0:0:0:0:
192,192,57484,1,0,0:0:0:0:
320,192,57601,1,0,0:0:0:0:
192,192,57718,1,0,0:0:0:0:
320,192,57835,1,0,0:0:0:0:
192,192,57953,1,0,0:0:0:0:
320,192,58070,1,0,0:0:0:0:
192,192,58187,1,0,0:0:0:0:
448,192,58304,1,0,0:0:0:0:
192,192,58421,1,0,0:0:0:0:
448,192,58539,1,0,0:0:0:0:
192,192,58656,1,0,0:0:0:0:
448,192,58773,1,0,0:0:0:0:
192,192,58890,1,0,0:0:0:0:
64,192,59007,1,0,0:0:0:0:
448,192,59125,1,0,0:0:0:0:
320,192,59125,1,0,0:0:0:0:
192,192,59203,1,0,0:0:0:0:
320,192,59281,1,0,0:0:0:0:
448,192,59359,1,0,0:0:0:0:
64,192,59437,1,0,0:0:0:0:
192,192,59437,1,0,0:0:0:0:
320,192,59515,1,0,0:0:0:0:
192,192,59593,1,0,0:0:0:0:
64,192,59671,1,0,0:0:0:0:
448,192,59750,1,0,0:0:0:0:
320,192,59750,1,0,0:0:0:0:
192,192,59828,1,0,0:0:0:0:
320,192,59906,1,0,0:0:0:0:
448,192,59984,1,0,0:0:0:0:
64,192,60062,1,0,0:0:0:0:
192,192,60062,1,0,0:0:0:0:
320,192,60140,1,0,0:0:0:0:
192,192,60218,1,0,0:0:0:0:
64,192,60296,1,0,0:0:0:0:
320,192,60375,1,0,0:0:0:0:
448,192,60375,1,0,0:0:0:0:
192,192,60453,1,0,0:0:0:0:
320,192,60531,128,0,60687:0:0:0:0:
320,192,61000,128,0,61351:0:0:0:0:
192,192,61000,128,0,61351:0:0:0:0:
448,192,61468,1,0,0:0:0:0:
320,192,61468,1,0,0:0:0:0:
192,192,61703,128,0,61820:0:0:0:0:
448,192,61820,128,0,61937:0:0:0:0:
64,192,61937,1,0,0:0:0:0:
320,192,62054,128,0,62171:0:0:0:0:
192,192,62171,128,0,62289:0:0:0:0:
448,192,62406,128,0,62757:0:0:0:0:
64,192,62406,128,0,62757:0:0:0:0:
320,192,62875,128,0,63226:0:0:0:0:
192,192,62875,128,0,63226:0:0:0:0:
448,192,63343,1,0,0:0:0:0:
320,192,63343,1,0,0:0:0:0:
192,192,63578,128,0,63695:0:0:0:0:
448,192,63695,128,0,63812:0:0:0:0:
64,192,63812,1,0,0:0:0:0:
192,192,63929,128,0,64046:0:0:0:0:
320,192,64046,128,0,64164:0:0:0:0:
448,192,64281,128,0,64515:0:0:0:0:
64,192,64281,128,0,64515:0:0:0:0:
320,192,64515,1,0,0:0:0:0:
448,192,64632,1,0,0:0:0:0:
320,192,64750,128,0,65101:0:0:0:0:
192,192,64750,128,0,65101:0:0:0:0:
448,192,65218,1,0,0:0:0:0:
320,192,65218,1,0,0:0:0:0:
192,192,65453,128,0,65570:0:0:0:0:
448,192,65570,128,0,65687:0:0:0:0:
64,192,65687,1,0,0:0:0:0:
320,192,65804,128,0,65921:0:0:0:0:
192,192,65921,128,0,66039:0:0:0:0:
448,192,66156,128,0,66507:0:0:0:0:
64,192,66156,128,0,66507:0:0:0:0:
320,192,66625,128,0,66976:0:0:0:0:
192,192,66625,128,0,66976:0:0:0:0:
448,192,67093,1,0,0:0:0:0:
320,192,67093,1,0,0:0:0:0:
192,192,67328,128,0,67445:0:0:0:0:
448,192,67445,128,0,67562:0:0:0:0:
64,192,67562,1,0,0:0:0:0:
192,192,67679,128,0,67796:0:0:0:0:
320,192,67796,1,0,0:0:0:0:
320,192,67914,1,0,0:0:0:0:
64,192,68031,128,0,68265:0:0:0:0:
448,192,68031,1,0,0:0:0:0:
448,192,68265,128,0,68382:0:0:0:0:
192,192,68500,128,0,68851:0:0:0:0:
320,192,68500,128,0,68851:0:0:0:0:
448,192,68968,1,0,0:0:0:0:
320,192,68968,1,0,0:0:0:0:
192,192,69203,128,0,69320:0:0:0:0:
448,192,69320,128,0,69437:0:0:0:0:
64,192,69437,1,0,0:0:0:0:
320,192,69554,128,0,69671:0:0:0:0:
192,192,69671,128,0,69789:0:0:0:0:
448,192,69906,128,0,70257:0:0:0:0:
64,192,69906,128,0,70257:0:0:0:0:
320,192,70375,128,0,70726:0:0:0:0:
192,192,70375,128,0,70726:0:0:0:0:
448,192,70843,1,0,0:0:0:0:
320,192,70843,1,0,0:0:0:0:
192,192,71078,128,0,71195:0:0:0:0:
448,192,71195,128,0,71312:0:0:0:0:
64,192,71312,1,0,0:0:0:0:
192,192,71429,128,0,71546:0:0:0:0:
320,192,71546,128,0,71664:0:0:0:0:
448,192,71781,128,0,72015:0:0:0:0:
64,192,71781,128,0,72015:0:0:0:0:
320,192,72015,1,0,0:0:0:0:
448,192,72132,1,0,0:0:0:0:
320,192,72250,128,0,72601:0:0:0:0:
192,192,72250,128,0,72601:0:0:0:0:
448,192,72718,1,0,0:0:0:0:
320,192,72718,1,0,0:0:0:0:
192,192,72953,128,0,73070:0:0:0:0:
448,192,73070,128,0,73187:0:0:0:0:
64,192,73187,1,0,0:0:0:0:
320,192,73304,128,0,73421:0:0:0:0:
192,192,73421,128,0,73539:0:0:0:0:
448,192,73656,128,0,74007:0:0:0:0:
64,192,73656,128,0,74007:0:0:0:0:
320,192,74125,1,0,0:0:0:0:
64,192,74125,1,0,0:0:0:0:
320,192,74359,1,0,0:0:0:0:
64,192,74359,1,0,0:0:0:0:
448,192,74593,1,0,0:0:0:0:
192,192,74593,1,0,0:0:0:0:
320,192,74710,1,0,0:0:0:0:
448,192,74828,1,0,0:0:0:0:
320,192,75062,1,0,0:0:0:0:
64,192,75062,1,0,0:0:0:0:
320,192,75296,1,0,0:0:0:0:
64,192,75414,1,0,0:0:0:0:
448,192,75531,1,0,0:0:0:0:
192,192,75531,1,0,0:0:0:0:
448,192,75765,1,0,0:0:0:0:
192,192,75765,1,0,0:0:0:0:
320,192,76000,128,0,76351:0:0:0:0:
192,192,76000,128,0,76351:0:0:0:0:
64,192,76351,1,0,0:0:0:0:
448,192,76468,1,0,0:0:0:0:
320,192,76468,1,0,0:0:0:0:
192,192,76703,128,0,76820:0:0:0:0:
448,192,76820,128,0,76937:0:0:0:0:
64,192,76937,1,0,0:0:0:0:
320,192,77054,128,0,77171:0:0:0:0:
192,192,77171,128,0,77289:0:0:0:0:
320,192,77289,1,0,0:0:0:0:
448,192,77406,128,0,77757:0:0:0:0:
64,192,77406,128,0,77757:0:0:0:0:
320,192,77875,128,0,78226:0:0:0:0:
192,192,77875,128,0,78226:0:0:0:0:
64,192,78226,1,0,0:0:0:0:
448,192,78343,1,0,0:0:0:0:
320,192,78343,1,0,0:0:0:0:
192,192,78578,128,0,78695:0:0:0:0:
448,192,78695,128,0,78812:0:0:0:0:
64,192,78812,1,0,0:0:0:0:
192,192,78929,128,0,79046:0:0:0:0:
320,192,79046,128,0,79164:0:0:0:0:
192,192,79164,1,0,0:0:0:0:
448,192,79281,128,0,79515:0:0:0:0:
64,192,79281,128,0,79515:0:0:0:0:
320,192,79515,1,0,0:0:0:0:
448,192,79632,1,0,0:0:0:0:
320,192,79750,128,0,80101:0:0:0:0:
192,192,79750,128,0,80101:0:0:0:0:
64,192,80101,1,0,0:0:0:0:
448,192,80218,1,0,0:0:0:0:
320,192,80218,1,0,0:0:0:0:
192,192,80453,128,0,80570:0:0:0:0:
448,192,80570,128,0,80687:0:0:0:0:
64,192,80687,1,0,0:0:0:0:
320,192,80804,128,0,80921:0:0:0:0:
192,192,80921,128,0,81039:0:0:0:0:
320,192,81039,1,0,0:0:0:0:
448,192,81156,128,0,81507:0:0:0:0:
64,192,81156,128,0,81507:0:0:0:0:
320,192,81625,128,0,81976:0:0:0:0:
192,192,81625,128,0,81976:0:0:0:0:
64,192,81976,1,0,0:0:0:0:
448,192,82093,1,0,0:0:0:0:
320,192,82093,1,0,0:0:0:0:
192,192,82328,128,0,82445:0:0:0:0:
448,192,82445,128,0,82562:0:0:0:0:
64,192,82562,1,0,0:0:0:0:
192,192,82679,128,0,82796:0:0:0:0:
320,192,82796,1,0,0:0:0:0:
320,192,82914,1,0,0:0:0:0:
64,192,83031,128,0,83265:0:0:0:0:
448,192,83031,1,0,0:0:0:0:
448,192,83265,128,0,83382:0:0:0:0:
320,192,83500,128,0,83851:0:0:0:0:
192,192,83500,128,0,83851:0:0:0:0:
64,192,83851,1,0,0:0:0:0:
448,192,83968,1,0,0:0:0:0:
320,192,83968,1,0,0:0:0:0:
192,192,84203,128,0,84320:0:0:0:0:
448,192,84320,128,0,84437:0:0:0:0:
64,192,84437,1,0,0:0:0:0:
320,192,84554,128,0,84671:0:0:0:0:
192,192,84671,128,0,84789:0:0:0:0:
320,192,84789,1,0,0:0:0:0:
448,192,84906,128,0,85257:0:0:0:0:
64,192,84906,128,0,85257:0:0:0:0:
320,192,85375,128,0,85726:0:0:0:0:
192,192,85375,128,0,85726:0:0:0:0:
64,192,85726,1,0,0:0:0:0:
448,192,85843,1,0,0:0:0:0:
320,192,85843,1,0,0:0:0:0:
192,192,86078,128,0,86195:0:0:0:0:
448,192,86195,128,0,86312:0:0:0:0:
64,192,86312,1,0,0:0:0:0:
192,192,86429,128,0,86546:0:0:0:0:
320,192,86546,128,0,86664:0:0:0:0:
192,192,86664,1,0,0:0:0:0:
448,192,86781,128,0,87015:0:0:0:0:
64,192,86781,128,0,87015:0:0:0:0:
320,192,87015,1,0,0:0:0:0:
448,192,87132,1,0,0:0:0:0:
320,192,87250,128,0,87601:0:0:0:0:
192,192,87250,128,0,87601:0:0:0:0:
64,192,87601,1,0,0:0:0:0:
448,192,87718,1,0,0:0:0:0:
320,192,87718,1,0,0:0:0:0:
192,192,87953,128,0,88070:0:0:0:0:
448,192,88070,128,0,88187:0:0:0:0:
64,192,88187,1,0,0:0:0:0:
320,192,88304,128,0,88421:0:0:0:0:
192,192,88421,128,0,88539:0:0:0:0:
320,192,88539,1,0,0:0:0:0:
448,192,88656,128,0,89007:0:0:0:0:
64,192,88656,128,0,89007:0:0:0:0:
320,192,89125,128,0,89593:0:0:0:0:
192,192,89125,1,0,0:0:0:0:
64,192,89242,1,0,0:0:0:0:
192,192,89359,1,0,0:0:0:0:
64,192,89476,1,0,0:0:0:0:
448,192,89593,1,0,0:0:0:0:
320,192,89710,1,0,0:0:0:0:
192,192,89828,128,0,90296:0:0:0:0:
320,192,89945,1,0,0:0:0:0:
448,192,90062,1,0,0:0:0:0:
64,192,90179,1,0,0:0:0:0:
448,192,90296,1,0,0:0:0:0:
320,192,90414,1,0,0:0:0:0:
448,192,90531,128,0,90648:0:0:0:0:
192,192,90531,128,0,90648:0:0:0:0:
448,192,90765,128,0,90882:0:0:0:0:
192,192,90765,128,0,90882:0:0:0:0:
320,192,91000,128,0,91351:0:0:0:0:
192,192,91000,128,0,91351:0:0:0:0:
64,192,91351,1,0,0:0:0:0:
448,192,91468,128,0,91703:0:0:0:0:
320,192,91468,128,0,91703:0:0:0:0:
192,192,91703,1,0,0:0:0:0:
448,192,91820,1,0,0:0:0:0:
192,192,91937,1,0,0:0:0:0:
64,192,91937,1,0,0:0:0:0:
320,192,92054,128,0,92289:0:0:0:0:
448,192,92406,128,0,92757:0:0:0:0:
64,192,92406,128,0,92757:0:0:0:0:
320,192,92875,128,0,93226:0:0:0:0:
192,192,92875,128,0,93226:0:0:0:0:
64,192,93226,1,0,0:0:0:0:
448,192,93343,128,0,93578:0:0:0:0:
320,192,93343,128,0,93578:0:0:0:0:
192,192,93578,1,0,0:0:0:0:
448,192,93695,1,0,0:0:0:0:
192,192,93812,1,0,0:0:0:0:
64,192,93812,1,0,0:0:0:0:
320,192,93929,128,0,94164:0:0:0:0:
192,192,94281,128,0,94632:0:0:0:0:
64,192,94281,128,0,94632:0:0:0:0:
448,192,94515,1,0,0:0:0:0:
448,192,94632,1,0,0:0:0:0:
320,192,94750,128,0,95101:0:0:0:0:
192,192,94750,128,0,95101:0:0:0:0:
64,192,95101,1,0,0:0:0:0:
448,192,95218,128,0,95453:0:0:0:0:
320,192,95218,128,0,95453:0:0:0:0:
192,192,95453,1,0,0:0:0:0:
448,192,95570,1,0,0:0:0:0:
192,192,95687,1,0,0:0:0:0:
64,192,95687,1,0,0:0:0:0:
320,192,95804,128,0,96039:0:0:0:0:
448,192,96156,128,0,96507:0:0:0:0:
64,192,96156,128,0,96507:0:0:0:0:
320,192,96625,128,0,96976:0:0:0:0:
192,192,96625,128,0,96976:0:0:0:0:
64,192,96976,1,0,0:0:0:0:
448,192,97093,128,0,97328:0:0:0:0:
320,192,97093,128,0,97328:0:0:0:0:
192,192,97328,1,0,0:0:0:0:
448,192,97445,1,0,0:0:0:0:
192,192,97562,1,0,0:0:0:0:
64,192,97562,1,0,0:0:0:0:
320,192,97679,128,0,97914:0:0:0:0:
192,192,97796,1,0,0:0:0:0:
192,192,97914,1,0,0:0:0:0:
448,192,98031,128,0,98265:0:0:0:0:
320,192,98031,128,0,98265:0:0:0:0:
192,192,98265,1,0,0:0:0:0:
64,192,98265,128,0,98500:0:0:0:0:
320,192,98500,128,0,98851:0:0:0:0:
192,192,98500,128,0,98851:0:0:0:0:
64,192,98851,1,0,0:0:0:0:
448,192,98968,128,0,99203:0:0:0:0:
320,192,98968,128,0,99203:0:0:0:0:
192,192,99203,1,0,0:0:0:0:
448,192,99320,1,0,0:0:0:0:
192,192,99437,1,0,0:0:0:0:
64,192,99437,1,0,0:0:0:0:
320,192,99554,128,0,99789:0:0:0:0:
448,192,99906,128,0,100257:0:0:0:0:
64,192,99906,128,0,100257:0:0:0:0:
320,192,100375,128,0,100726:0:0:0:0:
192,192,100375,128,0,100726:0:0:0:0:
64,192,100726,1,0,0:0:0:0:
448,192,100843,128,0,101078:0:0:0:0:
320,192,100843,128,0,101078:0:0:0:0:
192,192,101078,1,0,0:0:0:0:
448,192,101195,1,0,0:0:0:0:
192,192,101312,1,0,0:0:0:0:
64,192,101312,1,0,0:0:0:0:
320,192,101429,128,0,101664:0:0:0:0:
192,192,101781,128,0,102132:0:0:0:0:
64,192,101781,128,0,102132:0:0:0:0:
448,192,102015,1,0,0:0:0:0:
448,192,102132,1,0,0:0:0:0:
320,192,102250,128,0,102601:0:0:0:0:
192,192,102250,128,0,102601:0:0:0:0:
64,192,102601,1,0,0:0:0:0:
448,192,102718,128,0,102953:0:0:0:0:
320,192,102718,128,0,102953:0:0:0:0:
192,192,102953,1,0,0:0:0:0:
448,192,103070,1,0,0:0:0:0:
192,192,103187,1,0,0:0:0:0:
64,192,103187,1,0,0:0:0:0:
320,192,103304,128,0,103539:0:0:0:0:
448,192,103656,128,0,104007:0:0:0:0:
64,192,103656,128,0,104007:0:0:0:0:
192,192,104125,1,0,0:0:0:0:
192,192,104242,1,0,0:0:0:0:
192,192,104359,1,0,0:0:0:0:
192,192,104476,1,0,0:0:0:0:
320,192,104593,1,0,0:0:0:0:
320,192,104710,1,0,0:0:0:0:
320,192,104828,1,0,0:0:0:0:
320,192,104945,1,0,0:0:0:0:
64,192,105062,1,0,0:0:0:0:
64,192,105179,1,0,0:0:0:0:
64,192,105296,1,0,0:0:0:0:
64,192,105414,1,0,0:0:0:0:
448,192,105531,1,0,0:0:0:0:
448,192,105648,1,0,0:0:0:0:
448,192,105765,1,0,0:0:0:0:
448,192,105882,1,0,0:0:0:0:
320,192,106000,128,0,106351:0:0:0:0:
192,192,106000,128,0,106351:0:0:0:0:
64,192,106351,1,0,0:0:0:0:
448,192,106468,128,0,106703:0:0:0:0:
320,192,106468,128,0,106703:0:0:0:0:
192,192,106703,1,0,0:0:0:0:
448,192,106820,1,0,0:0:0:0:
192,192,106937,1,0,0:0:0:0:
64,192,106937,1,0,0:0:0:0:
320,192,107054,128,0,107289:0:0:0:0:
192,192,107289,1,0,0:0:0:0:
448,192,107406,128,0,107757:0:0:0:0:
64,192,107406,128,0,107757:0:0:0:0:
320,192,107875,128,0,108226:0:0:0:0:
192,192,107875,128,0,108226:0:0:0:0:
64,192,108226,1,0,0:0:0:0:
448,192,108343,128,0,108578:0:0:0:0:
320,192,108343,128,0,108578:0:0:0:0:
192,192,108578,1,0,0:0:0:0:
448,192,108695,1,0,0:0:0:0:
192,192,108812,1,0,0:0:0:0:
64,192,108812,1,0,0:0:0:0:
320,192,108929,128,0,109164:0:0:0:0:
192,192,109046,1,0,0:0:0:0:
448,192,109164,1,0,0:0:0:0:
192,192,109281,128,0,109632:0:0:0:0:
64,192,109281,128,0,109632:0:0:0:0:
448,192,109515,1,0,0:0:0:0:
448,192,109632,1,0,0:0:0:0:
320,192,109750,128,0,110101:0:0:0:0:
192,192,109750,128,0,110101:0:0:0:0:
64,192,110101,1,0,0:0:0:0:
448,192,110218,128,0,110453:0:0:0:0:
320,192,110218,128,0,110453:0:0:0:0:
192,192,110453,1,0,0:0:0:0:
448,192,110570,1,0,0:0:0:0:
192,192,110687,1,0,0:0:0:0:
64,192,110687,1,0,0:0:0:0:
320,192,110804,128,0,111039:0:0:0:0:
448,192,110921,1,0,0:0:0:0:
192,192,111039,1,0,0:0:0:0:
448,192,111156,128,0,111507:0:0:0:0:
64,192,111156,128,0,111507:0:0:0:0:
320,192,111625,128,0,111976:0:0:0:0:
192,192,111625,128,0,111976:0:0:0:0:
64,192,111976,1,0,0:0:0:0:
448,192,112093,128,0,112328:0:0:0:0:
320,192,112093,128,0,112328:0:0:0:0:
192,192,112328,1,0,0:0:0:0:
448,192,112445,1,0,0:0:0:0:
192,192,112562,1,0,0:0:0:0:
64,192,112562,1,0,0:0:0:0:
320,192,112679,128,0,112914:0:0:0:0:
192,192,112796,1,0,0:0:0:0:
192,192,112914,1,0,0:0:0:0:
448,192,113031,128,0,113265:0:0:0:0:
320,192,113031,128,0,113265:0:0:0:0:
192,192,113265,1,0,0:0:0:0:
64,192,113265,128,0,113500:0:0:0:0:
320,192,113500,128,0,113851:0:0:0:0:
192,192,113500,128,0,113851:0:0:0:0:
64,192,113851,1,0,0:0:0:0:
448,192,113968,128,0,114203:0:0:0:0:
320,192,113968,128,0,114203:0:0:0:0:
192,192,114203,1,0,0:0:0:0:
448,192,114320,1,0,0:0:0:0:
192,192,114437,1,0,0:0:0:0:
64,192,114437,1,0,0:0:0:0:
320,192,114554,128,0,114789:0:0:0:0:
192,192,114789,1,0,0:0:0:0:
448,192,114906,128,0,115257:0:0:0:0:
64,192,114906,128,0,115257:0:0:0:0:
320,192,115375,128,0,115726:0:0:0:0:
192,192,115375,128,0,115726:0:0:0:0:
64,192,115726,1,0,0:0:0:0:
448,192,115843,128,0,116078:0:0:0:0:
320,192,115843,128,0,116078:0:0:0:0:
192,192,116078,1,0,0:0:0:0:
448,192,116195,1,0,0:0:0:0:
192,192,116312,1,0,0:0:0:0:
64,192,116312,1,0,0:0:0:0:
320,192,116429,128,0,116664:0:0:0:0:
192,192,116546,1,0,0:0:0:0:
448,192,116664,1,0,0:0:0:0:
192,192,116781,128,0,117132:0:0:0:0:
64,192,116781,128,0,117132:0:0:0:0:
448,192,117015,1,0,0:0:0:0:
448,192,117132,1,0,0:0:0:0:
320,192,117250,128,0,117601:0:0:0:0:
192,192,117250,128,0,117601:0:0:0:0:
64,192,117601,1,0,0:0:0:0:
448,192,117718,128,0,117953:0:0:0:0:
320,192,117718,128,0,117953:0:0:0:0:
192,192,117953,1,0,0:0:0:0:
448,192,118070,1,0,0:0:0:0:
192,192,118187,1,0,0:0:0:0:
64,192,118187,1,0,0:0:0:0:
320,192,118304,128,0,118539:0:0:0:0:
448,192,118421,1,0,0:0:0:0:
192,192,118539,1,0,0:0:0:0:
448,192,118656,128,0,119007:0:0:0:0:
64,192,118656,128,0,119007:0:0:0:0:
192,192,119125,128,0,119476:0:0:0:0:
64,192,119125,128,0,120296:0:0:0:0:
448,192,119593,128,0,119828:0:0:0:0:
320,192,119593,128,0,119828:0:0:0:0:
192,192,119945,128,0,120062:0:0:0:0:
320,192,120179,128,0,120296:0:0:0:0:
448,192,120296,1,0,0:0:0:0:
192,192,120375,1,0,0:0:0:0:
320,192,120453,1,0,0:0:0:0:
448,192,120531,1,0,0:0:0:0:
64,192,120531,128,0,120765:0:0:0:0:
192,192,120765,128,0,121000:0:0:0:0:
448,192,121000,1,0,0:0:0:0:
320,192,121000,1,0,0:0:0:0:
320,192,121468,1,0,0:0:0:0:
320,192,121937,1,0,0:0:0:0:
320,192,122406,1,0,0:0:0:0:
320,192,122875,1,0,0:0:0:0:
320,192,123343,1,0,0:0:0:0:
320,192,123812,1,0,0:0:0:0:
320,192,124281,1,0,0:0:0:0:
320,192,124750,1,0,0:0:0:0:
320,192,125218,1,0,0:0:0:0:
320,192,125687,1,0,0:0:0:0:
192,192,126039,1,0,0:0:0:0:
320,192,126156,1,0,0:0:0:0:
192,192,126390,1,0,0:0:0:0:
320,192,126625,1,0,0:0:0:0:
64,192,126859,1,0,0:0:0:0:
448,192,126976,1,0,0:0:0:0:
320,192,127093,1,0,0:0:0:0:
64,192,127210,1,0,0:0:0:0:
320,192,127562,1,0,0:0:0:0:
64,192,127796,1,0,0:0:0:0:
320,192,128031,1,0,0:0:0:0:
320,192,128500,1,0,0:0:0:0:
64,192,128734,1,0,0:0:0:0:
320,192,128968,1,0,0:0:0:0:
320,192,129437,1,0,0:0:0:0:
192,192,129789,1,0,0:0:0:0:
320,192,129906,1,0,0:0:0:0:
192,192,130140,1,0,0:0:0:0:
320,192,130375,1,0,0:0:0:0:
64,192,130609,1,0,0:0:0:0:
448,192,130726,1,0,0:0:0:0:
320,192,130843,1,0,0:0:0:0:
64,192,130960,1,0,0:0:0:0:
320,192,131312,1,0,0:0:0:0:
64,192,131546,1,0,0:0:0:0:
320,192,131781,1,0,0:0:0:0:
320,192,132250,1,0,0:0:0:0:
64,192,132484,1,0,0:0:0:0:
320,192,132718,1,0,0:0:0:0:
320,192,133187,1,0,0:0:0:0:
192,192,133539,1,0,0:0:0:0:
320,192,133656,1,0,0:0:0:0:
192,192,133890,1,0,0:0:0:0:
320,192,134125,1,0,0:0:0:0:
64,192,134359,1,0,0:0:0:0:
448,192,134476,1,0,0:0:0:0:
320,192,134593,1,0,0:0:0:0:
64,192,134710,1,0,0:0:0:0:
320,192,135062,1,0,0:0:0:0:
64,192,135296,1,0,0:0:0:0:
320,192,135531,1,0,0:0:0:0:
320,192,136000,1,0,0:0:0:0:
64,192,136234,1,0,0:0:0:0:
320,192,136468,1,0,0:0:0:0:
320,192,136937,1,0,0:0:0:0:
192,192,137289,1,0,0:0:0:0:
320,192,137406,1,0,0:0:0:0:
192,192,137640,1,0,0:0:0:0:
320,192,137875,1,0,0:0:0:0:
64,192,138109,1,0,0:0:0:0:
448,192,138226,1,0,0:0:0:0:
320,192,138343,1,0,0:0:0:0:
64,192,138460,1,0,0:0:0:0:
320,192,138812,1,0,0:0:0:0:
64,192,139046,1,0,0:0:0:0:
320,192,139281,1,0,0:0:0:0:
320,192,139750,1,0,0:0:0:0:
64,192,139984,1,0,0:0:0:0:
320,192,140218,1,0,0:0:0:0:
320,192,140687,1,0,0:0:0:0:
192,192,141039,1,0,0:0:0:0:
320,192,141156,1,0,0:0:0:0:
192,192,141390,1,0,0:0:0:0:
320,192,141625,1,0,0:0:0:0:
64,192,141859,1,0,0:0:0:0:
448,192,141976,1,0,0:0:0:0:
320,192,142093,1,0,0:0:0:0:
64,192,142210,1,0,0:0:0:0:
320,192,142562,1,0,0:0:0:0:
64,192,142796,1,0,0:0:0:0:
320,192,143031,1,0,0:0:0:0:
320,192,143500,1,0,0:0:0:0:
64,192,143734,1,0,0:0:0:0:
320,192,143968,1,0,0:0:0:0:
320,192,144437,1,0,0:0:0:0:
192,192,144789,1,0,0:0:0:0:
320,192,144906,1,0,0:0:0:0:
192,192,145140,1,0,0:0:0:0:
320,192,145375,1,0,0:0:0:0:
64,192,145609,1,0,0:0:0:0:
448,192,145726,1,0,0:0:0:0:
320,192,145843,1,0,0:0:0:0:
64,192,145960,1,0,0:0:0:0:
192,192,146078,128,0,146195:0:0:0:0:
320,192,146312,1,0,0:0:0:0:
192,192,146429,1,0,0:0:0:0:
64,192,146546,1,0,0:0:0:0:
192,192,146664,1,0,0:0:0:0:
320,192,146781,1,0,0:0:0:0:
448,192,146898,1,0,0:0:0:0:
192,192,147015,1,0,0:0:0:0:
64,192,147132,1,0,0:0:0:0:
320,192,147250,1,0,0:0:0:0:
64,192,147484,1,0,0:0:0:0:
320,192,147718,1,0,0:0:0:0:
192,192,147953,128,0,148070:0:0:0:0:
320,192,148187,1,0,0:0:0:0:
192,192,148304,1,0,0:0:0:0:
64,192,148421,1,0,0:0:0:0:
192,192,148539,1,0,0:0:0:0:
320,192,148656,1,0,0:0:0:0:
64,192,148890,1,0,0:0:0:0:
448,192,149007,1,0,0:0:0:0:
320,192,149125,1,0,0:0:0:0:
320,192,149593,1,0,0:0:0:0:
320,192,150062,1,0,0:0:0:0:
320,192,150531,1,0,0:0:0:0:
320,192,151000,1,0,0:0:0:0:
192,192,151000,1,0,0:0:0:0:
192,192,151234,1,0,0:0:0:0:
192,192,151468,1,0,0:0:0:0:
192,192,151703,1,0,0:0:0:0:
192,192,151937,1,0,0:0:0:0:
192,192,152171,1,0,0:0:0:0:
192,192,152406,1,0,0:0:0:0:
192,192,152640,1,0,0:0:0:0:
448,192,152875,1,0,0:0:0:0:
448,192,153109,1,0,0:0:0:0:
448,192,153343,1,0,0:0:0:0:
448,192,153578,1,0,0:0:0:0:
64,192,153812,1,0,0:0:0:0:
64,192,154046,1,0,0:0:0:0:
64,192,154281,1,0,0:0:0:0:
64,192,154515,1,0,0:0:0:0:
192,192,154750,1,0,0:0:0:0:
192,192,154984,1,0,0:0:0:0:
192,192,155218,1,0,0:0:0:0:
192,192,155453,1,0,0:0:0:0:
192,192,155687,1,0,0:0:0:0:
192,192,155921,1,0,0:0:0:0:
192,192,156156,1,0,0:0:0:0:
192,192,156390,1,0,0:0:0:0:
448,192,156625,1,0,0:0:0:0:
448,192,156859,1,0,0:0:0:0:
448,192,157093,1,0,0:0:0:0:
448,192,157328,1,0,0:0:0:0:
64,192,157562,1,0,0:0:0:0:
64,192,157796,1,0,0:0:0:0:
64,192,158031,1,0,0:0:0:0:
64,192,158265,1,0,0:0:0:0:
192,192,158500,1,0,0:0:0:0:
192,192,158734,1,0,0:0:0:0:
192,192,158968,1,0,0:0:0:0:
192,192,159203,1,0,0:0:0:0:
192,192,159437,1,0,0:0:0:0:
192,192,159671,1,0,0:0:0:0:
192,192,159906,1,0,0:0:0:0:
192,192,160140,1,0,0:0:0:0:
448,192,160375,1,0,0:0:0:0:
448,192,160609,1,0,0:0:0:0:
448,192,160843,1,0,0:0:0:0:
448,192,161078,1,0,0:0:0:0:
64,192,161312,1,0,0:0:0:0:
64,192,161546,1,0,0:0:0:0:
64,192,161781,1,0,0:0:0:0:
64,192,162015,1,0,0:0:0:0:
192,192,162250,1,0,0:0:0:0:
192,192,162484,1,0,0:0:0:0:
192,192,162718,1,0,0:0:0:0:
448,192,162835,1,0,0:0:0:0:
192,192,162953,1,0,0:0:0:0:
448,192,163070,1,0,0:0:0:0:
192,192,163187,1,0,0:0:0:0:
320,192,163304,1,0,0:0:0:0:
192,192,163421,1,0,0:0:0:0:
320,192,163539,1,0,0:0:0:0:
192,192,163656,1,0,0:0:0:0:
192,192,163890,1,0,0:0:0:0:
448,192,164125,1,0,0:0:0:0:
448,192,164359,1,0,0:0:0:0:
448,192,164593,1,0,0:0:0:0:
192,192,164710,1,0,0:0:0:0:
448,192,164828,1,0,0:0:0:0:
192,192,164945,1,0,0:0:0:0:
64,192,165062,1,0,0:0:0:0:
320,192,165179,1,0,0:0:0:0:
64,192,165296,1,0,0:0:0:0:
320,192,165414,1,0,0:0:0:0:
64,192,165531,1,0,0:0:0:0:
64,192,165765,1,0,0:0:0:0:
320,192,166000,1,0,0:0:0:0:
192,192,166000,1,0,0:0:0:0:
192,192,166234,1,0,0:0:0:0:
320,192,166468,1,0,0:0:0:0:
192,192,166468,1,0,0:0:0:0:
448,192,166585,1,0,0:0:0:0:
192,192,166703,1,0,0:0:0:0:
448,192,166820,1,0,0:0:0:0:
320,192,166937,1,0,0:0:0:0:
192,192,166937,1,0,0:0:0:0:
64,192,167054,1,0,0:0:0:0:
192,192,167171,1,0,0:0:0:0:
64,192,167289,1,0,0:0:0:0:
320,192,167406,1,0,0:0:0:0:
192,192,167406,1,0,0:0:0:0:
192,192,167640,1,0,0:0:0:0:
448,192,167875,1,0,0:0:0:0:
320,192,167875,1,0,0:0:0:0:
448,192,168109,1,0,0:0:0:0:
448,192,168343,1,0,0:0:0:0:
320,192,168343,1,0,0:0:0:0:
192,192,168460,1,0,0:0:0:0:
448,192,168578,1,0,0:0:0:0:
192,192,168695,1,0,0:0:0:0:
448,192,168812,1,0,0:0:0:0:
64,192,168812,1,0,0:0:0:0:
320,192,168929,1,0,0:0:0:0:
64,192,169046,1,0,0:0:0:0:
320,192,169164,1,0,0:0:0:0:
448,192,169281,1,0,0:0:0:0:
64,192,169281,1,0,0:0:0:0:
64,192,169515,1,0,0:0:0:0:
320,192,169750,1,0,0:0:0:0:
192,192,169750,1,0,0:0:0:0:
192,192,169984,1,0,0:0:0:0:
320,192,170218,1,0,0:0:0:0:
192,192,170218,1,0,0:0:0:0:
448,192,170335,1,0,0:0:0:0:
192,192,170453,1,0,0:0:0:0:
448,192,170570,1,0,0:0:0:0:
320,192,170687,1,0,0:0:0:0:
192,192,170687,1,0,0:0:0:0:
64,192,170804,1,0,0:0:0:0:
192,192,170921,1,0,0:0:0:0:
64,192,171039,1,0,0:0:0:0:
320,192,171156,1,0,0:0:0:0:
192,192,171156,1,0,0:0:0:0:
192,192,171390,1,0,0:0:0:0:
448,192,171625,1,0,0:0:0:0:
320,192,171625,1,0,0:0:0:0:
448,192,171859,1,0,0:0:0:0:
448,192,172093,1,0,0:0:0:0:
320,192,172093,1,0,0:0:0:0:
192,192,172210,1,0,0:0:0:0:
448,192,172328,1,0,0:0:0:0:
192,192,172445,1,0,0:0:0:0:
448,192,172562,1,0,0:0:0:0:
64,192,172562,1,0,0:0:0:0:
320,192,172679,1,0,0:0:0:0:
64,192,172796,1,0,0:0:0:0:
320,192,172914,1,0,0:0:0:0:
448,192,173031,1,0,0:0:0:0:
64,192,173031,1,0,0:0:0:0:
64,192,173265,1,0,0:0:0:0:
320,192,173500,1,0,0:0:0:0:
192,192,173500,1,0,0:0:0:0:
448,192,173617,1,0,0:0:0:0:
192,192,173734,1,0,0:0:0:0:
448,192,173851,1,0,0:0:0:0:
320,192,173968,1,0,0:0:0:0:
192,192,173968,1,0,0:0:0:0:
64,192,174085,1,0,0:0:0:0:
192,192,174203,1,0,0:0:0:0:
64,192,174320,1,0,0:0:0:0:
320,192,174437,1,0,0:0:0:0:
192,192,174437,1,0,0:0:0:0:
64,192,174554,1,0,0:0:0:0:
192,192,174671,1,0,0:0:0:0:
64,192,174789,1,0,0:0:0:0:
320,192,174906,1,0,0:0:0:0:
192,192,174906,1,0,0:0:0:0:
448,192,175023,1,0,0:0:0:0:
192,192,175140,1,0,0:0:0:0:
64,192,175257,1,0,0:0:0:0:
448,192,175375,1,0,0:0:0:0:
320,192,175375,1,0,0:0:0:0:
64,192,175492,1,0,0:0:0:0:
448,192,175609,1,0,0:0:0:0:
64,192,175726,1,0,0:0:0:0:
448,192,175843,1,0,0:0:0:0:
320,192,175843,1,0,0:0:0:0:
192,192,175960,1,0,0:0:0:0:
448,192,176078,1,0,0:0:0:0:
192,192,176195,1,0,0:0:0:0:
448,192,176312,1,0,0:0:0:0:
64,192,176312,1,0,0:0:0:0:
320,192,176429,1,0,0:0:0:0:
64,192,176546,1,0,0:0:0:0:
320,192,176664,1,0,0:0:0:0:
448,192,176781,1,0,0:0:0:0:
64,192,176781,1,0,0:0:0:0:
192,192,176898,1,0,0:0:0:0:
64,192,177015,1,0,0:0:0:0:
448,192,177132,1,0,0:0:0:0:
320,192,177250,128,0,177484:0:0:0:0:
192,192,177250,1,0,0:0:0:0:
448,192,177367,1,0,0:0:0:0:
192,192,177484,1,0,0:0:0:0:
448,192,177601,1,0,0:0:0:0:
320,192,177718,128,0,177953:0:0:0:0:
192,192,177718,1,0,0:0:0:0:
64,192,177835,1,0,0:0:0:0:
192,192,177953,1,0,0:0:0:0:
64,192,178070,128,0,178187:0:0:0:0:
320,192,178187,1,0,0:0:0:0:
192,192,178187,1,0,0:0:0:0:
64,192,178304,128,0,178421:0:0:0:0:
192,192,178421,1,0,0:0:0:0:
64,192,178539,1,0,0:0:0:0:
320,192,178656,128,0,178890:0:0:0:0:
192,192,178656,1,0,0:0:0:0:
64,192,178773,1,0,0:0:0:0:
192,192,178890,1,0,0:0:0:0:
64,192,179007,1,0,0:0:0:0:
448,192,179125,1,0,0:0:0:0:
320,192,179125,1,0,0:0:0:0:
192,192,179203,1,0,0:0:0:0:
320,192,179281,1,0,0:0:0:0:
448,192,179359,1,0,0:0:0:0:
64,192,179437,1,0,0:0:0:0:
192,192,179437,1,0,0:0:0:0:
320,192,179515,1,0,0:0:0:0:
192,192,179593,1,0,0:0:0:0:
64,192,179671,1,0,0:0:0:0:
320,192,179750,1,0,0:0:0:0:
448,192,179750,1,0,0:0:0:0:
192,192,179828,1,0,0:0:0:0:
320,192,179906,1,0,0:0:0:0:
448,192,179984,1,0,0:0:0:0:
64,192,180062,1,0,0:0:0:0:
192,192,180062,1,0,0:0:0:0:
320,192,180140,1,0,0:0:0:0:
192,192,180218,1,0,0:0:0:0:
64,192,180296,1,0,0:0:0:0:
320,192,180375,1,0,0:0:0:0:
448,192,180375,1,0,0:0:0:0:
192,192,180453,1,0,0:0:0:0:
320,192,180531,128,0,180687:0:0:0:0:
320,192,181000,128,0,181351:0:0:0:0:
192,192,181000,128,0,181351:0:0:0:0:
64,192,181351,1,0,0:0:0:0:
448,192,181468,128,0,181703:0:0:0:0:
320,192,181468,128,0,181703:0:0:0:0:
192,192,181703,1,0,0:0:0:0:
448,192,181820,1,0,0:0:0:0:
192,192,181937,1,0,0:0:0:0:
64,192,181937,1,0,0:0:0:0:
320,192,182054,128,0,182289:0:0:0:0:
192,192,182289,1,0,0:0:0:0:
448,192,182406,128,0,182757:0:0:0:0:
64,192,182406,128,0,182757:0:0:0:0:
320,192,182875,128,0,183226:0:0:0:0:
192,192,182875,128,0,183226:0:0:0:0:
64,192,183226,1,0,0:0:0:0:
448,192,183343,128,0,183578:0:0:0:0:
320,192,183343,128,0,183578:0:0:0:0:
192,192,183578,1,0,0:0:0:0:
448,192,183695,1,0,0:0:0:0:
192,192,183812,1,0,0:0:0:0:
64,192,183812,1,0,0:0:0:0:
320,192,183929,128,0,184164:0:0:0:0:
192,192,184046,1,0,0:0:0:0:
448,192,184164,1,0,0:0:0:0:
192,192,184281,128,0,184632:0:0:0:0:
64,192,184281,128,0,184632:0:0:0:0:
448,192,184515,1,0,0:0:0:0:
448,192,184632,1,0,0:0:0:0:
320,192,184750,128,0,185101:0:0:0:0:
192,192,184750,128,0,185101:0:0:0:0:
64,192,185101,1,0,0:0:0:0:
448,192,185218,128,0,185453:0:0:0:0:
320,192,185218,128,0,185453:0:0:0:0:
192,192,185453,1,0,0:0:0:0:
448,192,185570,1,0,0:0:0:0:
192,192,185687,1,0,0:0:0:0:
64,192,185687,1,0,0:0:0:0:
320,192,185804,128,0,186039:0:0:0:0:
448,192,185921,1,0,0:0:0:0:
192,192,186039,1,0,0:0:0:0:
448,192,186156,128,0,186507:0:0:0:0:
64,192,186156,128,0,186507:0:0:0:0:
320,192,186625,128,0,186742:0:0:0:0:
192,192,186625,128,0,186742:0:0:0:0:
64,192,186859,128,0,187093:0:0:0:0:
320,192,187093,1,0,0:0:0:0:
320,192,187210,1,0,0:0:0:0:
320,192,187328,1,0,0:0:0:0:
320,192,187445,1,0,0:0:0:0:
192,192,187562,128,0,187796:0:0:0:0:
320,192,187796,1,0,0:0:0:0:
320,192,187914,1,0,0:0:0:0:
192,192,188031,128,0,188265:0:0:0:0:
64,192,188265,1,0,0:0:0:0:
448,192,188265,128,0,188500:0:0:0:0:
320,192,188500,128,0,188851:0:0:0:0:
192,192,188500,128,0,188851:0:0:0:0:
64,192,188851,1,0,0:0:0:0:
448,192,188968,128,0,189203:0:0:0:0:
320,192,188968,128,0,189203:0:0:0:0:
192,192,189203,1,0,0:0:0:0:
448,192,189320,1,0,0:0:0:0:
192,192,189437,1,0,0:0:0:0:
64,192,189437,1,0,0:0:0:0:
320,192,189554,128,0,189789:0:0:0:0:
192,192,189789,1,0,0:0:0:0:
448,192,189906,128,0,190257:0:0:0:0:
64,192,189906,128,0,190257:0:0:0:0:
320,192,190375,128,0,190726:0:0:0:0:
192,192,190375,128,0,190726:0:0:0:0:
64,192,190726,1,0,0:0:0:0:
448,192,190843,128,0,191078:0:0:0:0:
320,192,190843,128,0,191078:0:0:0:0:
192,192,191078,1,0,0:0:0:0:
448,192,191195,1,0,0:0:0:0:
192,192,191312,1,0,0:0:0:0:
64,192,191312,1,0,0:0:0:0:
320,192,191429,128,0,191664:0:0:0:0:
192,192,191546,1,0,0:0:0:0:
448,192,191664,1,0,0:0:0:0:
192,192,191781,128,0,192132:0:0:0:0:
64,192,191781,128,0,192132:0:0:0:0:
448,192,192015,1,0,0:0:0:0:
448,192,192132,1,0,0:0:0:0:
320,192,192250,128,0,192601:0:0:0:0:
192,192,192250,128,0,192601:0:0:0:0:
64,192,192601,1,0,0:0:0:0:
448,192,192718,128,0,192953:0:0:0:0:
320,192,192718,128,0,192953:0:0:0:0:
192,192,192953,1,0,0:0:0:0:
448,192,193070,1,0,0:0:0:0:
192,192,193187,1,0,0:0:0:0:
64,192,193187,1,0,0:0:0:0:
320,192,193304,128,0,193539:0:0:0:0:
448,192,193421,1,0,0:0:0:0:
192,192,193539,1,0,0:0:0:0:
448,192,193656,128,0,194007:0:0:0:0:
64,192,193656,128,0,194007:0:0:0:0:
320,192,194125,1,0,0:0:0:0:
64,192,194125,1,0,0:0:0:0:
320,192,194359,1,0,0:0:0:0:
64,192,194359,1,0,0:0:0:0:
448,192,194593,1,0,0:0:0:0:
192,192,194593,1,0,0:0:0:0:
320,192,194710,1,0,0:0:0:0:
448,192,194828,1,0,0:0:0:0:
320,192,195062,1,0,0:0:0:0:
64,192,195062,1,0,0:0:0:0:
64,192,195296,1,0,0:0:0:0:
320,192,195414,1,0,0:0:0:0:
448,192,195531,1,0,0:0:0:0:
192,192,195531,1,0,0:0:0:0:
448,192,195765,1,0,0:0:0:0:
192,192,195765,1,0,0:0:0:0:
320,192,196000,128,0,196351:0:0:0:0:
192,192,196000,128,0,196351:0:0:0:0:
64,192,196351,1,0,0:0:0:0:
448,192,196468,128,0,196703:0:0:0:0:
320,192,196468,128,0,196703:0:0:0:0:
192,192,196703,1,0,0:0:0:0:
448,192,196820,1,0,0:0:0:0:
192,192,196937,1,0,0:0:0:0:
64,192,196937,1,0,0:0:0:0:
320,192,197054,128,0,197289:0:0:0:0:
192,192,197289,1,0,0:0:0:0:
448,192,197406,128,0,197757:0:0:0:0:
64,192,197406,128,0,197757:0:0:0:0:
320,192,197875,128,0,198226:0:0:0:0:
192,192,197875,128,0,198226:0:0:0:0:
64,192,198226,1,0,0:0:0:0:
448,192,198343,128,0,198578:0:0:0:0:
320,192,198343,128,0,198578:0:0:0:0:
192,192,198578,1,0,0:0:0:0:
448,192,198695,1,0,0:0:0:0:
192,192,198812,1,0,0:0:0:0:
64,192,198812,1,0,0:0:0:0:
320,192,198929,128,0,199164:0:0:0:0:
192,192,199046,1,0,0:0:0:0:
448,192,199164,1,0,0:0:0:0:
192,192,199281,128,0,199632:0:0:0:0:
64,192,199281,128,0,199632:0:0:0:0:
448,192,199515,1,0,0:0:0:0:
448,192,199632,1,0,0:0:0:0:
320,192,199750,128,0,200101:0:0:0:0:
192,192,199750,128,0,200101:0:0:0:0:
64,192,200101,1,0,0:0:0:0:
448,192,200218,128,0,200453:0:0:0:0:
320,192,200218,128,0,200453:0:0:0:0:
192,192,200453,1,0,0:0:0:0:
448,192,200570,1,0,0:0:0:0:
192,192,200687,1,0,0:0:0:0:
64,192,200687,1,0,0:0:0:0:
320,192,200804,128,0,201039:0:0:0:0:
448,192,200921,1,0,0:0:0:0:
192,192,201039,1,0,0:0:0:0:
448,192,201156,128,0,201507:0:0:0:0:
64,192,201156,128,0,201507:0:0:0:0:
320,192,201625,128,0,201976:0:0:0:0:
192,192,201625,128,0,201976:0:0:0:0:
64,192,201976,1,0,0:0:0:0:
448,192,202093,128,0,202328:0:0:0:0:
320,192,202093,128,0,202328:0:0:0:0:
192,192,202328,1,0,0:0:0:0:
448,192,202445,1,0,0:0:0:0:
192,192,202562,1,0,0:0:0:0:
64,192,202562,1,0,0:0:0:0:
320,192,202679,128,0,202914:0:0:0:0:
192,192,202796,1,0,0:0:0:0:
192,192,202914,1,0,0:0:0:0:
448,192,203031,128,0,203265:0:0:0:0:
320,192,203031,128,0,203265:0:0:0:0:
192,192,203265,1,0,0:0:0:0:
64,192,203265,128,0,203500:0:0:0:0:
320,192,203500,128,0,203851:0:0:0:0:
192,192,203500,128,0,203851:0:0:0:0:
64,192,203851,1,0,0:0:0:0:
448,192,203968,128,0,204203:0:0:0:0:
320,192,203968,128,0,204203:0:0:0:0:
192,192,204203,1,0,0:0:0:0:
448,192,204320,1,0,0:0:0:0:
192,192,204437,1,0,0:0:0:0:
64,192,204437,1,0,0:0:0:0:
320,192,204554,128,0,204789:0:0:0:0:
192,192,204789,1,0,0:0:0:0:
448,192,204906,128,0,205257:0:0:0:0:
64,192,204906,128,0,205257:0:0:0:0:
320,192,205375,128,0,205726:0:0:0:0:
192,192,205375,128,0,205726:0:0:0:0:
64,192,205726,1,0,0:0:0:0:
448,192,205843,128,0,206078:0:0:0:0:
320,192,205843,128,0,206078:0:0:0:0:
192,192,206078,1,0,0:0:0:0:
448,192,206195,1,0,0:0:0:0:
192,192,206312,1,0,0:0:0:0:
64,192,206312,1,0,0:0:0:0:
320,192,206429,128,0,206664:0:0:0:0:
192,192,206546,1,0,0:0:0:0:
448,192,206664,1,0,0:0:0:0:
192,192,206781,128,0,207132:0:0:0:0:
64,192,206781,128,0,207132:0:0:0:0:
448,192,207015,1,0,0:0:0:0:
448,192,207132,1,0,0:0:0:0:
320,192,207250,128,0,207601:0:0:0:0:
192,192,207250,128,0,207601:0:0:0:0:
64,192,207601,1,0,0:0:0:0:
448,192,207718,128,0,207953:0:0:0:0:
320,192,207718,128,0,207953:0:0:0:0:
192,192,207953,1,0,0:0:0:0:
448,192,208070,1,0,0:0:0:0:
192,192,208187,1,0,0:0:0:0:
64,192,208187,1,0,0:0:0:0:
320,192,208304,128,0,208539:0:0:0:0:
448,192,208421,1,0,0:0:0:0:
192,192,208539,1,0,0:0:0:0:
448,192,208656,128,0,209007:0:0:0:0:
64,192,208656,128,0,209007:0:0:0:0:
320,192,209125,128,0,209593:0:0:0:0:
192,192,209125,1,0,0:0:0:0:
64,192,209242,1,0,0:0:0:0:
192,192,209359,1,0,0:0:0:0:
64,192,209476,1,0,0:0:0:0:
448,192,209593,1,0,0:0:0:0:
320,192,209710,1,0,0:0:0:0:
192,192,209828,128,0,210296:0:0:0:0:
320,192,209945,1,0,0:0:0:0:
448,192,210062,1,0,0:0:0:0:
64,192,210179,1,0,0:0:0:0:
448,192,210296,1,0,0:0:0:0:
320,192,210414,1,0,0:0:0:0:
448,192,210531,128,0,210882:0:0:0:0:
192,192,210531,1,0,0:0:0:0:
192,192,211000,128,0,211351:0:0:0:0:
320,192,211000,128,0,211351:0:0:0:0:
64,192,211351,1,0,0:0:0:0:
448,192,211468,1,0,0:0:0:0:
320,192,211468,1,0,0:0:0:0:
192,192,211703,128,0,211820:0:0:0:0:
448,192,211820,128,0,211937:0:0:0:0:
64,192,211937,1,0,0:0:0:0:
320,192,212054,128,0,212171:0:0:0:0:
192,192,212171,128,0,212289:0:0:0:0:
320,192,212289,1,0,0:0:0:0:
448,192,212406,128,0,212757:0:0:0:0:
64,192,212406,128,0,212757:0:0:0:0:
192,192,212875,128,0,213226:0:0:0:0:
320,192,212875,128,0,213226:0:0:0:0:
64,192,213226,1,0,0:0:0:0:
448,192,213343,1,0,0:0:0:0:
320,192,213343,1,0,0:0:0:0:
192,192,213578,128,0,213695:0:0:0:0:
448,192,213695,128,0,213812:0:0:0:0:
64,192,213812,1,0,0:0:0:0:
192,192,213929,128,0,214046:0:0:0:0:
320,192,214046,128,0,214164:0:0:0:0:
192,192,214164,1,0,0:0:0:0:
448,192,214281,128,0,214515:0:0:0:0:
64,192,214281,128,0,214515:0:0:0:0:
320,192,214515,1,0,0:0:0:0:
448,192,214632,1,0,0:0:0:0:
320,192,214750,128,0,215101:0:0:0:0:
192,192,214750,128,0,215101:0:0:0:0:
64,192,215101,1,0,0:0:0:0:
448,192,215218,1,0,0:0:0:0:
320,192,215218,1,0,0:0:0:0:
192,192,215453,128,0,215570:0:0:0:0:
448,192,215570,128,0,215687:0:0:0:0:
64,192,215687,1,0,0:0:0:0:
320,192,215804,128,0,215921:0:0:0:0:
192,192,215921,128,0,216039:0:0:0:0:
320,192,216039,1,0,0:0:0:0:
448,192,216156,128,0,216507:0:0:0:0:
64,192,216156,128,0,216507:0:0:0:0:
320,192,216625,128,0,216976:0:0:0:0:
192,192,216625,128,0,216976:0:0:0:0:
64,192,216976,1,0,0:0:0:0:
448,192,217093,1,0,0:0:0:0:
320,192,217093,1,0,0:0:0:0:
192,192,217328,128,0,217445:0:0:0:0:
448,192,217445,128,0,217562:0:0:0:0:
64,192,217562,1,0,0:0:0:0:
192,192,217679,128,0,217796:0:0:0:0:
320,192,217796,1,0,0:0:0:0:
320,192,217914,1,0,0:0:0:0:
64,192,218031,128,0,218265:0:0:0:0:
448,192,218031,1,0,0:0:0:0:
448,192,218265,128,0,218382:0:0:0:0:
192,192,218500,128,0,218851:0:0:0:0:
320,192,218500,128,0,218851:0:0:0:0:
64,192,218851,1,0,0:0:0:0:
448,192,218968,1,0,0:0:0:0:
320,192,218968,1,0,0:0:0:0:
192,192,219203,128,0,219320:0:0:0:0:
448,192,219320,128,0,219437:0:0:0:0:
64,192,219437,1,0,0:0:0:0:
320,192,219554,128,0,219671:0:0:0:0:
192,192,219671,128,0,219789:0:0:0:0:
320,192,219789,1,0,0:0:0:0:
448,192,219906,128,0,220257:0:0:0:0:
64,192,219906,128,0,220257:0:0:0:0:
320,192,220375,128,0,220726:0:0:0:0:
192,192,220375,128,0,220726:0:0:0:0:
64,192,220726,1,0,0:0:0:0:
448,192,220843,1,0,0:0:0:0:
320,192,220843,1,0,0:0:0:0:
192,192,221078,128,0,221195:0:0:0:0:
448,192,221195,128,0,221312:0:0:0:0:
64,192,221312,1,0,0:0:0:0:
192,192,221429,128,0,221546:0:0:0:0:
320,192,221546,128,0,221664:0:0:0:0:
192,192,221664,1,0,0:0:0:0:
448,192,221781,128,0,222015:0:0:0:0:
64,192,221781,128,0,222015:0:0:0:0:
320,192,222015,1,0,0:0:0:0:
448,192,222132,1,0,0:0:0:0:
320,192,222250,128,0,222601:0:0:0:0:
192,192,222250,128,0,222601:0:0:0:0:
64,192,222601,1,0,0:0:0:0:
448,192,222718,1,0,0:0:0:0:
320,192,222718,1,0,0:0:0:0:
192,192,222953,128,0,223070:0:0:0:0:
448,192,223070,128,0,223187:0:0:0:0:
64,192,223187,1,0,0:0:0:0:
320,192,223304,128,0,223421:0:0:0:0:
192,192,223421,128,0,223539:0:0:0:0:
320,192,223539,1,0,0:0:0:0:
448,192,223656,128,0,224007:0:0:0:0:
64,192,223656,128,0,224007:0:0:0:0:
192,192,224125,1,0,0:0:0:0:
192,192,224242,1,0,0:0:0:0:
192,192,224359,1,0,0:0:0:0:
192,192,224476,1,0,0:0:0:0:
320,192,224593,1,0,0:0:0:0:
320,192,224710,1,0,0:0:0:0:
320,192,224828,1,0,0:0:0:0:
320,192,224945,1,0,0:0:0:0:
64,192,225062,1,0,0:0:0:0:
64,192,225179,1,0,0:0:0:0:
64,192,225296,1,0,0:0:0:0:
64,192,225414,1,0,0:0:0:0:
448,192,225531,1,0,0:0:0:0:
448,192,225648,1,0,0:0:0:0:
448,192,225765,1,0,0:0:0:0:
448,192,225882,1,0,0:0:0:0:
320,192,226000,128,0,226351:0:0:0:0:
192,192,226000,128,0,226351:0:0:0:0:
64,192,226351,1,0,0:0:0:0:
448,192,226468,1,0,0:0:0:0:
320,192,226468,1,0,0:0:0:0:
192,192,226703,128,0,226820:0:0:0:0:
448,192,226820,128,0,226937:0:0:0:0:
64,192,226937,1,0,0:0:0:0:
320,192,227054,128,0,227171:0:0:0:0:
192,192,227171,128,0,227289:0:0:0:0:
320,192,227289,1,0,0:0:0:0:
448,192,227406,128,0,227757:0:0:0:0:
64,192,227406,128,0,227757:0:0:0:0:
320,192,227875,128,0,228226:0:0:0:0:
192,192,227875,128,0,228226:0:0:0:0:
64,192,228226,1,0,0:0:0:0:
448,192,228343,1,0,0:0:0:0:
320,192,228343,1,0,0:0:0:0:
192,192,228578,128,0,228695:0:0:0:0:
448,192,228695,128,0,228812:0:0:0:0:
64,192,228812,1,0,0:0:0:0:
192,192,228929,128,0,229046:0:0:0:0:
320,192,229046,128,0,229164:0:0:0:0:
192,192,229164,1,0,0:0:0:0:
448,192,229281,128,0,229515:0:0:0:0:
64,192,229281,128,0,229515:0:0:0:0:
320,192,229515,1,0,0:0:0:0:
448,192,229632,1,0,0:0:0:0:
320,192,229750,128,0,230101:0:0:0:0:
192,192,229750,128,0,230101:0:0:0:0:
64,192,230101,1,0,0:0:0:0:
448,192,230218,1,0,0:0:0:0:
320,192,230218,1,0,0:0:0:0:
192,192,230453,128,0,230570:0:0:0:0:
448,192,230570,128,0,230687:0:0:0:0:
64,192,230687,1,0,0:0:0:0:
320,192,230804,128,0,230921:0:0:0:0:
192,192,230921,128,0,231039:0:0:0:0:
320,192,231039,1,0,0:0:0:0:
448,192,231156,128,0,231507:0:0:0:0:
64,192,231156,128,0,231507:0:0:0:0:
320,192,231625,128,0,231976:0:0:0:0:
192,192,231625,128,0,231976:0:0:0:0:
64,192,231976,1,0,0:0:0:0:
448,192,232093,1,0,0:0:0:0:
320,192,232093,1,0,0:0:0:0:
192,192,232328,128,0,232445:0:0:0:0:
448,192,232445,128,0,232562:0:0:0:0:
64,192,232562,1,0,0:0:0:0:
192,192,232679,128,0,232796:0:0:0:0:
320,192,232796,1,0,0:0:0:0:
320,192,232914,1,0,0:0:0:0:
64,192,233031,128,0,233265:0:0:0:0:
448,192,233031,1,0,0:0:0:0:
448,192,233265,128,0,233382:0:0:0:0:
192,192,233500,128,0,233851:0:0:0:0:
320,192,233500,128,0,233851:0:0:0:0:
64,192,233851,1,0,0:0:0:0:
448,192,233968,1,0,0:0:0:0:
320,192,233968,1,0,0:0:0:0:
192,192,234203,128,0,234320:0:0:0:0:
448,192,234320,128,0,234437:0:0:0:0:
64,192,234437,1,0,0:0:0:0:
320,192,234554,128,0,234671:0:0:0:0:
192,192,234671,128,0,234789:0:0:0:0:
320,192,234789,1,0,0:0:0:0:
448,192,234906,128,0,235257:0:0:0:0:
64,192,234906,128,0,235257:0:0:0:0:
320,192,235375,128,0,235726:0:0:0:0:
192,192,235375,128,0,235726:0:0:0:0:
64,192,235726,1,0,0:0:0:0:
448,192,235843,1,0,0:0:0:0:
320,192,235843,1,0,0:0:0:0:
192,192,236078,128,0,236195:0:0:0:0:
448,192,236195,128,0,236312:0:0:0:0:
64,192,236312,1,0,0:0:0:0:
192,192,236429,128,0,236546:0:0:0:0:
320,192,236546,128,0,236664:0:0:0:0:
192,192,236664,1,0,0:0:0:0:
448,192,236781,128,0,237015:0:0:0:0:
64,192,236781,128,0,237015:0:0:0:0:
320,192,237015,1,0,0:0:0:0:
448,192,237132,1,0,0:0:0:0:
320,192,237250,128,0,237601:0:0:0:0:
192,192,237250,128,0,237601:0:0:0:0:
64,192,237601,1,0,0:0:0:0:
448,192,237718,1,0,0:0:0:0:
320,192,237718,1,0,0:0:0:0:
192,192,237953,128,0,238070:0:0:0:0:
448,192,238070,128,0,238187:0:0:0:0:
64,192,238187,1,0,0:0:0:0:
320,192,238304,128,0,238421:0:0:0:0:
192,192,238421,128,0,238539:0:0:0:0:
320,192,238539,1,0,0:0:0:0:
448,192,238656,128,0,239007:0:0:0:0:
64,192,238656,128,0,239007:0:0:0:0:
192,192,239125,1,0,0:0:0:0:
64,192,239125,128,0,240296:0:0:0:0:
448,192,239593,1,0,0:0:0:0:
320,192,239593,1,0,0:0:0:0:
192,192,239945,1,0,0:0:0:0:
448,192,240296,1,0,0:0:0:0:
320,192,240375,1,0,0:0:0:0:
192,192,240453,1,0,0:0:0:0:
448,192,240531,1,0,0:0:0:0:
64,192,240531,1,0,0:0:0:0:
192,192,240765,128,0,241000:0:0:0:0:
448,192,241000,1,0,0:0:0:0:
320,192,241000,1,0,0:0:0:0:
