osu file format v14

[General]
AudioFilename: audio.mp3
AudioLeadIn: 0
PreviewTime: 247422
Countdown: 0
SampleSet: Soft
StackLeniency: 0.7
Mode: 0
LetterboxInBreaks: 0
WidescreenStoryboard: 0

[Editor]
Bookmarks: 150,58331,87422,131059,174695,218331,276513,305604,334695,363786
DistanceSpacing: 1.5
BeatDivisor: 4
GridSize: 4
TimelineZoom: 2.36

[Metadata]
Title:Ibuki (Original Mix)
TitleUnicode:Ibuki (Original Mix)
Artist:Nhato
ArtistUnicode:Nhato
Creator:Callionet
Version:IbuJi
Source:
Tags:
BeatmapID:1166480
BeatmapSetID:550610

[Difficulty]
HPDrainRate:6
CircleSize:4.2
OverallDifficulty:7.8
ApproachRate:9.3
SliderMultiplier:2.5
SliderTickRate:1

[Events]
//Background and Video events
0,0,"bbbb.png",0,0
//Break Periods
//Storyboard Layer 0 (Background)
//Storyboard Layer 1 (Fail)
//Storyboard Layer 2 (Pass)
//Storyboard Layer 3 (Foreground)
//Storyboard Sound Samples

[TimingPoints]
150,454.545454545455,4,2,0,100,1,0
14695,-133.333333333333,4,2,0,75,0,0
21627,-200,4,2,0,75,0,0
21854,-133.333333333333,4,2,0,75,0,0
29240,-133.333333333333,4,2,1,75,0,0
35604,-200,4,2,1,75,0,0
36059,-100,4,2,1,75,0,0
36513,-133.333333333333,4,2,1,75,0,0
58331,-200,4,2,1,75,0,0
72877,-200,4,1,0,25,0,0
74695,-200,4,1,0,30,0,0
76513,-200,4,1,0,35,0,0
78331,-200,4,1,0,40,0,0
79695,-200,4,1,0,45,0,0
79922,-200,4,1,0,50,0,0
80150,-200,4,1,0,55,0,0
81059,-200,4,1,0,60,0,0
81968,-200,4,1,0,65,0,0
82877,-200,4,1,0,70,0,0
83786,-200,4,1,0,75,0,0
84240,-200,4,2,0,80,0,0
84695,-200,4,2,0,85,0,0
85150,-200,4,2,0,90,0,0
85604,-200,4,2,0,95,0,0
85831,-200,4,2,0,85,0,0
86059,-200,4,2,0,75,0,0
86286,-200,4,2,0,65,0,0
86513,-200,4,2,0,55,0,0
86740,-200,4,2,0,45,0,0
86968,-200,4,1,0,100,0,0
87422,-142.857142857143,4,2,1,88,0,0
101968,-125,4,2,1,88,0,0
109240,-111.111111111111,4,2,1,88,0,0
116513,-100,4,2,1,88,0,0
131059,-200,4,2,2,88,0,0
159240,-142.857142857143,4,1,0,88,0,0
160150,-142.857142857143,4,2,2,88,0,0
174695,-117.647058823529,4,2,0,88,0,0
189468,-153.846153846153,4,2,0,88,0,0
203786,-133.333333333333,4,2,0,88,0,0
205604,-117.647058823529,4,2,0,88,0,0
207422,-100,4,2,0,88,0,0
209240,-90.9090909090909,4,2,0,88,0,0
211059,-76.9230769230769,4,2,0,88,0,0
212877,-66.6666666666667,4,2,0,88,0,0
218331,-100,4,1,0,100,0,0
219695,-66.6666666666667,4,1,0,100,0,0
220150,-100,4,1,0,100,0,0
221513,-66.6666666666667,4,1,0,100,0,0
221968,-100,4,1,1,100,0,0
223786,-76.9230769230769,4,1,0,100,0,0
224922,-100,4,1,0,100,0,0
226968,-83.3333333333333,4,1,0,100,0,0
228218,-100,4,1,0,100,0,0
229013,-76.9230769230769,4,1,1,100,0,0
230150,-100,4,1,0,100,0,0
230377,-76.9230769230769,4,1,1,100,0,0
231059,-100,4,2,0,100,0,0
231513,-166.666666666667,4,2,0,100,0,0
232650,-100,4,2,0,100,0,0
232877,-76.9230769230769,4,1,0,100,0,0
233331,-100,4,1,0,100,0,0
236968,-100,4,1,1,100,0,0
237877,-66.6666666666667,4,1,1,100,0,0
238331,-100,4,1,0,100,0,0
239695,-83.3333333333333,4,2,0,100,0,0
239922,-66.6666666666667,4,2,0,100,0,0
240150,-100,4,1,0,100,0,0
243786,-166.666666666667,4,2,1,100,0,0
261968,-100,4,1,0,100,0,1
263331,-76.9230769230769,4,1,0,100,0,1
263786,-100,4,1,0,100,0,1
268559,-100,4,1,0,100,0,0
268786,-142.857142857143,4,1,0,100,0,0
269240,-100,4,1,0,100,0,1
270604,-83.3333333333333,4,1,0,100,0,1
271059,-100,4,1,0,100,0,1
272877,-142.857142857143,4,2,0,100,0,1
276513,-100,4,2,0,100,0,0
276740,-125,4,2,0,100,0,0
303786,-66.6666666666667,4,2,0,100,0,0
305604,-133.333333333333,4,2,1,88,0,0
320150,-117.647058823529,4,2,1,88,0,0
327422,-100,4,2,1,88,0,0
334695,-117.647058823529,4,2,1,88,0,0

[Colours]
Combo1 : 213,213,213
Combo2 : 181,181,255
Combo3 : 225,225,255
Combo4 : 0,185,185

[HitObjects]
256,192,11059,12,0,14468,0:0:0:0:
128,104,14695,6,0,L|256:88,1,93.7500035762788,4|2,1:2|0:0,0:0:0:0:
416,56,15150,1,0,1:0:0:0:
416,56,15263,1,2,0:0:0:0:
360,192,15490,1,0,0:0:0:0:
360,192,15604,6,0,L|360:288,1,93.7500035762788,0|2,1:0|0:0,0:0:0:0:
232,352,16059,1,0,1:0:0:0:
232,352,16172,1,2,0:0:0:0:
416,352,16400,1,0,0:0:0:0:
416,352,16513,6,0,L|416:240,1,93.7500035762788,0|2,1:0|0:0,0:0:0:0:
480,88,16968,1,0,1:0:0:0:
480,88,17081,1,2,0:0:0:0:
296,112,17309,1,0,0:0:0:0:
304,136,17422,6,0,L|200:128,1,93.7500035762788,0|2,1:0|0:0,0:0:0:0:
48,96,17877,1,0,1:0:0:0:
48,96,17990,1,2,0:0:0:0:
152,248,18218,1,2,0:0:0:0:
152,248,18331,6,0,L|272:232,1,93.7500035762788,0|2,1:0|0:0,0:0:0:0:
400,160,18786,2,0,L|448:224,1,46.8750017881394,0|2,1:0|0:0,0:0:0:0:
376,352,19127,1,0,0:0:0:0:
360,368,19240,6,0,L|360:264,1,93.7500035762788,0|2,1:0|0:0,0:0:0:0:
296,72,19695,2,0,L|272:152,1,46.8750017881394,0|2,1:0|0:0,0:0:0:0:
120,96,20036,1,0,0:0:0:0:
120,96,20150,1,0,1:0:0:0:
328,224,20377,6,2,L|208:216,1,93.7500035762788,2|0,0:0|1:0,0:0:0:0:
152,208,20718,1,2,0:0:0:0:
40,336,20945,1,0,0:0:0:0:
40,336,21059,2,2,L|120:352,1,46.8750017881394,2|0,1:2|0:0,0:0:0:0:
258,351,21286,2,0,L|232:312,1,46.8750017881394,2|0,0:0|0:0,0:0:0:0:
344,296,21513,1,0,1:0:0:0:
344,296,21627,2,2,L|352:208,1,62.5,2|0,0:0|0:0,0:0:0:0:
360,184,21968,6,0,L|480:168,1,93.7500035762788,0|2,1:0|0:0,0:0:0:0:
320,72,22422,1,0,1:0:0:0:
280,96,22536,2,0,L|176:72,1,93.7500035762788,2|0,0:0|0:0,0:0:0:0:
104,104,22877,2,0,L|96:208,1,93.7500035762788,0|2,1:0|0:0,0:0:0:0:
16,312,23331,5,0,1:0:0:0:
48,344,23445,2,0,L|168:328,1,93.7500035762788,2|0,0:0|0:0,0:0:0:0:
224,352,23786,2,0,L|344:336,1,93.7500035762788,0|2,1:0|0:0,0:0:0:0:
400,104,24240,5,0,1:0:0:0:
440,128,24354,2,0,L|440:256,1,93.7500035762788,2|0,0:0|0:0,0:0:0:0:
344,208,24695,2,0,L|232:216,1,93.7500035762788,0|2,1:0|0:0,0:0:0:0:
58,102,25150,5,0,1:0:0:0:
100,85,25263,2,0,L|101:188,1,93.7500035762788,2|0,0:0|0:0,0:0:0:0:
63,282,25604,2,0,L|161:267,1,93.7500035762788,0|2,1:0|0:0,0:0:0:0:
376,272,26059,1,0,1:0:0:0:
256,192,26172,12,0,27195,0:0:0:0:
120,192,27422,5,0,1:0:0:0:
120,192,27650,2,2,B|64:168|64:168|120:104|176:216|304:144,1,281.250010728836,2|0,0:0|3:0,0:0:0:0:
316,95,28445,1,0,3:0:0:0:
385,66,28559,2,0,L|389:34,1,23.4375008940697,0|0,3:0|3:0,0:0:0:0:
454,94,28672,2,0,L|482:73,1,23.4375008940697,0|0,3:0|3:0,0:0:0:0:
475,166,28786,1,0,3:0:0:0:
438,231,28900,1,0,3:0:0:0:
377,176,29013,1,0,3:0:0:0:
377,176,29127,1,0,3:0:0:0:
377,176,29240,6,0,L|284:188,1,93.7500035762788,4|0,1:2|0:0,0:0:0:0:
104,248,29695,1,8,0:0:0:0:
136,280,29809,2,0,L|256:264,1,93.7500035762788
314,251,30150,5,0,1:0:0:0:
282,91,30377,1,0,0:0:0:0:
424,180,30604,1,8,0:0:0:0:
424,180,30718,2,0,L|413:79,1,93.7500035762788
492,69,31059,5,0,1:0:0:0:
466,263,31286,1,0,0:0:0:0:
316,255,31513,1,8,0:0:0:0:
316,255,31627,2,0,L|311:359,1,93.7500035762788
226,351,31968,1,0,1:0:0:0:
82,282,32195,1,0,0:0:0:0:
209,186,32422,1,8,0:0:0:0:
209,186,32536,1,0,0:0:0:0:
209,186,32650,1,0,1:0:0:0:
209,186,32763,1,0,0:0:0:0:
209,186,32877,6,0,P|222:135|220:82,1,93.7500035762788,0|0,1:0|0:0,0:0:0:0:
448,104,33331,1,8,0:0:0:0:
436,134,33445,1,0,0:0:0:0:
442,166,33559,1,0,0:0:0:0:
426,194,33672,1,0,0:0:0:0:
433,226,33786,6,0,L|425:319,1,93.7500035762788,0|0,1:0|0:0,0:0:0:0:
242,321,34240,1,8,0:0:0:0:
254,291,34354,1,0,0:0:0:0:
248,259,34468,1,0,0:0:0:0:
264,231,34581,1,0,0:0:0:0:
267,198,34695,5,0,1:0:0:0:
201,99,34922,2,2,L|76:78,1,93.7500035762788,2|8,0:0|0:0,0:0:0:0:
65,151,35263,1,0,0:0:0:0:
210,259,35490,1,0,0:0:0:0:
199,281,35604,6,0,B|245:272|245:272|271:281|271:281|308:276,1,93.75,0|0,1:0|0:0,1:0:0:0:
366,265,36059,1,0,1:0:0:0:
366,265,36172,6,0,B|345:226|386:185|386:185|352:148,1,125,0|0,1:0|1:0,0:0:0:0:
490,266,36513,2,0,L|468:372,1,93.7500035762788,0|0,1:0|0:0,0:0:0:0:
341,345,36968,1,8,0:0:0:0:
94,295,37309,1,0,0:0:0:0:
94,295,37422,2,0,L|196:286,1,93.7500035762788,0|0,1:0|0:0,0:0:0:0:
349,194,37877,1,8,0:0:0:0:
319,182,37991,1,0,0:0:0:0:
287,188,38105,1,0,0:0:0:0:
259,172,38218,1,0,0:0:0:0:
227,179,38332,6,0,L|134:171,1,93.7500035762788,0|0,1:0|0:0,0:0:0:0:
104,42,38786,1,8,0:0:0:0:
401,88,39127,1,0,0:0:0:0:
401,88,39240,2,0,L|394:189,1,93.7500035762788,0|0,1:0|0:0,0:0:0:0:
252,326,39695,1,8,0:0:0:0:
264,296,39809,1,0,0:0:0:0:
258,264,39923,1,0,0:0:0:0:
274,236,40036,1,0,0:0:0:0:
267,204,40150,6,0,L|275:111,1,93.7500035762788,0|0,1:0|0:0,0:0:0:0:
146,64,40605,1,8,0:0:0:0:
415,155,40946,1,0,0:0:0:0:
415,155,41059,2,0,L|426:252,1,93.7500035762788,0|0,1:0|0:0,0:0:0:0:
298,329,41514,1,8,0:0:0:0:
298,329,41627,1,0,0:0:0:0:
169,336,41855,1,0,0:0:0:0:
169,336,41968,6,0,L|161:258,1,46.8750017881394,0|0,1:0|0:0,0:0:0:0:
60,177,42195,1,0,0:0:0:0:
60,177,42309,2,0,L|6:177,1,46.8750017881394,0|0,1:0|0:0,0:0:0:0:
203,121,42536,1,0,0:0:0:0:
203,121,42650,2,0,L|149:121,1,46.8750017881394,0|0,1:0|1:0,0:0:0:0:
252,266,42877,1,0,1:0:0:0:
314,234,42990,1,0,1:0:0:0:
379,259,43104,1,0,0:0:0:0:
439,222,43218,2,0,L|439:166,1,46.8750017881394,0|0,1:0|0:0,0:0:0:0:
497,331,43445,2,0,L|497:275,1,46.8750017881394,0|0,1:0|0:0,0:0:0:0:
367,349,43672,1,2,1:0:0:0:
299,327,43786,6,0,L|171:331,1,93.7500035762788,0|0,1:0|0:0,0:0:0:0:
98,183,44240,1,8,0:0:0:0:
98,183,44354,1,0,0:0:0:0:
98,183,44468,1,0,0:0:0:0:
98,183,44581,1,0,0:0:0:0:
183,232,44695,6,0,L|175:104,1,93.7500035762788,0|0,1:0|0:0,0:0:0:0:
348,100,45150,1,8,0:0:0:0:
348,100,45264,1,0,0:0:0:0:
348,100,45377,1,0,0:0:0:0:
348,100,45490,1,0,0:0:0:0:
417,170,45604,6,0,L|445:45,1,93.7500035762788,0|0,1:0|0:0,0:0:0:0:
345,260,46059,1,8,0:0:0:0:
345,260,46173,1,0,0:0:0:0:
345,260,46286,1,0,0:0:0:0:
345,260,46399,1,0,0:0:0:0:
383,351,46513,6,0,L|255:340,1,93.7500035762788,0|0,1:0|0:0,0:0:0:0:
132,226,46968,1,8,0:0:0:0:
132,226,47082,1,0,0:0:0:0:
132,226,47195,1,0,0:0:0:0:
132,226,47308,1,0,0:0:0:0:
96,315,47422,6,0,L|204:306,1,93.7500035762788,0|0,1:0|0:0,0:0:0:0:
267,336,47763,1,0,0:0:0:0:
267,336,47877,2,0,L|257:199,1,93.7500035762788,8|0,0:0|0:0,0:0:0:0:
334,240,48218,1,0,0:0:0:0:
334,240,48331,2,0,L|442:231,1,93.7500035762788,0|0,1:0|0:0,0:0:0:0:
505,261,48672,1,0,0:0:0:0:
505,261,48786,6,0,L|493:98,1,140.625005364418,8|0,0:0|0:0,0:0:0:0:
402,66,49240,2,0,P|297:52|255:51,1,140.625005364418,0|0,1:0|0:0,0:0:0:0:
314,186,49695,2,0,P|244:200|158:189,1,140.625005364418,8|0,0:0|0:0,0:0:0:0:
119,104,50150,6,0,L|31:120,1,46.8750017881394,0|0,1:0|0:0,0:0:0:0:
10,168,50377,2,0,L|-6:96,1,46.8750017881394,0|0,1:0|0:0,0:0:0:0:
113,254,50604,1,8,0:0:0:0:
158,252,50718,2,0,L|150:332,1,46.8750017881394,2|0,1:0|1:0,0:0:0:0:
399,254,50945,1,0,1:0:0:0:
354,252,51059,6,0,L|362:332,1,46.8750017881394,4|0,1:0|0:0,0:0:0:0:
278,179,51286,2,0,L|273:132,1,46.8750017881394
151,60,51513,1,8,0:1:0:0:
151,60,51627,1,0,0:0:0:0:
151,60,51740,1,0,0:0:0:0:
151,60,51854,1,0,0:0:0:0:
151,60,51968,6,0,L|93:55,1,46.8750017881394,8|0,0:1|0:0,0:0:0:0:
259,95,52195,2,0,L|305:99,1,46.8750017881394
442,101,52422,1,8,0:1:0:0:
442,101,52536,1,0,0:0:0:0:
442,101,52650,1,0,0:0:0:0:
442,101,52763,1,0,0:0:0:0:
442,101,52877,6,0,L|450:21,1,46.8750017881394,8|0,0:1|0:0,0:0:0:0:
366,174,53104,2,0,L|361:220,1,46.8750017881394
260,296,53331,1,8,0:1:0:0:
260,296,53445,1,0,0:0:0:0:
260,296,53559,1,0,0:0:0:0:
260,296,53672,1,0,0:0:0:0:
260,296,53786,6,0,L|202:291,1,46.8750017881394,8|0,0:1|0:0,0:0:0:0:
368,331,54013,2,0,L|414:335,1,46.8750017881394
474,219,54240,1,8,0:1:0:0:
474,219,54354,1,0,0:0:0:0:
474,219,54467,1,0,0:0:0:0:
474,219,54581,1,0,0:0:0:0:
474,219,54695,6,0,L|479:170,1,46.8750017881394,8|0,0:1|0:0,0:0:0:0:
394,67,54922,2,0,L|389:113,1,46.8750017881394,8|0,0:1|0:0,0:0:0:0:
304,266,55150,2,0,L|309:217,1,46.8750017881394,8|0,0:1|0:0,0:0:0:0:
268,39,55377,2,0,L|263:85,1,46.8750017881394,8|0,0:1|0:0,0:0:0:0:
165,120,55604,5,8,0:1:0:0:
125,128,55718,1,0,1:0:0:0:
85,136,55831,1,0,1:0:0:0:
45,144,55945,1,0,1:0:0:0:
44,228,56059,5,8,0:1:0:0:
84,220,56173,1,0,1:0:0:0:
124,212,56286,1,0,1:0:0:0:
164,204,56400,1,0,1:0:0:0:
224,270,56513,6,0,L|213:298,15,23.4375008940697,4|0|0|0|0|0|0|0|0|0|0|0|0|0|0|0,0:1|0:0|0:0|0:0|0:0|0:0|0:0|0:0|0:0|0:0|0:0|0:0|0:0|0:0|0:0|0:0,0:0:0:0:
224,270,57422,2,0,P|272:238|408:254,1,187.500007152558,0|0,1:0|1:0,0:0:0:0:
337,25,58104,5,0,1:0:0:0:
337,25,58218,1,0,1:0:0:0:
337,25,58331,6,0,B|346:88|346:88|392:128,1,125,4|0,1:1|0:0,0:0:0:0:
466,247,59013,2,0,B|406:223|406:223|348:242,1,125,2|0,0:0|0:0,0:0:0:0:
208,247,59695,2,0,B|258:207|258:207|270:147,1,125,0|2,0:0|0:0,0:0:0:0:
280,72,60377,5,0,0:0:0:0:
280,72,60490,1,0,0:0:0:0:
280,72,60604,1,0,0:0:0:0:
189,196,60831,1,0,0:0:0:0:
368,192,61059,1,0,0:0:0:0:
190,205,61286,1,2,0:0:0:0:
367,202,61513,2,0,L|351:274,1,62.5,2|0,0:0|0:0,0:0:0:0:
328,336,61968,6,0,B|272:320|272:320|200:344,1,125,2|0,0:0|0:0,0:0:0:0:
32,280,62650,2,0,B|96:296|96:296|176:280,1,125,2|0,0:0|0:0,0:0:0:0:
312,216,63331,2,0,B|248:200|248:200|184:224,1,125,2|0,0:0|0:0,0:0:0:0:
120,176,64013,5,0,0:0:0:0:
120,176,64127,1,0,0:0:0:0:
120,176,64240,1,2,0:0:0:0:
192,128,64468,1,0,0:0:0:0:
457,304,64695,6,0,L|380:262,1,62.5,2|0,0:0|0:0,0:0:0:0:
335,237,65036,1,0,0:0:0:0:
335,237,65150,1,0,0:0:0:0:
134,178,65377,1,0,0:0:0:0:
373,146,65604,6,0,P|426:122|451:58,1,125
295,125,66286,2,0,P|303:193|368:227,1,125,2|0,0:0|0:0,0:0:0:0:
364,70,66968,2,0,P|302:43|233:69,1,125,2|2,0:0|0:0,0:0:0:0:
102,158,67650,5,0,0:0:0:0:
102,158,67763,1,0,0:0:0:0:
102,158,67877,1,0,0:0:0:0:
208,168,68104,2,0,L|270:177,1,62.5
148,272,68559,2,0,L|87:264,2,62.5,2|0|2,0:0|0:0|0:0,0:0:0:0:
352,232,69240,6,0,P|372:172|347:110,1,125,2|0,0:0|0:0,0:0:0:0:
482,29,69922,1,0,0:0:0:0:
475,32,70150,2,0,P|451:97|468:157,1,125,2|0,0:0|0:0,0:0:0:0:
352,88,70831,1,2,0:0:0:0:
352,88,71059,2,2,B|334:256|327:296|327:296|372:311|404:322|416:292|452:278|421:238|412:198|348:216,1,437.5,2|0,0:0|0:0,0:0:0:0:
232,232,72877,5,0,0:0:0:0:
208,240,72990,1,0,0:0:0:0:
184,248,73104,1,0,0:0:0:0:
160,256,73218,1,0,0:0:0:0:
128,288,73331,1,0,0:0:0:0:
133,263,73444,1,0,0:0:0:0:
138,238,73558,1,0,0:0:0:0:
143,213,73672,1,0,0:0:0:0:
128,168,73786,5,0,0:0:0:0:
133,143,73900,1,0,0:0:0:0:
138,118,74014,1,0,0:0:0:0:
143,93,74127,1,0,0:0:0:0:
111,125,74240,1,0,0:0:0:0:
87,133,74354,1,0,0:0:0:0:
63,141,74468,1,0,0:0:0:0:
39,149,74581,1,0,0:0:0:0:
16,160,74695,5,0,0:0:0:0:
36,136,74808,1,0,0:0:0:0:
47,107,74922,1,0,0:0:0:0:
48,76,75035,1,0,0:0:0:0:
39,46,75150,1,0,0:0:0:0:
48,76,75263,1,0,0:0:0:0:
66,101,75377,1,0,0:0:0:0:
92,118,75490,1,0,0:0:0:0:
122,125,75604,5,0,0:0:0:0:
153,122,75717,1,0,0:0:0:0:
183,97,75831,1,0,0:0:0:0:
214,99,75944,1,0,0:0:0:0:
247,132,76059,1,0,0:0:0:0:
278,129,76172,1,0,0:0:0:0:
308,104,76286,1,0,0:0:0:0:
339,106,76399,1,0,0:0:0:0:
377,132,76513,5,0,0:0:0:0:
392,104,76626,1,0,0:0:0:0:
407,77,76740,1,0,0:0:0:0:
422,50,76853,1,0,0:0:0:0:
437,22,76967,1,0,0:0:0:0:
445,49,77081,1,0,0:0:0:0:
451,80,77194,1,0,0:0:0:0:
458,110,77308,1,0,0:0:0:0:
464,195,77422,5,0,0:0:0:0:
448,222,77535,1,0,0:0:0:0:
433,249,77649,1,0,0:0:0:0:
418,276,77762,1,0,0:0:0:0:
403,304,77876,1,0,0:0:0:0:
395,277,77990,1,0,0:0:0:0:
389,246,78103,1,0,0:0:0:0:
382,216,78217,1,0,0:0:0:0:
376,184,78331,6,0,L|384:144,1,31.25
304,88,78559,1,0,0:0:0:0:
304,88,78672,1,0,0:0:0:0:
304,88,78786,2,0,L|288:128,1,31.25
224,176,79013,1,0,0:0:0:0:
212,180,79127,2,0,L|160:184,1,31.25
120,124,79354,2,0,L|68:128,1,31.25
0,176,79581,1,0,0:0:0:0:
0,176,79695,5,0,0:0:0:0:
50,195,79808,1,0,0:0:0:0:
88,236,79922,1,0,0:0:0:0:
103,291,80035,1,0,0:0:0:0:
92,346,80149,5,0,0:0:0:0:
62,335,80263,1,0,0:0:0:0:
33,324,80377,1,0,0:0:0:0:
58,320,80490,1,0,0:0:0:0:
88,313,80604,1,0,0:0:0:0:
119,306,80718,1,0,0:0:0:0:
149,300,80831,1,0,0:0:0:0:
177,313,80945,1,0,0:0:0:0:
204,329,81059,5,0,0:0:0:0:
231,344,81172,1,0,0:0:0:0:
260,336,81286,1,0,0:0:0:0:
290,327,81400,1,0,0:0:0:0:
320,320,81513,1,0,0:0:0:0:
341,343,81626,1,0,0:0:0:0:
368,359,81740,1,0,0:0:0:0:
398,365,81853,1,0,0:0:0:0:
428,360,81967,5,0,0:0:0:0:
435,325,82081,1,0,0:0:0:0:
443,291,82195,1,0,0:0:0:0:
451,257,82308,1,0,0:0:0:0:
432,227,82422,1,0,0:0:0:0:
424,196,82536,1,0,0:0:0:0:
432,161,82649,1,0,0:0:0:0:
440,127,82763,1,0,0:0:0:0:
448,92,82877,5,0,0:0:0:0:
454,59,82990,1,0,0:0:0:0:
462,24,83104,1,0,0:0:0:0:
448,51,83218,1,0,0:0:0:0:
432,82,83331,1,0,0:0:0:0:
415,114,83445,1,0,0:0:0:0:
346,106,83559,1,0,0:0:0:0:
278,97,83672,1,0,0:0:0:0:
216,88,83786,6,0,L|213:64,7,15.625,0|0|0|0|0|0|0|0,1:0|2:0|1:0|2:0|1:0|2:0|1:0|2:0,2:0:0:0:
256,176,84240,6,0,L|258:200,7,15.625,0|0|0|0|0|0|0|0,1:0|0:0|1:0|0:0|1:0|0:0|1:0|0:0,0:0:0:0:
200,264,84695,2,0,L|172:268,7,15.625,0|0|0|0|0|0|0|0,1:0|0:0|1:0|0:0|1:0|0:0|1:0|0:0,0:0:0:0:
312,272,85150,2,0,L|340:276,7,15.625,0|0|0|0|0|0|0|0,1:0|0:0|1:0|0:0|1:0|0:0|1:0|0:0,0:0:0:0:
256,192,85604,12,4,86968,1:0:0:0:
384,356,87422,6,0,L|412:261,1,87.499997329712,4|0,1:2|0:0,0:0:0:0:
416,202,87763,1,0,0:0:0:0:
416,202,87877,2,2,L|347:196,1,43.749998664856,8|2,0:0|0:0,0:0:0:0:
260,226,88104,2,0,L|328:232,1,43.749998664856
252,150,88331,5,0,1:0:0:0:
252,150,88445,2,0,P|210:168|181:218,1,87.499997329712,2|0,0:0|0:0,0:0:0:0:
432,274,88786,2,0,P|474:256|503:206,1,87.499997329712,8|0,0:0|0:0,0:0:0:0:
432,274,89127,1,0,0:0:0:0:
420,184,89240,6,0,P|375:167|328:179,1,87.499997329712,0|0,1:0|0:0,0:0:0:0:
468,120,89581,1,2,0:0:0:0:
469,127,89695,2,8,L|529:133,3,43.749998664856,8|0|2|0,0:0|0:0|0:0|0:0,0:0:0:0:
404,68,90150,1,0,1:0:0:0:
404,68,90263,2,0,L|279:73,1,87.499997329712,8|0,0:0|1:0,0:0:0:0:
256,32,90604,1,8,0:0:0:0:
248,120,90718,1,0,0:0:0:0:
256,32,90831,1,0,1:0:0:0:
248,120,90945,1,0,0:0:0:0:
296,184,91059,6,0,P|251:197|200:193,1,87.499997329712,0|0,1:0|0:0,0:0:0:0:
128,186,91400,1,2,0:0:0:0:
128,186,91513,2,8,L|136:117,1,43.749998664856,8|0,0:0|0:0,0:0:0:0:
44,216,91740,2,0,L|54:282,1,43.749998664856,2|0,0:0|0:0,0:0:0:0:
67,336,91968,5,0,1:0:0:0:
63,332,92081,2,8,P|115:347|166:346,1,87.499997329712,0|0,0:0|1:0,0:0:0:0:
276,336,92422,2,0,P|251:334|205:344,1,43.749998664856,8|0,0:0|0:0,0:0:0:0:
176,252,92650,1,0,1:0:0:0:
256,244,92763,1,0,0:0:0:0:
336,236,92877,6,0,L|342:178,1,43.749998664856,0|0,1:0|0:0,0:0:0:0:
460,216,93104,2,0,L|449:285,1,43.749998664856,2|0,0:0|0:0,0:0:0:0:
384,304,93331,5,8,0:0:0:0:
304,312,93445,1,2,0:0:0:0:
244,260,93559,1,2,0:0:0:0:
248,368,93673,1,2,0:0:0:0:
192,320,93786,6,0,L|136:325,1,43.749998664856,0|0,1:0|0:0,1:0:0:0:
48,316,94013,2,0,L|61:331,1,21.874999332428,2|0,0:0|0:0,0:0:0:0:
62,331,94127,2,0,L|45:316,1,21.874999332428,2|0,0:0|0:0,0:0:0:0:
88,236,94240,2,0,L|40:184,1,43.749998664856,0|8,1:0|0:0,0:0:0:0:
120,120,94468,2,0,L|149:152,1,43.749998664856,0|0,1:0|0:0,0:0:0:0:
168,176,94695,6,0,B|208:189|208:189|255:177,1,87.499997329712,4|0,1:2|0:0,0:0:0:0:
408,180,95036,1,2,0:0:0:0:
408,180,95150,2,0,L|362:193,1,43.749998664856,8|0,0:0|0:0,0:0:0:0:
295,297,95377,2,0,L|355:277,1,43.749998664856,2|2,0:0|0:0,0:0:0:0:
295,67,95604,5,0,1:0:0:0:
295,67,95718,2,0,P|283:112|300:160,1,87.499997329712,2|0,0:0|0:0,0:0:0:0:
428,288,96059,2,0,L|411:194,1,87.499997329712,8|0,0:0|0:0,0:0:0:0:
430,121,96400,1,2,0:0:0:0:
350,147,96513,6,0,P|385:126|438:123,1,87.499997329712,0|0,1:0|0:0,0:0:0:0:
336,224,96854,1,2,0:0:0:0:
336,224,96968,2,0,P|310:231|282:229,1,43.749998664856,8|0,0:0|0:0,0:0:0:0:
147,200,97195,2,0,P|170:189|200:189,1,43.749998664856,2|0,0:0|0:0,0:0:0:0:
260,144,97422,5,0,1:0:0:0:
260,145,97536,2,0,P|262:101|246:61,1,87.499997329712,2|0,0:0|1:0,0:0:0:0:
148,28,97877,1,8,0:0:0:0:
232,56,97990,1,0,1:0:0:0:
132,24,98104,2,0,P|126:45|128:66,1,43.749998664856,0|2,1:0|0:0,0:0:0:0:
216,220,98331,6,0,P|267:228|312:213,1,87.499997329712,0|0,1:0|0:0,0:0:0:0:
376,184,98672,1,2,0:0:0:0:
376,184,98786,2,0,L|397:131,3,43.749998664856,8|0|2|0,0:0|0:0|0:0|0:0,0:0:0:0:
312,308,99240,1,0,1:0:0:0:
300,308,99354,2,0,L|184:316,1,87.499997329712,2|0,0:0|1:0,0:0:0:0:
144,272,99695,2,0,L|97:276,1,43.749998664856,8|0,0:0|0:0,0:0:0:0:
62,281,99922,2,0,L|40:283,3,21.874999332428,0|0|0|0,1:0|0:0|1:0|0:0,0:0:0:0:
193,210,100150,6,0,L|244:205,1,43.749998664856,0|0,1:0|0:0,0:0:0:0:
353,107,100377,2,0,L|306:111,1,43.749998664856,0|0,1:0|0:0,0:0:0:0:
159,282,100604,2,0,L|215:279,1,43.749998664856,8|0,0:0|1:0,0:0:0:0:
298,64,100831,2,2,B|311:108|296:152,1,87.499997329712,0|0,1:0|1:0,1:0:0:0:
244,204,101172,1,2,0:0:0:0:
321,227,101286,1,2,0:0:0:0:
339,313,101400,1,0,0:0:0:0:
266,283,101513,5,0,1:0:0:0:
291,214,101626,1,2,0:0:0:0:
316,146,101740,1,2,0:0:0:0:
341,77,101854,1,2,0:0:0:0:
420,38,101968,6,0,B|435:85|435:85|418:139,1,100,4|0,1:0|0:0,0:0:0:0:
313,317,102309,1,2,0:0:0:0:
313,317,102422,2,0,L|205:301,1,100,8|0,0:0|1:0,0:0:0:0:
116,328,102763,1,2,0:0:0:0:
96,336,102877,2,0,L|48:325,3,50,0|2|2|0,1:0|0:0|0:0|0:0,0:0:0:0:
180,224,103331,2,0,B|210:214|210:214|294:230,1,100,8|0,0:0|0:0,0:0:0:0:
88,192,103786,6,0,L|73:93,1,100,0|0,1:0|0:0,0:0:0:0:
148,24,104127,1,2,0:0:0:0:
148,24,104240,2,0,P|169:75|168:136,1,100,8|0,0:0|0:0,0:0:0:0:
216,200,104581,1,2,0:0:0:0:
216,200,104695,2,0,L|281:189,1,50,0|2,1:0|0:0,0:0:0:0:
384,260,104922,2,2,L|334:268,1,50,2|0,0:0|0:0,0:0:0:0:
272,336,105150,1,8,0:0:0:0:
144,296,105263,1,0,0:0:0:0:
280,324,105377,1,0,1:0:0:0:
136,316,105490,1,0,0:0:0:0:
260,352,105604,6,0,P|306:346|364:357,1,100,0|0,1:0|0:0,0:0:0:0:
184,336,105945,1,2,0:0:0:0:
100,352,106059,2,0,P|101:326|93:284,1,50,10|0,0:0|0:0,0:0:0:0:
44,196,106286,2,0,P|41:224|56:267,1,50,2|2,0:0|0:0,0:0:0:0:
96,128,106513,2,0,L|87:78,3,50,0|2|0|0,1:0|0:0|0:0|0:0,0:0:0:0:
0,144,106968,2,0,P|49:158|117:146,1,100,8|0,0:0|1:0,0:0:0:0:
256,292,107422,6,0,L|305:284,1,50,0|0,1:0|0:0,0:0:0:0:
464,267,107649,2,0,L|410:274,1,50,0|2,0:0|0:0,0:0:0:0:
360,336,107876,1,8,0:2:0:0:
350,217,107990,1,2,0:2:0:0:
360,336,108104,1,2,0:2:0:0:
350,217,108217,1,2,0:2:0:0:
420,188,108331,6,0,L|455:188,3,25,0|2|2|2,1:0|0:0|0:0|0:0,0:0:0:0:
284,156,108559,2,0,L|256:154,3,25,0|2|2|2,1:0|0:0|0:0|0:0,0:0:0:0:
280,180,108786,1,8,0:0:0:0:
276,200,108900,1,0,0:0:0:0:
424,164,109013,1,2,0:0:0:0:
428,144,109127,1,2,0:0:0:0:
344,128,109240,6,0,L|233:144,1,112.499996566773,4|0,1:2|0:0,0:0:0:0:
156,72,109581,1,2,0:0:0:0:
156,72,109695,2,0,P|94:76|49:127,1,112.499996566773,8|0,0:0|0:0,0:0:0:0:
136,152,110036,1,2,0:0:0:0:
144,160,110150,2,0,L|148:228,1,56.2499982833863,0|2,1:0|0:0,0:0:0:0:
60,336,110377,2,0,L|64:264,1,56.2499982833863,2|0,0:0|0:0,0:0:0:0:
12,228,110604,2,0,P|64:240|124:235,1,112.499996566773,8|0,0:0|1:0,0:0:0:0:
284,336,111059,6,0,P|339:331|394:343,1,112.499996566773,0|0,1:0|0:0,0:0:0:0:
258,271,111400,1,2,0:0:0:0:
258,271,111513,2,0,P|245:325|208:366,1,112.499996566773,8|2,0:0|0:0,0:0:0:0:
352,224,111854,1,2,0:0:0:0:
352,224,111968,2,0,P|359:199|355:164,1,56.2499982833863,0|2,1:0|0:0,0:0:0:0:
448,72,112195,2,0,P|445:99|452:126,1,56.2499982833863,2|0,0:0|0:0,0:0:0:0:
443,211,112422,1,8,0:0:0:0:
369,95,112536,1,2,0:0:0:0:
443,211,112650,1,2,0:0:0:0:
369,95,112763,1,0,0:0:0:0:
256,104,112877,6,0,L|128:112,1,112.499996566773,0|0,1:0|0:0,0:0:0:0:
40,84,113218,1,2,0:0:0:0:
48,84,113331,2,0,L|56:12,1,56.2499982833863,8|0,0:0|0:0,0:0:0:0:
84,176,113559,2,0,L|77:231,1,56.2499982833863,2|2,0:0|0:0,0:0:0:0:
32,344,113786,1,0,1:0:0:0:
32,344,113900,2,0,P|76:328|137:340,2,56.2499982833863,2|2|0,0:0|0:0|0:0,0:0:0:0:
160,272,114240,2,0,P|224:280|312:256,1,112.499996566773,8|0,0:0|1:0,0:0:0:0:
504,344,114695,6,0,B|388:312|396:384|276:344,1,224.999993133545,0|8,1:0|0:0,0:0:0:0:
348,272,115263,1,0,0:0:0:0:
344,264,115377,2,0,P|332:230|341:198,1,56.2499982833863,0|0,1:0|0:0,0:0:0:0:
417,159,115604,5,0,1:0:0:0:
372,136,115718,1,2,0:0:0:0:
322,127,115831,1,2,0:0:0:0:
272,140,115945,1,0,0:0:0:0:
180,220,116059,1,0,1:0:0:0:
153,221,116172,1,0,1:0:0:0:
126,215,116286,1,0,1:0:0:0:
100,204,116400,1,0,1:0:0:0:
36,168,116513,6,0,P|97:175|156:156,1,125,4|0,1:2|0:0,0:0:0:0:
117,84,116854,1,2,0:0:0:0:
63,13,116968,2,0,P|122:-5|184:1,1,125,8|0,1:2|1:2,0:0:0:0:
256,84,117309,1,2,0:0:0:0:
328,32,117422,2,0,L|391:27,2,62.5,0|2|2,1:0|0:0|0:0,0:0:0:0:
396,200,117877,2,0,L|414:270,1,62.5,8|0,1:2|0:0,0:0:0:0:
116,312,118104,2,0,L|103:248,1,62.5,0|0,1:0|0:0,0:0:0:0:
164,204,118331,6,0,B|106:227|38:201,1,125,0|0,1:0|0:0,0:0:0:0:
212,144,118672,1,2,0:0:0:0:
262,84,118786,6,0,B|320:61|384:85,1,125,8|0,1:2|0:0,0:0:0:0:
387,221,119127,1,2,0:0:0:0:
336,345,119240,6,0,L|340:279,1,62.5,0|2,1:0|0:0,0:0:0:0:
429,89,119468,2,0,L|423:152,1,62.5,2|0,0:0|0:0,0:0:0:0:
438,282,119695,1,8,1:2:0:0:
387,221,119809,1,2,0:0:0:0:
337,158,119922,1,2,0:0:0:0:
289,95,120036,1,0,0:0:0:0:
220,39,120150,6,0,B|154:34|154:34|83:67,1,125,0|0,1:0|0:0,0:0:0:0:
88,183,120490,1,2,0:0:0:0:
88,183,120604,2,0,L|103:247,3,62.5,8|0|2|2,1:2|0:0|0:0|0:0,0:0:0:0:
225,310,121059,5,0,1:0:0:0:
225,310,121172,2,0,L|207:242,1,62.5,2|2,0:0|0:0,0:0:0:0:
242,82,121400,1,0,0:0:0:0:
242,82,121513,2,0,L|259:158,1,62.5,8|0,1:2|0:0,0:0:0:0:
402,233,121740,2,0,L|324:215,1,62.5,0|0,1:0|0:0,0:0:0:0:
25,314,121968,6,0,P|134:268|257:304,1,250,0|8,1:0|1:2,1:0:0:0:
342,319,122536,2,0,L|417:306,2,62.5,2|2|0,0:0|0:0|0:0,0:0:0:0:
316,225,122877,1,0,1:0:0:0:
362,141,122990,1,2,0:0:0:0:
433,85,123104,2,2,L|473:89,3,31.25
339,56,123331,2,0,L|277:60,1,62.5,0|0,1:0|1:0,0:0:0:0:
185,66,123559,2,0,L|123:70,1,62.5,0|0,1:0|0:0,0:0:0:0:
69,163,123786,6,0,P|87:229|130:280,1,125,4|0,1:2|0:0,0:0:0:0:
179,212,124127,1,2,0:0:0:0:
229,145,124240,2,0,P|266:194|281:254,1,125,8|0,1:2|0:0,0:0:0:0:
255,340,124581,1,2,0:0:0:0:
349,317,124695,2,0,P|377:311|418:315,2,62.5,0|2|2,1:0|0:0|0:0,0:0:0:0:
277,107,125150,2,0,L|185:99,1,62.5,0|0,1:0|0:0,0:0:0:0:
168,195,125377,2,0,L|96:187,1,62.5,0|0,1:0|0:0,0:0:0:0:
44,124,125604,6,0,P|21:191|44:253,1,125,0|2,1:0|0:0,0:0:0:0:
177,295,125945,1,2,0:0:0:0:
177,295,126059,2,0,L|268:307,1,62.5,8|0,1:2|0:0,0:0:0:0:
391,232,126286,2,0,L|330:224,1,62.5,2|2,0:0|0:0,0:0:0:0:
298,212,126513,1,0,1:0:0:0:
265,164,126627,1,2,0:0:0:0:
275,109,126740,1,2,0:0:0:0:
323,76,126854,1,0,0:0:0:0:
378,85,126968,1,0,1:0:0:0:
411,130,127081,1,2,0:0:0:0:
403,187,127195,1,0,1:0:0:0:
358,221,127308,1,0,1:0:0:0:
298,212,127422,6,0,L|229:185,1,62.5,4|0,1:2|0:0,0:0:0:0:
152,264,127650,1,0,1:0:0:0:
156,280,127763,6,0,L|129:349,1,62.5,4|0,1:2|0:0,0:0:0:0:
360,120,127990,1,0,1:0:0:0:
356,104,128104,6,0,L|378:45,1,62.5,4|0,1:2|1:0,0:0:0:0:
288,192,128331,2,0,L|212:196,1,62.5,0|0,1:0|1:0,0:0:0:0:
120,196,128559,6,0,L|88:198,3,31.25,0|0|0|0,1:0|1:0|1:0|1:0,1:0:0:0:
116,176,128786,1,0,1:0:0:0:
112,156,128900,1,2,0:0:0:0:
192,108,129013,1,2,0:0:0:0:
196,128,129127,1,2,0:0:0:0:
200,144,129240,6,0,L|204:188,31,31.25
200,128,131059,6,0,P|216:84|205:16,2,93.75,4|2|0,0:1|0:0|0:0,0:0:0:0:
76,144,131968,2,0,B|263:81|247:211|450:128,1,375,2|0,0:0|0:0,0:0:0:0:
484,52,133559,5,2,0:0:0:0:
484,52,133786,2,0,L|416:40,1,62.5,0|2,0:0|0:0,0:0:0:0:
426,226,134240,2,0,L|488:216,1,62.5,0|2,0:0|0:0,0:0:0:0:
368,352,134695,6,0,P|352:308|380:240,1,93.75,0|2,0:0|0:0,0:0:0:0:
440,304,135377,1,2,0:0:0:0:
483,157,135604,2,0,B|421:142|429:179|360:160,1,125,0|2,0:0|0:0,0:0:0:0:
152,88,136513,5,2,0:0:0:0:
152,88,136627,1,0,0:0:0:0:
152,88,136740,2,0,P|92:96|28:96,1,125
27,95,137422,1,0,0:0:0:0:
256,80,138104,1,4,0:1:0:0:
360,68,138331,6,0,B|459:60,2,93.75,4|2|0,0:1|0:0|0:0,0:0:0:0:
253,5,139240,2,0,B|184:176|328:176|256:368,1,375,2|0,0:0|0:0,0:0:0:0:
255,367,140832,5,2,0:0:0:0:
168,312,141059,1,0,0:0:0:0:
256,264,141286,1,2,0:0:0:0:
344,312,141513,1,0,0:0:0:0:
256,360,141740,1,2,0:0:0:0:
192,216,141968,5,0,0:0:0:0:
320,216,142309,1,2,0:0:0:0:
320,216,142422,1,0,0:0:0:0:
256,144,142650,1,2,0:0:0:0:
112,104,142877,6,0,L|192:120,1,62.5,2|0,0:0|0:0,0:0:0:0:
400,104,143331,2,0,L|320:120,1,62.5,2|0,0:0|0:0,0:0:0:0:
256,48,143786,5,2,0:0:0:0:
80,200,144127,1,2,0:0:0:0:
256,240,144467,1,0,0:0:0:0:
432,200,144695,1,2,0:0:0:0:
256,192,144809,12,4,145604,0:0:0:0:
80,56,145946,6,0,L|173:63,1,93.75,2|0,0:0|0:0,0:0:0:0:
272,112,146513,1,2,0:0:0:0:
256,116,146627,1,0,0:0:0:0:
240,112,146740,1,0,0:0:0:0:
339,63,146968,1,0,0:0:0:0:
339,63,147081,2,0,L|401:57,1,62.5,2|0,0:0|0:0,0:0:0:0:
256,28,147422,5,0,0:0:0:0:
256,196,147650,1,2,0:0:0:0:
184,176,147877,1,2,0:0:0:0:
328,172,148104,1,0,0:0:0:0:
316,244,148331,2,0,L|378:250,1,62.5,2|0,0:0|0:0,0:0:0:0:
196,244,148786,2,0,L|133:250,1,62.5,0|2,0:0|0:0,0:0:0:0:
72,188,149240,6,0,L|80:68,1,93.75,0|2,0:0|0:0,0:0:0:0:
256,52,149695,2,0,L|262:129,1,62.5
261,115,150150,2,0,L|388:125,1,125,2|2,0:0|0:0,0:0:0:0:
488,132,150831,1,0,0:0:0:0:
412,352,151059,5,2,0:0:0:0:
412,352,151172,1,0,0:0:0:0:
412,352,151286,2,0,P|442:300|526:300,1,125
328,308,151968,2,0,P|332:272|322:245,1,62.5,2|0,0:0|0:0,0:0:0:0:
256,284,152309,2,0,L|194:289,1,62.5,2|0,0:0|0:0,0:0:0:0:
391,211,152650,2,0,L|422:208,1,31.25,2|2,0:0|0:0,0:0:0:0:
496,164,152877,5,6,0:0:0:0:
401,118,153104,1,0,0:0:0:0:
401,118,153218,2,0,L|391:211,1,93.75,2|0,0:0|0:0,0:0:0:0:
316,320,153786,2,0,L|378:314,1,62.5,2|0,0:0|0:0,0:0:0:0:
456,268,154240,1,0,0:0:0:0:
456,268,154354,2,0,P|464:336|432:376,1,93.75,2|2,0:0|0:0,0:0:0:0:
378,313,154809,6,0,L|298:321,1,62.5
316,317,155150,1,0,0:0:0:0:
120,304,155377,1,2,0:0:0:0:
196,268,155604,2,0,P|200:308|189:347,1,62.5,0|2,0:0|0:0,0:0:0:0:
44,336,156059,2,0,P|39:295|50:256,1,62.5,0|2,0:0|0:0,0:0:0:0:
112,148,156513,6,0,L|-8:156,1,93.75,0|2,0:0|0:0,0:0:0:0:
0,156,156968,1,0,0:0:0:0:
208,264,157195,1,2,0:0:0:0:
208,264,157422,2,0,P|232:212|320:204,1,125,0|2,0:0|0:0,0:0:0:0:
368,200,158104,1,0,0:0:0:0:
144,176,158331,1,4,0:1:0:0:
256,348,159240,5,0,0:0:0:0:
260,40,159468,1,0,0:0:0:0:
252,56,159581,1,0,0:0:0:0:
180,32,159695,1,8,0:0:0:0:
332,64,159922,1,0,0:0:0:0:
256,192,160150,6,0,P|199:176|119:186,2,131.249995994568,4|2|0,1:0|0:0|1:0,0:0:0:0:
304,272,161059,2,0,L|392:266,1,87.499997329712,0|2,0:0|0:0,0:0:0:0:
223,336,161513,1,0,1:0:0:0:
222,336,161627,2,0,P|209:295|171:275,1,87.499997329712,2|0,0:0|0:0,0:0:0:0:
156,272,161968,5,0,1:0:0:0:
64,348,162195,1,2,0:0:0:0:
64,348,162308,1,0,0:0:0:0:
64,348,162422,1,0,0:0:0:0:
88,184,162650,1,0,1:0:0:0:
12,228,162877,6,0,B|0:200|0:200|16:136,1,87.499997329712,2|0,0:0|0:0,0:0:0:0:
164,136,163331,2,0,B|176:164|176:164|160:228,1,87.499997329712,0|0,1:0|1:0,0:0:0:0:
40,32,163786,6,0,L|152:40,1,87.499997329712,0|0,1:0|0:0,0:0:0:0:
136,56,164127,2,0,P|196:24|288:52,1,131.249995994568,2|0,0:0|1:0,0:0:0:0:
328,104,164695,2,0,L|396:92,2,43.749998664856,0|0|2,0:0|0:0|0:0,0:0:0:0:
384,92,165150,2,0,L|408:-4,1,87.499997329712,0|2,1:0|0:0,0:0:0:0:
432,192,165490,1,0,0:0:0:0:
436,200,165604,6,0,L|425:242,2,43.749998664856,0|0|2,1:0|0:0|0:0,0:0:0:0:
484,160,165945,2,0,L|447:305,1,131.249995994568,0|0,1:0|1:0,0:0:0:0:
364,328,166400,1,2,0:0:0:0:
348,324,166513,2,0,B|292:312|292:312|260:320,1,87.499997329712,0|0,1:0|0:0,0:0:0:0:
252,328,166854,2,0,L|256:240,1,87.499997329712,0|0,1:0|0:0,0:0:0:0:
256,124,167195,2,0,L|252:180,1,43.749998664856,0|0,1:0|0:0,0:0:0:0:
320,192,167422,6,0,L|168:200,2,131.249995994568,4|2|0,1:0|0:0|1:0,0:0:0:0:
500,176,168331,1,0,1:0:0:0:
412,140,168559,2,0,P|406:176|424:236,1,87.499997329712,2|0,0:0|1:0,0:0:0:0:
412,140,168900,2,0,P|423:98|417:54,1,87.499997329712,2|0,0:0|0:0,0:0:0:0:
329,90,169240,5,0,1:0:0:0:
280,300,169468,2,0,L|236:305,1,43.749998664856,2|2,0:0|0:0,0:0:0:0:
164,316,169695,1,0,0:0:0:0:
256,224,169922,1,0,1:0:0:0:
348,288,170149,5,0,1:0:0:0:
204,80,170377,2,0,B|192:128|192:128|224:172,1,87.499997329712,2|0,0:0|1:0,0:0:0:0:
297,158,170718,2,0,B|320:128|320:128|308:80,1,87.499997329712,2|0,0:0|0:0,0:0:0:0:
208,60,171059,6,0,L|72:68,1,131.249995994568,0|0,1:0|0:0,0:0:0:0:
24,228,171627,1,0,0:0:0:0:
24,228,171740,2,0,L|44:136,1,87.499997329712,0|0,1:0|0:0,0:0:0:0:
112,224,172081,2,0,B|101:272|101:272|73:297,1,87.499997329712,2|2,0:0|0:0,0:0:0:0:
16,352,172422,2,0,L|116:344,1,87.499997329712,0|0,1:0|0:0,0:0:0:0:
256,270,172877,6,0,B|280:212|280:212|256:148,2,131.249995994568,0|2|0,1:0|0:0|1:0,0:0:0:0:
400,344,173786,1,0,0:0:0:0:
408,345,173899,2,0,L|496:352,1,87.499997329712,0|0,1:0|0:0,0:0:0:0:
260,359,174240,2,0,L|255:268,1,87.499997329712,0|0,1:0|1:0,0:0:0:0:
256,272,174695,6,0,P|328:256|440:256,1,159.375003039837,4|2,1:0|0:0,1:0:0:0:
480,184,175150,2,0,L|488:72,1,106.250002026558,0|2,1:0|0:0,0:0:0:0:
387,49,175604,1,0,1:0:0:0:
289,133,175831,1,2,0:0:0:0:
289,133,175945,1,2,0:0:0:0:
289,133,176059,1,0,1:0:0:0:
175,74,176286,1,2,0:0:0:0:
31,306,176513,6,0,P|99:319|140:303,1,106.250002026558,4|2,1:2|0:0,0:0:0:0:
187,264,176854,1,2,0:0:0:0:
254,281,176968,2,0,L|371:302,1,106.250002026558,0|2,1:0|0:0,0:0:0:0:
460,206,177422,1,0,1:0:0:0:
498,339,177650,1,2,0:0:0:0:
340,339,177877,1,0,1:0:0:0:
297,186,178104,1,2,0:0:0:0:
104,333,178331,6,0,P|100:289|112:155,1,159.375003039837,4|2,1:2|0:0,0:0:0:0:
203,174,178786,2,0,L|180:62,1,106.250002026558,0|2,1:0|0:0,0:0:0:0:
50,216,179240,1,0,1:0:0:0:
205,307,179468,1,2,0:0:0:0:
205,307,179581,1,2,0:0:0:0:
205,307,179695,2,0,B|271:271|271:271|355:302|377:225,1,159.375003039837,0|0,1:0|0:0,0:0:0:0:
385,206,180150,5,4,1:2:0:0:
441,167,180263,1,2,0:0:0:0:
447,235,180377,2,0,L|458:350,1,106.250002026558,2|0,0:0|1:0,0:0:0:0:
279,274,180831,1,2,0:0:0:0:
157,340,181059,1,0,1:0:0:0:
157,340,181172,1,2,0:0:0:0:
51,250,181400,1,2,0:0:0:0:
51,250,181513,1,0,1:0:0:0:
51,250,181627,1,0,0:0:0:0:
51,250,181740,1,2,0:0:0:0:
323,192,181968,6,0,B|378:150|378:150|394:96|321:61,1,159.375003039837,4|2,1:0|0:0,0:0:0:0:
269,131,182422,2,0,L|175:192,1,106.250002026558,0|2,1:0|0:0,0:0:0:0:
46,151,182877,1,0,1:0:0:0:
60,288,183104,1,2,0:0:0:0:
60,288,183218,1,2,0:0:0:0:
60,288,183332,1,0,1:0:0:0:
197,272,183559,1,2,0:0:0:0:
376,294,183786,6,0,B|372:241|372:241|388:187,1,106.250002026558,4|2,1:2|0:0,0:0:0:0:
415,126,184127,1,2,0:0:0:0:
457,180,184241,2,0,L|352:161,1,106.250002026558,0|2,1:0|0:0,0:0:0:0:
261,71,184695,6,0,L|256:132,1,53.125001013279,0|0,1:0|0:0,0:0:0:0:
167,121,184922,2,0,L|162:182,1,53.125001013279,2|0,0:0|0:0,0:0:0:0:
150,328,185150,2,0,L|145:267,1,53.125001013279,0|0,1:0|0:0,0:0:0:0:
56,278,185377,2,0,L|51:217,1,53.125001013279,2|0,0:0|0:0,0:0:0:0:
100,112,185604,5,4,1:2:0:0:
100,92,185718,1,0,0:0:0:0:
100,72,185831,1,2,0:0:0:0:
100,52,185945,1,2,0:0:0:0:
196,144,186059,5,0,1:0:0:0:
196,128,186173,1,0,0:0:0:0:
196,112,186286,1,2,0:0:0:0:
196,96,186400,1,2,0:0:0:0:
308,116,186513,5,0,1:0:0:0:
308,96,186627,1,0,0:0:0:0:
308,76,186740,1,2,0:0:0:0:
308,56,186854,1,2,0:0:0:0:
404,148,186968,5,0,1:0:0:0:
404,132,187082,1,0,0:0:0:0:
404,116,187195,1,2,0:0:0:0:
404,100,187309,1,2,0:0:0:0:
404,84,187422,6,0,L|404:24,1,53.125001013279,0|0,1:0|1:0,0:0:0:0:
280,100,187650,2,0,L|204:100,1,53.125001013279,0|0,1:0|1:0,0:0:0:0:
419,108,187877,6,0,L|428:49,1,53.125001013279,0|0,1:0|1:0,0:0:0:0:
294,104,188105,2,0,L|219:92,1,53.125001013279,0|0,1:0|1:0,0:0:0:0:
430,135,188331,6,0,L|448:77,1,53.125001013279,0|0,1:0|1:0,0:0:0:0:
307,111,188559,2,0,L|234:88,1,53.125001013279,0|0,1:0|1:0,0:0:0:0:
436,162,188786,6,0,L|464:109,1,53.125001013279,0|0,1:0|0:0,0:0:0:0:
319,120,189014,2,0,L|251:86,1,53.125001013279,0|0,1:0|0:0,0:0:0:0:
487,313,189240,5,4,1:0:0:0:
421,256,189354,1,0,0:0:0:0:
407,340,189468,2,0,P|348:334|313:320,1,81.2499962806703,2|0,0:0|0:0,0:0:0:0:
191,257,189922,1,2,0:0:0:0:
297,153,190150,2,0,B|379:132|379:132|354:65,1,121.874994421006,2|0,0:0|0:0,0:0:0:0:
423,47,190604,2,0,L|451:124,1,81.2499962806703,2|0,0:0|0:0,0:0:0:0:
479,341,191059,6,0,L|387:327,1,81.2499962806703,2|0,0:0|0:0,0:0:0:0:
259,207,191513,2,0,L|247:318,1,81.2499962806703,2|0,0:0|0:0,0:0:0:0:
66,138,191968,2,0,L|157:127,1,81.2499962806703,2|0,0:0|0:0,0:0:0:0:
19,290,192422,2,0,L|99:280,1,81.2499962806703,2|2,0:0|0:0,0:0:0:0:
293,320,192877,6,0,B|372:338|372:338|322:215|357:158,1,243.749988842011,2|0,0:0|0:0,0:0:0:0:
458,136,193786,2,0,P|464:70|478:31,1,81.2499962806703,2|0,0:0|0:0,0:0:0:0:
244,100,194240,2,0,L|238:191,1,81.2499962806703,2|0,0:0|0:0,0:0:0:0:
161,310,194695,1,2,0:0:0:0:
47,207,194922,1,0,0:0:0:0:
47,207,195036,1,2,0:0:0:0:
47,207,195150,2,0,P|48:141|61:86,1,121.874994421006,2|0,0:0|0:0,0:0:0:0:
124,102,195604,5,2,0:0:0:0:
187,88,195718,1,0,0:0:0:0:
250,101,195831,1,2,0:0:0:0:
311,80,195945,1,2,0:0:0:0:
373,98,196059,6,0,P|431:95|482:101,1,81.2499962806703,2|2,0:0|0:0,0:0:0:0:
427,229,196513,6,0,L|416:281,1,40.6249981403352,0|2,0:0|0:0,0:0:0:0:
78,254,196854,6,0,L|89:306,1,40.6249981403352,2|0,0:0|0:0,0:0:0:0:
173,359,197081,1,0,0:0:0:0:
173,359,197195,2,0,L|165:319,1,40.6249981403352,2|0,0:0|0:0,0:0:0:0:
198,240,197422,2,0,L|178:140,2,81.2499962806703,0|2|0,0:0|0:0|0:0,0:0:0:0:
329,160,198104,1,2,0:0:0:0:
256,192,198331,12,0,199240,0:0:0:0:
105,189,199468,6,0,L|167:197,1,40.6249981403352
256,216,199695,2,0,L|256:168,1,40.6249981403352,2|0,0:0|0:0,0:0:0:0:
407,189,199922,2,0,L|366:194,1,40.6249981403352,2|0,0:0|0:0,0:0:0:0:
256,216,200150,5,2,0:0:0:0:
148,316,200377,1,0,0:0:0:0:
256,216,200604,1,2,0:0:0:0:
148,316,200831,1,0,0:0:0:0:
288,168,201059,2,0,L|288:264,1,81.2499962806703,2|0,0:0|0:0,0:0:0:0:
392,356,201513,2,0,L|392:296,1,40.6249981403352,2|0,0:0|0:0,0:0:0:0:
464,288,201740,2,0,L|464:236,1,40.6249981403352,2|0,0:0|0:0,0:0:0:0:
456,136,201968,5,0,0:0:0:0:
428,144,202081,1,0,0:0:0:0:
400,152,202195,1,2,0:0:0:0:
372,160,202309,1,2,0:0:0:0:
320,224,202422,5,0,0:0:0:0:
296,216,202535,1,0,0:0:0:0:
272,208,202649,1,2,0:0:0:0:
248,200,202763,1,2,0:0:0:0:
184,152,202877,5,0,0:0:0:0:
168,164,202990,1,2,0:0:0:0:
152,176,203104,2,0,L|136:148,1,20.3124990701676,2|0,0:0|0:0,0:0:0:0:
136,188,203218,2,0,L|120:160,1,20.3124990701676,2|0,0:0|0:0,0:0:0:0:
132,264,203331,5,0,0:0:0:0:
212,276,203445,1,0,0:0:0:0:
292,288,203559,1,2,0:0:0:0:
372,296,203672,1,2,0:0:0:0:
452,304,203786,6,0,P|456:200|432:104,1,187.500007152558,4|0,1:0|1:0,0:0:0:0:
260,68,204468,1,0,0:0:0:0:
256,60,204581,2,0,L|152:52,1,93.7500035762788,0|0,1:0|0:0,0:0:0:0:
72,96,204922,1,0,1:0:0:0:
291,149,205150,2,0,L|233:144,1,46.8750017881394,0|0,1:0|0:0,0:0:0:0:
392,220,205377,2,0,L|334:215,1,46.8750017881394,0|0,1:0|0:0,0:0:0:0:
60,304,205604,6,0,P|53:193|114:82,1,212.500004053116,4|0,1:0|1:0,0:0:0:0:
296,148,206286,1,0,0:0:0:0:
305,126,206399,2,0,L|425:119,1,106.250002026558,0|0,1:0|0:0,0:0:0:0:
474,176,206740,2,0,L|474:241,1,53.125001013279,0|0,1:0|0:0,0:0:0:0:
446,305,206968,1,0,1:0:0:0:
375,268,207081,1,0,0:0:0:0:
295,258,207195,1,0,1:0:0:0:
216,275,207309,1,0,0:0:0:0:
149,318,207422,6,0,P|70:285|86:120,1,250,4|0,1:0|1:0,0:0:0:0:
213,70,208104,1,0,0:0:0:0:
248,52,208218,2,0,L|242:192,1,125,0|0,1:0|0:0,0:0:0:0:
281,220,208559,1,0,1:0:0:0:
470,117,208786,2,0,L|418:185,1,62.5,0|0,1:0|0:0,0:0:0:0:
451,283,209013,2,0,L|380:313,1,62.5,0|0,1:0|0:0,0:0:0:0:
247,334,209240,6,0,P|206:245|49:286,1,275.000008392334,4|0,1:0|1:0,0:0:0:0:
96,112,209922,1,0,1:0:0:0:
64,82,210035,2,0,L|230:77,1,137.500004196167,0|0,1:0|1:0,0:0:0:0:
216,163,210376,2,0,P|251:163|285:158,1,68.7500020980836,0|0,1:0|0:0,0:0:0:0:
365,110,210604,5,0,1:0:0:0:
456,259,210717,1,0,1:0:0:0:
369,335,210831,1,0,1:0:0:0:
369,335,211059,6,0,P|206:287|318:163,1,324.999985122681,4|0,1:0|1:0,0:0:0:0:
351,88,211740,1,0,1:0:0:0:
423,95,211854,2,0,L|246:76,1,162.499992561341,0|0,1:0|1:0,0:0:0:0:
167,147,212195,2,0,P|202:159|266:159,1,81.2499962806703,0|0,1:0|0:0,0:0:0:0:
400,208,212422,2,0,L|312:230,1,81.2499962806703,0|0,1:0|0:0,0:0:0:0:
129,279,212650,2,0,L|231:287,1,81.2499962806703,0|0,1:0|0:0,0:0:0:0:
387,340,212877,6,0,P|488:240|301:134,1,375.000014305115,4|0,1:0|1:0,0:0:0:0:
106,71,213559,1,0,1:0:0:0:
187,75,213672,2,0,L|163:264,1,187.500007152558,0|0,1:0|1:0,0:0:0:0:
110,329,214013,1,0,1:0:0:0:
193,342,214127,1,0,1:0:0:0:
275,325,214240,1,0,1:0:0:0:
358,339,214354,1,0,1:0:0:0:
441,325,214468,2,0,P|453:215|440:162,1,93.7500035762788,0|0,1:0|0:0,0:0:0:0:
408,152,214695,5,0,1:0:0:0:
316,148,214809,1,0,1:0:0:0:
224,144,214922,1,0,1:0:0:0:
132,140,215036,1,0,1:0:0:0:
48,184,215150,5,0,1:0:0:0:
152,172,215264,1,0,1:0:0:0:
252,160,215377,1,0,1:0:0:0:
356,148,215491,1,0,1:0:0:0:
456,132,215604,6,0,L|480:88,15,46.8750017881394
256,192,216513,12,0,217422,1:0:0:0:
192,192,217650,5,0,1:0:0:0:
192,192,217763,1,0,1:0:0:0:
192,192,217877,6,0,L|188:160,8,23.4375008940697,4|0|0|0|0|0|0|0|0,1:0|0:0|0:0|0:0|0:0|0:0|0:0|0:0|0:0,0:0:0:0:
44,269,218331,6,2,B|122:296|122:296|164:288,1,125,4|0,0:0|2:0,0:0:0:0:
256,324,218672,1,0,0:0:0:0:
272,312,218786,2,2,L|340:304,1,62.5,0|0,0:0|2:0,0:0:0:0:
424,352,219013,1,0,0:0:0:0:
424,352,219127,2,0,P|390:301|399:240,1,125,2|0,0:0|0:0,0:0:0:0:
348,108,219468,2,0,L|409:121,1,62.5,2|0,0:0|2:0,0:0:0:0:
508,140,219695,2,2,B|364:108|376:188|216:140,1,281.250010728836,0|0,0:0|2:0,0:0:0:0:
68,132,220150,6,0,B|52:80|52:80|86:17,1,125,2|0,0:0|0:0,0:0:0:0:
140,168,220490,1,0,0:0:0:0:
124,252,220604,2,0,B|140:304|140:304|108:368,1,125,2|0,0:0|0:0,0:0:0:0:
52,288,220945,1,2,0:0:0:0:
60,212,221059,2,0,P|30:204|-4:208,1,62.5,0|0,2:0|0:0,0:0:0:0:
224,284,221286,2,0,L|244:348,1,62.5,2|0,0:0|2:0,0:0:0:0:
464,192,221513,2,2,B|412:208|412:208|348:200,1,93.7500035762788,0|0,0:0|2:0,1:0:0:0:
167,81,221740,2,0,P|209:100|256:100,1,93.7500035762788,2|0,0:0|2:0,0:0:0:0:
336,72,221968,5,0,0:0:0:0:
412,32,222081,2,2,L|484:40,2,62.5,2|2|2,2:0|2:0|2:0,2:0:0:0:
432,136,222422,1,8,0:2:0:0:
424,164,222535,1,2,2:0:0:0:
464,256,222649,1,2,2:0:0:0:
472,300,222762,1,2,2:0:0:0:
400,352,222877,6,0,P|388:328|389:290,1,62.5,0|2,0:0|2:0,0:0:0:0:
304,208,223104,2,0,P|316:184|320:136,2,62.5,2|2|8,2:0|2:0|0:2,0:0:0:0:
256,272,223445,1,2,2:0:0:0:
196,308,223559,2,2,L|165:313,3,31.25,0|2|2|2,1:0|2:2|2:2|2:2,2:2:0:0:
256,344,223786,6,0,P|204:268|116:284,1,162.499992561341,2|0,0:0|2:0,0:0:0:0:
32,344,224127,1,0,0:0:0:0:
16,352,224240,2,0,L|172:332,1,81.2499962806703,2|0,0:0|2:0,0:0:0:0:
184,188,224468,2,0,B|136:180|136:180|116:155,1,81.2499962806703,0|2,0:0|0:0,0:0:0:0:
100,84,224695,1,0,0:0:0:0:
104,72,224809,1,2,0:0:0:0:
164,32,224922,6,2,L|28:48,1,125,0|2,0:0|2:0,0:0:0:0:
19,51,225263,1,0,2:0:0:0:
236,100,225377,2,0,P|268:72|332:68,1,62.5,2|2,2:0|2:0,0:0:0:0:
352,128,225604,6,0,L|476:113,1,125,6|0,0:0|2:0,0:0:0:0:
464,236,225945,1,0,0:0:0:0:
464,236,226059,2,0,P|402:258|388:348,1,125,2|0,0:0|0:0,0:0:0:0:
256,364,226400,2,2,B|274:314|274:314|256:244,1,125,0|0,0:0|2:0,0:0:0:0:
152,96,226740,2,0,L|129:159,1,62.5,2|0,0:0|2:0,0:0:0:0:
32,180,226968,2,2,B|80:171|121:187|121:187|157:162|157:162|189:174|247:162,1,224.999993133545,0|0,0:0|0:0,0:0:0:0:
332,132,227422,5,2,0:0:0:0:
512,264,227650,1,0,0:0:0:0:
472,352,227763,1,0,0:0:0:0:
409,316,227877,2,0,P|340:352|264:328,1,149.999995422363,2|0,0:0|2:0,0:0:0:0:
68,284,228218,6,2,L|6:279,2,62.5,0|0|0,0:0|2:0|0:0,0:0:0:0:
104,208,228559,1,2,0:0:0:0:
164,268,228672,1,0,0:0:0:0:
192,192,228786,2,2,P|188:164|188:128,1,62.5,0|0,0:0|2:0,0:0:0:0:
488,64,229013,2,0,P|488:112|483:145,1,81.2499962806703,2|0,0:0|2:0,0:0:0:0:
424,204,229240,5,0,0:0:0:0:
410,172,229354,1,2,2:0:0:0:
393,195,229468,1,2,2:0:0:0:
374,220,229581,1,2,2:0:0:0:
396,304,229695,5,8,0:2:0:0:
402,319,229809,1,2,2:0:0:0:
411,308,229923,1,2,2:0:0:0:
421,295,230036,1,2,2:0:0:0:
304,280,230150,5,0,0:0:0:0:
280,276,230263,1,2,2:0:0:0:
256,272,230377,2,0,B|243:228|243:228|249:193,1,81.2499962806703,2|2,2:0|2:0,0:0:0:0:
148,304,230604,2,0,B|162:347|162:347|154:383,1,81.2499962806703,8|2,0:2|2:0,0:0:0:0:
12,208,230831,2,0,L|93:202,1,81.2499962806703
88,184,231059,6,0,L|72:120,3,62.5,0|2|2|0,1:0|0:0|0:0|0:0,0:0:0:0:
46,11,231513,2,0,L|56:48,3,37.4999988555909,0|2|2|2,1:0|0:0|0:0|0:0,0:0:0:0:
168,180,231968,6,0,L|176:147,3,18.7499994277954,0|2|2|0,1:0|0:0|0:0|0:0,0:0:0:0:
192,84,232195,2,0,L|201:47,1,37.4999988555909,0|2,1:0|0:0,0:0:0:0:
305,21,232422,1,12,1:0:0:0:
325,99,232536,1,12,1:0:0:0:
344,180,232650,2,0,L|432:172,1,62.5,4|0,1:0|0:0,0:0:0:0:
496,100,232877,6,2,B|480:156|480:156|448:188|448:188|456:264,1,162.499992561341,4|0,0:0|2:0,0:0:0:0:
480,352,233218,1,0,0:0:0:0:
492,336,233331,2,0,B|432:304|432:304|356:312,1,125,2|0,0:0|0:0,0:0:0:0:
256,320,233672,1,2,0:0:0:0:
244,308,233786,2,0,L|164:316,1,62.5,0|2,0:0|0:0,0:0:0:0:
368,328,234013,1,0,0:0:0:0:
32,88,234240,2,2,B|79:215|191:191,1,187.5,0|0,0:0|0:0,0:0:0:0:
288,184,234695,6,0,L|312:56,1,125,2|0,0:0|0:0,0:0:0:0:
376,216,235035,1,0,0:0:0:0:
392,140,235150,1,2,0:0:0:0:
448,192,235263,2,2,L|510:197,1,62.5,0|0,0:0|2:0,0:0:0:0:
212,56,235490,2,0,L|40:64,1,125,2|0,0:0|0:0,0:0:0:0:
68,64,235831,1,2,0:0:0:0:
24,196,235945,1,0,2:0:0:0:
8,200,236059,2,2,P|4:169|8:138,1,62.5,0|0,0:0|0:0,0:0:0:0:
76,328,236286,2,0,P|79:297|75:266,1,62.5,2|0,0:0|0:0,0:0:0:0:
28,364,236513,5,0,0:0:0:0:
46,355,236626,1,2,2:0:0:0:
67,352,236740,1,2,2:0:0:0:
87,354,236853,1,2,2:0:0:0:
156,276,236968,5,8,0:2:0:0:
174,285,237081,1,2,2:0:0:0:
256,360,237195,1,2,2:0:0:0:
272,324,237308,1,2,2:0:0:0:
264,288,237422,6,0,L|248:208,1,62.5,0|2,0:0|2:0,0:0:0:0:
124,184,237650,2,0,L|185:172,1,62.5,2|2,2:0|2:0,0:0:0:0:
308,32,237877,2,0,L|327:123,1,93.7500035762788,8|2,0:2|2:0,0:0:0:0:
396,216,238104,2,2,L|443:223,3,46.8750017881394,0|2|2|2,1:0|2:0|2:0|2:0,2:0:0:0:
380,216,238331,6,0,P|452:260|508:240,1,125,2|0,0:0|0:0,0:0:0:0:
384,348,238672,1,0,0:0:0:0:
364,336,238786,2,2,L|296:348,2,62.5,0|0|0,0:0|0:0|0:0,0:0:0:0:
512,312,239127,2,0,B|488:260|488:260|492:156,1,125,2|0,0:0|0:0,0:0:0:0:
456,84,239468,2,0,L|458:53,2,31.25
408,240,239695,6,0,L|324:246,1,74.9999977111817,2|0,0:0|0:0,0:0:0:0:
92,200,239922,2,0,P|88:246|107:288,1,93.7500035762788,2|0,0:0|0:0,0:0:0:0:
192,292,240150,6,2,B|139:282|139:282|88:318|88:318|17:305,1,187.5,4|0,0:0|2:0,0:0:0:0:
264,200,240604,6,2,B|252:136|252:136|296:73,1,125,0|0,0:0|2:0,0:0:0:0:
256,276,240945,1,2,0:0:0:0:
252,292,241059,1,0,0:0:0:0:
188,320,241172,2,0,P|252:320|332:360,1,125,2|0,0:0|0:0,0:0:0:0:
464,360,241513,2,2,B|488:264|424:276|460:156,1,187.5,0|0,0:0|0:0,0:0:0:0:
180,304,241968,6,0,L|117:296,1,62.5,0|0,0:0|2:0,0:0:0:0:
332,304,242195,2,2,L|394:311,1,62.5,0|0,1:0|2:0,0:0:0:0:
220,128,242422,2,0,B|256:72|256:72|232:-16,1,125,2|0,0:0|2:0,0:0:0:0:
288,164,242763,2,2,B|268:196|268:196|288:296,1,125,0|0,0:0|0:0,0:0:0:0:
208,276,243104,1,2,0:0:0:0:
204,264,243218,1,0,0:0:0:0:
116,184,243331,2,2,L|212:192,1,62.5,0|0,0:0|2:0,0:0:0:0:
396,100,243559,2,0,L|333:105,1,62.5,2|0,0:0|2:0,0:0:0:0:
184,296,243786,5,4,1:0:0:0:
184,296,243900,2,0,L|136:300,1,37.4999988555909,2|2,0:0|0:0,0:0:0:0:
80,324,244127,2,0,L|32:328,2,37.4999988555909,0|2|2,0:0|0:0|0:0,0:0:0:0:
92,256,244468,2,0,L|104:188,1,37.4999988555909,0|2,0:0|0:0,0:0:0:0:
256,288,244695,5,0,0:0:0:0:
328,296,244809,2,0,L|376:300,1,37.4999988555909,2|2,0:0|0:0,0:0:0:0:
432,324,245036,2,0,L|480:328,2,37.4999988555909,0|2|2,0:0|0:0|0:0,0:0:0:0:
420,256,245377,2,0,L|408:188,1,37.4999988555909,0|2,0:0|0:0,0:0:0:0:
340,192,245604,6,2,L|489:203,1,149.999995422363,0|0,0:0|1:0,0:1:0:0:
376,104,246286,1,0,0:0:0:0:
356,108,246400,1,0,1:0:0:0:
136,104,246626,1,0,0:0:0:0:
156,100,246740,1,0,1:0:0:0:
256,200,246968,5,0,1:0:0:0:
284,124,247081,1,0,1:0:0:0:
256,48,247195,2,0,L|256:-12,1,37.4999988555909,0|0,1:0|1:0,0:0:0:0:
140,120,247423,6,2,B|144:164|144:164|176:200,1,74.9999977111817,4|0,1:0|0:0,1:0:0:0:
100,268,247763,1,0,0:0:0:0:
100,268,247877,2,2,L|4:280,1,74.9999977111817,8|0,1:2|1:0,1:0:0:0:
168,352,248218,2,2,P|209:326|251:329,1,74.9999977111817,0|0,1:0|0:0,1:0:0:0:
476,288,248559,1,0,1:0:0:0:
487,277,248786,2,2,L|367:285,1,112.499996566773,8|0,1:2|0:0,1:0:0:0:
432,196,249240,6,2,P|452:160|448:92,1,74.9999977111817,0|0,1:0|1:0,1:0:0:0:
372,72,249581,1,0,0:0:0:0:
368,60,249695,2,2,L|376:152,1,74.9999977111817,8|0,1:2|1:0,1:0:0:0:
308,0,250036,2,2,P|288:36|292:104,1,74.9999977111817,0|0,1:0|0:0,1:0:0:0:
332,200,250377,2,0,L|294:197,1,37.4999988555909,2|0,1:0|0:0,0:0:0:0:
175,261,250604,2,2,L|212:264,1,37.4999988555909,8|0,1:2|0:0,1:0:0:0:
213,130,250831,2,0,L|175:133,1,37.4999988555909,2|0,1:0|0:0,0:0:0:0:
304,280,251059,6,2,L|316:368,1,74.9999977111817,0|0,1:0|0:0,1:0:0:0:
448,296,251400,1,0,1:0:0:0:
500,236,251513,2,2,L|489:161,1,74.9999977111817,8|0,1:2|1:0,1:0:0:0:
448,36,251854,1,0,0:0:0:0:
436,24,251968,6,0,L|432:68,1,37.4999988555909,2|0,1:0|0:0,0:0:0:0:
332,156,252195,2,2,L|376:144,1,37.4999988555909,0|0,1:0|0:0,1:0:0:0:
236,88,252422,1,8,1:2:0:0:
223,99,252536,1,0,1:0:0:0:
148,72,252650,1,2,1:0:0:0:
143,87,252764,1,0,1:0:0:0:
76,136,252877,6,2,L|1:130,1,74.9999977111817,0|0,1:0|0:0,1:0:0:0:
188,228,253218,1,0,0:0:0:0:
180,236,253331,2,2,L|196:320,1,74.9999977111817,8|0,1:2|1:0,1:0:0:0:
360,228,253672,2,2,L|452:236,1,74.9999977111817,0|0,1:0|0:0,1:0:0:0:
464,148,254013,2,0,L|468:166,1,18.7499994277954,2|2,0:0|0:0,0:0:0:0:
512,228,254127,2,0,L|505:245,1,18.7499994277954,2|2,0:0|0:0,0:0:0:0:
481,319,254240,2,0,L|444:316,1,37.4999988555909,2|0,0:0|0:0,0:0:0:0:
300,144,254468,2,0,L|304:107,1,37.4999988555909,2|0,0:0|0:0,0:0:0:0:
364,56,254695,6,2,P|300:64|252:48,1,112.499996566773,4|0,1:0|1:0,1:0:0:0:
100,60,255150,2,2,P|141:66|174:67,1,74.9999977111817,8|0,1:2|0:0,1:0:0:0:
32,112,255490,2,2,P|10:61|28:11,1,74.9999977111817,0|0,1:0|0:0,1:0:0:0:
112,144,255831,1,0,1:0:0:0:
256,228,256059,6,2,B|244:272|244:272|268:292|268:292|276:332,1,112.499996566773,8|0,1:2|0:0,1:0:0:0:
152,336,256513,6,2,L|115:340,1,37.4999988555909,0|0,1:0|0:0,1:0:0:0:
360,328,256740,2,0,L|398:333,1,37.4999988555909,2|0,1:0|0:0,0:0:0:0:
336,240,256968,2,0,B|344:204|344:204|324:156,1,74.9999977111817,8|0,1:2|1:0,0:0:0:0:
292,80,257309,1,0,1:0:0:0:
340,168,257422,6,2,L|388:164,1,37.4999988555909,0|0,1:0|0:0,1:0:0:0:
476,48,257650,2,2,L|428:52,1,37.4999988555909,0|0,1:0|0:0,1:0:0:0:
276,72,257877,1,8,1:2:0:0:
260,64,257990,1,0,1:0:0:0:
160,88,258104,1,2,1:0:0:0:
144,96,258217,1,0,1:0:0:0:
64,108,258331,6,2,P|67:71|90:42,1,74.9999977111817,0|0,1:0|0:0,1:0:0:0:
148,276,258672,2,0,L|144:176,1,74.9999977111817,10|0,1:2|0:0,0:0:0:0:
228,156,259013,1,2,1:0:0:0:
284,216,259126,1,0,1:0:0:0:
256,284,259240,6,2,P|252:320|229:349,1,74.9999977111817,0|0,1:0|0:0,1:0:0:0:
32,288,259581,2,0,L|128:280,1,74.9999977111817,10|0,1:2|0:0,1:0:0:0:
368,294,259922,2,2,L|406:297,1,37.4999988555909,0|0,1:0|0:0,1:0:0:0:
144,360,260150,6,0,L|106:363,3,37.4999988555909,0|0|0|0,1:0|0:0|1:0|0:0,0:0:0:0:
304,208,260604,6,0,L|307:170,1,37.4999988555909,0|0,1:0|0:0,0:0:0:0:
205,170,260831,2,0,L|208:208,1,37.4999988555909,0|0,1:0|0:0,0:0:0:0:
196,64,261059,5,0,1:0:0:0:
215,70,261134,1,0,1:0:0:0:
236,74,261210,1,0,1:0:0:0:
256,75,261286,1,0,1:0:0:0:
277,74,261362,1,0,1:0:0:0:
296,72,261437,1,0,1:0:0:0:
317,63,261513,1,4,1:0:0:0:
80,96,261740,1,4,1:0:0:0:
432,96,261968,6,2,B|420:160|420:160|464:228,1,125,4|0,0:0|0:0,0:0:0:0:
324,336,262309,1,0,0:0:0:0:
314,326,262422,2,0,L|252:332,1,62.5,2|0,0:0|2:0,0:0:0:0:
380,280,262650,1,0,0:0:0:0:
388,264,262763,2,2,P|418:340|389:392,1,125,0|0,0:0|1:0,0:0:0:0:
348,200,263104,1,2,0:0:0:0:
320,128,263218,1,0,0:0:0:0:
240,100,263331,6,2,B|324:116|324:116|384:100|384:100|436:120|436:120|376:144,1,243.749988842011,0|0,0:0|2:0,0:0:0:0:
248,180,263786,6,0,P|188:160|171:131,2,62.5,0|0|2,0:0|0:0|0:0,0:0:0:0:
39,269,264240,2,0,L|164:276,1,125,2|0,0:0|0:0,0:0:0:0:
348,316,264581,2,2,B|354:237|354:237|330:197,1,125,0|0,0:0|0:0,0:0:0:0:
256,296,264922,2,0,L|248:376,1,62.5,2|0,0:0|2:0,0:0:0:0:
256,88,265150,2,2,L|264:8,1,62.5,0|0,0:0|2:0,0:0:0:0:
388,92,265377,1,2,0:0:0:0:
272,100,265490,1,0,0:0:0:0:
400,76,265604,6,2,B|500:68|500:68|460:112,1,125,0|0,0:0|0:0,0:0:0:0:
456,216,265945,2,0,P|432:160|456:116,1,62.5,2|0,0:0|2:0,0:0:0:0:
512,164,266172,1,0,0:0:0:0:
400,264,266286,2,2,B|348:268|348:268|328:281|328:281|232:288,1,125,0|0,0:0|0:0,0:0:0:0:
232,204,266627,5,2,0:0:0:0:
221,208,266740,2,0,P|190:202|163:186,1,62.5,0|0,0:0|2:0,0:0:0:0:
151,51,266968,2,0,P|161:80|161:111,1,62.5,2|0,0:0|2:0,0:0:0:0:
50,187,267195,2,2,P|70:163|97:148,1,62.5,0|0,0:0|2:0,0:0:0:0:
92,20,267422,6,2,L|216:28,1,125,0|0,0:0|0:0,0:0:0:0:
320,160,267763,1,0,0:0:0:0:
320,160,267877,2,0,B|296:104|296:104|316:24,1,125,2|0,0:0|0:0,0:0:0:0:
408,28,268218,1,2,0:0:0:0:
408,28,268331,2,0,L|388:96,1,62.5
272,292,268559,2,2,L|215:300,3,31.25,2|2|2|2,2:0|2:0|2:0|2:0,2:0:0:0:
364,272,268786,6,2,P|364:296|356:328,1,43.749998664856,2|0,2:0|2:0,2:0:0:0:
152,328,269013,2,2,P|148:306|148:284,1,43.749998664856,2|0,2:0|2:0,2:0:0:0:
200,184,269240,6,2,B|168:208|168:208|136:200|136:200|80:212,1,125,4|0,0:0|0:0,0:0:0:0:
152,100,269581,1,2,0:0:0:0:
156,112,269695,2,0,P|200:140|300:112,1,125,0|2,0:0|0:0,0:0:0:0:
88,56,270036,2,0,P|60:56|26:65,1,62.5,0|2,0:0|0:0,0:0:0:0:
180,92,270263,1,0,0:0:0:0:
270,134,270377,2,0,P|316:132|362:121,1,93.75,0|0,0:0|2:0,0:0:0:0:
392,44,270604,2,2,P|392:150|482:225,1,224.999993133545,0|0,0:0|0:0,0:0:0:0:
484,108,271059,5,0,0:0:0:0:
356,284,271286,1,0,0:0:0:0:
280,300,271400,1,0,0:0:0:0:
224,244,271513,2,0,B|252:304|252:304|236:360,1,125,2|0,0:0|2:0,0:0:0:0:
36,312,271854,2,2,B|82:316|82:316|114:304|114:304|158:308,1,125,0|0,0:0|0:0,0:0:0:0:
383,339,272195,2,0,L|355:283,1,62.5,2|0,0:0|0:0,0:0:0:0:
440,224,272422,1,2,0:0:0:0:
448,241,272536,1,0,0:0:0:0:
512,124,272650,1,2,0:0:0:0:
484,72,272764,1,0,0:0:0:0:
428,60,272877,6,0,L|364:64,1,43.749998664856,0|2,0:0|0:0,0:0:0:0:
300,40,273104,1,2,0:0:0:0:
300,40,273218,2,0,L|312:108,2,43.749998664856,0|2|2,0:0|0:0|0:0,0:0:0:0:
256,188,273559,2,0,L|256:128,1,43.749998664856,0|2,0:0|0:0,0:0:0:0:
84,60,273786,6,0,L|148:64,1,43.749998664856,0|2,0:0|0:0,0:0:0:0:
212,40,274013,1,2,0:0:0:0:
212,40,274127,2,0,L|200:108,2,43.749998664856,0|2|2,0:0|0:0|0:0,0:0:0:0:
256,188,274468,2,0,L|256:128,1,43.749998664856,0|2,0:0|0:0,0:0:0:0:
156,252,274695,5,0,0:0:0:0:
168,264,274809,1,0,1:0:0:0:
344,264,275036,5,0,0:0:0:0:
356,252,275150,1,0,1:0:0:0:
144,344,275377,5,0,0:0:0:0:
116,348,275490,1,0,1:0:0:0:
368,344,275718,5,0,0:0:0:0:
396,348,275831,1,0,1:0:0:0:
216,340,276059,5,0,1:0:0:0:
228,280,276172,1,0,1:0:0:0:
284,280,276286,1,0,1:0:0:0:
296,340,276400,1,0,1:0:0:0:
256,312,276513,5,4,1:0:0:0:
120,272,276740,2,0,L|52:268,1,50,2|0,0:0|0:0,0:0:0:0:
32,172,276968,2,0,B|20:160|20:160|144:168,1,100,2|0,0:0|0:0,0:0:0:0:
272,220,277309,2,0,B|284:232|284:232|160:224,1,100,2|0,0:0|0:0,0:0:0:0:
128,244,277650,1,2,0:0:0:0:
132,228,277763,1,0,0:0:0:0:
152,96,277877,2,0,P|188:96|224:80,1,50,2|0,0:0|0:0,0:0:0:0:
312,80,278104,2,0,P|336:83|360:90,1,50,2|2,0:0|0:0,0:0:0:0:
416,256,278331,6,0,P|436:208|432:144,1,100,2|0,0:0|0:0,0:0:0:0:
296,248,278672,1,2,0:0:0:0:
296,248,278786,2,0,P|278:294|280:352,1,100,2|0,0:0|0:0,0:0:0:0:
190,177,279127,2,0,P|192:132|216:84,2,100,2|0|0,0:0|0:0|0:0,0:0:0:0:
284,164,279695,1,2,0:0:0:0:
56,116,279922,1,0,0:0:0:0:
72,300,280150,6,0,P|88:348|148:376,1,100,2|0,0:0|0:0,0:0:0:0:
204,320,280490,1,0,0:0:0:0:
212,312,280604,2,0,L|340:308,1,100,2|0,0:0|0:0,0:0:0:0:
447,306,280945,2,0,P|444:287|425:243,1,50,2|0,0:0|0:0,0:0:0:0:
196,238,281172,2,0,P|197:262|206:285,1,50,2|0,0:0|0:0,0:0:0:0:
377,298,281400,1,0,0:0:0:0:
268,257,281513,1,2,0:0:0:0:
443,227,281740,1,2,0:0:0:0:
296,136,281968,6,0,P|280:84|320:24,1,100,2|0,0:0|0:0,0:0:0:0:
400,64,282309,1,2,0:0:0:0:
416,76,282422,2,0,L|337:89,1,50,2|0,0:0|0:0,0:0:0:0:
224,160,282650,1,2,0:0:0:0:
208,144,282763,2,0,L|109:127,1,100,2|0,0:0|0:0,0:0:0:0:
40,72,283104,2,0,L|36:32,2,25,2|0|0,0:0|0:0|0:0,0:0:0:0:
40,168,283331,2,0,L|28:236,1,50,2|0,0:0|0:0,0:0:0:0:
92,352,283559,2,0,L|100:302,1,50,2|0,0:0|0:0,0:0:0:0:
104,280,283786,6,0,P|40:296|4:296,1,100,2|0,0:0|0:0,0:0:0:0:
216,240,284127,1,0,0:0:0:0:
233,232,284240,2,0,P|293:216|333:216,1,100,2|0,0:0|0:0,0:0:0:0:
424,340,284581,2,0,P|436:312|436:260,1,50,2|0,0:0|0:0,0:0:0:0:
388,88,284809,2,0,P|388:124|400:148,1,50,2|0,0:0|0:0,0:0:0:0:
368,296,285036,2,0,L|373:271,2,25,0|0|2,0:0|0:0|0:0,0:0:0:0:
460,106,285377,1,2,0:0:0:0:
512,52,285604,6,0,P|460:60|400:48,1,100,2|0,0:0|0:0,0:0:0:0:
312,128,285945,1,2,0:0:0:0:
344,120,286059,2,0,P|352:169|344:218,1,100,2|0,0:0|0:0,0:0:0:0:
104,212,286400,2,0,L|203:198,1,100,2|0,0:0|0:0,0:0:0:0:
240,100,286740,2,0,L|252:40,1,50,2|0,0:0|0:0,0:0:0:0:
152,92,286968,1,2,0:0:0:0:
156,117,287081,1,0,0:0:0:0:
160,141,287195,1,2,0:0:0:0:
304,344,287422,6,0,L|280:236,1,100,2|0,0:0|0:0,0:0:0:0:
344,168,287763,1,2,0:0:0:0:
320,188,287877,2,0,P|272:203|222:205,1,100,2|0,0:0|0:0,0:0:0:0:
380,320,288218,2,0,P|432:306|496:312,1,100,2|0,0:0|0:0,0:0:0:0:
376,132,288559,2,0,L|364:60,1,50,2|0,0:0|0:0,0:0:0:0:
393,147,288786,1,2,0:0:0:0:
496,328,289013,1,2,0:0:0:0:
244,220,289240,6,0,L|388:200,1,100,2|0,0:0|0:0,0:0:0:0:
200,136,289695,5,2,0:0:0:0:
177,68,289809,1,0,0:0:0:0:
109,45,289922,1,2,0:0:0:0:
52,90,290036,1,2,0:0:0:0:
68,176,290150,2,0,L|36:224,1,50,0|0,1:0|0:0,0:0:0:0:
40,304,290377,2,0,L|21:331,2,25,0|0|0,1:0|0:0|0:0,0:0:0:0:
108,276,290604,1,0,1:0:0:0:
172,308,290718,1,0,0:0:0:0:
240,276,290831,1,0,1:0:0:0:
304,312,290945,1,0,0:0:0:0:
388,320,291059,6,0,P|408:272|500:224,1,150,4|0,1:0|0:0,0:0:0:0:
512,140,291513,5,0,1:0:0:0:
420,76,291854,1,0,0:0:0:0:
406,60,291968,2,0,L|392:108,1,50,0|0,1:0|0:0,1:0:0:0:
304,152,292195,1,0,0:0:0:0:
120,152,292422,1,0,1:0:0:0:
0,140,292650,1,0,0:0:0:0:
208,108,292877,5,0,1:0:0:0:
256,196,293331,1,0,1:0:0:0:
148,292,293559,1,0,0:0:0:0:
84,340,293672,2,0,P|96:291|91:242,1,100,0|0,1:0|1:0,0:0:0:0:
32,176,294013,1,0,0:0:0:0:
8,172,294127,1,0,1:0:0:0:
140,172,294240,2,0,L|204:164,2,50,0|0|0,1:0|0:0|1:0,0:0:0:0:
260,96,294695,6,0,B|338:76|334:128|405:98,1,150,0|0,1:0|0:0,0:0:0:0:
472,60,295150,1,0,1:0:0:0:
424,256,295377,1,0,0:0:0:0:
416,276,295490,2,0,P|400:224|408:168,1,100,0|0,1:0|1:0,0:0:0:0:
496,332,295831,2,0,L|512:412,1,50,0|0,1:0|0:0,0:0:0:0:
504,312,296059,1,0,1:0:0:0:
484,136,296286,1,0,1:0:0:0:
332,36,296513,6,0,B|256:60|176:32,1,150,0|0,1:0|0:0,0:0:0:0:
260,116,296968,1,0,1:0:0:0:
364,168,297195,1,0,0:0:0:0:
363,167,297309,1,0,1:0:0:0:
160,168,297536,1,0,1:0:0:0:
159,167,297650,2,0,L|87:177,1,50,0|0,1:0|0:0,0:0:0:0:
16,215,297877,1,0,1:0:0:0:
55,307,297990,1,0,0:0:0:0:
147,269,298104,1,0,1:0:0:0:
432,304,298331,6,0,P|384:280|324:272,1,100,0|0,1:0|1:0,0:0:0:0:
220,136,298786,2,0,P|268:156|324:160,1,100,0|0,1:0|1:0,0:0:0:0:
156,64,299127,6,0,P|109:48|60:48,1,100,0|0,1:0|1:0,0:0:0:0:
88,160,299468,1,0,1:0:0:0:
112,156,299581,1,0,0:0:0:0:
244,188,299695,2,0,L|184:204,1,50,0|0,1:0|0:0,0:0:0:0:
343,192,299922,2,0,L|392:180,1,50,0|0,1:0|0:0,0:0:0:0:
472,212,300150,5,0,1:0:0:0:
288,296,300377,2,0,L|337:290,1,50,0|0,1:0|0:0,0:0:0:0:
224,360,300604,2,0,P|204:316|208:256,1,100,0|0,1:0|1:0,0:0:0:0:
264,84,300945,2,0,L|272:20,2,50,0|0|0,1:0|0:0|1:0,0:0:0:0:
272,308,301286,2,0,L|274:357,1,50,0|0,1:0|0:0,0:0:0:0:
124,200,301513,2,0,L|56:192,1,50,0|0,1:0|0:0,0:0:0:0:
408,184,301740,2,0,L|476:176,1,50,0|0,1:0|0:0,0:0:0:0:
460,56,301968,5,0,1:0:0:0:
411,76,302081,1,0,3:0:0:0:
360,90,302195,1,0,1:0:0:0:
309,99,302308,1,0,3:0:0:0:
256,102,302422,1,0,1:0:0:0:
204,96,302536,1,0,3:0:0:0:
152,91,302649,1,0,1:0:0:0:
101,77,302763,1,0,3:0:0:0:
52,57,302877,6,0,L|56:12,3,25,0|0|0|0,1:0|0:0|0:0|0:0,0:0:0:0:
128,92,303104,2,0,L|125:116,3,25,0|0|0|0,1:0|0:0|0:0|0:0,0:0:0:0:
196,169,303331,2,0,L|201:145,3,25,0|0|0|0,1:0|0:0|0:0|0:0,0:0:0:0:
266,218,303558,2,0,L|256:255,3,25,0|0|0|0,1:0|0:0|0:0|0:0,0:0:0:0:
299,326,303786,2,2,B|352:342|381:342|423:319|451:284|489:243|500:207|470:191|492:162|445:167|420:106|388:141|335:153|329:213|306:240|369:293|409:292|446:293|470:294|465:255|474:203|506:177|504:123|473:77|378:52,1,750.000028610231,4|0,1:0|1:0,1:0:0:0:
178,142,304922,1,0,1:0:0:0:
178,142,305036,1,0,1:0:0:0:
178,142,305150,1,4,1:0:0:0:
100,104,305604,5,4,1:0:0:0:
32,192,305831,1,0,0:0:0:0:
32,192,305945,1,0,0:0:0:0:
32,192,306059,6,0,L|164:188,1,93.7500035762788,8|0,0:0|0:0,0:0:0:0:
208,152,306400,1,0,1:0:0:0:
208,152,306626,1,0,0:0:0:0:
288,228,306740,1,0,1:0:0:0:
288,228,306968,2,0,P|300:164|304:120,1,93.7500035762788,8|0,0:0|0:0,0:0:0:0:
456,52,307422,6,0,L|444:208,1,140.625005364418,0|0,1:0|0:0,0:0:0:0:
416,268,307877,2,0,P|360:208|364:156,1,93.7500035762788,8|0,0:0|0:0,0:0:0:0:
436,196,308218,1,0,1:0:0:0:
256,144,308445,1,0,1:0:0:0:
76,196,308672,2,0,L|64:132,2,46.8750017881394,0|8|0,1:0|0:0|1:0,0:0:0:0:
97,277,309013,1,0,1:0:0:0:
177,251,309127,1,0,1:0:0:0:
230,315,309240,6,0,P|322:322|396:314,1,140.625005364418,0|0,1:0|0:0,0:0:0:0:
455,287,309695,2,0,L|462:184,1,93.7500035762788,8|0,0:0|0:0,0:0:0:0:
470,113,310036,1,0,1:0:0:0:
470,113,310263,1,0,0:0:0:0:
358,88,310377,1,0,1:0:0:0:
358,88,310604,2,0,L|258:68,1,93.7500035762788,8|0,0:0|0:0,0:0:0:0:
90,115,311059,6,0,P|154:157|217:162,1,140.625005364418,0|0,1:0|0:0,0:0:0:0:
299,143,311513,1,0,1:0:0:0:
382,111,311627,1,0,1:0:0:0:
438,180,311740,1,0,1:0:0:0:
389,254,311854,1,0,1:0:0:0:
303,231,311968,2,0,L|282:244,7,23.4375008940697,2|0|0|0|2|2|2|2,0:0|0:0|0:0|0:0|0:0|0:0|0:0|0:0,0:0:0:0:
303,231,312422,2,0,L|373:238,1,46.8750017881394,0|0,1:0|1:0,0:0:0:0:
449,165,312650,1,0,1:0:0:0:
468,176,312763,1,0,1:0:0:0:
503,268,312877,6,0,P|449:304|363:319,1,140.625005364418,4|0,1:0|0:0,0:0:0:0:
296,336,313331,2,0,L|304:220,1,93.7500035762788,8|0,0:0|0:0,0:0:0:0:
306,113,313672,1,0,0:0:0:0:
306,113,313786,2,0,L|207:109,1,93.7500035762788,0|0,1:0|0:0,0:0:0:0:
61,155,314240,2,0,L|132:162,1,46.8750017881394,8|0,0:0|0:0,0:0:0:0:
251,220,314468,2,0,L|192:231,1,46.8750017881394,0|0,1:0|0:0,0:0:0:0:
56,329,314695,6,0,B|52:262|52:262|66:216|54:160,1,140.625005364418,0|0,1:0|0:0,0:0:0:0:
123,148,315150,2,0,P|110:84|90:48,1,93.7500035762788,8|0,0:0|1:0,0:0:0:0:
46,121,315490,2,0,L|24:68,1,46.8750017881394,0|0,0:0|1:0,0:0:0:0:
256,68,315718,2,0,L|256:12,1,46.8750017881394,0|0,1:0|0:0,0:0:0:0:
466,121,315945,2,0,L|488:68,2,46.8750017881394,0|8|0,1:0|0:0|1:0,0:0:0:0:
453,204,316286,1,0,1:0:0:0:
368,205,316400,1,0,1:0:0:0:
345,285,316513,6,0,P|267:302|182:285,1,140.625005364418,0|0,1:0|0:0,0:0:0:0:
139,231,316968,2,0,L|49:283,1,93.7500035762788,8|0,0:0|0:0,0:0:0:0:
57,277,317309,1,0,1:0:0:0:
256,336,317536,2,0,L|256:280,2,46.8750017881394,0|0|0,0:0|1:0|0:0,0:0:0:0:
332,348,317877,2,0,L|364:240,1,93.7500035762788,8|0,0:0|1:0,0:0:0:0:
412,56,318331,5,0,1:0:0:0:
420,104,318445,1,0,1:0:0:0:
428,148,318559,1,0,1:0:0:0:
436,192,318672,1,0,1:0:0:0:
484,264,318786,5,0,1:0:0:0:
496,216,318900,2,2,P|456:160|408:128,1,93.7500035762788,0|0,1:0|0:0,1:0:0:0:
340,64,319240,6,0,L|328:128,1,46.8750017881394,0|0,1:0|0:0,0:0:0:0:
172,64,319468,1,2,1:0:0:0:
180,110,319582,1,0,0:0:0:0:
108,236,319695,2,0,L|56:240,1,46.8750017881394,0|2,1:0|0:0,0:0:0:0:
404,236,319922,2,0,L|456:240,1,46.8750017881394,0|2,1:0|0:0,0:0:0:0:
256,336,320150,6,0,B|252:232|252:232|256:164,2,159.375003039837,4|2|0,1:0|1:0|1:0,0:0:0:0:
348,260,320945,2,0,P|358:202|364:144,1,106.250002026558,2|0,1:0|0:0,0:0:0:0:
436,64,321286,2,0,L|436:152,1,53.125001013279,2|0,1:0|0:0,0:0:0:0:
492,224,321513,2,0,L|516:92,1,106.250002026558,2|2,1:0|1:0,0:0:0:0:
308,200,321968,6,0,B|200:188|200:188|172:248,2,159.375003039837,0|2|0,1:0|1:0|1:0,0:0:0:0:
436,296,322763,2,2,L|328:284,1,106.250002026558,0|0,1:0|0:0,1:0:0:0:
246,271,323104,1,2,1:0:0:0:
246,271,323218,1,0,0:0:0:0:
255,186,323331,1,2,1:0:0:0:
255,186,323445,1,0,0:0:0:0:
264,101,323559,2,2,P|266:36|262:25,1,53.125001013279,0|0,1:0|0:0,1:0:0:0:
179,68,323786,6,0,L|14:76,1,159.375003039837,0|0,1:0|0:0,0:0:0:0:
73,167,324240,2,0,L|148:178,2,53.125001013279,2|0|0,1:0|0:0|1:0,0:0:0:0:
9,225,324581,2,0,P|41:297|84:310,1,106.250002026558,2|0,1:0|0:0,0:0:0:0:
145,288,324922,1,2,1:0:0:0:
209,343,325036,1,0,0:0:0:0:
209,343,325150,2,2,L|339:352,1,106.250002026558,0|2,1:0|1:0,1:0:0:0:
483,229,325604,6,0,P|476:115|445:74,1,159.375003039837,0|0,1:0|0:0,0:0:0:0:
372,52,326059,1,2,1:0:0:0:
348,132,326172,1,0,1:0:0:0:
320,212,326286,1,0,1:0:0:0:
296,292,326400,1,0,1:0:0:0:
212,284,326513,6,0,L|164:280,7,26.5625005066395,2|0|0|0|2|2|2|2,0:0|0:0|0:0|0:0|0:0|0:0|0:0|0:0,0:0:0:0:
212,284,326968,2,0,L|124:244,1,53.125001013279,0|0,1:0|1:0,0:0:0:0:
56,256,327195,1,0,1:0:0:0:
72,232,327309,1,0,1:0:0:0:
172,188,327422,6,0,P|176:124|68:76,1,187.5,4|0,1:0|0:0,1:0:0:0:
104,150,327877,1,2,1:0:0:0:
66,346,328104,1,0,1:0:0:0:
66,346,328218,1,2,1:0:0:0:
260,298,328445,1,0,1:0:0:0:
260,298,328559,1,2,1:0:0:0:
455,254,328786,2,2,L|463:161,1,62.5,0|0,1:0|0:0,1:0:0:0:
391,129,329013,2,0,L|399:36,1,62.5,2|0,1:0|0:0,0:0:0:0:
246,71,329240,6,0,P|166:106|221:176,1,187.5,0|0,1:0|1:0,0:0:0:0:
289,185,329695,2,0,P|287:258|258:263,1,62.5,2|0,1:0|0:0,0:0:0:0:
250,293,329922,1,0,1:0:0:0:
250,293,330036,2,2,L|173:284,1,62.5,0|0,1:0|0:0,1:0:0:0:
308,354,330263,1,0,1:0:0:0:
308,354,330377,2,0,L|383:347,1,62.5,2|0,1:0|1:0,0:0:0:0:
442,327,330604,1,0,1:0:0:0:
482,263,330718,1,0,1:0:0:0:
472,188,330831,1,2,1:0:0:0:
420,133,330945,1,0,1:0:0:0:
344,135,331059,6,0,P|275:133|214:103,1,125,0|0,1:0|0:0,0:0:0:0:
224,110,331400,1,0,0:0:0:0:
224,110,331513,2,0,L|100:120,1,125,8|0,0:0|0:0,0:0:0:0:
40,260,331968,1,0,1:0:0:0:
40,260,332081,1,0,0:0:0:0:
112,280,332195,1,0,0:0:0:0:
112,280,332309,1,0,0:0:0:0:
184,300,332422,2,0,L|352:281,1,125,8|0,0:0|0:0,0:0:0:0:
476,140,332877,6,0,L|472:204,1,62.5,0|0,1:0|1:0,0:0:0:0:
368,160,333104,1,0,1:0:0:0:
368,160,333218,2,0,L|297:160,1,62.5,0|0,1:0|0:0,0:0:0:0:
232,184,333445,1,0,1:0:0:0:
232,184,333559,2,0,L|167:184,1,62.5,0|0,1:0|1:0,0:0:0:0:
112,128,333786,5,0,1:0:0:0:
78,209,333900,1,0,1:0:0:0:
119,285,334013,5,0,1:0:0:0:
85,366,334127,2,0,L|13:372,1,62.5,0|4,1:0|1:0,0:0:0:0:
230,319,334354,2,0,L|158:325,1,62.5,0|0,1:0|0:0,0:0:0:0:
485,233,334581,1,0,1:0:0:0:
415,238,334695,6,0,L|290:245,1,106.250002026558,4|0,1:0|0:0,0:0:0:0:
138,334,335150,2,0,L|132:260,1,53.125001013279,0|0,1:0|0:0,0:0:0:0:
44,253,335377,2,0,L|81:182,1,53.125001013279
161,161,335604,2,0,L|146:41,1,106.250002026558,0|0,1:0|0:0,0:0:0:0:
250,68,335945,1,0,0:0:0:0:
263,88,336059,2,0,L|380:87,1,106.250002026558,0|0,1:0|0:0,0:0:0:0:
480,291,336513,6,0,P|425:290|357:270,1,106.250002026558,0|0,1:0|0:0,0:0:0:0:
128,305,336968,2,0,L|138:230,1,53.125001013279,0|0,1:0|0:0,0:0:0:0:
239,238,337195,2,0,L|220:170,1,53.125001013279
141,93,337422,2,0,L|283:63,1,106.250002026558,0|0,1:0|0:0,0:0:0:0:
321,124,337763,1,0,0:0:0:0:
336,92,337877,2,0,L|404:193,1,106.250002026558,0|0,1:0|1:0,0:0:0:0:
328,339,338331,6,0,L|446:318,1,106.250002026558,0|0,1:0|0:0,0:0:0:0:
447,172,338786,2,0,L|467:118,1,53.125001013279,0|0,1:0|0:0,0:0:0:0:
356,144,339013,2,0,L|365:75,1,53.125001013279
262,144,339240,2,0,L|243:30,2,106.250002026558,0|0|0,1:0|0:0|1:0,0:0:0:0:
262,144,339922,1,0,0:0:0:0:
148,264,340150,6,0,L|31:258,1,106.250002026558,0|0,1:0|0:0,0:0:0:0:
200,336,340604,1,0,1:0:0:0:
221,337,340718,1,2,0:0:0:0:
240,339,340831,1,2,0:0:0:0:
261,340,340945,1,2,0:0:0:0:
336,300,341059,6,0,L|328:268,7,26.5625005066395,0|0|0|0|2|2|2|2,1:0|0:0|0:0|0:0|0:0|0:0|0:0|0:0,0:0:0:0:
336,300,341513,2,0,P|360:228|364:156,1,106.250002026558,0|2,1:0|0:0,0:0:0:0:
472,92,341968,6,0,L|464:160,1,53.125001013279,0|0,1:0|0:0,0:0:0:0:
492,288,342195,2,0,L|498:235,1,53.125001013279
465,144,342422,2,0,P|373:112|317:116,1,106.250002026558,0|0,1:0|0:0,0:0:0:0:
268,98,342763,1,0,0:0:0:0:
268,98,342877,2,0,L|245:25,1,53.125001013279,0|0,1:0|0:0,0:0:0:0:
240,180,343104,2,0,L|255:230,1,53.125001013279
387,350,343331,2,0,L|399:226,1,106.250002026558,0|0,1:0|0:0,0:0:0:0:
470,88,343786,6,0,L|399:81,1,53.125001013279,0|0,1:0|0:0,0:0:0:0:
283,44,344013,2,0,L|335:49,1,53.125001013279
417,82,344240,2,0,P|420:147|416:204,1,106.250002026558,0|0,1:0|0:0,0:0:0:0:
362,253,344581,1,0,0:0:0:0:
362,253,344695,2,0,L|295:243,1,53.125001013279,0|0,1:0|0:0,0:0:0:0:
150,253,344922,2,0,L|202:245,1,53.125001013279
256,332,345150,1,0,1:0:0:0:
256,332,345263,2,0,L|256:212,1,106.250002026558,0|0,1:0|1:0,0:0:0:0:
256,136,345604,6,0,L|188:120,1,53.125001013279,0|0,1:0|0:0,0:0:0:0:
70,115,345831,2,0,L|121:127,1,53.125001013279
204,123,346059,2,0,P|283:92|333:98,1,106.250002026558,0|0,1:0|0:0,0:0:0:0:
399,80,346400,1,0,0:0:0:0:
399,80,346513,2,0,L|397:155,1,53.125001013279,0|0,1:0|0:0,0:0:0:0:
470,160,346740,2,0,L|468:235,1,53.125001013279
492,310,346968,1,0,1:0:0:0:
492,310,347081,2,0,L|356:337,1,106.250002026558
299,371,347422,2,0,L|261:261,1,106.250002026558,0|0,1:0|0:0,0:0:0:0:
88,232,347877,5,0,1:0:0:0:
92,200,347990,1,2,0:0:0:0:
96,168,348104,1,2,0:0:0:0:
100,136,348218,1,2,0:0:0:0:
169,68,348331,5,0,1:0:0:0:
173,100,348444,1,0,0:0:0:0:
177,132,348559,2,0,L|228:125,1,26.5625005066395,0|0,1:0|0:0,0:0:0:0:
181,164,348672,2,0,L|232:157,1,26.5625005066395,0|0,1:0|0:0,0:0:0:0:
184,196,348786,2,0,L|258:187,1,53.125001013279,4|0,1:0|0:0,0:0:0:0:
451,118,349013,2,0,L|470:193,1,53.125001013279,4|0,1:0|0:0,0:0:0:0:
484,285,349240,6,0,L|349:274,1,106.250002026558,0|0,1:0|0:0,0:0:0:0:
192,326,349695,1,8,0:0:0:0:
199,333,349809,2,0,P|201:247|196:193,1,106.250002026558
113,241,350150,2,0,L|65:110,1,106.250002026558,0|0,1:0|0:0,0:0:0:0:
242,67,350604,1,8,0:0:0:0:
242,67,350718,1,0,0:0:0:0:
242,67,350831,1,0,0:0:0:0:
242,67,350945,1,0,0:0:0:0:
242,67,351059,6,0,L|241:173,1,106.250002026558,0|0,1:0|0:0,0:0:0:0:
341,300,351513,1,8,0:0:0:0:
341,300,351627,2,0,P|354:252|353:189,1,106.250002026558
420,123,351968,2,0,L|448:243,1,106.250002026558,0|0,1:0|0:0,0:0:0:0:
323,335,352422,5,8,0:0:0:0:
296,325,352536,1,0,0:0:0:0:
218,343,352650,1,0,0:0:0:0:
191,333,352764,1,0,0:0:0:0:
114,352,352877,6,0,P|64:321|25:268,1,106.250002026558,0|0,1:0|0:0,0:0:0:0:
148,211,353331,2,0,L|150:92,1,106.250002026558,8|0,0:0|0:0,0:0:0:0:
362,104,353786,6,0,L|364:211,1,106.250002026558,0|0,1:0|0:0,0:0:0:0:
398,351,354240,2,0,P|443:324|477:284,1,106.250002026558,8|0,0:0|0:0,0:0:0:0:
255,236,354695,6,0,P|205:205|166:152,1,106.250002026558,0|0,1:0|0:0,0:0:0:0:
385,155,355149,2,0,L|363:90,3,53.125001013279,8|0|0|0,0:0|1:0|1:0|1:0,0:0:0:0:
429,180,355604,6,0,L|423:226,7,26.5625005066395,0|0|0|0|2|2|2|2,1:0|0:0|0:0|0:0|0:0|0:0|0:0|0:0,0:0:0:0:
480,171,356059,2,0,L|491:255,1,53.125001013279,0|0,1:0|1:0,0:0:0:0:
499,315,356286,1,0,1:0:0:0:
202,265,356513,6,0,L|209:203,1,53.125001013279,0|0,1:0|0:0,0:0:0:0:
310,119,356740,2,0,L|303:181,1,53.125001013279,0|0,1:0|0:0,0:0:0:0:
181,263,356968,2,0,L|197:202,1,53.125001013279,0|0,1:0|0:0,0:0:0:0:
331,121,357195,2,0,L|314:181,1,53.125001013279,0|0,1:0|0:0,0:0:0:0:
157,259,357422,2,0,L|182:202,1,53.125001013279,0|0,1:0|0:0,0:0:0:0:
355,125,357650,2,0,L|329:181,1,53.125001013279,0|0,1:0|0:0,0:0:0:0:
135,249,357877,2,0,L|169:196,1,53.125001013279,0|0,1:0|0:0,0:0:0:0:
377,135,358104,2,0,L|342:187,1,53.125001013279,0|0,1:0|1:0,0:0:0:0:
127,229,358331,6,0,L|169:183,1,53.125001013279,0|0,1:0|0:0,0:0:0:0:
384,154,358558,2,0,L|342:200,1,53.125001013279,0|0,1:0|0:0,0:0:0:0:
137,206,358786,2,0,L|186:167,1,53.125001013279,0|0,1:0|0:0,0:0:0:0:
374,177,359014,2,0,L|325:216,1,53.125001013279,0|0,1:0|0:0,0:0:0:0:
152,189,359240,2,0,L|207:158,1,53.125001013279,0|0,1:0|0:0,0:0:0:0:
359,194,359467,2,0,L|304:225,1,53.125001013279,0|0,1:0|0:0,0:0:0:0:
166,177,359695,6,0,L|224:155,1,53.125001013279,0|0,1:0|1:0,0:0:0:0:
345,206,359922,2,0,L|287:228,1,53.125001013279,0|0,1:0|1:0,0:0:0:0:
224,344,360150,5,0,1:0:0:0:
252,348,360263,1,0,1:0:0:0:
288,276,360377,5,0,1:0:0:0:
260,280,360490,1,0,1:0:0:0:
224,208,360604,5,0,1:0:0:0:
252,212,360717,1,0,1:0:0:0:
288,140,360831,5,0,1:0:0:0:
260,144,360944,1,0,1:0:0:0:
248,72,361059,6,0,L|208:64,15,26.5625005066395
256,192,361968,12,4,362422,0:0:0:0:
256,101,362877,5,0,3:0:0:0:
256,161,362990,1,0,3:0:0:0:
256,221,363104,1,0,3:0:0:0:
256,281,363218,1,0,3:0:0:0:
128,192,363331,5,0,1:0:0:0:
192,152,363445,1,0,1:0:0:0:
256,192,363559,1,0,1:0:0:0:
320,232,363672,1,0,1:0:0:0:
384,192,363786,1,4,1:0:0:0:
