osu file format v14

[General]
AudioFilename: audio.mp3
AudioLeadIn: 0
PreviewTime: -1
Countdown: 1
SampleSet: Normal
StackLeniency: 0.7
Mode: 0
LetterboxInBreaks: 0
WidescreenStoryboard: 0

[Editor]
DistanceSpacing: 1.2
BeatDivisor: 4
GridSize: 8
TimelineZoom: 1

[Metadata]
Title:Ibuki (Original Mix)
TitleUnicode:Ibuki (Original Mix)
Artist:Nhato
ArtistUnicode:Nhato
Creator:- Twoearle -
Version:Nhat so hard
Source:Otographic Music
Tags:
BeatmapID:1310071
BeatmapSetID:621349

[Difficulty]
HPDrainRate:7
CircleSize:4.2
OverallDifficulty:8.5
ApproachRate:9.2
SliderMultiplier:1.4
SliderTickRate:1

[Events]
//Background and Video events
0,0,"ibukicloud.jpg",0,0
//Break Periods
//Storyboard Layer 0 (Background)
//Storyboard Layer 1 (Fail)
//Storyboard Layer 2 (Pass)
//Storyboard Layer 3 (Foreground)
//Storyboard Sound Samples

[TimingPoints]
6423,454.545454545455,4,1,0,100,1,0
15400,-200,4,1,0,100,0,0
15741,-100,4,1,0,100,0,0
16309,-200,4,1,0,100,0,0
16650,-100,4,1,0,100,0,0
17218,-200,4,1,0,100,0,0
17559,-100,4,1,0,100,0,0
18127,-200,4,1,0,100,0,0
18468,-100,4,1,0,100,0,0
19036,-200,4,1,0,100,0,0
19263,-100,4,1,0,100,0,0
19946,-200,4,1,0,100,0,0
20286,-66.6666666666667,4,1,0,100,0,0
20854,-200,4,1,0,100,0,0
21195,-100,4,1,0,100,0,0
21536,-66.6666666666667,4,1,0,100,0,0
22104,-100,4,1,0,100,0,0
22673,-200,4,1,0,100,0,0
23013,-100,4,1,0,100,0,0
23582,-100,4,1,0,100,0,0
24491,-200,4,1,0,100,0,0
24832,-100,4,1,0,100,0,0
25400,-200,4,1,0,100,0,0
25741,-100,4,1,0,100,0,0
26309,-200,4,1,0,100,0,0
26650,-100,4,1,0,100,0,0
27332,-57.1428571428571,4,1,0,100,0,0
28582,-66.6666666666667,4,1,0,100,0,0
29150,-50,4,1,0,100,0,0
35513,-200,4,1,0,100,0,0
35968,-50,4,1,0,100,0,0
42672,-66.6666666666667,4,1,0,100,0,0
43922,-50,4,1,0,100,0,0
45400,-133.333333333333,4,1,0,100,0,0
45627,-50,4,1,0,100,0,0
46309,-200,4,1,0,100,0,0
46536,-50,4,1,0,100,0,0
47104,-200,4,1,0,100,0,0
47332,-50,4,1,0,100,0,0
48127,-133.333333333333,4,1,0,100,0,0
48923,-50,4,1,0,100,0,0
49263,-50,4,1,0,100,0,0
50059,-200,4,1,0,100,0,0
50513,-50,4,1,0,100,0,0
56423,-66.6666666666667,4,1,0,100,0,0
58241,-100,4,1,0,100,0,0
64604,-200,4,1,0,100,0,0
65513,-100,4,1,0,100,0,0
67332,-200,4,1,0,100,0,0
68695,-100,4,1,0,100,0,0
72792,-50,4,1,0,100,0,0
84604,-66.6666666666667,4,1,0,100,0,0
85968,-50,4,1,0,100,0,0
88354,-50,4,1,0,100,0,0
88695,-200,4,1,0,100,0,0
90173,-50,4,1,0,100,0,0
90513,-50,4,1,0,100,0,0
92332,-200,4,1,0,100,0,0
93241,-50,4,1,0,100,0,0
95968,-200,4,1,0,100,0,0
97445,-50,4,1,0,100,0,0
99604,-50,4,1,0,100,0,0
100173,-50,4,1,0,100,0,0
100968,-50,4,1,0,100,0,0

[HitObjects]
120,128,14604,6,0,L|136:184,1,35
136,184,14832,1,0,0:0:0:0:
232,256,15059,2,0,L|192:280,1,35
384,136,15400,6,0,L|400:112,1,17.5
296,64,15741,6,0,L|256:96,1,35
336,208,16082,2,0,L|320:160,1,35
312,144,16309,1,0,0:0:0:0:
120,64,16650,6,0,L|96:96,1,35
32,224,16991,2,0,L|64:208,1,35
96,192,17218,1,0,0:0:0:0:
232,256,17559,6,0,L|248:296,1,35
360,264,17900,2,0,L|384:296,1,35
400,320,18127,1,0,0:0:0:0:
344,120,18468,6,0,L|376:136,1,35
384,16,18809,2,0,L|352:32,1,35
328,48,19036,1,0,0:0:0:0:
400,184,19377,6,0,L|432:200,1,35
456,320,19718,2,0,L|416:328,1,35
392,336,19945,1,0,0:0:0:0:
256,168,20286,6,0,B|208:176|208:176|176:232|144:232|144:232|136:240,1,105.000004005432
152,248,20627,1,0,0:0:0:0:
80,144,20854,1,0,0:0:0:0:
216,112,21195,6,0,L|240:80,1,35
368,80,21536,6,0,B|416:104|416:104|400:144|400:152|400:152|416:152,1,105.000004005432
392,184,21877,1,0,0:0:0:0:
248,192,22104,6,0,L|208:200,1,35
88,240,22445,2,0,L|120:264,1,35
144,280,22673,1,0,0:0:0:0:
296,176,23013,6,0,L|328:208,1,35
384,320,23354,2,0,L|352:280,1,35
336,256,23582,1,0,0:0:0:0:
352,112,23923,6,0,L|312:88,1,35
224,48,24263,2,0,L|200:88,1,35
192,112,24491,1,0,0:0:0:0:
96,280,24832,6,0,L|120:248,1,35
224,200,25173,2,0,L|256:224,1,35
280,240,25400,1,0,0:0:0:0:
368,240,25741,6,0,L|344:208,1,35
400,104,26082,2,0,L|432:128,1,35
456,144,26309,1,0,0:0:0:0:
272,96,26650,6,0,L|240:56,1,35
112,128,26991,2,0,L|152:136,1,35
184,144,27218,1,0,0:0:0:0:
280,144,27332,6,0,B|344:96|344:96|392:144|432:80|432:80|496:112|432:256,1,367.500003504753
272,216,28241,5,0,0:0:0:0:
232,216,28354,1,0,0:0:0:0:
184,216,28468,1,0,0:0:0:0:
144,216,28582,2,0,L|96:216,6,26.2500010013581
144,80,29150,6,0,B|200:56|200:56|232:72,1,70
208,60,29377,1,0,0:0:0:0:
384,152,29604,6,0,B|400:184|400:184|392:224,1,70
393,217,29832,1,0,0:0:0:0:
400,224,29945,1,0,0:0:0:0:
96,240,30173,6,0,B|72:192|72:192|96:136,1,70
152,64,30513,2,0,B|200:80|200:80|256:32|256:40,1,70
214,67,30741,1,0,0:0:0:0:
214,67,30854,1,0,0:0:0:0:
400,304,31082,6,0,B|376:336|376:336|304:304,1,70
232,232,31423,2,0,B|176:240|176:240|152:304,1,70
171,252,31650,1,0,0:0:0:0:
176,256,31763,1,0,0:0:0:0:
56,192,31991,6,0,B|78:138|78:138|145:122,1,70
200,56,32332,2,0,P|259:21|267:21,2,70
200,56,32673,1,0,0:0:0:0:
112,208,33013,6,0,B|95:256|95:256|100:309,1,70,0|0,0:3|0:0,0:0:0:0:
248,328,33354,2,0,B|296:312|296:312|336:248,1,70
306,295,33582,1,0,0:0:0:0:
312,296,33695,1,0,0:0:0:0:
336,48,33923,6,0,B|296:24|296:24|224:56,1,70
144,128,34263,2,0,B|120:168|120:168|128:240,1,70
122,191,34491,1,0,0:0:0:0:
128,200,34604,1,0,0:0:0:0:
304,224,34832,6,0,B|320:152|320:152|384:176|376:112|376:112|336:112,1,140
208,48,35513,6,0,L|152:32,1,52.5
80,80,35968,6,0,B|64:128|64:128|128:176,1,70
79,139,36195,2,0,B|122:116|122:116|94:50,1,70
160,192,36423,5,0,0:0:0:0:
224,64,36650,6,0,B|248:32|248:32|328:48,1,70
400,152,36991,2,0,B|424:176|424:176|400:232,1,70
409,209,37218,1,0,0:0:0:0:
416,216,37332,1,0,0:0:0:0:
168,328,37559,6,0,B|128:320|128:320|72:256,1,70
96,136,37900,2,0,B|96:100|96:100|183:55,1,70
127,84,38127,1,0,0:0:0:0:
127,84,38241,1,0,0:0:0:0:
408,120,38468,6,0,B|446:133|446:133|443:216,1,70
392,288,38809,2,0,B|376:328|376:328|288:336,1,70
349,330,39036,1,0,0:0:0:0:
352,336,39150,1,0,0:0:0:0:
360,192,39377,6,0,B|385:166|385:166|391:80,1,70
264,32,39718,2,0,B|224:40|224:40|184:128,1,70
211,66,39945,1,0,0:0:0:0:
216,72,40059,1,0,0:0:0:0:
88,224,40286,6,0,B|80:256|80:256|136:312,1,70
264,320,40627,2,0,B|286:295|286:295|280:220,1,70
282,258,40854,1,0,0:0:0:0:
282,258,40968,1,0,0:0:0:0:
392,96,41195,6,0,B|365:115|365:115|368:211,1,70
360,272,41536,2,0,B|344:312|344:312|264:320,1,70
248,80,41877,5,0,0:0:0:0:
200,128,41991,1,0,0:0:0:0:
248,176,42104,1,0,0:0:0:0:
200,224,42218,1,0,0:0:0:0:
248,272,42332,1,0,0:0:0:0:
200,320,42445,1,0,0:0:0:0:
144,320,42559,1,0,0:0:0:0:
112,296,42673,6,0,L|96:280,3,17.5
168,240,42900,5,0,0:0:0:0:
232,208,43013,1,0,0:0:0:0:
304,200,43127,1,0,0:0:0:0:
368,232,43241,1,0,0:0:0:0:
416,288,43354,1,0,0:0:0:0:
352,80,43695,6,0,L|256:104,1,52.5000020027161
280,160,43923,2,0,L|168:232,1,70
120,256,44150,1,0,0:0:0:0:
80,136,44263,2,0,L|64:64,1,70
184,80,44491,2,0,L|248:16,1,70
344,112,44718,5,0,0:0:0:0:
384,128,44832,1,0,0:0:0:0:
384,248,44945,2,0,L|280:296,1,70
160,208,45173,5,0,0:0:0:0:
136,176,45286,1,0,0:0:0:0:
192,64,45400,6,0,L|208:32,1,26.2500010013581
32,96,45627,6,0,L|120:136,1,70
200,224,45854,1,0,0:0:0:0:
224,240,45968,1,0,0:0:0:0:
376,160,46082,6,0,L|352:232,1,70
240,352,46309,2,0,L|216:360,1,17.5
112,232,46536,6,0,L|40:176,1,70
120,72,46763,2,0,L|184:112,1,70
312,192,46991,5,0,0:0:0:0:
416,16,47104,2,0,L|424:0,1,17.5
264,56,47332,6,0,L|192:80,1,70
96,128,47559,2,0,B|48:128|48:128|8:200|40:168,1,70
112,264,47786,5,0,0:0:0:0:
112,264,47900,2,0,L|192:232,1,70
312,144,48127,2,0,L|328:120,1,26.2500010013581
400,208,48354,5,0,0:0:0:0:
408,248,48468,1,0,0:0:0:0:
376,280,48582,1,0,0:0:0:0:
248,304,48695,2,0,L|200:312,1,26.2500010013581
128,208,48923,6,0,L|112:136,1,70
208,64,49150,5,0,0:0:0:0:
424,136,49377,2,0,P|472:152|416:168,1,140
288,208,49832,1,0,0:0:0:0:
96,200,50059,6,0,L|48:176,1,52.5
184,104,50513,6,0,P|232:48|240:56,1,70
272,96,50741,2,0,P|224:152|216:144,1,70
152,216,50968,5,0,0:0:0:0:
408,48,51195,6,0,L|400:120,1,70
352,192,51423,1,0,0:0:0:0:
296,240,51536,1,0,0:0:0:0:
232,280,51650,1,0,0:0:0:0:
160,304,51763,1,0,0:0:0:0:
72,168,51877,6,0,L|128:120,1,70
184,176,52104,2,0,L|248:144,1,70
296,200,52332,2,0,L|376:184,1,70
392,256,52559,2,0,L|472:256,1,70
448,144,52786,6,0,L|407:82,1,70
338,120,53013,2,0,L|285:71,1,70
223,113,53241,2,0,L|150:75,1,70
120,144,53468,2,0,L|43:121,1,70
64,304,53695,6,0,L|72:224,1,70
168,144,53923,2,0,L|176:224,1,70
256,304,54150,2,0,L|280:216,1,70
368,144,54377,2,0,L|408:208,1,70
224,56,54604,6,0,L|296:32,1,70
136,136,54832,2,0,L|72:104,1,70
272,216,54945,2,0,L|344:192,1,70
112,296,55173,2,0,L|40:272,1,70
224,176,55513,6,0,L|295:128,1,70
282,137,55741,2,0,L|224:176,1,70
224,176,55968,2,0,L|288:136,1,70
288,144,56195,2,0,L|224:184,1,70
312,240,56423,6,0,L|344:256,9,35
256,192,57218,12,0,58013,0:0:0:0:
248,184,58241,6,0,B|208:112|208:112|248:64|280:64|280:64|288:64|288:64,1,175
376,128,58923,2,0,B|416:192|416:192|392:280|352:240,1,175
256,248,59604,6,0,B|232:240|232:240|224:264|224:264|216:232|216:232|152:240|152:240,1,140
168,120,61195,5,0,0:0:0:0:
296,80,61423,2,0,L|336:72,1,35
408,136,61650,2,0,L|456:168,1,35
384,256,61877,6,0,B|336:264|336:264|304:312|256:264|256:264|224:280,1,175
112,208,62559,6,0,L|72:200,1,35
40,136,62786,1,0,0:0:0:0:
248,80,63241,5,0,0:0:0:0:
400,168,63695,2,0,B|432:184|432:184|408:216|408:216|472:216|480:320,1,210
216,288,64604,6,0,L|176:288,1,35
160,56,65513,6,0,B|128:96|128:96|104:128|168:184|168:184|128:208,1,175
64,240,66195,2,0,B|56:288|56:288|48:296|48:296|56:320|112:328,1,105
184,296,66650,2,0,L|224:288,1,35
320,248,66877,2,0,B|360:208|360:208|360:232|384:224|384:224|400:200,1,105
392,104,67332,6,0,L|336:72,1,52.5
256,48,67786,2,0,L|168:40,1,87.5
128,136,68468,5,0,0:0:0:0:
288,64,68695,6,0,P|312:64|328:96,1,35
384,136,68923,2,0,L|416:192,1,35
336,256,69150,6,0,B|328:304|328:304|264:288|264:288|216:336,1,175
136,256,69832,6,0,L|144:200,1,35
152,120,70059,6,0,B|208:112|208:112|216:64|256:80|256:80|264:88,1,105
352,112,70513,6,0,L|384:80,1,35
472,120,70741,2,0,L|504:96,1,35
352,200,70968,6,0,B|336:232|336:232|320:264|144:248|144:248|96:176|176:80|176:80|264:120|280:80|280:80|280:80|280:80|288:88,1,525
376,72,72786,5,0,0:0:0:0:
152,104,73013,2,0,L|96:96,1,52.5000020027161
80,192,73241,1,0,0:0:0:0:
96,224,73354,1,0,0:0:0:0:
120,248,73468,1,0,0:0:0:0:
152,272,73582,1,0,0:0:0:0:
192,280,73695,1,0,0:0:0:0:
288,264,73923,6,0,L|336:224,1,52.5000020027161
344,152,74150,1,0,0:0:0:0:
376,128,74263,1,0,0:0:0:0:
416,120,74377,1,0,0:0:0:0:
456,136,74491,1,0,0:0:0:0:
488,168,74604,1,0,0:0:0:0:
272,48,74832,6,0,L|216:64,1,52.5000020027161
240,152,75059,1,0,0:0:0:0:
224,176,75173,1,0,0:0:0:0:
208,208,75286,1,0,0:0:0:0:
200,248,75400,1,0,0:0:0:0:
200,288,75513,1,0,0:0:0:0:
312,184,75741,6,0,L|328:128,1,52.5000020027161
384,88,75968,1,0,0:0:0:0:
352,56,76082,1,0,0:0:0:0:
312,40,76195,1,0,0:0:0:0:
272,32,76309,1,0,0:0:0:0:
224,40,76423,1,0,0:0:0:0:
64,208,76650,6,0,L|120:216,1,52.5000020027161
112,320,76877,1,0,0:0:0:0:
152,304,76991,1,0,0:0:0:0:
184,280,77104,1,0,0:0:0:0:
208,248,77218,1,0,0:0:0:0:
224,208,77332,1,0,0:0:0:0:
432,216,77559,6,0,L|368:208,1,52.5000020027161
312,296,77786,1,0,0:0:0:0:
288,272,77900,1,0,0:0:0:0:
264,240,78013,1,0,0:0:0:0:
248,208,78127,1,0,0:0:0:0:
240,168,78241,1,0,0:0:0:0:
96,104,78468,5,0,0:0:0:0:
264,40,78695,6,0,L|248:96,1,52.5000020027161
304,224,78923,2,0,L|320:160,1,52.5000020027161
432,80,79150,2,0,L|392:136,1,52.5000020027161
456,264,79377,2,0,L|432:208,1,52.5000020027161
288,184,79604,5,0,0:0:0:0:
288,184,79718,1,0,0:0:0:0:
288,184,79832,1,0,0:0:0:0:
288,184,79945,1,0,0:0:0:0:
352,72,80059,5,0,0:0:0:0:
376,96,80173,1,0,0:0:0:0:
400,120,80286,1,0,0:0:0:0:
424,144,80400,1,0,0:0:0:0:
360,224,80513,5,0,0:0:0:0:
336,232,80627,1,0,0:0:0:0:
312,240,80741,1,0,0:0:0:0:
288,248,80854,1,0,0:0:0:0:
176,192,80968,5,0,0:0:0:0:
152,192,81082,1,0,0:0:0:0:
128,192,81195,1,0,0:0:0:0:
104,192,81309,1,0,0:0:0:0:
80,104,81423,5,0,0:0:0:0:
112,80,81536,1,0,0:0:0:0:
144,56,81650,1,0,0:0:0:0:
176,32,81763,1,0,0:0:0:0:
264,104,81877,5,0,0:0:0:0:
288,112,81991,1,0,0:0:0:0:
312,120,82104,1,0,0:0:0:0:
336,128,82218,1,0,0:0:0:0:
424,240,82332,5,0,0:0:0:0:
400,280,82445,1,0,0:0:0:0:
376,320,82559,1,0,0:0:0:0:
352,360,82673,1,0,0:0:0:0:
240,288,82786,5,0,0:0:0:0:
232,248,82900,1,0,0:0:0:0:
224,208,83013,1,0,0:0:0:0:
216,176,83127,1,0,0:0:0:0:
248,64,83354,5,0,0:0:0:0:
312,104,83468,1,0,0:0:0:0:
376,72,83582,1,0,0:0:0:0:
472,144,83695,2,0,L|512:184,10,52.5000020027161
408,240,84604,6,0,L|384:232,18,17.5
424,120,85513,6,0,L|400:112,1,17.5
344,192,85627,2,0,L|320:184,1,17.5
240,240,85741,2,0,L|216:232,1,17.5
128,248,85854,2,0,L|104:240,1,17.5
128,264,85968,6,0,P|160:216|128:288,1,420
224,120,86877,5,0,0:0:0:0:
344,296,87332,5,0,0:0:0:0:
400,24,87559,1,0,0:0:0:0:
288,112,87673,1,0,0:0:0:0:
112,72,87900,5,0,0:0:0:0:
192,192,88013,1,0,0:0:0:0:
128,296,88241,5,0,0:0:0:0:
240,288,88354,2,0,L|320:256,1,70
416,80,88695,6,0,L|448:48,1,35
200,312,89150,5,0,0:0:0:0:
64,56,89377,1,0,0:0:0:0:
192,120,89491,1,0,0:0:0:0:
384,192,89718,5,0,0:0:0:0:
264,272,89832,1,0,0:0:0:0:
104,328,90059,5,0,0:0:0:0:
32,248,90173,2,0,L|16:176,1,70
144,104,90513,6,0,L|160:120,1,17.5
156,116,90627,2,0,L|176:136,1,17.5
168,128,90741,2,0,L|184:144,1,17.5
184,144,90854,2,0,L|200:160,1,17.5
256,248,90968,5,0,0:0:0:0:
464,24,91195,5,0,0:0:0:0:
336,80,91309,1,0,0:0:0:0:
224,232,91536,5,0,0:0:0:0:
344,304,91650,1,0,0:0:0:0:
192,344,91877,5,0,0:0:0:0:
96,288,91991,2,0,L|32:256,1,70
304,192,92332,6,0,L|328:176,1,17.5
416,160,92559,2,0,L|440:120,1,35
344,48,92900,5,0,0:0:0:0:
344,48,93013,1,0,0:0:0:0:
344,48,93127,1,0,0:0:0:0:
232,104,93241,6,0,L|211:114,1,17.5
216,111,93355,2,0,L|190:123,1,17.5
201,119,93469,2,0,L|180:129,1,17.5
181,129,93582,2,0,L|160:139,1,17.5
136,272,93695,6,0,L|208:288,2,70
384,216,94150,5,0,0:0:0:0:
232,144,94263,1,0,0:0:0:0:
456,160,94377,1,0,0:0:0:0:
232,64,94491,1,0,0:0:0:0:
344,0,94604,5,0,0:0:0:0:
144,32,94832,5,0,0:0:0:0:
56,144,94945,1,0,0:0:0:0:
224,248,95173,5,0,0:0:0:0:
336,336,95286,1,0,0:0:0:0:
128,272,95513,5,0,0:0:0:0:
192,144,95627,2,0,L|224:80,1,70
408,56,95968,6,0,L|464:56,1,52.5
464,152,96423,5,0,0:0:0:0:
368,256,96650,5,0,0:0:0:0:
248,336,96763,1,0,0:0:0:0:
160,208,96991,5,0,0:0:0:0:
80,320,97104,1,0,0:0:0:0:
80,144,97332,5,0,0:0:0:0:
200,72,97445,6,0,L|264:32,1,70
216,320,97786,5,0,0:0:0:0:
216,320,97900,2,0,B|280:288|280:288|272:296|272:296|280:256|368:280|368:280|376:272,1,140
376,232,98241,5,0,0:0:0:0:
416,80,98468,5,0,0:0:0:0:
280,120,98582,1,0,0:0:0:0:
120,48,98809,5,0,0:0:0:0:
64,176,98923,1,0,0:0:0:0:
136,344,99150,5,0,0:0:0:0:
253,315,99263,2,0,L|311:266,1,70
336,136,99604,6,0,B|352:112|352:112|376:120|328:96|392:112|392:112|360:96|360:96|384:96|384:96|400:112|400:112|432:32,1,245
384,8,100059,5,0,0:0:0:0:
312,48,100173,2,0,L|296:56,1,17.5
240,96,100286,2,0,L|248:112,1,17.5
264,184,100400,2,0,L|240:192,1,17.5
120,176,100513,5,0,0:0:0:0:
112,112,100627,1,0,0:0:0:0:
112,48,100741,2,0,B|160:32|160:32|176:96|216:72,1,70
256,88,100968,6,0,L|280:96,1,17.5
352,128,101082,2,0,L|344:144,1,17.5
408,208,101195,2,0,L|432:208,1,17.5
480,280,101309,2,0,L|472:304,1,17.5
312,232,101423,5,0,0:0:0:0:
248,232,101536,1,0,0:0:0:0:
184,232,101650,2,0,L|160:232,1,17.5
104,232,101763,2,0,L|80:232,1,17.5
56,152,101877,6,0,B|88:88|88:88|144:48|224:80,1,210
320,112,102332,6,0,B|256:144|256:144|256:192,1,70
152,240,102559,1,0,0:0:0:0:
64,128,102673,1,0,0:0:0:0:
256,40,102900,5,0,0:0:0:0:
360,120,103014,1,0,0:0:0:0:
448,232,103241,6,0,L|360:248,1,70
296,256,103468,2,0,L|344:320,1,70
184,288,103695,6,0,B|112:264|112:264|80:256|104:200|104:200|48:232,1,210
48,328,104150,6,0,L|128:352,1,70
256,320,104377,1,0,0:0:0:0:
376,240,104491,1,0,0:0:0:0:
