osu file format v14

[General]
AudioFilename: audio.mp3
AudioLeadIn: 0
PreviewTime: 239969
Countdown: 0
SampleSet: Normal
StackLeniency: 0.2
Mode: 0
LetterboxInBreaks: 0
WidescreenStoryboard: 0

[Editor]
DistanceSpacing: 0.5
BeatDivisor: 8
GridSize: 32
TimelineZoom: 2.7

[Metadata]
Title:Ibuki
TitleUnicode:Ibuki
Artist:Nhato
ArtistUnicode:Nhato
Creator:Naidaaka
Version:owo
Source:
Tags:
BeatmapID:1405291
BeatmapSetID:663965

[Difficulty]
HPDrainRate:5
CircleSize:4.4
OverallDifficulty:9.2
ApproachRate:9.5
SliderMultiplier:1.4
SliderTickRate:1

[Events]
//Background and Video events
0,0,"AkiZero1510.full.2054433.jpg",0,0
//Break Periods
2,58464,70467
2,131192,143194
2,194828,203194
2,276646,290467
//Storyboard Layer 0 (Background)
//Storyboard Layer 1 (Fail)
//Storyboard Layer 2 (Pass)
//Storyboard Layer 3 (Foreground)
//Storyboard Sound Samples

[TimingPoints]
83,454.545454545455,4,1,0,75,1,0
83,-90.9090909090909,4,2,0,50,0,0
14628,-76.9230769230769,4,1,0,70,0,0
14855,-76.9230769230769,4,2,0,70,0,0
15083,-76.9230769230769,4,1,0,70,0,0
15196,-76.9230769230769,4,2,0,70,0,0
15423,-62.5,4,1,0,70,0,0
15651,-62.5,4,2,0,70,0,0
15992,-76.9230769230769,4,1,0,70,0,0
16105,-76.9230769230769,4,2,0,70,0,0
16333,-62.5,4,1,0,70,0,0
16560,-62.5,4,2,0,70,0,0
16901,-76.9230769230769,4,1,0,70,0,0
17014,-76.9230769230769,4,2,0,70,0,0
17242,-62.5,4,1,0,70,0,0
17469,-62.5,4,2,0,70,0,0
17583,-76.9230769230769,4,1,0,70,0,0
17696,-76.9230769230769,4,2,0,70,0,0
17810,-76.9230769230769,4,1,0,70,0,0
17923,-76.9230769230769,4,2,0,70,0,0
18151,-62.5,4,1,0,70,0,0
18378,-62.5,4,2,0,70,0,0
18719,-76.9230769230769,4,1,0,70,0,0
18833,-76.9230769230769,4,2,0,70,0,0
19060,-62.5,4,1,0,70,0,0
19287,-62.5,4,2,0,70,0,0
19628,-76.9230769230769,4,1,0,70,0,0
19742,-76.9230769230769,4,2,0,70,0,0
19969,-62.5,4,1,0,70,0,0
20196,-62.5,4,2,0,70,0,0
20310,-76.9230769230769,4,1,0,70,0,0
20367,-76.9230769230769,4,2,0,70,0,0
20537,-76.9230769230769,4,1,0,70,0,0
20651,-76.9230769230769,4,2,0,70,0,0
20878,-62.5,4,1,0,70,0,0
21105,-62.5,4,2,0,70,0,0
21219,-76.9230769230769,4,1,0,70,0,0
21333,-76.9230769230769,4,2,0,70,0,0
21446,-76.9230769230769,4,1,0,70,0,0
22128,-76.9230769230769,4,2,0,70,0,0
22355,-76.9230769230769,4,1,0,70,0,0
22469,-76.9230769230769,4,2,0,70,0,0
22696,-62.5,4,1,0,70,0,0
22923,-62.5,4,2,0,70,0,0
23264,-76.9230769230769,4,1,0,70,0,0
23378,-76.9230769230769,4,2,0,70,0,0
23605,-62.5,4,1,0,70,0,0
23833,-62.5,4,2,0,70,0,0
24173,-76.9230769230769,4,1,0,70,0,0
24287,-76.9230769230769,4,2,0,70,0,0
24514,-62.5,4,1,0,70,0,0
24742,-62.5,4,2,0,70,0,0
24855,-76.9230769230769,4,1,0,70,0,0
24969,-76.9230769230769,4,2,0,70,0,0
25083,-76.9230769230769,4,1,0,70,0,0
25196,-76.9230769230769,4,2,0,70,0,0
25423,-62.5,4,1,0,70,0,0
25651,-62.5,4,2,0,70,0,0
25992,-76.9230769230769,4,1,0,70,0,0
26105,-76.9230769230769,4,2,0,70,0,0
26333,-62.5,4,1,0,70,0,0
26560,-62.5,4,2,0,70,0,0
26673,-76.9230769230769,4,1,0,70,0,0
26787,-76.9230769230769,4,2,0,70,0,0
26901,-76.9230769230769,4,1,0,70,0,0
27014,-76.9230769230769,4,2,0,70,0,0
27242,-76.9230769230769,4,1,0,70,0,0
27355,-76.9230769230769,4,2,0,70,0,0
28264,-76.9230769230769,4,2,0,80,0,0
29173,-52.6315789473684,4,1,0,80,0,1
29401,-52.6315789473684,4,1,0,80,0,0
29628,-62.5,4,1,0,80,0,0
29969,-52.6315789473684,4,1,0,80,0,0
30310,-62.5,4,1,0,80,0,0
30878,-52.6315789473684,4,1,0,80,0,0
31219,-62.5,4,1,0,80,0,0
31787,-52.6315789473684,4,1,0,80,0,0
32128,-62.5,4,1,0,80,0,0
32696,-52.6315789473684,4,1,0,80,0,0
33037,-62.5,4,1,0,80,0,0
33605,-52.6315789473684,4,1,0,80,0,0
33946,-62.5,4,1,0,80,0,0
34514,-52.6315789473684,4,1,0,80,0,0
34855,-76.9230769230769,4,1,0,80,0,0
35083,-62.5,4,1,0,80,0,0
35537,-30,4,1,0,80,0,1
35764,-30,4,1,0,80,0,0
35992,-62.5,4,1,0,80,0,0
36105,-50,4,1,0,80,0,0
36673,-62.5,4,1,0,80,0,0
37242,-52.6315789473684,4,1,0,80,0,0
37583,-62.5,4,1,0,80,0,0
38151,-52.6315789473684,4,1,0,80,0,0
38492,-62.5,4,1,0,80,0,0
39060,-52.6315789473684,4,1,0,80,0,0
39401,-62.5,4,1,0,80,0,0
39969,-52.6315789473684,4,1,0,80,0,0
40310,-62.5,4,1,0,80,0,0
40878,-52.6315789473684,4,1,0,80,0,0
41219,-62.5,4,1,0,80,0,0
41901,-62.5,4,2,0,80,0,0
42696,-50,4,1,0,80,0,0
42810,-100,4,1,0,80,0,0
43264,-100,4,1,0,80,0,1
43378,-100,4,1,0,80,0,0
43719,-52.6315789473684,4,1,0,80,0,1
43946,-52.6315789473684,4,1,0,80,0,0
44173,-62.5,4,1,0,80,0,0
44514,-52.6315789473684,4,1,0,80,0,0
44855,-62.5,4,1,0,80,0,0
45423,-52.6315789473684,4,1,0,80,0,0
45764,-62.5,4,1,0,80,0,0
46333,-52.6315789473684,4,1,0,80,0,0
46673,-62.5,4,1,0,80,0,0
47242,-52.6315789473684,4,1,0,80,0,0
47583,-62.5,4,1,0,80,0,0
48151,-52.6315789473684,4,1,0,80,0,0
48492,-62.5,4,1,0,80,0,0
49060,-52.6315789473684,4,1,0,80,0,0
49401,-62.5,4,1,0,80,0,0
50083,-30,4,1,0,80,0,1
50310,-30,4,1,0,80,0,0
50537,-50,4,1,0,80,0,0
50992,-76.9230769230769,4,1,0,80,0,0
58264,-62.5,4,2,0,80,0,0
70992,-62.5,4,2,0,80,0,0
72583,-62.5,4,1,0,5,0,0
72810,-100,4,1,0,80,0,0
83264,-76.9230769230769,4,1,0,80,0,0
83719,-76.9230769230769,4,1,0,80,0,0
85537,-76.9230769230769,4,1,0,80,0,0
86901,-76.9230769230769,4,1,0,100,0,0
87355,-45.4545454545455,4,1,0,90,0,1
87810,-52.6315789473684,4,1,0,90,0,0
88378,-125,4,1,0,90,0,0
88719,-76.9230769230769,4,1,0,90,0,0
89173,-45.4545454545455,4,1,0,90,0,1
89628,-52.6315789473684,4,1,0,90,0,0
90196,-125,4,1,0,90,0,0
90537,-200,4,1,0,90,0,1
90594,-200,4,1,0,5,0,0
90651,-200,4,1,0,90,0,1
90708,-200,4,1,0,5,0,0
90764,-200,4,1,0,90,0,1
90821,-200,4,1,0,5,0,0
90878,-200,4,1,0,90,0,1
90935,-200,4,1,0,5,0,0
90992,-45.4545454545455,4,1,0,90,0,1
91446,-52.6315789473684,4,1,0,90,0,0
92014,-125,4,1,0,90,0,0
92355,-76.9230769230769,4,1,0,90,0,0
92810,-30.03003003003,4,1,0,90,0,1
93037,-30.03003003003,4,1,0,90,0,0
93264,-20,4,1,0,90,0,1
93321,-20,4,1,0,5,0,0
93378,-20,4,1,0,90,0,1
93435,-20,4,1,0,5,0,0
93492,-20,4,1,0,90,0,1
93548,-20,4,1,0,5,0,0
93605,-20,4,1,0,90,0,1
93662,-20,4,1,0,5,0,0
93719,-52.6315789473684,4,1,0,90,0,1
93946,-62.5,4,1,0,90,0,0
94173,-62.5,4,1,0,90,0,1
94401,-62.5,4,1,0,90,0,0
94628,-45.4545454545455,4,1,0,90,0,1
95083,-52.6315789473684,4,1,0,90,0,0
95651,-125,4,1,0,90,0,0
95992,-76.9230769230769,4,1,0,90,0,0
96446,-45.4545454545455,4,1,0,90,0,1
96901,-52.6315789473684,4,1,0,90,0,0
97469,-125,4,1,0,90,0,0
97810,-76.9230769230769,4,1,0,90,0,0
98264,-45.4545454545455,4,1,0,90,0,1
98719,-52.6315789473684,4,1,0,90,0,0
99287,-125,4,1,0,90,0,0
99628,-50,4,1,0,90,0,1
99685,-50,4,1,0,5,0,0
99742,-50,4,1,0,90,0,1
99798,-50,4,1,0,5,0,0
99855,-50,4,1,0,90,0,1
99912,-50,4,1,0,5,0,0
99969,-50,4,1,0,90,0,1
100026,-50,4,1,0,5,0,0
100083,-45.4545454545455,4,1,0,90,0,1
100537,-125,4,1,0,90,0,0
100992,-125,4,1,0,90,0,1
101219,-125,4,1,0,90,0,0
101901,-40,4,1,0,90,0,1
102355,-45.4545454545455,4,1,0,90,0,1
103719,-40,4,1,0,90,0,1
104173,-45.4545454545455,4,1,0,90,0,1
105310,-76.9230769230769,4,1,0,90,0,1
105537,-40,4,1,0,90,0,1
105992,-45.4545454545455,4,1,0,90,0,1
107355,-40,4,1,0,90,0,1
107810,-22.2222222222222,4,1,0,90,0,1
107867,-22.2222222222222,4,1,0,5,0,0
107923,-22.2222222222222,4,1,0,90,0,1
107980,-22.2222222222222,4,1,0,5,0,0
108037,-22.2222222222222,4,1,0,90,0,1
108094,-22.2222222222222,4,1,0,5,0,0
108151,-22.2222222222222,4,1,0,90,0,1
108208,-22.2222222222222,4,1,0,5,0,0
108264,-45.4545454545455,4,1,0,90,0,1
108378,-45.4545454545455,4,1,0,90,0,0
108492,-66.6666666666667,4,1,0,90,0,0
109173,-40,4,1,0,90,0,1
109628,-45.4545454545455,4,1,0,90,0,1
110992,-40,4,1,0,90,0,1
111446,-45.4545454545455,4,1,0,90,0,1
112583,-76.9230769230769,4,1,0,90,0,1
112810,-40,4,1,0,90,0,1
113264,-45.4545454545455,4,1,0,90,0,1
114628,-40,4,1,0,90,0,1
115083,-45.4545454545455,4,1,0,90,0,1
115764,-45.4545454545455,4,1,0,90,0,0
115992,-45.4545454545455,4,1,0,90,0,1
116219,-45.4545454545455,4,1,0,90,0,0
116446,-40,4,1,0,90,0,1
116901,-45.4545454545455,4,1,0,90,0,1
118264,-40,4,1,0,90,0,1
118719,-45.4545454545455,4,1,0,90,0,1
119855,-66.6666666666667,4,1,0,90,0,1
120083,-40,4,1,0,90,0,1
120537,-45.4545454545455,4,1,0,90,0,1
121901,-40,4,1,0,90,0,1
122355,-20,4,1,0,90,0,1
122412,-20,4,1,0,5,0,0
122469,-20,4,1,0,90,0,1
122526,-20,4,1,0,5,0,0
122583,-20,4,1,0,90,0,1
122639,-20,4,1,0,5,0,0
122696,-20,4,1,0,90,0,1
122753,-20,4,1,0,5,0,0
122810,-40,4,1,0,90,0,1
122923,-20,4,1,0,90,0,0
123037,-55.5555555555556,4,1,0,90,0,0
123719,-40,4,1,0,90,0,1
124173,-45.4545454545455,4,1,0,90,0,1
125537,-40,4,1,0,90,0,1
125992,-45.4545454545455,4,1,0,90,0,1
127355,-30.03003003003,4,1,0,90,0,1
127583,-30.03003003003,4,1,0,90,0,0
127696,-30.03003003003,4,1,0,90,0,1
127923,-30.03003003003,4,1,0,90,0,0
128037,-30.03003003003,4,1,0,90,0,1
128264,-30.03003003003,4,1,0,90,0,0
128492,-45.4545454545455,4,1,0,90,0,0
128719,-83.3333333333333,4,1,0,90,0,0
129173,-55.5555555555556,4,1,0,70,0,1
130083,-55.5555555555556,4,1,0,50,0,1
130764,-55.5555555555556,4,1,0,90,0,0
130992,-45.4545454545455,4,1,0,90,0,1
131048,-45.4545454545455,4,1,0,90,0,0
145310,-45.4545454545455,4,2,0,5,0,0
145537,-66.6666666666667,4,1,0,65,0,1
145651,-66.6666666666667,4,1,0,65,0,0
146901,-100,4,1,0,65,0,0
148037,-66.6666666666667,4,1,0,65,0,0
150083,-90.9090909090909,4,1,0,65,0,0
151219,-100,4,1,0,65,0,0
152810,-66.6666666666667,4,1,0,65,0,1
152923,-66.6666666666667,4,1,0,65,0,0
154173,-100,4,1,0,65,0,0
156446,-66.6666666666667,4,1,0,65,0,0
157696,-66.6666666666667,4,1,0,5,0,0
157810,-66.6666666666667,4,1,0,65,0,0
158151,-66.6666666666667,4,1,0,5,0,0
158264,-66.6666666666667,4,1,0,65,0,0
159628,-100,4,1,0,65,0,0
160083,-58.8235294117647,4,1,0,65,0,1
167128,-58.8235294117647,4,1,0,65,0,0
167355,-58.8235294117647,4,1,0,65,0,1
174401,-58.8235294117647,4,1,0,65,0,0
174628,-76.9230769230769,4,1,0,65,0,1
174855,-76.9230769230769,4,1,0,65,0,0
175083,-76.9230769230769,4,1,0,65,0,1
175310,-76.9230769230769,4,1,0,65,0,0
175537,-76.9230769230769,4,1,0,65,0,1
175764,-76.9230769230769,4,1,0,65,0,0
175992,-76.9230769230769,4,1,0,65,0,1
176219,-76.9230769230769,4,1,0,65,0,0
176446,-76.9230769230769,4,1,0,65,0,1
176673,-76.9230769230769,4,1,0,65,0,0
176901,-76.9230769230769,4,1,0,65,0,1
177128,-76.9230769230769,4,1,0,65,0,0
177355,-76.9230769230769,4,1,0,65,0,1
177583,-76.9230769230769,4,1,0,65,0,0
177810,-76.9230769230769,4,1,0,65,0,1
178037,-76.9230769230769,4,1,0,65,0,0
178264,-76.9230769230769,4,1,0,65,0,1
178946,-76.9230769230769,4,1,0,65,0,0
179173,-76.9230769230769,4,1,0,65,0,1
179855,-76.9230769230769,4,1,0,65,0,0
180083,-76.9230769230769,4,1,0,65,0,1
180310,-58.8235294117647,4,1,0,65,0,0
180423,-58.8235294117647,4,1,0,65,0,1
180537,-58.8235294117647,4,1,0,65,0,0
181901,-76.9230769230769,4,1,0,65,0,1
182128,-76.9230769230769,4,1,0,65,0,0
182355,-76.9230769230769,4,1,0,65,0,1
182583,-76.9230769230769,4,1,0,65,0,0
182810,-76.9230769230769,4,1,0,65,0,1
183037,-76.9230769230769,4,1,0,65,0,0
183264,-76.9230769230769,4,1,0,65,0,1
183492,-76.9230769230769,4,1,0,65,0,0
183719,-76.9230769230769,4,1,0,65,0,1
183946,-76.9230769230769,4,1,0,65,0,0
184173,-76.9230769230769,4,1,0,65,0,1
184401,-76.9230769230769,4,1,0,65,0,0
184628,-76.9230769230769,4,1,0,65,0,1
184855,-76.9230769230769,4,1,0,65,0,0
185083,-76.9230769230769,4,1,0,65,0,0
185537,-76.9230769230769,4,1,0,65,0,1
185992,-76.9230769230769,4,1,0,65,0,0
186446,-76.9230769230769,4,1,0,65,0,1
186901,-76.9230769230769,4,1,0,65,0,0
187355,-76.9230769230769,4,1,0,65,0,1
188264,-55.5555555555556,4,1,0,65,0,1
189060,-55.5555555555556,4,1,0,65,0,0
189173,-55.5555555555556,4,1,0,65,0,1
189287,-55.5555555555556,4,1,0,65,0,0
203719,-55.5555555555556,4,1,0,65,0,1
203833,-55.5555555555556,4,1,0,65,0,0
204173,-76.9230769230769,4,1,0,65,0,0
205537,-76.9230769230769,4,1,0,65,0,1
205651,-76.9230769230769,4,1,0,65,0,0
207355,-76.9230769230769,4,1,0,65,0,1
207469,-76.9230769230769,4,1,0,65,0,0
209173,-76.9230769230769,4,1,0,65,0,1
209287,-76.9230769230769,4,1,0,65,0,0
210992,-55.5555555555556,4,1,0,75,0,1
211105,-55.5555555555556,4,1,0,75,0,0
212810,-50,4,1,0,80,0,1
212923,-50,4,1,0,80,0,0
214628,-50,4,1,0,85,0,1
214855,-50,4,1,0,85,0,0
215083,-50,4,1,0,85,0,1
215310,-50,4,1,0,85,0,0
215537,-66.6666666666667,4,1,0,90,0,1
215651,-66.6666666666667,4,1,0,90,0,0
215764,-66.6666666666667,4,1,0,90,0,1
215878,-66.6666666666667,4,1,0,90,0,0
215992,-66.6666666666667,4,1,0,90,0,1
216105,-66.6666666666667,4,1,0,90,0,0
216219,-66.6666666666667,4,1,0,90,0,1
216333,-66.6666666666667,4,1,0,90,0,0
216446,-66.6666666666667,4,1,0,90,0,1
216560,-66.6666666666667,4,1,0,90,0,0
217810,-66.6666666666667,4,1,0,90,0,1
217923,-66.6666666666667,4,1,0,90,0,0
218264,-34.4827586206897,4,1,0,90,0,1
218492,-34.4827586206897,4,1,0,90,0,0
218719,-34.4827586206897,4,1,0,90,0,1
218946,-34.4827586206897,4,1,0,90,0,0
219060,-45.4545454545455,4,1,0,90,0,1
219401,-58.8235294117647,4,1,0,90,0,1
219514,-58.8235294117647,4,1,0,37,0,0
219628,-45.4545454545455,4,1,0,90,0,1
219969,-45.4545454545455,4,1,0,90,0,0
220083,-45.4545454545455,4,1,0,90,0,1
221219,-58.8235294117647,4,1,0,90,0,0
221333,-58.8235294117647,4,1,0,37,0,0
221446,-45.4545454545455,4,1,0,90,0,0
221901,-45.4545454545455,4,1,0,90,0,1
222128,-45.4545454545455,4,1,0,90,0,0
222355,-45.4545454545455,4,1,0,90,0,1
222583,-45.4545454545455,4,1,0,90,0,0
222810,-45.4545454545455,4,1,0,90,0,1
223492,-58.8235294117647,4,1,0,90,0,0
223719,-34.4827586206897,4,1,0,90,0,1
224173,-34.4827586206897,4,1,0,90,0,1
224230,-34.4827586206897,4,1,0,5,0,0
224287,-34.4827586206897,4,1,0,90,0,1
224344,-34.4827586206897,4,1,0,5,0,0
224401,-34.4827586206897,4,1,0,90,0,1
224458,-34.4827586206897,4,1,0,5,0,0
224514,-38.4615384615385,4,1,0,90,0,1
224742,-45.4545454545455,4,1,0,90,0,0
225083,-45.4545454545455,4,1,0,90,0,1
225423,-45.4545454545455,4,1,0,90,0,0
225537,-34.4827586206897,4,1,0,90,0,1
225764,-34.4827586206897,4,1,0,90,0,0
225992,-34.4827586206897,4,1,0,90,0,1
226219,-34.4827586206897,4,1,0,90,0,0
226333,-45.4545454545455,4,1,0,90,0,1
226673,-58.8235294117647,4,1,0,90,0,0
226901,-45.4545454545455,4,1,0,90,0,1
227242,-45.4545454545455,4,1,0,90,0,0
227355,-45.4545454545455,4,1,0,90,0,1
228264,-58.8235294117647,4,1,0,90,0,1
228378,-58.8235294117647,4,1,0,37,0,0
228492,-45.4545454545455,4,1,0,90,0,0
228946,-34.4827586206897,4,1,0,90,0,0
229003,-34.4827586206897,4,1,0,5,0,0
229060,-34.4827586206897,4,1,0,90,0,0
229117,-34.4827586206897,4,1,0,5,0,0
229173,-45.4545454545455,4,1,0,90,0,1
229401,-45.4545454545455,4,1,0,90,0,0
229628,-45.4545454545455,4,1,0,90,0,1
229855,-45.4545454545455,4,1,0,90,0,0
230083,-45.4545454545455,4,1,0,90,0,1
230537,-45.4545454545455,4,1,0,90,0,0
230764,-45.4545454545455,4,1,0,90,0,1
230878,-45.4545454545455,4,1,0,90,0,0
230992,-45.4545454545455,4,1,0,90,0,1
231219,-45.4545454545455,4,1,0,90,0,0
231446,-45.4545454545455,4,1,0,90,0,1
231673,-45.4545454545455,4,1,0,90,0,0
231901,-58.8235294117647,4,1,0,90,0,0
232128,-58.8235294117647,4,1,0,90,0,1
232355,-45.4545454545455,4,1,0,90,0,0
232810,-33.3333333333333,4,1,0,90,0,1
233037,-33.3333333333333,4,1,0,90,0,0
233264,-33.3333333333333,4,1,0,90,0,1
233492,-33.3333333333333,4,1,0,90,0,0
233605,-43.4782608695652,4,1,0,90,0,1
233946,-55.5555555555556,4,1,0,90,0,1
234060,-55.5555555555556,4,1,0,37,0,0
234173,-43.4782608695652,4,1,0,90,0,1
234514,-43.4782608695652,4,1,0,90,0,0
234628,-45.4545454545455,4,1,0,90,0,1
235537,-58.8235294117647,4,1,0,90,0,1
235651,-58.8235294117647,4,1,0,37,0,1
235764,-45.4545454545455,4,1,0,90,0,0
236446,-45.4545454545455,4,1,0,90,0,1
236673,-45.4545454545455,4,1,0,90,0,0
236901,-45.4545454545455,4,1,0,90,0,1
237128,-45.4545454545455,4,1,0,90,0,0
237355,-45.4545454545455,4,1,0,90,0,1
237583,-45.4545454545455,4,1,0,90,0,0
237810,-45.4545454545455,4,1,0,90,0,1
238037,-45.4545454545455,4,1,0,90,0,0
238264,-34.4827586206897,4,1,0,90,0,1
238605,-34.4827586206897,4,1,0,90,0,1
238719,-34.4827586206897,4,1,0,90,0,1
238776,-34.4827586206897,4,1,0,5,0,0
238833,-34.4827586206897,4,1,0,90,0,1
238889,-34.4827586206897,4,1,0,5,0,0
238946,-34.4827586206897,4,1,0,90,0,1
239003,-34.4827586206897,4,1,0,5,0,0
239060,-38.4615384615385,4,1,0,90,0,1
239287,-45.4545454545455,4,1,0,90,0,1
239401,-45.4545454545455,4,1,0,90,0,0
239628,-45.4545454545455,4,1,0,90,0,1
240083,-33.3333333333333,4,1,0,90,0,1
240310,-33.3333333333333,4,1,0,90,0,0
240537,-33.3333333333333,4,1,0,90,0,1
240764,-33.3333333333333,4,1,0,90,0,0
240878,-43.4782608695652,4,1,0,90,0,1
241219,-55.5555555555556,4,1,0,90,0,1
241333,-55.5555555555556,4,1,0,37,0,0
241446,-43.4782608695652,4,1,0,90,0,1
241787,-43.4782608695652,4,1,0,90,0,0
241901,-45.4545454545455,4,1,0,90,0,1
242128,-45.4545454545455,4,1,0,90,0,0
242355,-45.4545454545455,4,1,0,90,0,1
242583,-45.4545454545455,4,1,0,90,0,0
242810,-58.8235294117647,4,1,0,90,0,1
243037,-45.4545454545455,4,1,0,90,0,0
243492,-34.4827586206897,4,1,0,90,0,1
243548,-34.4827586206897,4,1,0,5,0,0
243605,-34.4827586206897,4,1,0,90,0,0
243662,-34.4827586206897,4,1,0,5,0,0
243719,-45.4545454545455,4,1,0,90,0,1
243946,-45.4545454545455,4,1,0,90,0,0
244173,-45.4545454545455,4,1,0,90,0,1
244401,-45.4545454545455,4,1,0,90,0,0
244628,-45.4545454545455,4,1,0,90,0,1
244855,-45.4545454545455,4,1,0,90,0,0
245083,-45.4545454545455,4,1,0,90,0,1
245537,-55.5555555555556,4,1,0,90,0,1
246446,-45.4545454545455,4,1,0,90,0,0
246901,-45.4545454545455,4,1,0,90,0,1
247128,-45.4545454545455,4,1,0,90,0,0
247355,-33.3333333333333,4,1,0,90,0,1
247583,-33.3333333333333,4,1,0,90,0,0
247810,-33.3333333333333,4,1,0,90,0,1
248037,-33.3333333333333,4,1,0,90,0,0
248151,-43.4782608695652,4,1,0,90,0,1
248264,-43.4782608695652,4,1,0,90,0,0
248492,-55.5555555555556,4,1,0,90,0,1
248605,-55.5555555555556,4,1,0,37,0,0
248719,-43.4782608695652,4,1,0,90,0,1
249060,-43.4782608695652,4,1,0,90,0,0
249173,-45.4545454545455,4,1,0,90,0,1
249401,-45.4545454545455,4,1,0,90,0,0
249628,-45.4545454545455,4,1,0,90,0,1
249855,-45.4545454545455,4,1,0,90,0,0
250083,-58.8235294117647,4,1,0,90,0,1
250310,-45.4545454545455,4,1,0,90,0,1
250992,-45.4545454545455,4,1,0,90,0,1
251219,-45.4545454545455,4,1,0,90,0,0
251446,-45.4545454545455,4,1,0,90,0,1
251673,-45.4545454545455,4,1,0,90,0,0
251901,-45.4545454545455,4,1,0,90,0,1
252128,-45.4545454545455,4,1,0,90,0,0
252355,-45.4545454545455,4,1,0,90,0,1
252583,-45.4545454545455,4,1,0,90,0,0
252810,-34.4827586206897,4,1,0,90,0,1
253037,-34.4827586206897,4,1,0,90,0,0
253264,-34.4827586206897,4,1,0,90,0,1
253321,-34.4827586206897,4,1,0,5,0,0
253378,-34.4827586206897,4,1,0,90,0,1
253435,-34.4827586206897,4,1,0,5,0,0
253492,-34.4827586206897,4,1,0,90,0,1
253548,-34.4827586206897,4,1,0,5,0,0
253605,-34.4827586206897,4,1,0,90,0,1
253946,-45.4545454545455,4,1,0,90,0,0
254173,-45.4545454545455,4,1,0,90,0,1
254401,-45.4545454545455,4,1,0,90,0,0
254628,-33.3333333333333,4,1,0,90,0,1
254855,-33.3333333333333,4,1,0,90,0,0
255083,-33.3333333333333,4,1,0,90,0,1
255310,-33.3333333333333,4,1,0,90,0,0
255423,-43.4782608695652,4,1,0,90,0,1
255764,-55.5555555555556,4,1,0,90,0,1
255878,-55.5555555555556,4,1,0,37,0,0
255992,-43.4782608695652,4,1,0,90,0,1
256333,-43.4782608695652,4,1,0,90,0,0
256446,-45.4545454545455,4,1,0,90,0,1
256673,-45.4545454545455,4,1,0,90,0,0
256901,-45.4545454545455,4,1,0,90,0,1
257128,-45.4545454545455,4,1,0,90,0,0
257355,-58.8235294117647,4,1,0,90,0,1
257583,-45.4545454545455,4,1,0,90,0,0
258037,-34.4827586206897,4,1,0,90,0,1
258094,-34.4827586206897,4,1,0,5,0,0
258151,-34.4827586206897,4,1,0,90,0,1
258208,-34.4827586206897,4,1,0,5,0,0
258264,-45.4545454545455,4,1,0,90,0,1
258492,-45.4545454545455,4,1,0,90,0,0
258719,-45.4545454545455,4,1,0,90,0,1
258946,-45.4545454545455,4,1,0,90,0,0
259173,-45.4545454545455,4,1,0,90,0,1
259401,-45.4545454545455,4,1,0,90,0,0
259628,-45.4545454545455,4,1,0,90,0,1
259855,-45.4545454545455,4,1,0,90,0,0
260083,-45.4545454545455,4,1,0,90,0,1
261219,-45.4545454545455,4,1,0,90,0,0
261446,-45.4545454545455,4,1,0,90,0,1
261560,-45.4545454545455,4,1,0,90,0,0
261673,-45.4545454545455,4,1,0,90,0,1
261787,-45.4545454545455,4,1,0,90,0,0
261901,-33.3333333333333,4,1,0,90,0,1
262128,-33.3333333333333,4,1,0,90,0,0
262355,-33.3333333333333,4,1,0,90,0,1
262583,-33.3333333333333,4,1,0,90,0,0
262696,-43.4782608695652,4,1,0,90,0,1
263037,-55.5555555555556,4,1,0,90,0,1
263151,-55.5555555555556,4,1,0,37,0,0
263264,-43.4782608695652,4,1,0,90,0,1
263605,-43.4782608695652,4,1,0,90,0,0
263719,-43.4782608695652,4,1,0,90,0,1
263946,-43.4782608695652,4,1,0,90,0,0
264173,-43.4782608695652,4,1,0,90,0,1
264401,-43.4782608695652,4,1,0,90,0,0
264628,-55.5555555555556,4,1,0,90,0,1
264742,-55.5555555555556,4,1,0,37,0,0
264855,-43.4782608695652,4,1,0,90,0,0
265537,-43.4782608695652,4,1,0,90,0,1
265764,-43.4782608695652,4,1,0,90,0,0
265992,-43.4782608695652,4,1,0,90,0,1
266219,-43.4782608695652,4,1,0,90,0,0
266446,-43.4782608695652,4,1,0,90,0,1
266673,-43.4782608695652,4,1,0,90,0,0
266901,-43.4782608695652,4,1,0,90,0,1
267128,-43.4782608695652,4,1,0,90,0,0
267355,-33.3333333333333,4,1,0,90,0,1
267810,-33.3333333333333,4,1,0,90,0,1
267867,-33.3333333333333,4,1,0,5,0,0
267923,-33.3333333333333,4,1,0,90,0,1
267980,-33.3333333333333,4,1,0,5,0,0
268037,-33.3333333333333,4,1,0,90,0,1
268094,-33.3333333333333,4,1,0,5,0,0
268151,-33.3333333333333,4,1,0,90,0,1
268492,-45.4545454545455,4,1,0,90,0,0
268719,-33.3333333333333,4,1,0,90,0,1
269173,-33.3333333333333,4,1,0,90,0,1
269401,-33.3333333333333,4,1,0,90,0,0
269628,-33.3333333333333,4,1,0,90,0,1
269855,-33.3333333333333,4,1,0,90,0,0
269969,-43.4782608695652,4,1,0,90,0,1
270310,-55.5555555555556,4,1,0,90,0,1
270423,-55.5555555555556,4,1,0,37,0,0
270537,-43.4782608695652,4,1,0,90,0,1
270878,-43.4782608695652,4,1,0,90,0,0
270992,-43.4782608695652,4,1,0,90,0,1
271219,-43.4782608695652,4,1,0,90,0,0
271446,-43.4782608695652,4,1,0,90,0,1
271673,-43.4782608695652,4,1,0,90,0,0
271901,-55.5555555555556,4,1,0,90,0,1
272014,-55.5555555555556,4,1,0,37,0,1
272128,-43.4782608695652,4,1,0,90,0,1
272355,-43.4782608695652,4,1,0,90,0,0
272583,-33.3333333333333,4,1,0,90,0,1
272639,-33.3333333333333,4,1,0,5,0,0
272696,-33.3333333333333,4,1,0,90,0,1
272753,-33.3333333333333,4,1,0,5,0,0
272810,-43.4782608695652,4,1,0,90,0,1
273037,-43.4782608695652,4,1,0,90,0,0
273264,-43.4782608695652,4,1,0,90,0,1
273492,-43.4782608695652,4,1,0,90,0,0
273719,-43.4782608695652,4,1,0,90,0,1
273946,-43.4782608695652,4,1,0,90,0,0
274173,-43.4782608695652,4,1,0,90,0,1
274401,-43.4782608695652,4,1,0,90,0,0
274628,-43.4782608695652,4,1,0,90,0,1
274742,-43.4782608695652,4,1,0,90,0,0
276446,-43.4782608695652,4,1,0,90,0,1
276560,-43.4782608695652,4,1,0,90,0,0
290992,-62.5,4,1,0,70,0,1
291105,-62.5,4,1,0,70,0,0
292810,-62.5,4,1,0,70,0,1
292923,-62.5,4,1,0,70,0,0
294628,-62.5,4,1,0,70,0,1
294742,-62.5,4,1,0,70,0,0
296446,-62.5,4,1,0,70,0,1
296560,-62.5,4,1,0,70,0,0
298264,-55.5555555555556,4,1,0,80,0,1
298492,-55.5555555555556,4,1,0,80,0,0
299401,-50,4,1,0,80,0,0
300083,-50,4,1,0,80,0,1
300310,-50,4,1,0,80,0,0
301901,-50,4,1,0,80,0,1
302128,-50,4,1,0,80,0,0
302355,-50,4,1,0,80,0,1
302583,-50,4,1,0,80,0,0
302810,-66.6666666666667,4,1,0,85,0,1
302867,-66.6666666666667,4,1,0,85,0,0
302923,-66.6666666666667,4,1,0,85,0,1
302980,-66.6666666666667,4,1,0,85,0,0
303037,-66.6666666666667,4,1,0,85,0,1
303094,-66.6666666666667,4,1,0,85,0,0
303151,-66.6666666666667,4,1,0,85,0,1
303208,-66.6666666666667,4,1,0,85,0,0
303264,-66.6666666666667,4,1,0,85,0,1
303321,-66.6666666666667,4,1,0,85,0,0
303378,-66.6666666666667,4,1,0,85,0,1
303435,-66.6666666666667,4,1,0,85,0,0
303492,-66.6666666666667,4,1,0,85,0,1
303548,-66.6666666666667,4,1,0,85,0,0
303605,-66.6666666666667,4,1,0,85,0,1
303662,-66.6666666666667,4,1,0,85,0,0
303719,-66.6666666666667,4,1,0,85,0,1
304855,-66.6666666666667,4,1,0,90,0,0
305083,-66.6666666666667,4,1,0,100,0,1
305196,-66.6666666666667,4,1,0,90,0,0
305537,-40,4,1,0,90,0,1
305992,-45.4545454545455,4,1,0,90,0,1
307355,-40,4,1,0,90,0,1
307810,-45.4545454545455,4,1,0,90,0,1
308946,-52.6315789473684,4,1,0,90,0,1
309173,-40,4,1,0,90,0,1
309628,-45.4545454545455,4,1,0,90,0,1
310992,-40,4,1,0,90,0,1
311446,-40,4,1,0,90,0,1
311503,-40,4,1,0,5,0,1
311560,-40,4,1,0,90,0,1
311617,-40,4,1,0,5,0,0
311673,-40,4,1,0,90,0,1
311730,-40,4,1,0,5,0,0
311787,-40,4,1,0,90,0,1
311844,-40,4,1,0,5,0,0
311901,-40,4,1,0,90,0,1
312128,-66.6666666666667,4,1,0,90,0,1
312810,-40,4,1,0,90,0,1
313264,-45.4545454545455,4,1,0,90,0,1
314628,-40,4,1,0,90,0,1
315083,-45.4545454545455,4,1,0,90,0,1
316219,-58.8235294117647,4,1,0,90,0,1
316276,-58.8235294117647,4,1,0,5,0,1
316333,-58.8235294117647,4,1,0,90,0,1
316389,-58.8235294117647,4,1,0,5,0,1
316446,-40,4,1,0,90,0,1
316901,-45.4545454545455,4,1,0,90,0,1
318719,-100,4,1,0,90,0,0
319173,-100,4,1,0,90,0,1
319401,-100,4,1,0,90,0,0
319628,-100,4,1,0,90,0,1
319855,-100,4,1,0,90,0,0
320083,-40,4,1,0,90,0,1
320537,-45.4545454545455,4,1,0,90,0,1
321901,-40,4,1,0,90,0,1
322355,-45.4545454545455,4,1,0,90,0,1
323492,-58.8235294117647,4,1,0,90,0,1
323719,-40,4,1,0,90,0,1
324173,-45.4545454545455,4,1,0,90,0,1
325537,-40,4,1,0,90,0,1
325992,-40,4,1,0,90,0,1
326048,-40,4,1,0,5,0,0
326105,-40,4,1,0,90,0,1
326162,-40,4,1,0,5,0,0
326219,-40,4,1,0,90,0,1
326276,-40,4,1,0,5,0,0
326333,-40,4,1,0,90,0,1
326389,-40,4,1,0,5,0,0
326446,-40,4,1,0,90,0,1
326560,-66.6666666666667,4,1,0,90,0,1
327355,-40,4,1,0,90,0,1
327810,-45.4545454545455,4,1,0,90,0,1
329173,-40,4,1,0,90,0,1
329628,-45.4545454545455,4,1,0,90,0,1
330764,-58.8235294117647,4,1,0,90,0,1
330992,-45.4545454545455,4,1,0,90,0,1
331901,-55.5555555555556,4,1,0,90,0,1
332355,-100,4,1,0,90,0,1
332810,-50,4,1,0,90,0,1
333264,-62.5,4,1,0,90,0,1
333719,-62.5,4,1,0,90,0,1
333946,-62.5,4,1,0,90,0,0
334173,-62.5,4,1,0,90,0,1
334401,-62.5,4,1,0,90,0,0
334628,-52.6315789473684,4,1,0,80,0,1
334855,-52.6315789473684,4,1,0,80,0,0
335083,-62.5,4,1,0,80,0,0
335423,-52.6315789473684,4,1,0,80,0,0
335764,-62.5,4,1,0,80,0,0
336333,-52.6315789473684,4,1,0,80,0,0
336673,-62.5,4,1,0,80,0,0
337242,-52.6315789473684,4,1,0,80,0,0
337583,-62.5,4,1,0,80,0,0
338151,-52.6315789473684,4,1,0,80,0,0
338492,-62.5,4,1,0,80,0,0
339060,-52.6315789473684,4,1,0,80,0,0
339401,-62.5,4,1,0,80,0,0
339969,-52.6315789473684,4,1,0,80,0,0
340310,-62.5,4,1,0,80,0,0
340992,-52.6315789473684,4,1,0,80,0,0
341219,-62.5,4,1,0,80,0,0
341901,-52.6315789473684,4,1,0,80,0,1
342128,-52.6315789473684,4,1,0,80,0,0
342355,-62.5,4,1,0,80,0,0
342696,-52.6315789473684,4,1,0,80,0,0
343037,-62.5,4,1,0,80,0,0
343605,-52.6315789473684,4,1,0,80,0,0
343946,-62.5,4,1,0,80,0,0
344514,-52.6315789473684,4,1,0,80,0,0
344855,-62.5,4,1,0,80,0,0
345423,-52.6315789473684,4,1,0,80,0,0
345764,-62.5,4,1,0,80,0,0
346333,-52.6315789473684,4,1,0,80,0,0
346673,-62.5,4,1,0,80,0,0
347242,-52.6315789473684,4,1,0,80,0,0
347583,-62.5,4,1,0,80,0,0
348264,-52.6315789473684,4,1,0,80,0,0
348492,-62.5,4,1,0,80,0,0
349173,-45.4545454545455,4,1,0,80,0,1
349401,-45.4545454545455,4,1,0,80,0,0
349628,-52.6315789473684,4,1,0,80,0,0
349969,-45.4545454545455,4,1,0,80,0,0
350310,-52.6315789473684,4,1,0,80,0,0
350878,-45.4545454545455,4,1,0,80,0,0
351219,-52.6315789473684,4,1,0,80,0,0
351787,-45.4545454545455,4,1,0,80,0,0
352128,-52.6315789473684,4,1,0,80,0,0
352696,-45.4545454545455,4,1,0,80,0,0
353037,-52.6315789473684,4,1,0,80,0,0
353605,-45.4545454545455,4,1,0,80,0,0
353946,-52.6315789473684,4,1,0,80,0,0
354514,-45.4545454545455,4,1,0,80,0,0
354855,-52.6315789473684,4,1,0,80,0,0
355083,-62.5,4,1,0,80,0,0
355992,-62.5,4,1,0,80,0,0
356219,-52.6315789473684,4,1,0,80,0,0
356446,-52.6315789473684,4,1,0,80,0,1
356901,-52.6315789473684,4,1,0,80,0,0
357355,-52.6315789473684,4,1,0,80,0,1
357810,-52.6315789473684,4,1,0,80,0,0
358264,-52.6315789473684,4,1,0,80,0,1
358719,-52.6315789473684,4,1,0,80,0,0
359173,-52.6315789473684,4,1,0,80,0,1
359628,-66.6666666666667,4,1,0,80,0,0
360083,-52.6315789473684,4,1,0,90,0,1
360196,-52.6315789473684,4,1,0,90,0,0
360310,-52.6315789473684,4,1,0,90,0,1
360423,-52.6315789473684,4,1,0,90,0,0
360537,-52.6315789473684,4,1,0,90,0,1
360651,-52.6315789473684,4,1,0,90,0,0
360764,-52.6315789473684,4,1,0,90,0,1
360878,-52.6315789473684,4,1,0,90,0,0
360992,-55.5555555555556,4,1,0,90,0,1
361333,-55.5555555555556,4,1,0,90,0,0
361446,-55.5555555555556,4,1,0,90,0,1
361787,-55.5555555555556,4,1,0,90,0,0
361901,-55.5555555555556,4,1,0,90,0,1
362014,-55.5555555555556,4,1,0,90,0,0
363037,-55.5555555555556,4,1,0,90,0,0
363264,-55.5555555555556,4,1,0,90,0,1
363378,-55.5555555555556,4,1,0,90,0,0
363492,-55.5555555555556,4,1,0,90,0,1
363605,-55.5555555555556,4,1,0,90,0,0
363719,-55.5555555555556,4,1,0,90,0,1
363833,-55.5555555555556,4,1,0,90,0,0

[Colours]
Combo1 : 74,134,255
Combo2 : 158,138,229
Combo3 : 253,255,255
Combo4 : 106,234,124

[HitObjects]
194,174,83,6,0,B|232:157|232:157|319:165,1,115.50000352478
362,216,537,1,0,0:0:0:0:
384,201,651,1,0,0:0:0:0:
406,186,764,1,0,0:0:0:0:
216,77,992,1,0,0:0:0:0:
201,100,1105,6,0,B|187:136|187:136|197:196,1,77.0000023498536
260,237,1446,2,0,B|274:273|274:273|264:333,1,77.0000023498536
245,326,1787,1,0,0:0:0:0:
222,340,1901,1,0,0:0:0:0:
107,167,2128,6,0,P|107:118|123:86,1,77.0000023498536
186,137,2469,2,0,P|206:92|234:70,1,77.0000023498536
141,322,2810,2,0,P|92:329|56:314,1,77.0000023498536
172,220,3151,2,0,P|131:247|92:249,1,77.0000023498536
34,206,3492,1,0,0:0:0:0:
355,72,3719,6,0,B|382:112|382:112|374:193,1,115.50000352478
289,220,4173,2,0,L|298:137,1,77.0000023498536
401,322,4628,1,0,0:0:0:0:
376,333,4742,6,0,B|348:345|348:345|277:337,1,77.0000023498536
248,283,5083,1,0,0:0:0:0:
446,65,5310,1,0,0:0:0:0:
460,87,5423,1,0,0:0:0:0:
458,129,5537,5,0,0:0:0:0:
238,83,5764,6,0,P|278:66|325:69,1,77.0000023498536
207,160,6105,2,0,P|167:177|120:174,1,77.0000023498536
220,9,6446,2,0,P|237:49|234:96,1,77.0000023498536
133,177,6787,2,0,P|116:137|119:90,1,77.0000023498536
143,31,7128,1,0,0:0:0:0:
229,295,7355,6,0,B|190:318|190:318|96:314,1,115.50000352478
51,277,7810,1,0,0:0:0:0:
24,279,7923,1,0,0:0:0:0:
35,254,8037,1,0,0:0:0:0:
207,160,8264,1,0,0:0:0:0:
226,178,8378,6,0,B|257:191|257:191|314:186,1,77.0000023498536
399,123,8719,2,0,B|368:110|368:110|311:115,1,77.0000023498536
248,102,9060,1,0,0:0:0:0:
273,93,9173,1,0,0:0:0:0:
355,283,9401,6,0,L|441:274,1,77.0000023498536
387,302,9742,2,0,L|473:293,1,77.0000023498536
301,223,10083,2,0,L|215:214,1,77.0000023498536
269,242,10423,2,0,L|183:233,1,77.0000023498536
116,221,10764,1,0,0:0:0:0:
427,195,10992,6,0,B|443:154|443:154|426:74,1,115.50000352478
343,55,11446,2,0,L|360:140,1,77.0000023498536
183,35,11901,1,0,0:0:0:0:
157,26,12014,6,0,B|138:20|138:20|77:28,1,77.0000023498536
47,109,12355,2,0,B|66:115|66:115|127:107,1,77.0000023498536
190,61,12696,1,0,0:0:0:0:
183,35,12810,1,0,0:0:0:0:
176,253,13037,6,0,P|172:295|151:331,1,77.0000023498536
128,190,13378,2,0,P|176:170|205:174,1,77.0000023498536
310,231,13719,2,0,P|348:231|381:213,1,77.0000023498536
304,85,14060,2,0,P|308:127|329:163,1,77.0000023498536
407,299,14401,1,0,0:0:0:0:
461,245,14514,1,0,0:0:0:0:
458,167,14628,5,0,0:0:0:0:
259,74,14855,6,0,L|331:91,1,45.4999979171754
197,139,15083,1,0,0:0:0:0:
303,84,15196,2,0,L|375:101,1,45.4999979171754
197,139,15423,6,0,P|170:82|191:23,1,112
297,203,15764,1,0,0:0:0:0:
181,36,15992,2,0,P|197:11|217:-2,1,45.4999979171754
259,74,16219,1,0,0:0:0:0:
92,94,16333,6,0,B|39:97|7:84|7:84|46:117,1,112
59,171,16673,1,0,0:0:0:0:
341,207,16901,2,0,L|287:201,1,45.4999979171754
342,290,17128,1,0,0:0:0:0:
443,241,17242,6,0,B|418:217|418:217|337:207,1,112
329,333,17583,2,0,P|340:305|341:273,1,45.4999979171754
254,289,17810,1,0,0:0:0:0:
342,208,17923,2,0,L|294:203,1,45.4999979171754
72,201,18151,6,0,B|65:283|65:283|72:264|86:254,1,112
150,224,18492,1,0,0:0:0:0:
321,109,18719,6,0,L|271:106,1,45.4999979171754
273,177,18946,1,0,0:0:0:0:
387,50,19060,2,0,B|360:35|360:35|272:31,1,112
200,34,19401,1,0,0:0:0:0:
273,177,19628,6,0,L|318:179,1,45.4999979171754
321,109,19855,1,0,0:0:0:0:
207,236,19969,2,0,B|234:251|234:251|322:255,1,112
395,264,20310,6,0,L|432:265,2,22.7499989585877
152,294,20537,2,0,P|137:275|129:244,1,45.4999979171754
154,179,20764,1,0,0:0:0:0:
231,314,20878,6,0,P|199:362|136:374,1,112
231,160,21219,2,0,L|284:155,1,45.4999979171754
391,96,21446,2,0,L|341:102,1,45.4999979171754
227,141,21673,1,0,0:0:0:0:
446,209,21901,5,0,0:0:0:0:
383,271,22128,2,0,L|332:263,1,45.4999979171754
446,209,22355,1,0,0:0:0:0:
295,201,22469,2,0,L|244:193,1,45.4999979171754
446,209,22696,6,0,P|472:262|455:326,1,112
370,154,23037,1,0,0:0:0:0:
463,312,23264,2,0,P|451:342|436:357,1,45.4999979171754
354,350,23492,1,0,0:0:0:0:
446,209,23605,6,0,B|470:174|457:131|457:131|454:153|439:167,1,112
370,155,23946,1,0,0:0:0:0:
143,165,24173,2,0,L|146:113,1,45.4999979171754
178,47,24401,1,0,0:0:0:0:
228,156,24514,6,0,P|211:219|173:246,1,112
54,227,24855,2,0,L|105:232,1,45.4999979171754
175,245,25083,1,0,0:0:0:0:
126,311,25196,2,0,L|175:319,1,45.4999979171754
339,339,25423,6,0,B|368:305|368:305|371:237,1,112
318,182,25764,1,0,0:0:0:0:
447,307,25992,2,0,L|448:234,1,45.4999979171754
444,179,26219,1,0,0:0:0:0:
333,114,26333,6,0,B|331:202|331:202|309:168,1,112
254,137,26673,2,0,L|203:131,1,45.4999979171754
127,121,26901,1,0,0:0:0:0:
96,192,27014,2,0,P|119:200|147:198,1,45.4999979171754
200,256,27242,5,0,0:0:0:0:
297,234,27355,1,0,0:0:0:0:
256,192,27469,12,0,28151,0:0:0:0:
337,145,28264,5,0,0:0:0:0:
411,110,28378,1,0,0:0:0:0:
344,64,28492,2,0,L|342:28,3,22.7499989585877
337,145,28719,5,0,0:0:0:0:
262,179,28833,1,0,0:0:0:0:
187,146,28946,1,0,0:0:0:0:
112,180,29060,1,0,0:0:0:0:
140,298,29173,6,0,P|146:227|109:178,1,132.999996448517,2|0,0:0|0:0,0:0:0:0:
71,251,29514,1,0,0:0:0:0:
140,298,29628,2,0,P|172:310|201:308,1,56
255,261,29855,1,0,0:0:0:0:
333,267,29969,6,0,B|286:255|255:261|255:261|294:245|302:210,1,132.999996448517,2|0,0:0|0:0,0:0:0:0:
422,81,30310,2,0,L|420:140,1,56
491,25,30537,1,0,0:0:0:0:
404,94,30651,2,0,L|402:153,1,56
451,235,30878,6,0,P|395:192|325:201,1,132.999996448517,2|0,0:0|0:0,0:0:0:0:
156,159,31219,2,0,P|135:136|129:102,1,56
140,34,31446,1,0,0:0:0:0:
260,84,31560,2,0,L|202:98,1,56
53,137,31787,6,0,B|31:89|45:39|45:39|14:72,1,132.999996448517,2|0,0:0|0:0,0:0:0:0:
96,259,32128,2,0,L|39:260,1,56
160,343,32355,1,0,0:0:0:0:
151,258,32469,2,0,L|94:259,1,56
229,292,32696,6,0,P|231:223|177:175,1,132.999996448517,2|0,0:0|0:0,0:0:0:0:
363,230,33037,2,0,P|396:224|416:205,1,56
455,143,33264,1,0,0:0:0:0:
342,180,33378,2,0,P|348:213|367:233,1,56
373,95,33605,6,0,B|329:88|329:88|239:115,1,132.999996448517,2|0,0:0|0:0,0:0:0:0:
52,167,33946,2,0,P|37:145|34:112,1,56
122,214,34173,1,0,0:0:0:0:
33,116,34287,2,0,P|36:89|55:62,1,56
162,87,34514,6,0,B|179:127|179:127|159:221,1,132.999996448517,2|0,0:0|0:0,0:0:0:0:
138,304,34855,2,0,L|130:344,2,22.7499989585877
199,230,35083,6,0,L|214:167,1,56
261,279,35310,1,0,0:0:0:0:
269,356,35423,1,0,0:0:0:0:
332,310,35537,6,0,B|392:257|465:335|440:367|378:370|376:348|416:281|440:275|440:275|434:272|428:268|428:268|435:267|443:265|443:265|436:262|431:259|431:259|439:257|445:256|445:256|439:253|434:250|434:250|441:249|447:247|447:247|441:244|437:241|437:241|444:239|448:238|448:238|445:235|441:232|441:232|448:231|452:230|452:230|447:227|443:225|443:225|451:223|455:221|455:221|451:218|446:220,1,350,4|0,0:0|0:0,0:0:0:0:
487,163,35992,1,0,0:0:0:0:
439,98,36105,6,0,P|480:81|511:83,1,70
407,173,36333,1,0,0:0:0:0:
419,96,36446,1,2,0:0:0:0:
152,191,36673,6,0,L|212:170,1,56
151,99,36901,1,0,0:0:0:0:
204,172,37014,2,0,L|264:151,1,56
219,29,37242,6,0,B|183:20|183:20|85:62,1,132.999996448517,2|0,0:0|0:0,0:0:0:0:
222,224,37583,2,0,L|204:172,1,56
171,289,37810,1,0,0:0:0:0:
275,206,37923,2,0,L|215:227,1,56
109,361,38151,6,0,B|130:323|130:323|102:238,1,132.999996448517,2|0,0:0|0:0,0:0:0:0:
256,153,38492,2,0,L|274:205,1,56
304,281,38719,1,0,0:0:0:0:
360,228,38833,2,0,P|334:209|309:206,1,56
246,343,39060,6,0,P|314:368|376:328,1,132.999996448517,2|0,0:0|0:0,0:0:0:0:
412,175,39401,2,0,L|398:109,1,56
495,201,39628,1,0,0:0:0:0:
388,65,39742,2,0,L|400:120,1,56
504,20,39969,6,0,B|465:5|465:5|366:26,1,132.999996448517,2|0,0:0|0:0,0:0:0:0:
216,107,40310,2,0,P|227:77|223:50,1,56
141,48,40537,1,0,0:0:0:0:
178,176,40651,2,0,P|208:187|235:183,1,56
218,302,40878,6,0,P|249:247|222:174,1,132.999996448517,2|0,0:0|0:0,0:0:0:0:
87,129,41219,2,0,L|31:140,1,56
51,61,41446,1,0,0:0:0:0:
55,43,41560,1,0,0:0:0:0:
20,216,41673,6,0,L|74:205,1,56
218,302,41901,5,2,0:0:0:0:
288,319,42014,1,2,0:0:0:0:
225,304,42128,5,2,0:0:0:0:
296,316,42242,1,2,0:0:0:0:
344,238,42355,5,8,0:0:0:0:
386,222,42469,1,8,0:0:0:0:
344,245,42583,5,8,0:0:0:0:
381,219,42696,2,8,L|394:195,2,17.5
320,162,42810,6,0,L|293:118,2,35,2|0|0,0:0|0:0|0:0,0:0:0:0:
412,298,43151,1,0,0:0:0:0:
404,140,43264,5,0,0:0:0:0:
332,330,43378,1,0,0:0:0:0:
322,348,43605,5,0,0:0:0:0:
414,122,43719,6,0,B|453:36|453:36|416:55,1,132.999996448517,2|0,0:0|0:0,0:0:0:0:
318,81,44060,1,0,0:0:0:0:
222,75,44173,2,0,L|288:80,1,56
181,141,44401,1,0,0:0:0:0:
121,12,44514,6,0,B|142:42|142:42|129:147,1,132.999996448517,2|0,0:0|0:0,0:0:0:0:
40,262,44855,2,0,L|48:194,1,56
23,237,45083,1,0,0:0:0:0:
130,137,45196,2,0,L|123:192,1,56
246,264,45423,6,0,B|213:283|213:283|107:268,1,132.999996448517,2|0,0:0|0:0,0:0:0:0:
371,268,45764,2,0,P|376:302|370:328,1,56
294,330,45992,1,0,0:0:0:0:
347,193,46105,2,0,P|381:188|407:194,1,56
263,181,46333,6,0,P|245:113|275:55,1,132.999996448517,2|0,0:0|0:0,0:0:0:0:
459,255,46673,2,0,L|454:316,1,56
378,280,46901,1,0,0:0:0:0:
428,177,47014,2,0,L|423:121,1,56
345,76,47242,6,0,P|415:83|473:35,1,132.999996448517,2|0,0:0|0:0,0:0:0:0:
164,86,47583,2,0,P|134:97|115:112,1,56
152,117,47810,1,0,0:0:0:0:
102,189,47923,2,0,P|72:178|53:163,1,56
190,197,48151,6,0,B|176:302|176:302|159:271,1,132.999996448517,2|0,0:0|0:0,0:0:0:0:
288,101,48492,2,0,L|351:113,1,56
395,175,48719,1,0,0:0:0:0:
277,156,48833,2,0,L|289:93,1,56
460,209,49060,6,0,B|429:227|429:227|334:207,1,132.999996448517,2|0,0:0|0:0,0:0:0:0:
194,291,49401,2,0,L|191:338,2,28
256,235,49628,1,0,0:0:0:0:
116,265,49742,5,0,0:0:0:0:
110,220,49855,1,0,0:0:0:0:
98,257,49969,5,0,0:0:0:0:
92,212,50083,6,0,B|67:219|35:212|11:189|8:158|26:83|71:134|71:134|98:126|98:126|102:130|107:134|107:134|109:130|110:125|110:125|112:130|114:135|114:135|116:130|117:125|117:125|120:130|122:135|122:135|124:130|126:125|126:125|128:130|129:135|129:135|131:130|134:125|134:125|135:130|137:135|137:135|140:130|141:125|141:125|144:131|146:135|146:135|148:131|149:125|149:125|152:131|154:136|154:136|156:131|157:125|157:125|160:136,1,350,4|0,0:0|0:0,0:0:0:0:
231,133,50537,1,0,0:0:0:0:
301,172,50651,6,0,P|270:204|241:214,1,70
300,91,50878,1,0,0:0:0:0:
320,166,50992,6,0,L|312:221,3,45.4999979171754,2|0|0|0,0:0|0:0|0:0|0:0,0:0:0:0:
372,271,51446,2,0,L|327:304,3,45.4999979171754
140,271,51901,2,0,L|184:304,3,45.4999979171754,2|0|0|0,0:0|0:0|0:0|0:0,0:0:0:0:
192,166,52355,2,0,L|200:221,3,45.4999979171754
92,170,52810,5,2,0:0:0:0:
87,147,52923,1,0,0:0:0:0:
50,116,53037,1,0,0:0:0:0:
53,93,53151,1,0,0:0:0:0:
104,158,53264,5,0,0:0:0:0:
98,130,53378,1,0,0:0:0:0:
53,93,53492,1,0,0:0:0:0:
57,65,53605,1,0,0:0:0:0:
127,17,53719,5,2,0:0:0:0:
158,22,53833,1,0,0:0:0:0:
189,27,53946,1,0,0:0:0:0:
220,32,54060,1,0,0:0:0:0:
280,101,54173,5,0,0:0:0:0:
311,106,54287,1,0,0:0:0:0:
342,111,54401,1,0,0:0:0:0:
373,116,54514,1,0,0:0:0:0:
362,255,54628,5,2,0:0:0:0:
345,183,54742,1,0,0:0:0:0:
376,260,54855,2,0,L|415:246,2,22.7499989585877,4|0|0,0:0|0:0|0:0,0:0:0:0:
290,272,55083,5,2,0:0:0:0:
362,255,55196,1,0,0:0:0:0:
273,266,55310,2,0,L|258:227,2,22.7499989585877,4|0|0,0:0|0:0|0:0,0:0:0:0:
191,207,55537,5,2,0:0:0:0:
119,190,55651,1,0,0:0:0:0:
199,221,55764,2,0,L|185:260,2,22.7499989585877,4|0|0,0:0|0:0|0:0,0:0:0:0:
173,127,55992,5,2,0:0:0:0:
247,143,56105,1,0,0:0:0:0:
171,133,56219,5,4,0:0:0:0:
246,137,56333,1,4,0:0:0:0:
212,71,56446,5,2,0:0:0:0:
256,192,56560,12,0,58264,0:0:0:0:
256,192,70992,12,0,72583,0:0:0:0:
137,161,72810,6,0,L|144:112,1,35,2|0,0:0|0:0,0:0:0:0:
177,40,73037,2,0,L|213:44,2,35,4|0|0,0:0|0:0|0:0,0:0:0:0:
82,77,73378,2,0,L|46:81,2,35,4|0|0,0:0|0:0|0:0,0:0:0:0:
153,131,73719,6,0,L|150:180,1,35
91,285,73946,2,0,L|96:229,2,35,4|0|0,0:0|0:0|0:0,0:0:0:0:
173,319,74287,2,0,L|176:353,2,35,4|0|0,0:0|0:0|0:0,0:0:0:0:
240,235,74628,5,2,0:0:0:0:
260,236,74742,1,0,0:0:0:0:
286,252,74855,1,4,0:0:0:0:
306,253,74969,1,0,0:0:0:0:
358,190,75083,5,0,0:0:0:0:
386,266,75196,2,0,L|380:318,2,35,4|0|0,0:0|0:0|0:0,0:0:0:0:
434,162,75537,1,0,0:0:0:0:
438,141,75651,1,0,0:0:0:0:
396,72,75764,6,0,L|405:30,2,35,4|0|0,0:0|0:0|0:0,0:0:0:0:
330,136,76105,2,0,L|337:170,2,35,4|0|0,0:0|0:0|0:0,0:0:0:0:
211,191,76446,5,2,0:0:0:0:
208,170,76560,1,0,0:0:0:0:
222,137,76673,1,4,0:0:0:0:
225,116,76787,1,0,0:0:0:0:
203,38,76901,5,0,0:0:0:0:
147,97,77014,2,0,L|96:92,2,35,4|0|0,0:0|0:0|0:0,0:0:0:0:
36,169,77355,2,0,L|82:164,1,35
128,314,77583,6,0,L|130:267,2,35,4|0|0,0:0|0:0|0:0,0:0:0:0:
211,191,77923,2,0,L|212:225,2,35,4|0|0,0:0|0:0|0:0,0:0:0:0:
306,253,78264,1,2,0:0:0:0:
326,255,78378,1,0,0:0:0:0:
401,225,78492,6,0,L|451:231,2,35,4|0|0,0:0|0:0|0:0,0:0:0:0:
344,167,78833,2,0,L|294:173,2,35,4|0|0,0:0|0:0|0:0,0:0:0:0:
419,100,79173,5,0,0:0:0:0:
391,78,79287,1,0,0:0:0:0:
357,68,79401,1,4,0:0:0:0:
323,70,79514,1,0,0:0:0:0:
291,84,79628,5,0,0:0:0:0:
227,135,79742,1,4,0:0:0:0:
277,82,79855,5,0,0:0:0:0:
212,132,79969,1,0,0:0:0:0:
201,50,80083,5,2,0:0:0:0:
136,101,80196,1,0,0:0:0:0:
111,104,80310,1,0,0:0:0:0:
86,107,80423,1,0,0:0:0:0:
55,135,80537,5,4,0:0:0:0:
108,195,80651,1,0,0:0:0:0:
105,219,80764,1,0,0:0:0:0:
102,243,80878,1,0,0:0:0:0:
72,273,80992,5,2,0:0:0:0:
139,315,81105,1,0,0:0:0:0:
163,312,81219,1,0,0:0:0:0:
187,309,81333,1,0,0:0:0:0:
213,276,81446,5,4,0:0:0:0:
270,332,81560,1,0,0:0:0:0:
294,329,81673,1,0,0:0:0:0:
318,326,81787,1,0,0:0:0:0:
353,348,81901,5,2,0:0:0:0:
401,284,82014,1,0,0:0:0:0:
429,298,82128,1,0,0:0:0:0:
457,312,82242,1,0,0:0:0:0:
474,353,82355,5,4,0:0:0:0:
495,242,82469,1,0,0:0:0:0:
488,211,82583,1,0,0:0:0:0:
452,188,82696,5,0,0:0:0:0:
445,157,82810,1,2,0:0:0:0:
481,111,82923,5,0,0:0:0:0:
438,126,83037,1,0,0:0:0:0:
395,115,83151,1,0,0:0:0:0:
365,81,83264,2,0,L|375:28,1,45.4999979171754,4|0,0:0|0:0,0:0:0:0:
277,109,83492,2,0,L|287:56,1,45.4999979171754
117,203,83719,6,0,L|83:228,5,22.7499989585877,2|0|0|0|0|0,0:0|0:0|0:0|0:0|0:0|0:0,0:0:0:0:
173,115,84060,2,0,L|168:73,1,22.7499989585877,4|0,0:0|0:0,0:0:0:0:
221,207,84173,6,0,L|259:223,7,22.7499989585877,2|0|0|0|0|0|0|0,0:0|0:0|0:0|0:0|0:0|0:0|0:0|0:0,0:0:0:0:
86,225,84628,6,0,L|106:210,5,22.7499989585877,2|0|0|0|0|0,0:0|0:0|0:0|0:0|0:0|0:0,0:0:0:0:
165,88,84969,2,0,L|167:113,1,22.7499989585877,4|0,0:0|0:0,0:0:0:0:
244,225,85083,6,0,L|220:214,7,22.7499989585877,2|0|0|0|0|0|0|0,0:0|0:0|0:0|0:0|0:0|0:0|0:0|0:0,0:0:0:0:
256,192,85537,12,0,86901,0:0:0:0:
337,248,87355,6,0,B|380:274|380:274|331:287|268:272,1,154.000004699707,2|0,0:0|0:0,0:0:0:0:
202,221,87696,1,0,0:0:0:0:
281,129,87810,6,0,B|289:153|289:153|276:196,1,66.4999982242585
198,284,88037,2,0,B|190:260|190:260|203:217,1,66.4999982242585
143,154,88264,1,0,0:0:0:0:
195,133,88378,6,0,L|143:154,1,56,2|0,0:0|0:0,0:0:0:0:
72,122,88719,2,0,P|113:166|90:236,1,136.499993751526,4|0,0:0|0:0,0:0:0:0:
372,175,89173,6,0,B|484:159|484:159|424:148,1,154.000004699707,2|0,0:0|0:0,0:0:0:0:
367,95,89514,1,0,0:0:0:0:
405,248,89628,6,0,L|318:264,1,66.4999982242585
306,187,89855,2,0,L|372:175,1,66.4999982242585
232,243,90083,1,0,0:0:0:0:
239,274,90196,6,0,B|249:237|249:237|232:243,1,56,2|0,0:0|0:0,0:0:0:0:
130,285,90537,6,0,L|137:296,1,8.75
60,226,90651,2,0,L|57:238,1,8.75
52,134,90764,6,0,L|40:141,1,8.75
111,63,90878,2,0,L|98:60,1,8.75
232,131,90992,6,0,B|228:105|209:94|209:94|198:158|278:172,1,154.000004699707,2|0,0:0|0:0,0:0:0:0:
346,141,91333,1,0,0:0:0:0:
393,73,91446,6,0,B|371:65|371:65|319:76,1,66.4999982242585
426,208,91673,2,0,B|434:186|434:186|423:134,1,66.4999982242585
363,275,91901,1,0,0:0:0:0:
355,220,92014,6,0,L|363:275,1,56,2|0,0:0|0:0,0:0:0:0:
434,320,92355,2,0,B|398:304|398:304|289:326,1,136.499993751526,4|0,0:0|0:0,0:0:0:0:
103,286,92810,6,0,P|161:267|226:291,1,116.666666666667,2|0,0:0|0:0,0:0:0:0:
212,281,93037,2,0,P|154:300|89:276,1,116.666666666667
149,78,93264,6,0,B|156:52|148:20|148:20|157:42|164:48,1,87.5
210,121,93378,2,0,B|236:128|268:120|268:120|246:129|240:136,1,87.5
151,167,93492,2,0,B|144:193|152:225|152:225|143:203|136:197,1,87.5
89,123,93605,2,0,B|63:116|31:124|31:124|53:115|59:108,1,87.5
242,52,93719,6,0,B|274:42|274:42|324:47,1,66.4999982242585,2|0,0:0|0:0,0:0:0:0:
347,113,93946,2,0,L|377:137,2,28
456,208,94173,5,4,0:0:0:0:
372,216,94287,1,0,0:0:0:0:
288,225,94401,1,0,0:0:0:0:
465,207,94514,5,0,0:0:0:0:
277,226,94628,6,0,B|240:211|240:211|160:221|160:221|132:246,1,154.000004699707,2|0,0:0|0:0,0:0:0:0:
78,333,94969,1,0,0:0:0:0:
135,243,95083,6,0,B|154:225|154:225|157:166,1,66.4999982242585
16,168,95310,2,0,B|34:187|34:187|93:190,1,66.4999982242585
112,58,95537,1,0,0:0:0:0:
106,110,95651,6,0,B|113:124|113:124|118:77,1,56,2|0,0:0|0:0,0:0:0:0:
201,3,95992,2,0,B|193:100|193:100|218:56,1,136.499993751526,4|0,0:0|0:0,0:0:0:0:
424,56,96446,6,0,P|469:47|423:76,1,154.000004699707,2|0,0:0|0:0,0:0:0:0:
346,53,96787,1,0,0:0:0:0:
316,174,96901,6,0,B|312:195|312:195|332:243,1,66.4999982242585
417,235,97128,2,0,B|421:256|421:256|401:304,1,66.4999982242585
310,325,97355,1,0,0:0:0:0:
256,318,97469,6,0,P|286:315|314:327,1,56,2|0,0:0|0:0,0:0:0:0:
235,239,97810,6,0,L|173:234,1,45.4999979171754,4|0,0:0|0:0,0:0:0:0:
145,158,98037,2,0,L|97:198,1,45.4999979171754
41,328,98264,6,0,B|42:356|27:375|27:375|72:355|70:281,1,154.000004699707,2|0,0:0|0:0,0:0:0:0:
25,217,98605,1,0,0:0:0:0:
31,67,98719,6,0,L|41:-2,1,66.4999982242585
21,132,98946,2,0,L|31:67,1,66.4999982242585
127,77,99173,1,0,0:0:0:0:
132,23,99287,6,0,B|143:19|143:19|124:83,1,56,2|0,0:0|0:0,0:0:0:0:
338,140,99628,6,0,P|323:123|293:117,1,35
270,163,99742,2,0,P|277:141|267:112,1,35
215,115,99855,6,0,P|237:110|257:87,1,35
227,40,99969,2,0,P|241:57|272:63,1,35
348,28,100083,5,4,0:0:0:0:
338,140,100196,1,0,0:0:0:0:
270,163,100310,1,0,0:0:0:0:
215,115,100423,1,0,0:0:0:0:
227,40,100537,6,0,L|231:0,2,28,2|0|0,0:0|0:0|0:0,0:0:0:0:
465,304,100992,6,0,L|466:269,1,28,4|0,0:0|0:0,0:0:0:0:
371,324,101219,2,0,L|396:299,1,28
290,271,101446,2,0,L|325:271,1,28,2|0,0:0|0:0,0:0:0:0:
465,304,101673,5,0,0:0:0:0:
371,324,101787,1,0,0:0:0:0:
290,271,101901,6,0,B|243:235|172:258|172:258|202:244|217:221,1,175,2|0,0:0|0:0,0:0:0:0:
214,148,102242,1,0,0:0:0:0:
144,108,102355,2,0,P|130:143|144:191,1,77.0000023498536,2|0,0:0|0:0,0:0:0:0:
213,67,102583,5,0,0:0:0:0:
125,111,102696,2,0,P|111:146|125:194,1,77.0000023498536,4|0,0:0|0:0,0:0:0:0:
155,260,102923,1,0,0:0:0:0:
361,176,103037,6,0,L|280:183,1,77.0000023498536,2|0,0:0|0:0,0:0:0:0:
375,154,103264,2,0,L|294:161,1,77.0000023498536
387,132,103492,2,0,L|306:139,1,77.0000023498536
77,54,103719,6,0,B|107:93|107:93|83:219,1,175,2|0,0:0|0:0,0:0:0:0:
18,264,104060,1,0,0:0:0:0:
168,184,104173,2,0,L|154:264,1,77.0000023498536,2|0,0:0|0:0,0:0:0:0:
87,300,104401,5,0,0:0:0:0:
237,380,104514,2,0,L|223:300,1,77.0000023498536,4|0,0:0|0:0,0:0:0:0:
154,259,104742,1,0,0:0:0:0:
304,179,104855,5,2,0:0:0:0:
356,168,104969,1,0,0:0:0:0:
302,173,105083,5,4,0:0:0:0:
351,173,105196,1,0,0:0:0:0:
329,220,105310,6,0,L|325:274,1,45.4999979171754
478,153,105537,6,0,B|462:70|381:89|381:89|411:96|426:123,1,175,2|0,0:0|0:0,0:0:0:0:
438,222,105878,1,0,0:0:0:0:
468,326,105992,2,0,B|444:352|444:352|389:348,1,77.0000023498536,2|0,0:0|0:0,0:0:0:0:
415,242,106219,5,0,0:0:0:0:
402,348,106333,2,0,B|316:342,1,77.0000023498536,4|0,0:0|0:0,0:0:0:0:
239,336,106560,1,0,0:0:0:0:
226,208,106673,6,0,B|236:147|236:147|242:162,1,77.0000023498536,2|0,0:0|0:0,0:0:0:0:
217,142,106901,2,0,B|211:127|211:127|201:188,1,77.0000023498536
226,208,107128,2,0,B|232:223|232:223|242:162,1,77.0000023498536
94,41,107355,6,0,P|26:94|36:200,1,175,2|0,0:0|0:0,0:0:0:0:
79,237,107696,1,0,0:0:0:0:
274,289,107810,6,0,P|271:246|250:214,1,78.7500030040742,2|0,0:0|0:0,0:0:0:0:
190,259,107923,2,0,P|229:242|253:212,1,78.7500030040742
192,170,108037,2,0,P|219:203|255:216,1,78.7500030040742,4|0,0:0|0:0,0:0:0:0:
277,144,108151,2,0,P|254:180|252:218,1,78.7500030040742
325,217,108264,6,0,P|283:206|245:219,1,77.0000023498536,2|0,0:0|0:0,0:0:0:0:
361,297,108492,2,0,L|406:306,2,26.2500010013581
465,232,108719,2,0,P|476:192|471:172,1,52.5000020027161,4|0,0:0|0:0,0:0:0:0:
410,66,108946,2,0,P|399:106|404:126,1,52.5000020027161,4|0,0:0|0:0,0:0:0:0:
254,139,109173,6,0,P|192:199|110:185,1,175,2|0,0:0|0:0,0:0:0:0:
165,119,109514,1,0,0:0:0:0:
110,185,109628,2,0,P|87:161|77:117,1,77.0000023498536,2|0,0:0|0:0,0:0:0:0:
150,122,109855,5,0,0:0:0:0:
95,188,109969,2,0,P|72:164|62:120,1,77.0000023498536,4|0,0:0|0:0,0:0:0:0:
108,48,110196,1,0,0:0:0:0:
65,293,110310,6,0,L|37:369,1,77.0000023498536,2|0,0:0|0:0,0:0:0:0:
50,271,110537,2,0,L|22:347,1,77.0000023498536
36,250,110764,2,0,L|8:326,1,77.0000023498536
226,267,110992,6,0,B|175:273|175:273|178:255|226:223|268:230|303:248,1,175,2|0,0:0|0:0,0:0:0:0:
357,295,111333,1,0,0:0:0:0:
438,174,111446,2,0,L|424:254,1,77.0000023498536,2|0,0:0|0:0,0:0:0:0:
356,204,111673,5,0,0:0:0:0:
438,325,111787,2,0,L|424:245,1,77.0000023498536,4|0,0:0|0:0,0:0:0:0:
371,118,112014,1,0,0:0:0:0:
215,182,112128,5,2,0:0:0:0:
267,193,112242,1,0,0:0:0:0:
213,188,112355,5,4,0:0:0:0:
262,188,112469,1,0,0:0:0:0:
240,141,112583,6,0,L|231:109,1,22.7499989585877
269,119,112696,6,0,L|240:102,1,22.7499989585877
79,256,112810,6,0,B|120:371|120:371|118:335|134:309,1,175,2|0,0:0|0:0,0:0:0:0:
159,245,113151,1,0,0:0:0:0:
26,198,113264,2,0,P|65:179|108:184,1,77.0000023498536,2|0,0:0|0:0,0:0:0:0:
167,258,113492,5,0,0:0:0:0:
156,117,113605,2,0,P|117:98|74:103,1,77.0000023498536,4|0,0:0|0:0,0:0:0:0:
6,115,113833,1,0,0:0:0:0:
175,271,113946,6,0,L|262:249,1,77.0000023498536,2|0,0:0|0:0,0:0:0:0:
271,271,114173,2,0,L|184:293,1,77.0000023498536
217,307,114401,2,0,L|292:289,1,77.0000023498536
456,287,114628,6,0,P|498:293|440:308,1,175,2|0,0:0|0:0,0:0:0:0:
373,268,114969,1,0,0:0:0:0:
414,147,115083,2,0,L|492:129,1,77.0000023498536,2|0,0:0|0:0,0:0:0:0:
342,191,115310,2,0,L|420:173,1,77.0000023498536,4|0,0:0|0:0,0:0:0:0:
361,55,115537,5,2,0:0:0:0:
276,25,115651,1,0,0:0:0:0:
198,69,115764,1,0,0:0:0:0:
181,157,115878,1,0,0:0:0:0:
236,228,115992,5,4,0:0:0:0:
237,190,116105,1,0,0:0:0:0:
219,156,116219,1,0,0:0:0:0:
188,135,116333,1,0,0:0:0:0:
127,183,116446,6,0,B|138:151|189:135|189:135|127:135|93:106,1,175,2|0,0:0|0:0,0:0:0:0:
61,41,116787,1,0,0:0:0:0:
42,176,116901,2,0,P|17:142|15:99,1,77.0000023498536,2|0,0:0|0:0,0:0:0:0:
47,50,117128,5,0,0:0:0:0:
28,185,117242,2,0,P|3:151|1:108,1,77.0000023498536,4|0,0:0|0:0,0:0:0:0:
77,253,117469,1,0,0:0:0:0:
204,333,117583,6,0,L|290:318,1,77.0000023498536,2|0,0:0|0:0,0:0:0:0:
176,235,117810,2,0,L|84:254,1,77.0000023498536
224,343,118037,2,0,L|310:328,1,77.0000023498536
350,188,118264,6,0,B|345:127|345:127|370:71|370:71|364:15,1,175,2|0,0:0|0:0,0:0:0:0:
285,51,118605,1,0,0:0:0:0:
264,156,118719,2,0,L|271:239,1,77.0000023498536,2|0,0:0|0:0,0:0:0:0:
244,142,118946,5,0,0:0:0:0:
437,228,119060,2,0,L|431:152,1,77.0000023498536,4|0,0:0|0:0,0:0:0:0:
415,252,119287,1,0,0:0:0:0:
283,331,119401,5,2,0:0:0:0:
335,342,119514,1,0,0:0:0:0:
281,337,119628,5,4,0:0:0:0:
330,337,119742,1,0,0:0:0:0:
308,290,119855,6,0,L|297:235,1,52.5000020027161
143,107,120083,6,0,B|121:153|121:153|151:275,1,175,2|0,0:0|0:0,0:0:0:0:
172,352,120423,1,0,0:0:0:0:
62,246,120537,2,0,L|84:326,1,77.0000023498536,2|0,0:0|0:0,0:0:0:0:
176,366,120764,5,0,0:0:0:0:
211,185,120878,2,0,L|233:265,1,77.0000023498536,4|0,0:0|0:0,0:0:0:0:
266,357,121105,1,0,0:0:0:0:
285,175,121219,6,0,P|246:172|209:186,1,77.0000023498536,2|0,0:0|0:0,0:0:0:0:
341,240,121446,2,0,P|363:208|370:169,1,77.0000023498536
314,106,121673,2,0,P|291:137|284:176,1,77.0000023498536
512,47,121901,6,0,P|422:12|343:42,1,175,2|0,0:0|0:0,0:0:0:0:
314,106,122242,1,0,0:0:0:0:
164,193,122355,6,0,B|134:162|134:162|143:105,1,87.5,2|0,0:0|0:0,0:0:0:0:
74,163,122469,2,0,B|94:124|94:124|151:115,1,87.5
74,70,122583,2,0,B|116:77|116:77|142:128,1,87.5,4|0,0:0|0:0,0:0:0:0:
163,43,122696,2,0,B|169:85|169:85|128:126,1,87.5
223,117,122810,6,0,B|180:127|180:127|131:115,1,87.5,2|0,0:0|0:0,0:0:0:0:
74,70,123037,2,0,L|41:37,2,31.4999990386963
164,193,123264,5,2,0:0:0:0:
74,163,123378,1,0,0:0:0:0:
74,70,123492,1,0,0:0:0:0:
163,43,123605,1,0,0:0:0:0:
223,117,123719,6,0,B|266:159|331:147|331:147|297:167|286:190,1,175,2|0,0:0|0:0,0:0:0:0:
268,259,124060,1,0,0:0:0:0:
379,297,124173,2,0,P|382:261|361:226,1,77.0000023498536,2|0,0:0|0:0,0:0:0:0:
266,278,124401,5,0,0:0:0:0:
360,311,124514,2,0,P|396:314|431:293,1,77.0000023498536,4|0,0:0|0:0,0:0:0:0:
453,211,124742,1,0,0:0:0:0:
303,75,124855,6,0,L|335:156,1,77.0000023498536,2|0,0:0|0:0,0:0:0:0:
215,59,125083,2,0,P|230:23|270:2,1,77.0000023498536
246,144,125310,2,0,P|206:152|161:133,1,77.0000023498536
104,332,125537,6,0,P|51:269|60:175,1,175,2|0,0:0|0:0,0:0:0:0:
100,113,125878,1,0,0:0:0:0:
184,277,125992,2,0,P|141:256|120:225,1,77.0000023498536,2|0,0:0|0:0,0:0:0:0:
104,130,126219,5,0,0:0:0:0:
184,277,126333,2,0,P|204:313|203:357,1,77.0000023498536,4|0,0:0|0:0,0:0:0:0:
104,332,126560,1,0,0:0:0:0:
264,222,126673,5,2,0:0:0:0:
316,233,126787,1,0,0:0:0:0:
262,228,126901,5,4,0:0:0:0:
311,228,127014,1,0,0:0:0:0:
289,181,127128,6,0,L|283:137,1,38.5000011749268
316,145,127242,1,4,0:0:0:0:
442,62,127355,6,0,B|468:32|468:32|471:97|471:97|452:117|452:117|452:154|452:154|476:182|476:182|476:220,1,233.100005690918,4|0,0:0|0:0,0:0:0:0:
342,330,127696,2,0,B|339:254|339:254|375:210|375:210|374:101,1,233.100005690918,4|0,0:0|0:0,0:0:0:0:
446,327,128037,2,0,B|382:307|338:325|338:325|348:332|348:332|301:357|238:340,1,233.100005690918,4|0,0:0|0:0,0:0:0:0:
167,304,128378,1,0,0:0:0:0:
82,261,128492,6,0,L|36:263,2,38.5000011749268
161,208,128719,6,0,B|184:174|184:174|189:126|189:126|171:91,1,125.999996154785,2|0,0:0|0:0,0:0:0:0:
26,23,129173,2,0,L|43:51,31,31.4999990386963
58,71,130992,5,4,0:0:0:0:
256,192,143719,12,0,145310,0:0:0:0:
236,132,145537,6,0,B|181:108|125:132|125:132|152:136|167:155,2,157.500006008148
327,70,146446,2,0,B|357:117|357:117|334:229,1,157.500006008148
269,264,146901,6,0,P|303:221|314:333,1,280
95,238,148037,6,0,B|76:210|76:210|94:133,2,105.000004005432
179,293,148719,1,0,0:0:0:0:
269,264,148946,1,0,0:0:0:0:
285,171,149173,2,0,B|281:121|323:68|323:68|271:109,2,157.500006008148
372,299,150083,6,0,B|400:263|400:263|387:156,1,154.000004699707
387,156,150992,1,0,0:0:0:0:
306,120,151105,1,0,0:0:0:0:
217,121,151219,6,0,B|161:100|107:137|107:137|130:102|130:102|58:148|14:131|-6:83|2:40|46:22|46:22|37:48|46:73,1,420
180,206,152810,6,0,B|210:270|202:329|139:338|135:307|197:283,2,157.500006008148
298,235,153719,2,0,P|385:254|445:197,1,157.500006008148
354,172,154173,6,0,P|388:144|266:126,1,280
187,237,155310,1,0,0:0:0:0:
110,212,155537,1,0,0:0:0:0:
110,131,155764,1,0,0:0:0:0:
187,106,155992,1,0,0:0:0:0:
234,171,156219,1,0,0:0:0:0:
127,292,156446,6,0,B|82:323|82:323|-21:308,2,157.500006008148
250,247,157355,2,0,B|289:231|325:262|325:262|306:221|329:181,1,157.500006008148
401,225,157810,2,0,P|405:297|338:344,1,157.500006008148
326,263,158264,6,0,P|320:202|393:147,2,157.500006008148
467,171,159173,2,0,P|469:114|428:74,1,105.000004005432
361,74,159514,1,0,0:0:0:0:
287,101,159628,2,0,L|238:103,2,35
82,77,160083,6,0,B|128:106|128:106|252:102,2,178.500003404617
99,202,160992,2,0,P|102:266|61:303,1,119.000002269745
31,234,161333,1,0,0:0:0:0:
115,203,161446,2,0,P|118:267|77:304,1,119.000002269745
251,257,161901,6,0,B|288:226|288:226|420:237,2,178.500003404617
281,337,162810,1,0,0:0:0:0:
167,243,163037,1,0,0:0:0:0:
251,257,163264,1,0,0:0:0:0:
197,323,163492,1,0,0:0:0:0:
221,177,163719,6,0,B|234:48|234:48|261:114,2,178.500003404617
370,143,164628,2,0,P|432:147|479:101,1,119.000002269745
403,71,164969,1,0,0:0:0:0:
370,143,165083,2,0,P|366:205|412:252,1,119.000002269745
499,343,165537,5,0,0:0:0:0:
411,361,165651,1,0,0:0:0:0:
324,343,165764,1,0,0:0:0:0:
314,308,165878,2,0,B|264:340|226:313|226:313|243:314|265:303,1,119.000002269745
364,240,166219,2,0,P|384:262|394:293,1,59.5000011348725
261,172,166446,6,0,B|252:79|252:79|237:116,1,119.000002269745
235,161,166787,2,0,B|226:68|226:68|211:105,1,119.000002269745
209,150,167128,2,0,B|200:57|200:57,1,59.5000011348725
109,262,167355,6,0,P|51:263|112:236,2,178.500003404617
236,313,168264,2,0,B|275:325|275:325|356:319,1,119.000002269745
409,263,168605,1,0,0:0:0:0:
277,325,168719,2,0,B|316:337|316:337|397:331,1,119.000002269745
336,154,169173,6,0,B|292:78|292:78|238:76|209:33,2,178.500003404617
408,111,170083,1,0,0:0:0:0:
338,238,170310,1,0,0:0:0:0:
410,195,170537,1,0,0:0:0:0:
264,197,170764,1,0,0:0:0:0:
131,139,170992,6,0,P|81:98|116:0,2,178.500003404617
161,238,171901,2,0,P|109:268|35:243,1,119.000002269745
22,179,172242,1,0,0:0:0:0:
142,319,172355,2,0,P|86:304|53:257,1,119.000002269745
229,204,172810,6,0,P|208:302|113:307,2,178.500003404617
266,111,173719,1,0,0:0:0:0:
291,147,173833,2,0,B|305:119|305:119|291:32,1,119.000002269745
309,229,174173,2,0,B|335:242|335:242|377:237,1,59.5000011348725
490,176,174401,2,0,B|464:163|464:163|422:168,1,59.5000011348725
229,204,174628,5,2,0:0:0:0:
206,207,174742,1,0,0:0:0:0:
183,210,174855,1,0,0:0:0:0:
160,213,174969,1,0,0:0:0:0:
137,215,175083,6,0,L|79:222,3,45.4999979171754,4|0|0|0,0:0|0:0|0:0|0:0,0:0:0:0:
221,297,175537,5,2,0:0:0:0:
222,273,175651,1,0,0:0:0:0:
224,250,175764,1,0,0:0:0:0:
226,227,175878,1,0,0:0:0:0:
229,204,175992,6,0,L|234:145,3,45.4999979171754,4|0|0|0,0:0|0:0|0:0|0:0,0:0:0:0:
181,39,176446,5,2,0:0:0:0:
198,53,176560,1,0,0:0:0:0:
219,62,176673,1,0,0:0:0:0:
241,64,176787,1,0,0:0:0:0:
264,61,176901,6,0,P|299:59|329:42,3,45.4999979171754,4|0|0|0,0:0|0:0|0:0|0:0,0:0:0:0:
352,148,177355,5,2,0:0:0:0:
369,134,177469,1,0,0:0:0:0:
390,125,177583,1,0,0:0:0:0:
412,123,177696,1,0,0:0:0:0:
435,126,177810,6,0,P|470:128|500:145,3,45.4999979171754,4|0|0|0,0:0|0:0|0:0|0:0,0:0:0:0:
460,325,178264,5,2,0:0:0:0:
443,309,178378,1,0,0:0:0:0:
430,290,178492,1,0,0:0:0:0:
421,269,178605,1,0,0:0:0:0:
417,247,178719,5,4,0:0:0:0:
390,283,178833,1,0,0:0:0:0:
350,303,178946,1,0,0:0:0:0:
305,303,179060,1,0,0:0:0:0:
235,247,179173,5,2,0:0:0:0:
252,263,179287,1,0,0:0:0:0:
265,282,179401,1,0,0:0:0:0:
274,303,179514,1,0,0:0:0:0:
279,325,179628,5,4,0:0:0:0:
236,341,179742,1,0,0:0:0:0:
191,336,179855,1,0,0:0:0:0:
153,312,179969,1,0,0:0:0:0:
137,209,180083,5,2,0:0:0:0:
199,156,180196,1,0,0:0:0:0:
280,167,180310,1,0,0:0:0:0:
313,143,180423,6,0,P|348:92|326:34,1,119.000002269745,4|0,0:0|0:0,0:0:0:0:
249,23,180764,2,0,P|268:41|312:47,1,59.5000011348725,2|0,0:0|0:0,0:0:0:0:
131,10,180992,2,0,L|123:129,1,119.000002269745,4|0,0:0|0:0,0:0:0:0:
99,37,181333,2,0,L|90:155,1,119.000002269745,4|0,0:0|0:0,0:0:0:0:
68,222,181673,2,0,B|87:200|87:200|91:161,1,59.5000011348725,2|0,0:0|0:0,0:0:0:0:
195,298,181901,5,2,0:0:0:0:
222,312,182014,1,0,0:0:0:0:
254,317,182128,1,0,0:0:0:0:
285,312,182242,1,0,0:0:0:0:
313,297,182355,6,0,P|342:283|356:269,3,45.4999979171754,4|0|0|0,0:0|0:0|0:0|0:0,0:0:0:0:
291,192,182810,5,2,0:0:0:0:
318,177,182923,1,0,0:0:0:0:
350,172,183037,1,0,0:0:0:0:
381,177,183151,1,0,0:0:0:0:
409,192,183264,6,0,P|437:206|451:220,3,45.4999979171754,4|0|0|0,0:0|0:0|0:0|0:0,0:0:0:0:
266,218,183719,5,2,0:0:0:0:
256,187,183833,1,0,0:0:0:0:
246,157,183946,1,0,0:0:0:0:
236,127,184060,1,0,0:0:0:0:
226,96,184173,6,0,L|211:43,3,45.4999979171754,4|0|0|0,0:0|0:0|0:0|0:0,0:0:0:0:
104,191,184628,2,0,L|119:244,3,45.4999979171754,2|0|0|0,0:0|0:0|0:0|0:0,0:0:0:0:
104,23,185083,5,4,0:0:0:0:
70,107,185310,1,0,0:0:0:0:
104,191,185537,5,2,0:0:0:0:
118,219,185651,1,0,0:0:0:0:
124,250,185764,1,0,0:0:0:0:
123,282,185878,1,0,0:0:0:0:
114,312,185992,5,4,0:0:0:0:
156,279,186105,1,0,0:0:0:0:
209,267,186219,1,0,0:0:0:0:
262,279,186333,1,0,0:0:0:0:
378,308,186446,5,2,0:0:0:0:
347,315,186560,1,0,0:0:0:0:
315,313,186673,1,0,0:0:0:0:
286,301,186787,1,0,0:0:0:0:
262,279,186901,5,4,0:0:0:0:
295,237,187014,1,0,0:0:0:0:
297,184,187128,1,0,0:0:0:0:
268,139,187242,1,0,0:0:0:0:
217,120,187355,5,2,0:0:0:0:
251,193,187469,1,0,0:0:0:0:
326,218,187583,1,0,0:0:0:0:
396,179,187696,1,0,0:0:0:0:
415,102,187810,1,4,0:0:0:0:
372,35,187923,1,0,0:0:0:0:
293,22,188037,1,0,0:0:0:0:
219,59,188151,1,0,0:0:0:0:
128,62,188264,6,0,L|73:57,7,31.4999990386963,2|0|0|0|0|0|0|0,0:0|0:0|0:0|0:0|0:0|0:0|0:0|0:0,0:0:0:0:
76,196,188719,2,0,L|26:220,7,31.4999990386963,2|0|0|0|0|0|0|0,0:0|0:0|0:0|0:0|0:0|0:0|0:0|0:0,0:0:0:0:
134,328,189173,1,4,0:0:0:0:
256,192,189287,12,0,194628,0:0:0:0:
173,153,203719,5,4,0:0:0:0:
372,242,204173,6,0,L|316:251,1,45.4999979171754,4|0,0:0|0:0,0:0:0:0:
285,324,204401,1,0,0:0:0:0:
327,249,204514,2,0,L|271:258,1,45.4999979171754,4|0,0:0|0:0,0:0:0:0:
181,267,204742,1,0,0:0:0:0:
313,151,204855,5,4,0:0:0:0:
331,135,205083,1,0,0:0:0:0:
349,119,205310,1,0,0:0:0:0:
86,50,205537,1,4,0:0:0:0:
181,267,205992,6,0,P|187:231|184:213,1,45.4999979171754,4|0,0:0|0:0,0:0:0:0:
124,170,206219,1,0,0:0:0:0:
136,275,206333,2,0,P|158:273|180:266,1,45.4999979171754,4|0,0:0|0:0,0:0:0:0:
272,232,206560,1,0,0:0:0:0:
71,333,206673,5,4,0:0:0:0:
48,340,206901,1,0,0:0:0:0:
25,348,207128,1,0,0:0:0:0:
330,295,207355,1,4,0:0:0:0:
348,43,207810,6,0,L|361:93,1,45.4999979171754,4|0,0:0|0:0,0:0:0:0:
385,167,208037,1,0,0:0:0:0:
292,201,208151,2,0,L|299:144,1,45.4999979171754,4|0,0:0|0:0,0:0:0:0:
306,75,208378,1,0,0:0:0:0:
367,264,208492,5,4,0:0:0:0:
381,288,208719,1,0,0:0:0:0:
394,314,208946,1,0,0:0:0:0:
189,147,209173,1,4,0:0:0:0:
112,350,209628,6,0,P|118:324|113:295,1,45.4999979171754,4|0,0:0|0:0,0:0:0:0:
72,236,209855,1,0,0:0:0:0:
33,121,209969,2,0,P|27:147|32:176,1,45.4999979171754,4|0,0:0|0:0,0:0:0:0:
91,224,210196,1,0,0:0:0:0:
219,194,210310,5,4,0:0:0:0:
219,148,210423,1,0,0:0:0:0:
202,105,210537,2,0,P|180:87|158:78,1,45.4999979171754
140,15,210764,2,0,P|160:25|177:40,1,45.4999979171754,4|0,0:0|0:0,0:0:0:0:
376,192,210992,6,0,P|438:174|447:94,1,125.999996154785,4|0,0:0|0:0,0:0:0:0:
402,63,211333,1,0,0:0:0:0:
454,165,211446,2,0,P|471:130|471:101,1,62.9999980773926,4|0,0:0|0:0,0:0:0:0:
412,42,211673,5,0,0:0:0:0:
315,181,211787,2,0,P|351:193|380:190,1,62.9999980773926,4|0,0:0|0:0,0:0:0:0:
320,94,212014,1,0,0:0:0:0:
271,258,212128,6,0,L|279:326,1,62.9999980773926,4|0,0:0|0:0,0:0:0:0:
253,282,212355,2,0,L|261:350,1,62.9999980773926
235,306,212583,2,0,L|243:374,1,62.9999980773926
180,98,212810,6,0,P|102:95|51:149,1,140,4|0,0:0|0:0,0:0:0:0:
58,215,213151,1,0,0:0:0:0:
139,240,213264,2,0,P|142:203|131:172,1,70,4|0,0:0|0:0,0:0:0:0:
58,133,213492,5,0,0:0:0:0:
77,298,213605,2,0,P|108:323|146:325,1,70,4|0,0:0|0:0,0:0:0:0:
213,285,213833,5,0,0:0:0:0:
321,169,213946,5,4,0:0:0:0:
369,158,214060,1,0,0:0:0:0:
318,164,214173,5,4,0:0:0:0:
367,163,214287,1,0,0:0:0:0:
346,210,214401,2,0,B|333:234|333:234|339:288,1,70,4|0,0:0|0:0,0:0:0:0:
457,143,214628,5,4,0:0:0:0:
443,111,214742,1,0,0:0:0:0:
418,86,214855,1,0,0:0:0:0:
386,74,214969,1,0,0:0:0:0:
351,74,215083,5,4,0:0:0:0:
288,128,215196,1,0,0:0:0:0:
206,140,215310,1,0,0:0:0:0:
131,106,215423,1,0,0:0:0:0:
86,37,215537,6,0,L|70:66,1,26.2500010013581,4|0,0:0|0:0,0:0:0:0:
155,83,215651,2,0,L|126:100,1,26.2500010013581
163,166,215764,2,0,L|129:166,1,26.2500010013581,4|0,0:0|0:0,0:0:0:0:
104,225,215878,2,0,L|132:242,1,26.2500010013581
108,309,215992,2,0,L|140:301,1,26.2500010013581,4|0,0:0|0:0,0:0:0:0:
175,358,216105,2,0,L|192:329,1,26.2500010013581
257,339,216219,2,0,L|289:331,1,26.2500010013581,4|0,0:0|0:0,0:0:0:0:
294,263,216333,2,0,L|307:240,1,26.2500010013581
253,184,216446,5,4,0:0:0:0:
256,192,216503,12,0,217810,0:0:0:0:
334,134,218264,6,0,B|291:97|291:97|125:107,1,203.000006195069,2|0,0:0|0:0,0:0:0:0:
250,265,218719,2,0,B|207:302|207:302|41:292,1,203.000006195069,2|0,0:0|0:0,0:0:0:0:
199,199,219060,6,0,P|231:182|282:187,1,77.0000023498536,4|0,0:0|0:0,0:0:0:0:
250,265,219287,1,0,0:0:0:0:
195,112,219401,2,0,L|272:100,1,59.5000011348725
362,225,219628,6,0,B|382:376|382:376|379:333|429:288,1,231.000007049561,2|0,0:0|0:0,0:0:0:0:
487,72,220083,2,0,P|433:22|358:29,1,154.000004699707,2|0,0:0|0:0,0:0:0:0:
301,87,220423,1,0,0:0:0:0:
362,224,220537,6,0,P|412:170|405:95,1,154.000004699707,2|0,0:0|0:0,0:0:0:0:
284,11,220878,2,0,P|244:29|226:60,1,77.0000023498536,4|0,0:0|0:0,0:0:0:0:
228,175,221105,1,0,0:0:0:0:
215,232,221219,2,0,B|234:205|227:174,1,59.5000011348725
65,254,221446,2,0,L|150:240,1,77.0000023498536,4|0,0:0|0:0,0:0:0:0:
2,347,221673,2,0,L|87:361,1,77.0000023498536,4|0,0:0|0:0,0:0:0:0:
262,381,221901,5,2,0:0:0:0:
308,323,222014,1,0,0:0:0:0:
286,252,222128,1,0,0:0:0:0:
215,232,222242,1,0,0:0:0:0:
155,183,222355,1,2,0:0:0:0:
149,105,222469,1,0,0:0:0:0:
195,43,222583,1,0,0:0:0:0:
269,23,222696,1,0,0:0:0:0:
337,59,222810,5,2,0:0:0:0:
320,74,222923,1,0,0:0:0:0:
414,129,223037,5,0,0:0:0:0:
383,125,223151,1,0,0:0:0:0:
316,227,223264,2,0,P|304:184|313:140,1,77.0000023498536,4|0,0:0|0:0,0:0:0:0:
419,276,223492,2,0,L|435:328,2,29.7500005674362
217,266,223719,6,0,B|140:272|86:321|86:321|117:283|119:241,1,203.000006195069,2|0,0:0|0:0,0:0:0:0:
128,184,224060,1,0,0:0:0:0:
105,80,224173,6,0,P|91:58|87:33,1,50.7500015487671
60,89,224287,2,0,P|65:64|80:43,1,50.7500015487671
42,51,224401,2,0,P|63:37|88:33,1,50.7500015487671,4|0,0:0|0:0,0:0:0:0:
228,81,224514,6,0,P|199:47|122:35,1,90.9999958343508
265,155,224742,1,0,0:0:0:0:
302,44,224855,2,0,L|312:6,2,38.5000011749268
339,118,225083,5,2,0:0:0:0:
183,151,225196,1,0,0:0:0:0:
328,246,225310,1,4,0:0:0:0:
221,225,225423,1,0,0:0:0:0:
434,223,225537,6,0,B|394:255|394:255|239:231,1,203.000006195069,2|0,0:0|0:0,0:0:0:0:
76,355,225992,2,0,B|116:323|116:323|271:347,1,203.000006195069,2|0,0:0|0:0,0:0:0:0:
357,333,226333,6,0,L|264:315,1,77.0000023498536,4|0,0:0|0:0,0:0:0:0:
173,304,226560,1,0,0:0:0:0:
162,213,226673,2,0,L|237:227,1,59.5000011348725
41,233,226901,6,0,B|118:156|48:19|-58:120|94:141,1,231.000007049561,2|0,0:0|0:0,0:0:0:0:
273,95,227355,2,0,B|322:109|322:109|440:83,1,154.000004699707,2|0,0:0|0:0,0:0:0:0:
505,57,227696,5,0,0:0:0:0:
289,122,227810,2,0,B|338:136|338:136|456:110,1,154.000004699707,2|0,0:0|0:0,0:0:0:0:
287,18,228151,1,0,0:0:0:0:
228,29,228264,2,0,L|286:17,1,59.5000011348725
277,228,228492,2,0,P|293:184|277:137,1,77.0000023498536,4|0,0:0|0:0,0:0:0:0:
198,287,228719,2,0,P|182:243|198:196,1,77.0000023498536,4|0,0:0|0:0,0:0:0:0:
402,283,228946,6,0,B|385:292|385:292|340:283,1,50.7500015487671
396,306,229060,2,0,B|376:305|376:305|353:284,1,50.7500015487671
206,132,229173,5,2,0:0:0:0:
168,64,229287,1,0,0:0:0:0:
91,53,229401,1,0,0:0:0:0:
34,105,229514,1,0,0:0:0:0:
43,181,229628,1,2,0:0:0:0:
106,225,229742,1,0,0:0:0:0:
182,219,229855,1,0,0:0:0:0:
250,183,229969,1,0,0:0:0:0:
326,190,230083,5,2,0:0:0:0:
331,167,230196,1,0,0:0:0:0:
425,219,230310,5,0,0:0:0:0:
408,192,230423,1,0,0:0:0:0:
361,259,230537,6,0,B|348:290|348:290|354:353,1,77.0000023498536,4|0,0:0|0:0,0:0:0:0:
468,384,230764,2,0,B|481:353|481:353|475:290,1,77.0000023498536
468,103,230992,5,2,0:0:0:0:
411,34,231105,1,0,0:0:0:0:
322,39,231219,1,0,0:0:0:0:
267,114,231333,1,0,0:0:0:0:
286,203,231446,5,2,0:0:0:0:
168,274,231560,1,0,0:0:0:0:
250,274,231673,5,4,0:0:0:0:
129,207,231787,1,0,0:0:0:0:
129,341,231901,2,0,L|138:377,2,29.7500005674362,2|0|0,0:0|0:0|0:0,0:0:0:0:
12,274,232128,1,4,0:0:0:0:
16,256,232242,1,0,0:0:0:0:
42,91,232355,6,0,L|29:176,1,77.0000023498536,2|0,0:0|0:0,0:0:0:0:
80,42,232583,2,0,L|67:127,1,77.0000023498536,4|0,0:0|0:0,0:0:0:0:
359,166,232810,6,0,B|325:127|325:127|166:136,1,210.000008010865,2|0,0:0|0:0,0:0:0:0:
496,272,233264,2,0,B|462:311|462:311|303:302,1,210.000008010865,2|0,0:0|0:0,0:0:0:0:
235,228,233605,6,0,L|321:233,1,80.5000015354157,4|0,0:0|0:0,0:0:0:0:
222,257,233833,1,0,0:0:0:0:
328,334,233946,2,0,L|265:330,1,62.9999980773926
86,321,234173,6,0,B|5:265|48:158|48:158|51:200|74:220,1,241.500004606247,2|0,0:0|0:0,0:0:0:0:
372,82,234628,6,0,P|302:43|224:66,1,154.000004699707,2|0,0:0|0:0,0:0:0:0:
184,124,234969,1,0,0:0:0:0:
376,54,235083,6,0,P|306:15|228:38,1,154.000004699707,2|0,0:0|0:0,0:0:0:0:
291,126,235423,1,0,0:0:0:0:
275,181,235537,2,0,P|288:158|286:109,1,59.5000011348725,4|0,0:0|0:0,0:0:0:0:
268,298,235764,2,0,P|258:340|275:386,1,77.0000023498536,2|0,0:0|0:0,0:0:0:0:
357,214,235992,2,0,P|367:256|350:302,1,77.0000023498536,4|0,0:0|0:0,0:0:0:0:
236,372,236219,2,0,P|227:334|237:297,1,77.0000023498536
390,200,236446,5,2,0:0:0:0:
462,181,236560,1,0,0:0:0:0:
496,115,236673,1,0,0:0:0:0:
469,45,236787,1,0,0:0:0:0:
399,19,236901,1,2,0:0:0:0:
333,55,237014,1,0,0:0:0:0:
304,126,237128,1,0,0:0:0:0:
232,154,237242,1,0,0:0:0:0:
156,139,237355,5,2,0:0:0:0:
167,119,237469,1,0,0:0:0:0:
64,102,237583,5,0,0:0:0:0:
93,91,237696,1,0,0:0:0:0:
154,41,237810,6,0,B|188:31|188:31|247:38,1,77.0000023498536,4|0,0:0|0:0,0:0:0:0:
87,183,238037,2,0,B|73:190|73:190|46:192,2,38.5000011749268
282,216,238264,6,0,B|321:303|286:389|179:354|290:303,1,203.000006195069,2|0,0:0|0:0,0:0:0:0:
371,293,238605,1,0,0:0:0:0:
477,228,238719,6,0,B|461:237|461:237|426:234,1,50.7500015487671
485,259,238833,2,0,B|466:258|466:258|437:238,1,50.7500015487671
458,272,238946,2,0,B|442:262|442:262|427:230,1,50.7500015487671
449,116,239060,6,0,B|461:142|461:142|448:212,1,90.9999958343508,2|0,0:0|0:0,0:0:0:0:
369,87,239287,1,0,0:0:0:0:
434,32,239401,2,0,L|473:22,2,38.5000011749268,4|0|0,0:0|0:0|0:0,0:0:0:0:
384,171,239628,5,2,0:0:0:0:
288,58,239742,1,0,0:0:0:0:
256,285,239855,1,0,0:0:0:0:
305,145,239969,1,0,0:0:0:0:
160,173,240083,6,0,B|106:113|106:36|106:36|101:75|80:94,1,210.000008010865,2|0,0:0|0:0,0:0:0:0:
0,292,240537,2,0,B|54:232|54:155|54:155|59:194|80:213,1,210.000008010865,2|0,0:0|0:0,0:0:0:0:
79,325,240878,6,0,P|53:366|18:381,1,80.5000015354157,4|0,0:0|0:0,0:0:0:0:
140,264,241105,1,0,0:0:0:0:
219,234,241219,2,0,L|286:244,1,62.9999980773926
463,277,241446,6,0,B|482:341|413:343|388:320|369:283|391:218|452:172,1,241.500004606247,2|0,0:0|0:0,0:0:0:0:
291,36,241901,2,0,B|256:145|256:145|246:93,1,154.000004699707,2|0,0:0|0:0,0:0:0:0:
209,40,242242,1,0,0:0:0:0:
291,64,242355,6,0,B|256:173|256:173|246:121,1,154.000004699707,2|0,0:0|0:0,0:0:0:0:
158,130,242696,1,0,0:0:0:0:
99,121,242810,2,0,L|158:130,1,59.5000011348725,4|0,0:0|0:0,0:0:0:0:
56,261,243037,2,0,P|44:230|49:183,1,77.0000023498536,2|0,0:0|0:0,0:0:0:0:
203,206,243264,2,0,P|172:218|125:213,1,77.0000023498536,4|0,0:0|0:0,0:0:0:0:
258,155,243492,6,0,P|276:178|280:201,1,50.7500015487671
294,152,243605,2,0,P|291:177|278:198,1,50.7500015487671
240,342,243719,5,2,0:0:0:0:
195,281,243833,1,0,0:0:0:0:
203,206,243946,1,0,0:0:0:0:
258,155,244060,1,0,0:0:0:0:
335,159,244173,1,2,0:0:0:0:
411,166,244287,1,0,0:0:0:0:
461,107,244401,1,0,0:0:0:0:
440,33,244514,1,0,0:0:0:0:
368,4,244628,5,2,0:0:0:0:
371,26,244742,1,0,0:0:0:0:
290,54,244855,5,4,0:0:0:0:
307,67,244969,1,0,0:0:0:0:
285,145,245083,5,2,0:0:0:0:
260,163,245196,1,0,0:0:0:0:
346,214,245310,5,4,0:0:0:0:
341,244,245423,1,0,0:0:0:0:
438,213,245537,6,0,L|459:243,7,31.4999990386963,2|0|0|0|0|0|0|0,0:0|0:0|0:0|0:0|0:0|0:0|0:0|0:0,0:0:0:0:
382,337,245992,2,0,L|400:311,7,31.4999990386963
281,318,246446,2,0,P|241:332|201:323,1,77.0000023498536,2|0,0:0|0:0,0:0:0:0:
71,265,246673,2,0,P|111:251|151:260,1,77.0000023498536,4|0,0:0|0:0,0:0:0:0:
236,236,246901,5,2,0:0:0:0:
114,345,247014,1,0,0:0:0:0:
173,166,247128,1,4,0:0:0:0:
207,326,247242,1,0,0:0:0:0:
110,94,247355,6,0,P|208:78|265:162,1,210.000008010865,2|0,0:0|0:0,0:0:0:0:
236,236,247696,1,0,0:0:0:0:
173,166,247810,2,0,B|327:133|327:133|269:117,1,210.000008010865,2|0,0:0|0:0,0:0:0:0:
386,189,248151,6,0,P|406:152|403:104,1,80.5000015354157,4|0,0:0|0:0,0:0:0:0:
327,133,248378,1,0,0:0:0:0:
356,263,248492,2,0,P|395:271|429:260,1,62.9999980773926
351,56,248719,6,0,B|223:97|115:29|288:0|252:90,1,241.500004606247,2|0,0:0|0:0,0:0:0:0:
88,320,249173,2,0,P|61:252|106:176,1,154.000004699707,2|0,0:0|0:0,0:0:0:0:
173,166,249514,1,0,0:0:0:0:
175,304,249628,6,0,B|172:274|148:251|148:251|195:266|244:225,1,154.000004699707,2|0,0:0|0:0,0:0:0:0:
287,160,249969,1,0,0:0:0:0:
279,100,250083,2,0,L|287:160,1,59.5000011348725,4|0,0:0|0:0,0:0:0:0:
361,243,250310,2,0,B|377:219|377:219|367:153,1,77.0000023498536,2|0,0:0|0:0,0:0:0:0:
296,292,250537,2,0,B|280:316|280:316|290:382,1,77.0000023498536,4|0,0:0|0:0,0:0:0:0:
381,233,250764,2,0,B|397:209|397:209|387:143,1,77.0000023498536
368,73,250992,5,2,0:0:0:0:
453,39,251105,1,0,0:0:0:0:
364,57,251219,1,0,0:0:0:0:
455,54,251333,1,0,0:0:0:0:
427,138,251446,5,2,0:0:0:0:
427,138,251560,1,0,0:0:0:0:
355,195,251673,1,0,0:0:0:0:
433,152,251787,1,0,0:0:0:0:
346,180,251901,5,2,0:0:0:0:
253,175,252014,1,0,0:0:0:0:
180,116,252128,1,0,0:0:0:0:
187,23,252242,1,0,0:0:0:0:
253,175,252355,2,0,B|264:212|264:212|249:265,1,77.0000023498536,2|0,0:0|0:0,0:0:0:0:
173,330,252583,2,0,L|184:371,2,38.5000011749268,4|0|0,0:0|0:0|0:0,0:0:0:0:
22,147,252810,6,0,B|-21:89|4:15|4:15|6:58|36:86,1,203.000006195069,2|0,0:0|0:0,0:0:0:0:
103,64,253151,1,0,0:0:0:0:
92,198,253264,6,0,P|72:222|44:232,1,50.7500015487671,2|0,0:0|0:0,0:0:0:0:
114,219,253378,2,0,P|84:229|55:224,1,50.7500015487671
101,246,253492,2,0,P|70:240|47:221,1,50.7500015487671
61,326,253605,6,0,P|45:278|54:229,1,101.500003097534,2|0,0:0|0:0,0:0:0:0:
151,143,253833,1,0,0:0:0:0:
200,211,253946,2,0,L|176:266,2,38.5000011749268,4|0|0,0:0|0:0|0:0,0:0:0:0:
234,134,254173,5,2,0:0:0:0:
147,317,254287,1,0,0:0:0:0:
185,67,254401,1,4,0:0:0:0:
284,202,254514,1,0,0:0:0:0:
383,337,254628,6,0,B|424:302|424:302|415:146,1,210.000008010865,2|0,0:0|0:0,0:0:0:0:
337,139,254969,1,0,0:0:0:0:
326,237,255083,2,0,B|285:202|285:202|294:46,1,210.000008010865,2|0,0:0|0:0,0:0:0:0:
398,0,255423,6,0,L|393:86,1,80.5000015354157,4|0,0:0|0:0,0:0:0:0:
294,46,255651,1,0,0:0:0:0:
427,30,255764,2,0,L|422:111,1,62.9999980773926
192,130,255992,6,0,B|101:146|25:97|25:97|61:123|69:160,1,241.500004606247,2|0,0:0|0:0,0:0:0:0:
280,261,256446,2,0,P|353:235|434:269,1,154.000004699707,2|0,0:0|0:0,0:0:0:0:
458,329,256787,1,0,0:0:0:0:
289,237,256901,6,0,P|362:211|443:245,1,154.000004699707,2|0,0:0|0:0,0:0:0:0:
361,296,257242,1,0,0:0:0:0:
362,354,257355,2,0,B|356:335|356:335|361:296,1,59.5000011348725,4|0,0:0|0:0,0:0:0:0:
238,338,257583,2,0,P|200:348|155:338,1,77.0000023498536,2|0,0:0|0:0,0:0:0:0:
192,188,257810,2,0,P|202:226|192:271,1,77.0000023498536
76,347,258037,6,0,P|79:317|97:292,1,50.7500015487671
53,333,258151,2,0,P|67:312|89:299,1,50.7500015487671
192,188,258264,5,2,0:0:0:0:
65,152,258378,1,0,0:0:0:0:
166,217,258492,1,0,0:0:0:0:
133,89,258605,1,0,0:0:0:0:
260,124,258719,5,4,0:0:0:0:
133,54,258833,1,0,0:0:0:0:
260,19,258946,1,0,0:0:0:0:
133,89,259060,1,0,0:0:0:0:
291,122,259173,5,2,0:0:0:0:
310,98,259287,1,0,0:0:0:0:
397,179,259401,1,0,0:0:0:0:
392,157,259514,1,0,0:0:0:0:
403,57,259628,5,4,0:0:0:0:
484,116,259742,1,0,0:0:0:0:
473,216,259855,1,0,0:0:0:0:
381,256,259969,1,0,0:0:0:0:
284,227,260083,5,2,0:0:0:0:
247,214,260196,1,0,0:0:0:0:
280,263,260310,5,4,0:0:0:0:
243,250,260423,1,0,0:0:0:0:
276,299,260537,5,2,0:0:0:0:
239,286,260651,1,0,0:0:0:0:
272,335,260764,5,4,0:0:0:0:
235,322,260878,1,0,0:0:0:0:
268,371,260992,2,0,L|212:353,7,38.5000011749268,2|0|0|0|0|0|0|0,0:0|0:0|0:0|0:0|0:0|0:0|0:0|0:0,0:0:0:0:
301,356,261446,5,4,0:0:0:0:
35,239,261673,1,4,0:0:0:0:
319,100,261901,6,0,B|163:93|163:93|223:67,1,210.000008010865,2|0,0:0|0:0,0:0:0:0:
326,23,262242,1,0,0:0:0:0:
376,155,262355,2,0,B|220:148|220:148|280:122,1,210.000008010865,2|0,0:0|0:0,0:0:0:0:
458,128,262696,6,0,P|464:171|444:212,1,80.5000015354157,4|0,0:0|0:0,0:0:0:0:
375,237,262923,1,0,0:0:0:0:
392,295,263037,2,0,P|377:268|375:237,1,62.9999980773926,2|0,0:0|0:0,0:0:0:0:
218,321,263264,6,0,B|45:343|-17:302|162:241|113:375,1,241.500004606247
115,154,263719,2,0,B|84:110|50:107|50:107|84:104|116:64,1,161.000003070831,2|0,0:0|0:0,0:0:0:0:
36,25,264060,1,0,0:0:0:0:
115,154,264173,6,0,B|146:110|180:107|180:107|146:104|114:64,1,161.000003070831,2|0,0:0|0:0,0:0:0:0:
188,20,264514,1,0,0:0:0:0:
245,43,264628,2,0,P|218:27|188:20,1,62.9999980773926,4|0,0:0|0:0,0:0:0:0:
295,119,264855,2,0,B|320:108|320:108|384:103,1,80.5000015354157,2|0,0:0|0:0,0:0:0:0:
481,172,265083,2,0,B|456:183|456:183|392:188,1,80.5000015354157,4|0,0:0|0:0,0:0:0:0:
361,262,265310,2,0,P|328:237|318:186,1,80.5000015354157
445,284,265537,5,2,0:0:0:0:
300,324,265651,1,0,0:0:0:0:
384,347,265764,1,0,0:0:0:0:
276,241,265878,1,0,0:0:0:0:
130,281,265992,5,4,0:0:0:0:
215,303,266105,1,0,0:0:0:0:
107,197,266219,1,0,0:0:0:0:
153,365,266333,1,0,0:0:0:0:
191,219,266446,5,2,0:0:0:0:
208,148,266560,1,0,0:0:0:0:
225,77,266673,1,0,0:0:0:0:
242,6,266787,1,0,0:0:0:0:
294,56,266901,5,4,0:0:0:0:
156,98,267014,1,0,0:0:0:0:
260,198,267128,1,0,0:0:0:0:
136,132,267242,1,0,0:0:0:0:
277,167,267355,6,0,B|354:221|432:181|432:181|392:182|359:159,1,210.000008010865,2|0,0:0|0:0,0:0:0:0:
367,96,267696,1,0,0:0:0:0:
461,314,267810,6,0,L|446:258,1,52.5000020027161,4|0,0:0|0:0,0:0:0:0:
430,325,267923,2,0,L|445:269,1,52.5000020027161
409,300,268037,2,0,L|447:263,1,52.5000020027161
312,314,268151,6,0,B|344:292|344:292|427:302,1,105.000004005432,0|2,0:0|0:0,0:0:0:0:
231,343,268378,1,0,0:0:0:0:
246,258,268492,2,0,L|223:223,2,38.5000011749268,4|0|0,0:0|0:0|0:0,0:0:0:0:
165,288,268719,5,2,0:0:0:0:
327,228,268833,1,0,0:0:0:0:
100,179,268946,1,4,0:0:0:0:
224,225,269060,1,0,0:0:0:0:
380,101,269173,6,0,B|338:70|338:70|169:79,1,210.000008010865,2|0,0:0|0:0,0:0:0:0:
301,151,269514,1,0,0:0:0:0:
439,170,269628,2,0,B|397:201|397:201|228:192,1,210.000008010865,2|0,0:0|0:0,0:0:0:0:
466,91,269969,6,0,P|502:115|519:149,1,80.5000015354157,4|0,0:0|0:0,0:0:0:0:
497,225,270196,1,0,0:0:0:0:
466,76,270310,2,0,P|502:100|517:130,1,62.9999980773926
416,312,270537,6,0,B|376:346|376:346|227:336|227:336|194:303,1,241.500004606247,2|0,0:0|0:0,0:0:0:0:
118,43,270992,2,0,B|151:112|115:167|115:167|120:139|106:117,1,161.000003070831,2|0,0:0|0:0,0:0:0:0:
36,148,271333,1,0,0:0:0:0:
144,56,271446,6,0,B|177:125|141:180|141:180|146:152|132:130,1,161.000003070831,2|0,0:0|0:0,0:0:0:0:
68,227,271787,1,0,0:0:0:0:
59,289,271901,2,0,L|68:227,1,62.9999980773926,4|0,0:0|0:0,0:0:0:0:
276,221,272128,2,0,L|187:234,1,80.5000015354157,2|0,0:0|0:0,0:0:0:0:
139,301,272355,2,0,L|50:288,1,80.5000015354157
297,197,272583,6,0,L|240:220,1,52.5000020027161,4|0,0:0|0:0,0:0:0:0:
305,234,272696,2,0,L|248:209,1,52.5000020027161
419,209,272810,5,2,0:0:0:0:
453,200,272923,1,0,0:0:0:0:
462,234,273037,1,0,0:0:0:0:
427,243,273151,1,0,0:0:0:0:
409,204,273264,5,2,0:0:0:0:
460,191,273377,1,0,0:0:0:0:
473,242,273491,1,0,0:0:0:0:
422,255,273605,1,0,0:0:0:0:
395,196,273719,5,2,0:0:0:0:
467,176,273832,1,0,0:0:0:0:
486,249,273946,1,0,0:0:0:0:
413,268,274060,1,0,0:0:0:0:
380,189,274173,5,2,0:0:0:0:
478,161,274286,1,0,0:0:0:0:
503,260,274400,1,0,0:0:0:0:
404,287,274514,1,0,0:0:0:0:
305,260,274628,5,2,0:0:0:0:
256,192,274685,12,4,276446,0:0:0:0:
393,99,290992,5,4,0:0:0:0:
92,314,291446,6,0,L|105:260,1,56,4|0,0:0|0:0,0:0:0:0:
181,231,291673,1,0,0:0:0:0:
41,145,291787,2,0,L|54:199,1,56,4|0,0:0|0:0,0:0:0:0:
185,67,292014,1,0,0:0:0:0:
191,250,292128,5,4,0:0:0:0:
201,269,292355,1,4,0:0:0:0:
211,288,292583,1,0,0:0:0:0:
387,120,292810,1,4,0:0:0:0:
468,312,293264,6,0,B|445:320|445:320|403:314,1,56,4|0,0:0|0:0,0:0:0:0:
343,268,293492,1,0,0:0:0:0:
458,256,293605,2,0,L|468:312,1,56,4|0,0:0|0:0,0:0:0:0:
391,196,293833,1,0,0:0:0:0:
444,57,293946,5,4,0:0:0:0:
459,41,294173,1,4,0:0:0:0:
474,25,294401,1,0,0:0:0:0:
178,79,294628,1,4,0:0:0:0:
272,256,295083,6,0,P|279:220|271:182,1,56,4|0,0:0|0:0,0:0:0:0:
215,151,295310,1,0,0:0:0:0:
214,307,295423,2,0,P|237:328|273:333,1,56,4|0,0:0|0:0,0:0:0:0:
382,294,295651,1,0,0:0:0:0:
132,228,295764,5,4,0:0:0:0:
110,220,295992,1,4,0:0:0:0:
88,212,296219,1,0,0:0:0:0:
390,149,296446,1,4,0:0:0:0:
124,42,296901,6,0,P|159:43|188:61,1,56,4|0,0:0|0:0,0:0:0:0:
212,126,297128,1,0,0:0:0:0:
304,203,297242,2,0,P|269:202|240:184,1,56,4|0,0:0|0:0,0:0:0:0:
192,127,297469,5,0,0:0:0:0:
256,292,297583,1,4,0:0:0:0:
224,323,297696,1,0,0:0:0:0:
182,341,297810,2,0,P|154:353|127:354,1,56,4|0,0:0|0:0,0:0:0:0:
65,339,298037,2,0,P|93:327|120:326,1,56,4|0,0:0|0:0,0:0:0:0:
417,312,298264,6,0,P|457:250|441:192,1,125.999996154785,2|0,0:0|0:0,0:0:0:0:
390,139,298605,1,0,0:0:0:0:
320,219,298719,2,0,P|347:238|386:240,1,62.9999980773926,4|0,0:0|0:0,0:0:0:0:
383,118,298946,5,0,0:0:0:0:
313,198,299060,2,0,P|340:217|379:219,1,62.9999980773926,4|0,0:0|0:0,0:0:0:0:
470,123,299287,1,0,0:0:0:0:
246,22,299401,6,0,L|257:105,1,70,2|0,0:0|0:0,0:0:0:0:
222,46,299628,2,0,L|233:129,1,70,4|0,0:0|0:0,0:0:0:0:
198,70,299855,2,0,L|209:153,1,70
210,324,300083,6,0,B|174:344|174:344|64:333,1,140,2|0,0:0|0:0,0:0:0:0:
27,269,300423,1,0,0:0:0:0:
129,222,300537,2,0,B|139:248|139:248|129:295,1,70,4|0,0:0|0:0,0:0:0:0:
46,255,300764,5,0,0:0:0:0:
148,208,300878,2,0,B|158:234|158:234|148:281,1,70,4|0,0:0|0:0,0:0:0:0:
61,138,301105,5,0,0:0:0:0:
51,89,301219,1,2,0:0:0:0:
78,120,301333,1,0,0:0:0:0:
68,71,301447,5,2,0:0:0:0:
147,95,301560,1,0,0:0:0:0:
230,94,301673,1,0,0:0:0:0:
310,68,301787,1,0,0:0:0:0:
365,4,301901,5,2,0:0:0:0:
392,83,302014,1,0,0:0:0:0:
316,84,302128,1,4,0:0:0:0:
371,20,302242,5,0,0:0:0:0:
398,99,302355,1,2,0:0:0:0:
425,178,302469,1,0,0:0:0:0:
386,114,302583,5,4,0:0:0:0:
413,193,302697,1,0,0:0:0:0:
440,272,302810,6,0,L|431:240,1,26.2500010013581,6|0,0:0|0:0,0:0:0:0:
359,291,302923,2,0,L|366:258,1,26.2500010013581
293,240,303037,2,0,L|316:215,1,26.2500010013581,4|0,0:0|0:0,0:0:0:0:
290,156,303151,2,0,L|258:164,1,26.2500010013581
226,102,303264,2,0,L|210:130,1,26.2500010013581,4|0,0:0|0:0,0:0:0:0:
144,118,303378,2,0,L|153:150,1,26.2500010013581
102,191,303491,2,0,L|136:209,1,26.2500010013581,4|0,0:0|0:0,0:0:0:0:
132,269,303605,2,0,L|173:278,1,26.2500010013581
201,199,303719,5,4,0:0:0:0:
256,192,303776,12,0,305083,0:0:0:0:
335,138,305537,6,0,B|459:116|459:116|409:100,1,175,2|0,0:0|0:0,0:0:0:0:
357,52,305878,1,0,0:0:0:0:
431,197,305992,2,0,L|510:182,1,77.0000023498536,4|0,0:0|0:0,0:0:0:0:
423,223,306219,5,0,0:0:0:0:
336,312,306333,2,4,L|415:297,1,77.0000023498536,4|0,0:0|0:0,0:0:0:0:
326,295,306560,1,0,0:0:0:0:
128,227,306673,6,0,P|121:187|137:146,1,77.0000023498536,2|0,0:0|0:0,0:0:0:0:
91,214,306901,2,0,P|104:178|132:153,1,77.0000023498536,4|0,0:0|0:0,0:0:0:0:
65,186,307128,2,0,P|94:161|132:153,1,77.0000023498536
311,177,307355,6,0,B|263:174|225:201|225:201|251:129|199:81|199:81|208:105|201:126,1,262.5,2|0,0:0|0:0,0:0:0:0:
257,28,307810,2,0,P|226:7|179:7,1,77.0000023498536,4|0,0:0|0:0,0:0:0:0:
123,57,308037,1,0,0:0:0:0:
298,96,308151,6,0,P|330:68|337:32,1,77.0000023498536,4|0,0:0|0:0,0:0:0:0:
257,28,308378,1,0,0:0:0:0:
226,201,308492,5,2,0:0:0:0:
222,254,308606,1,0,0:0:0:0:
231,203,308719,5,4,0:0:0:0:
216,254,308833,1,0,0:0:0:0:
270,236,308946,2,0,B|291:249|291:249|342:246,1,66.4999982242585,4|0,0:0|0:0,0:0:0:0:
464,66,309173,6,0,B|423:26|423:26|441:151,1,175,2|0,0:0|0:0,0:0:0:0:
455,224,309514,1,0,0:0:0:0:
503,309,309628,2,0,B|481:294|481:294|469:221,1,77.0000023498536,4|0,0:0|0:0,0:0:0:0:
383,193,309855,5,0,0:0:0:0:
335,108,309969,2,0,B|357:123|357:123|369:196,1,77.0000023498536,4|0,0:0|0:0,0:0:0:0:
393,271,310196,1,0,0:0:0:0:
192,164,310310,6,0,L|281:175,1,77.0000023498536,2|0,0:0|0:0,0:0:0:0:
174,136,310537,2,0,L|263:147,1,77.0000023498536,4|0,0:0|0:0,0:0:0:0:
156,108,310764,2,0,L|245:119,1,77.0000023498536
234,310,310992,6,0,B|260:323|260:323|208:363|158:331|158:331|168:326|168:326|101:297|38:334,1,262.5,2|0,0:0|0:0,0:0:0:0:
60,232,311446,6,0,P|62:215|81:190,1,43.75,4|0,0:0|0:0,0:0:0:0:
42,218,311560,2,0,P|56:201|76:193,1,43.75
80,121,311673,6,0,P|96:118|126:130,1,43.75,4|0,0:0|0:0,0:0:0:0:
88,99,311787,2,0,P|107:108|121:125,1,43.75
204,164,311901,6,0,P|160:179|108:160,1,87.5,2|0,0:0|0:0,0:0:0:0:
250,93,312128,2,0,L|293:72,2,26.2500010013581
166,89,312355,5,4,0:0:0:0:
289,169,312469,1,0,0:0:0:0:
354,26,312583,1,4,0:0:0:0:
250,93,312697,1,0,0:0:0:0:
328,245,312810,6,0,B|367:278|367:278|504:263,1,175,2|0,0:0|0:0,0:0:0:0:
454,193,313151,1,0,0:0:0:0:
436,344,313264,2,0,L|515:336,1,77.0000023498536,4|0,0:0|0:0,0:0:0:0:
438,182,313492,5,0,0:0:0:0:
420,333,313605,2,0,L|499:325,1,77.0000023498536,4|0,0:0|0:0,0:0:0:0:
402,347,313833,1,0,0:0:0:0:
375,131,313946,6,0,L|369:43,1,77.0000023498536,2|0,0:0|0:0,0:0:0:0:
397,29,314173,2,0,L|403:117,1,77.0000023498536,4|0,0:0|0:0,0:0:0:0:
429,79,314401,2,0,L|424:3,1,77.0000023498536
155,62,314628,6,0,B|128:40|108:48|87:62|84:103|102:135|214:142|266:60,1,262.5,2|0,0:0|0:0,0:0:0:0:
36,36,315083,2,0,P|27:73|38:122,1,77.0000023498536,4|0,0:0|0:0,0:0:0:0:
80,172,315310,1,0,0:0:0:0:
128,306,315423,6,0,P|137:269|126:220,1,77.0000023498536,4|0,0:0|0:0,0:0:0:0:
56,267,315651,1,0,0:0:0:0:
216,245,315764,5,2,0:0:0:0:
267,258,315878,1,0,0:0:0:0:
218,240,315991,5,4,0:0:0:0:
266,264,316105,1,0,0:0:0:0:
258,207,316219,6,0,L|253:167,1,29.7500005674362,4|0,0:0|0:0,0:0:0:0:
271,153,316333,2,0,L|254:177,1,29.7500005674362
450,73,316446,6,0,P|387:17|303:29,1,175,2|0,0:0|0:0,0:0:0:0:
241,80,316787,1,0,0:0:0:0:
343,192,316901,2,0,P|351:175|340:113,1,77.0000023498536,4|0,0:0|0:0,0:0:0:0:
303,29,317128,5,0,0:0:0:0:
218,203,317242,2,0,P|252:186|271:153,1,77.0000023498536,4|0,0:0|0:0,0:0:0:0:
241,80,317469,1,0,0:0:0:0:
17,158,317583,6,0,P|59:156|93:138,1,77.0000023498536,2|0,0:0|0:0,0:0:0:0:
17,118,317810,2,0,P|50:136|89:140,1,77.0000023498536,4|0,0:0|0:0,0:0:0:0:
37,85,318037,2,0,P|57:118|89:140,1,77.0000023498536
218,203,318264,5,2,0:0:0:0:
241,80,318378,1,0,0:0:0:0:
292,242,318492,1,0,0:0:0:0:
178,132,318605,1,0,0:0:0:0:
221,286,318719,2,0,L|211:325,2,35,4|0|0,0:0|0:0|0:0,0:0:0:0:
221,286,319173,5,2,0:0:0:0:
360,287,319287,1,0,0:0:0:0:
265,182,319401,1,4,0:0:0:0:
292,342,319515,1,0,0:0:0:0:
427,231,319628,5,2,0:0:0:0:
446,148,319742,1,0,0:0:0:0:
443,215,319855,1,4,0:0:0:0:
439,129,319969,1,0,0:0:0:0:
303,48,320083,6,0,B|257:27|257:27|132:43,1,175,2|0,0:0|0:0,0:0:0:0:
49,56,320423,1,0,0:0:0:0:
127,115,320537,2,0,B|141:84|141:84|133:42,1,77.0000023498536,4|0,0:0|0:0,0:0:0:0:
38,154,320764,5,0,0:0:0:0:
117,212,320878,2,0,L|220:221,1,77.0000023498536,4|0,0:0|0:0,0:0:0:0:
281,194,321105,1,0,0:0:0:0:
428,275,321219,6,0,L|325:284,1,77.0000023498536,2|0,0:0|0:0,0:0:0:0:
413,301,321447,2,0,L|310:310,1,77.0000023498536,4|0,0:0|0:0,0:0:0:0:
398,327,321673,2,0,L|295:336,1,77.0000023498536
56,297,321901,6,0,B|173:238|276:306|157:394|156:251,1,262.5,2|0,0:0|0:0,0:0:0:0:
146,181,322355,2,0,P|156:208|153:265,1,77.0000023498536,4|0,0:0|0:0,0:0:0:0:
65,210,322583,1,0,0:0:0:0:
80,125,322696,6,0,P|113:98|170:99,1,77.0000023498536,4|0,0:0|0:0,0:0:0:0:
218,136,322923,1,0,0:0:0:0:
376,111,323037,5,2,0:0:0:0:
426,91,323151,1,0,0:0:0:0:
374,104,323264,5,4,0:0:0:0:
427,97,323378,1,0,0:0:0:0:
413,148,323492,2,0,P|424:183|420:207,1,59.5000011348725,4|0,0:0|0:0,0:0:0:0:
239,375,323719,6,0,P|202:297|223:214,1,175,2|0,0:0|0:0,0:0:0:0:
292,175,324060,1,0,0:0:0:0:
362,263,324173,2,0,P|329:266|284:246,1,77.0000023498536,4|0,0:0|0:0,0:0:0:0:
223,134,324401,5,0,0:0:0:0:
294,100,324514,2,0,P|302:138|292:175,1,77.0000023498536,4|0,0:0|0:0,0:0:0:0:
223,214,324742,1,0,0:0:0:0:
40,154,324855,6,0,L|64:70,1,77.0000023498536,2|0,0:0|0:0,0:0:0:0:
97,66,325083,2,0,L|73:150,1,77.0000023498536,4|0,0:0|0:0,0:0:0:0:
40,154,325310,2,0,L|64:70,1,77.0000023498536
104,336,325537,6,0,B|50:356|50:356|95:214|95:214|115:271,1,262.5,2|0,0:0|0:0,0:0:0:0:
239,215,325992,6,0,P|214:223|194:223,1,43.75,4|0,0:0|0:0,0:0:0:0:
236,236,326105,2,0,P|215:232|196:223,1,43.75
310,178,326219,6,0,P|318:203|318:223,1,43.75,2|0,0:0|0:0,0:0:0:0:
332,180,326332,2,0,P|328:201|318:220,1,43.75
311,329,326446,6,0,P|300:294|333:235,1,87.5,4|0,0:0|0:0,0:0:0:0:
405,302,326673,2,0,L|364:290,2,26.2500010013581
395,224,326901,5,2,0:0:0:0:
470,358,327014,1,0,0:0:0:0:
480,168,327128,1,4,0:0:0:0:
405,302,327241,1,0,0:0:0:0:
396,46,327355,6,0,B|346:19|346:19|228:30,1,175,2|0,0:0|0:0,0:0:0:0:
150,63,327696,1,0,0:0:0:0:
205,187,327810,2,0,B|221:106,1,77.0000023498536,4|0,0:0|0:0,0:0:0:0:
228,30,328037,5,0,0:0:0:0:
69,37,328151,2,0,B|85:118,1,77.0000023498536,4|0,0:0|0:0,0:0:0:0:
103,189,328378,1,0,0:0:0:0:
284,293,328492,6,0,P|246:269|199:271,1,77.0000023498536,2|0,0:0|0:0,0:0:0:0:
145,293,328719,2,0,P|176:271|214:267,1,77.0000023498536,4|0,0:0|0:0,0:0:0:0:
272,318,328946,2,0,P|234:294|187:296,1,77.0000023498536
404,337,329173,6,0,B|436:320|482:333|482:333|434:272|465:203|465:203|470:240|485:263,1,262.5,2|0,0:0|0:0,0:0:0:0:
409,149,329628,2,0,P|446:127|489:130,1,77.0000023498536,4|0,0:0|0:0,0:0:0:0:
382,222,329855,1,0,0:0:0:0:
331,160,329969,6,0,P|309:123|312:80,1,77.0000023498536,4|0,0:0|0:0,0:0:0:0:
345,22,330196,1,0,0:0:0:0:
191,103,330310,5,2,0:0:0:0:
138,91,330423,1,0,0:0:0:0:
190,109,330537,5,4,0:0:0:0:
141,84,330650,1,0,0:0:0:0:
148,145,330764,2,0,L|136:182,1,29.7500005674362,4|0,0:0|0:0,0:0:0:0:
158,171,330878,2,0,L|146:208,1,29.7500005674362
37,343,330992,6,0,B|21:309|21:309|64:167,1,154.000004699707,2|0,0:0|0:0,0:0:0:0:
113,288,331333,1,0,0:0:0:0:
234,179,331446,2,0,L|158:171,1,77.0000023498536,4|0,0:0|0:0,0:0:0:0:
189,331,331673,2,0,B|204:304|204:304|197:259,1,77.0000023498536
300,125,331901,6,0,L|317:207,1,62.9999980773926,4|0,0:0|0:0,0:0:0:0:
335,271,332128,2,0,L|346:307,2,31.4999990386963
312,186,332355,6,0,P|351:180|408:221,1,105,2|0,0:0|0:0,0:0:0:0:
433,283,332810,6,0,P|409:212|454:150,1,140,4|0,0:0|0:0,0:0:0:0:
490,225,333151,1,0,0:0:0:0:
414,90,333264,2,0,P|455:87|481:104,1,56,2|0,0:0|0:0,0:0:0:0:
339,137,333492,2,0,P|298:140|272:123,1,56,4|0,0:0|0:0,0:0:0:0:
194,36,333719,5,2,0:0:0:0:
115,60,333832,1,0,0:0:0:0:
64,126,333946,1,0,0:0:0:0:
60,208,334059,1,0,0:0:0:0:
105,278,334173,5,4,0:0:0:0:
126,260,334286,1,0,0:0:0:0:
140,236,334400,1,0,0:0:0:0:
144,208,334513,1,0,0:0:0:0:
134,170,334628,6,0,P|206:152|275:183,1,132.999996448517,2|0,0:0|0:0,0:0:0:0:
301,243,334969,1,0,0:0:0:0:
312,158,335083,2,0,P|284:158|259:170,1,56
217,240,335310,1,0,0:0:0:0:
438,339,335423,6,0,B|466:311|466:311|455:213,1,132.999996448517,2|0,0:0|0:0,0:0:0:0:
406,141,335764,2,0,L|415:202,1,56
488,112,335992,1,0,0:0:0:0:
397,85,336105,2,0,L|406:141,1,56
251,45,336333,6,0,P|180:37|127:82,1,132.999996448517,2|0,0:0|0:0,0:0:0:0:
171,204,336673,2,0,P|191:174|189:131,1,56
110,147,336901,1,0,0:0:0:0:
193,211,337014,2,0,P|213:181|211:138,1,56
57,259,337242,6,0,B|72:366|72:366|87:326,1,132.999996448517,2|0,0:0|0:0,0:0:0:0:
194,299,337583,2,0,L|132:279,1,56
220,289,337810,1,0,0:0:0:0:
273,306,337923,2,0,L|220:289,1,56
359,207,338151,6,0,B|399:227|416:262|416:262|424:222|454:206,1,132.999996448517,2|0,0:0|0:0,0:0:0:0:
458,325,338492,2,0,P|432:335|404:333,1,56
416,261,338719,1,0,0:0:0:0:
430,162,338833,2,0,P|440:188|439:216,1,56
254,158,339060,6,2,B|224:128|224:128|231:29,1,132.999996448517,2|0,0:0|0:0,0:0:0:0:
312,4,339401,2,0,L|308:68,1,56
333,180,339628,1,0,0:0:0:0:
328,104,339742,2,0,L|331:48,1,56
261,273,339969,6,0,P|189:294|128:268,1,132.999996448517,2|0,0:0|0:0,0:0:0:0:
93,204,340310,2,0,L|86:167,2,28
189,293,340537,2,0,P|159:288|134:272,1,56
75,329,340764,6,0,P|57:304|50:275,1,56
80,138,340992,2,0,L|93:204,1,66.4999982242585,2|0,0:0|0:0,0:0:0:0:
171,147,341219,2,0,L|213:150,2,28
80,138,341446,5,4,0:0:0:0:
117,71,341559,1,0,0:0:0:0:
191,55,341673,1,0,0:0:0:0:
266,72,341787,1,0,0:0:0:0:
283,99,341901,6,0,P|348:125|406:103,1,132.999996448517,2|0,0:0|0:0,0:0:0:0:
451,41,342242,1,0,0:0:0:0:
404,104,342355,2,0,P|400:140|406:165,1,56
465,212,342583,1,0,0:0:0:0:
276,177,342696,6,0,B|172:174|172:174|196:193,1,132.999996448517,2|0,0:0|0:0,0:0:0:0:
271,232,343037,2,0,L|276:177,1,56
209,285,343264,1,0,0:0:0:0:
326,240,343378,2,0,L|271:232,1,56
59,313,343605,6,0,P|95:248|64:173,1,132.999996448517,2|0,0:0|0:0,0:0:0:0:
33,134,343946,2,0,P|64:143|94:137,1,56
167,107,344173,1,0,0:0:0:0:
69,15,344287,2,0,P|60:46|66:76,1,56
226,171,344514,6,0,P|257:111|237:52,1,132.999996448517,2|0,0:0|0:0,0:0:0:0:
226,171,344855,2,0,L|233:240,1,56
251,159,345083,1,0,0:0:0:0:
311,283,345196,2,0,L|318:214,1,56
465,80,345423,6,0,B|434:103|434:103|336:90,1,132.999996448517,2|0,0:0|0:0,0:0:0:0:
282,47,345764,2,0,L|344:55,1,56
259,54,345992,1,0,0:0:0:0:
332,145,346105,2,0,L|339:89,1,56
146,217,346333,6,0,B|125:261|125:261|141:350,1,132.999996448517,2|0,0:0|0:0,0:0:0:0:
200,228,346673,2,0,L|146:217,1,56
52,227,346901,1,0,0:0:0:0:
219,217,347014,2,0,L|164:205,1,56
357,322,347242,6,0,P|423:346|493:310,1,132.999996448517,2|0,0:0|0:0,0:0:0:0:
424,215,347583,2,0,P|414:244|420:273,1,56
501,250,347810,1,0,0:0:0:0:
492,165,347923,1,0,0:0:0:0:
413,132,348037,5,0,0:0:0:0:
417,92,348151,1,0,0:0:0:0:
456,58,348264,2,0,P|422:66|378:54,1,66.4999982242585,2|0,0:0|0:0,0:0:0:0:
312,27,348492,2,0,L|283:4,2,28
329,113,348719,6,0,L|333:182,1,56,4|0,0:0|0:0,0:0:0:0:
220,168,348946,2,0,L|216:237,1,56,4|0,0:0|0:0,0:0:0:0:
60,329,349173,6,0,B|32:287|32:287|41:165,1,154.000004699707,2|0,0:0|0:0,0:0:0:0:
80,111,349514,1,0,0:0:0:0:
193,316,349628,2,0,L|274:304,1,66.4999982242585
331,274,349855,1,0,0:0:0:0:
371,174,349969,6,0,B|350:223|350:223|370:336,1,154.000004699707,2|0,0:0|0:0,0:0:0:0:
486,55,350310,2,0,P|454:40|419:44,1,66.4999982242585
351,72,350537,1,0,0:0:0:0:
473,117,350651,2,0,P|487:87|486:55,1,66.4999982242585
339,85,350878,6,0,P|256:103|183:71,1,154.000004699707,2|0,0:0|0:0,0:0:0:0:
191,202,351219,2,0,B|206:230|206:230|201:278,1,66.4999982242585
145,332,351446,1,0,0:0:0:0:
206,186,351560,2,0,B|221:214|221:214|216:262,1,66.4999982242585
45,217,351787,6,0,B|80:192|80:192|191:202,1,154.000004699707,2|0,0:0|0:0,0:0:0:0:
388,221,352128,2,0,L|378:151,1,66.4999982242585
293,152,352355,1,0,0:0:0:0:
387,89,352469,2,0,L|378:155,1,66.4999982242585
471,53,352696,6,0,P|391:66|319:20,1,154.000004699707,2|0,0:0|0:0,0:0:0:0:
162,35,353037,2,0,P|170:64|160:104,1,66.4999982242585
86,65,353264,1,0,0:0:0:0:
162,99,353378,2,0,P|146:124|110:144,1,66.4999982242585
136,241,353605,6,0,B|167:206|167:206|162:99,1,154.000004699707,2|0,0:0|0:0,0:0:0:0:
267,322,353946,2,0,L|342:324,1,66.4999982242585
406,293,354173,1,0,0:0:0:0:
280,256,354287,2,0,L|267:322,1,66.4999982242585
414,364,354514,6,0,B|436:329|436:329|426:213,1,154.000004699707,2|0,0:0|0:0,0:0:0:0:
351,41,354855,2,0,L|359:107,1,66.4999982242585
484,86,355083,2,0,P|460:71|424:72,1,56
388,181,355310,2,0,P|414:171|435:142,1,56
359,107,355537,5,2,0:0:0:0:
310,170,355651,2,0,L|271:163,4,28
191,165,355992,6,0,P|187:133|197:90,1,56,4|0,0:0|0:0,0:0:0:0:
284,230,356219,2,0,P|288:198|278:155,1,66.4999982242585,4|0,0:0|0:0,0:0:0:0:
102,161,356446,5,2,0:0:0:0:
191,165,356673,1,0,0:0:0:0:
187,254,356901,1,0,0:0:0:0:
98,250,357128,1,0,0:0:0:0:
107,143,357355,5,2,0:0:0:0:
210,165,357582,1,0,0:0:0:0:
188,270,357810,1,0,0:0:0:0:
83,246,358037,1,0,0:0:0:0:
116,124,358264,5,2,0:0:0:0:
233,171,358491,1,0,0:0:0:0:
185,290,358719,1,0,0:0:0:0:
66,240,358946,1,0,0:0:0:0:
204,304,359173,5,2,0:0:0:0:
342,240,359401,1,0,0:0:0:0:
207,57,359628,2,0,L|220:112,1,52.5000020027161,4|0,0:0|0:0,0:0:0:0:
342,3,359855,2,0,L|329:58,1,52.5000020027161,4|0,0:0|0:0,0:0:0:0:
342,240,360083,5,2,0:0:0:0:
377,217,360196,1,0,0:0:0:0:
398,182,360310,1,4,0:0:0:0:
402,140,360423,1,0,0:0:0:0:
252,231,360537,5,2,0:0:0:0:
260,271,360650,1,0,0:0:0:0:
285,304,360764,1,4,0:0:0:0:
323,323,360877,1,0,0:0:0:0:
414,303,360992,6,0,L|469:307,7,31.4999990386963,2|0|0|0|0|0|0|0,0:0|0:0|0:0|0:0|0:0|0:0|0:0|0:0,0:0:0:0:
303,152,361446,2,0,L|271:149,7,31.4999990386963,4|0|0|0|0|0|0|0,0:0|0:0|0:0|0:0|0:0|0:0|0:0|0:0,0:0:0:0:
401,62,361901,5,6,0:0:0:0:
256,192,361958,12,0,363037,0:0:0:0:
209,162,363264,5,2,0:0:0:0:
220,191,363378,1,0,0:0:0:0:
175,257,363492,5,4,0:0:0:0:
203,269,363606,1,0,0:0:0:0:
280,245,363719,5,4,0:0:0:0:
