osu file format v14

[General]
AudioFilename: audio.mp3
AudioLeadIn: 0
PreviewTime: 86
Countdown: 0
SampleSet: Normal
StackLeniency: 0.4
Mode: 0
LetterboxInBreaks: 0
WidescreenStoryboard: 1

[Editor]
Bookmarks: 29341,43722,58205,65540,72813,80086,87409,101904,116500,131046,138267,145540,152813,160086,174682,189176,203722,210995,218267,225540,232813,240086,247358,254631,261904,276449,290995,305540,320086,334631,349176,363722,378267,392813,407358,414631
DistanceSpacing: 0.9
BeatDivisor: 4
GridSize: 4
TimelineZoom: 2.499999

[Metadata]
Title:Ibuki (Intro Mix)
TitleUnicode:Ibuki (Intro Mix)
Artist:Nhato
ArtistUnicode:Nhato
Creator:Jenny
Version:Dextrose
Source:
Tags:otographic music rinne electronic dance music EDM dubstep techno electro instrumental
BeatmapID:1978996
BeatmapSetID:947517

[Difficulty]
HPDrainRate:6
CircleSize:4.5
OverallDifficulty:8.9
ApproachRate:9.6
SliderMultiplier:1.9
SliderTickRate:1

[Events]
//Background and Video events
0,0,"rinne_wideWarm.jpg",0,0
//Break Periods
2,87558,101395
2,174831,181395
2,182104,188667
//Storyboard Layer 0 (Background)
//Storyboard Layer 1 (Fail)
//Storyboard Layer 2 (Pass)
//Storyboard Layer 3 (Foreground)
//Storyboard Layer 4 (Overlay)
//Storyboard Sound Samples

[TimingPoints]
86,454.545454545455,4,2,1,30,1,0
86,-166.666666666667,4,2,1,30,0,0
29290,-166.666666666667,4,2,1,10,0,0
30881,-166.666666666667,4,2,1,30,0,0
32926,-166.666666666667,4,2,1,10,0,0
33608,-166.666666666667,4,2,1,20,0,0
33949,-166.666666666667,4,2,1,30,0,0
34745,-166.666666666667,4,2,1,10,0,0
36222,-166.666666666667,4,2,1,30,0,0
36563,-166.666666666667,4,2,1,10,0,0
37699,-166.666666666667,4,2,1,20,0,0
38040,-166.666666666667,4,2,1,30,0,0
38381,-166.666666666667,4,2,1,10,0,0
39063,-166.666666666667,4,2,1,20,0,0
39404,-166.666666666667,4,2,1,30,0,0
40199,-166.666666666667,4,2,1,10,0,0
40767,-166.666666666667,4,2,1,30,0,0
40881,-166.666666666667,4,2,1,10,0,0
40995,-166.666666666667,4,2,1,30,0,0
41108,-166.666666666667,4,2,1,10,0,0
41449,-166.666666666667,4,2,1,30,0,0
42017,-166.666666666667,4,2,1,10,0,0
42813,-166.666666666667,4,2,1,30,0,0
43097,-166.666666666667,4,2,1,20,0,0
43211,-166.666666666667,4,2,1,30,0,0
43324,-166.666666666667,4,2,1,10,0,0
43381,-166.666666666667,4,2,1,30,0,0
43722,-55.5555555555556,4,1,4,60,0,0
43836,-55.5555555555556,4,1,1,60,0,0
44063,-166.666666666667,4,2,1,30,0,0
45654,-166.666666666667,4,2,1,10,0,0
46563,-166.666666666667,4,2,1,20,0,0
46790,-166.666666666667,4,2,1,30,0,0
47245,-166.666666666667,4,1,1,45,0,0
47472,-166.666666666667,4,2,1,10,0,0
47926,-166.666666666667,4,2,1,30,0,0
48154,-166.666666666667,4,2,1,30,0,0
48381,-166.666666666667,4,2,1,10,0,0
48722,-166.666666666667,4,2,1,30,0,0
48836,-166.666666666667,4,2,1,10,0,0
49176,-166.666666666667,4,2,1,30,0,0
49517,-166.666666666667,4,1,1,15,0,0
49972,-166.666666666667,4,2,4,30,0,0
50199,-166.666666666667,4,2,4,60,0,0
50370,-166.666666666667,4,2,4,10,0,0
50426,-166.666666666667,4,2,4,60,0,0
50881,-166.666666666667,4,1,1,45,0,0
51108,-166.666666666667,4,2,1,20,0,0
51676,-166.666666666667,4,2,1,30,0,0
52472,-166.666666666667,4,2,1,10,0,0
52813,-166.666666666667,4,2,1,30,0,0
52926,-166.666666666667,4,2,1,10,0,0
53608,-166.666666666667,4,2,1,20,0,0
53836,-166.666666666667,4,2,1,30,0,0
54517,-83.3333333333333,4,1,1,45,0,0
54745,-83.3333333333333,4,2,1,10,0,0
55426,-55.5555555555556,4,2,1,5,0,0
55540,-55.5555555555556,4,2,1,30,0,0
55654,-55.5555555555556,4,2,1,10,0,0
56336,-333.333333333333,4,2,1,5,0,0
56449,-333.333333333333,4,1,3,37,0,1
56563,-333.333333333333,4,2,1,10,0,1
58154,-333.333333333333,4,2,1,10,0,0
58267,-166.666666666667,4,1,1,60,0,0
58381,-166.666666666667,4,2,1,20,0,0
58608,-166.666666666667,4,2,1,30,0,0
58722,-166.666666666667,4,2,1,20,0,0
58949,-166.666666666667,4,2,1,33,0,0
59063,-166.666666666667,4,2,1,20,0,0
59290,-166.666666666667,4,2,1,33,0,0
59404,-166.666666666667,4,2,1,20,0,0
59631,-166.666666666667,4,2,1,35,0,0
59745,-166.666666666667,4,2,1,20,0,0
59972,-166.666666666667,4,2,1,35,0,0
60086,-166.666666666667,4,2,1,20,0,0
60313,-166.666666666667,4,2,1,37,0,0
60426,-166.666666666667,4,2,1,20,0,0
60654,-166.666666666667,4,2,1,37,0,0
60767,-166.666666666667,4,2,1,20,0,0
60995,-166.666666666667,4,2,1,40,0,0
61108,-166.666666666667,4,2,1,20,0,0
61336,-166.666666666667,4,2,1,40,0,0
61676,-166.666666666667,4,2,1,45,0,0
61904,-166.666666666667,4,1,1,45,0,0
62017,-166.666666666667,4,2,1,20,0,0
62245,-166.666666666667,4,2,1,45,0,0
62358,-166.666666666667,4,2,1,20,0,0
62586,-166.666666666667,4,2,1,47,0,0
62699,-166.666666666667,4,2,1,20,0,0
62926,-166.666666666667,4,2,1,45,0,0
63040,-166.666666666667,4,2,1,20,0,0
63267,-166.666666666667,4,2,1,50,0,0
63381,-166.666666666667,4,2,1,20,0,0
63608,-166.666666666667,4,2,1,50,0,0
63722,-166.666666666667,4,2,1,20,0,0
63949,-166.666666666667,4,2,1,53,0,0
64063,-166.666666666667,4,2,1,20,0,0
64290,-166.666666666667,4,2,1,53,0,0
64404,-166.666666666667,4,2,1,20,0,0
64631,-166.666666666667,4,2,1,55,0,0
64745,-166.666666666667,4,2,1,20,0,0
64972,-166.666666666667,4,2,1,25,0,0
65086,-166.666666666667,4,1,1,30,0,0
65199,-166.666666666667,4,1,1,45,0,0
65313,-166.666666666667,4,2,1,30,0,0
65426,-166.666666666667,4,1,1,45,0,0
65540,-166.666666666667,4,1,1,60,0,0
65654,-166.666666666667,4,2,1,15,0,0
65881,-166.666666666667,4,2,1,35,0,0
66790,-166.666666666667,4,2,1,40,0,0
67699,-166.666666666667,4,2,1,45,0,0
68608,-166.666666666667,4,2,1,50,0,0
69176,-166.666666666667,4,1,1,60,0,0
69290,-166.666666666667,4,2,1,15,0,0
69517,-166.666666666667,4,2,1,35,0,0
69858,-166.666666666667,4,2,1,40,0,0
70426,-166.666666666667,4,2,1,45,0,0
70995,-166.666666666667,4,1,1,60,0,0
71108,-166.666666666667,4,2,1,30,0,0
71336,-166.666666666667,4,1,1,60,0,0
71449,-166.666666666667,4,2,1,30,0,0
71676,-166.666666666667,4,1,1,60,0,0
71733,-166.666666666667,4,1,1,45,0,0
71904,-166.666666666667,4,1,1,75,0,0
72245,-166.666666666667,4,1,1,90,0,0
72358,-166.666666666667,4,1,1,23,0,0
72415,-166.666666666667,4,1,1,90,0,0
72586,-166.666666666667,4,1,1,23,0,0
72642,-166.666666666667,4,1,2,75,0,0
72926,-166.666666666667,4,1,2,23,0,0
73154,-166.666666666667,4,1,2,45,0,0
74745,-166.666666666667,4,1,2,23,0,0
74972,-166.666666666667,4,1,2,45,0,0
76449,-166.666666666667,4,1,2,60,0,0
76563,-166.666666666667,4,1,2,23,0,0
76790,-166.666666666667,4,1,2,45,0,0
77017,-166.666666666667,4,1,2,23,0,0
77245,-166.666666666667,4,1,2,45,0,0
77472,-166.666666666667,4,1,2,23,0,0
77699,-166.666666666667,4,1,2,45,0,0
77926,-166.666666666667,4,1,2,23,0,0
78154,-166.666666666667,4,1,2,45,0,0
78381,-166.666666666667,4,1,2,23,0,0
78608,-166.666666666667,4,1,2,45,0,0
78836,-166.666666666667,4,1,2,23,0,0
79063,-166.666666666667,4,1,2,45,0,0
79205,-166.666666666667,4,1,2,30,0,0
79631,-166.666666666667,4,1,2,60,0,0
79858,-166.666666666667,4,1,2,30,0,0
79972,-166.666666666667,4,1,2,60,0,0
80086,-166.666666666667,4,1,2,60,0,0
80199,-166.666666666667,4,1,2,45,0,0
85483,-166.666666666667,4,1,1,30,0,0
85597,-166.666666666667,4,1,2,45,0,0
86051,-166.666666666667,4,1,2,30,0,0
86108,-166.666666666667,4,1,2,45,0,0
86165,-166.666666666667,4,1,2,30,0,0
86222,-166.666666666667,4,1,2,45,0,0
86279,-166.666666666667,4,1,2,30,0,0
86336,-166.666666666667,4,1,2,45,0,0
86392,-166.666666666667,4,1,2,30,0,0
86449,-166.666666666667,4,1,2,75,0,0
86506,-166.666666666667,4,1,2,30,0,0
86563,-166.666666666667,4,1,2,45,0,0
86620,-166.666666666667,4,1,2,30,0,0
86676,-166.666666666667,4,1,2,45,0,0
86733,-166.666666666667,4,1,2,30,0,0
86790,-166.666666666667,4,1,1,75,0,0
86847,-166.666666666667,4,1,2,30,0,0
86904,-166.666666666667,4,1,1,75,0,0
86961,-166.666666666667,4,1,1,30,0,0
87017,-166.666666666667,4,1,1,90,0,0
87358,-166.666666666667,4,1,2,60,0,0
102017,-166.666666666667,4,2,1,10,0,0
102756,-83.3333333333333,4,1,1,90,0,0
102870,-166.666666666667,4,2,1,5,0,0
103949,-166.666666666667,4,1,1,60,0,0
104290,-166.666666666667,4,2,1,10,0,0
104574,-83.3333333333333,4,1,1,90,0,0
104688,-166.666666666667,4,2,1,5,0,0
105313,-166.666666666667,4,1,1,60,0,0
105654,-166.666666666667,4,2,1,10,0,0
106392,-83.3333333333333,4,1,1,90,0,0
106506,-166.666666666667,4,2,1,5,0,0
107586,-166.666666666667,4,1,1,60,0,0
107926,-166.666666666667,4,2,1,10,0,0
108267,-83.3333333333333,4,1,1,90,0,0
108324,-166.666666666667,4,2,1,5,0,0
108949,-166.666666666667,4,1,1,60,0,0
109290,-166.666666666667,4,2,1,10,0,0
110086,-83.3333333333333,4,1,1,90,0,0
110142,-166.666666666667,4,2,1,5,0,0
111222,-166.666666666667,4,1,1,60,0,0
111563,-166.666666666667,4,2,1,10,0,0
111847,-83.3333333333333,4,1,1,75,0,0
111961,-166.666666666667,4,2,1,5,0,0
112586,-166.666666666667,4,1,1,60,0,0
112926,-166.666666666667,4,2,1,5,0,0
113722,-83.3333333333333,4,1,1,90,0,0
113779,-166.666666666667,4,2,1,5,0,0
114858,-166.666666666667,4,1,1,60,0,0
115199,-166.666666666667,4,2,1,10,0,0
115483,-83.3333333333333,4,1,1,90,0,0
115597,-83.3333333333333,4,2,1,5,0,0
116449,-166.666666666667,4,1,4,60,0,0
116563,-166.666666666667,4,1,2,40,0,0
117358,-166.666666666667,4,1,2,45,0,0
118267,-166.666666666667,4,1,2,50,0,0
119176,-166.666666666667,4,1,2,55,0,0
120086,-166.666666666667,4,1,2,60,0,0
120995,-166.666666666667,4,1,2,65,0,0
121904,-166.666666666667,4,1,2,70,0,0
122813,-166.666666666667,4,1,2,75,0,0
123722,-166.666666666667,4,1,2,80,0,0
124631,-166.666666666667,4,1,2,83,0,0
125540,-166.666666666667,4,1,2,85,0,0
126449,-166.666666666667,4,1,2,87,0,0
127358,-166.666666666667,4,1,2,90,0,0
127642,-166.666666666667,4,1,2,75,0,0
127813,-166.666666666667,4,1,2,90,0,0
128097,-166.666666666667,4,1,2,75,0,0
128267,-111.111111111111,4,1,2,90,0,0
128551,-111.111111111111,4,1,2,75,0,0
128722,-111.111111111111,4,1,2,90,0,0
129006,-111.111111111111,4,1,2,75,0,0
129176,-166.666666666667,4,1,2,45,0,0
129631,-166.666666666667,4,2,2,5,0,0
130426,-166.666666666667,4,1,2,45,0,0
130540,-166.666666666667,4,1,2,90,0,0
130995,-55.5555555555556,4,1,1,90,0,0
131108,-55.5555555555556,4,2,1,60,0,0
131222,-55.5555555555556,4,1,1,90,0,0
131676,-55.5555555555556,4,2,1,60,0,0
131790,-55.5555555555556,4,1,1,90,0,0
131904,-55.5555555555556,4,2,1,60,0,0
132017,-55.5555555555556,4,1,1,90,0,0
132472,-55.5555555555556,4,2,1,30,0,0
132813,-55.5555555555556,4,1,1,90,0,0
132926,-55.5555555555556,4,2,1,60,0,0
133040,-55.5555555555556,4,1,1,90,0,0
133495,-55.5555555555556,4,2,1,60,0,0
133608,-55.5555555555556,4,1,1,90,0,0
133722,-55.5555555555556,4,1,1,60,0,0
133836,-55.5555555555556,4,2,1,30,0,0
134063,-55.5555555555556,4,1,1,90,0,0
134233,-55.5555555555556,4,2,1,60,0,0
134290,-55.5555555555556,4,1,1,90,0,0
134347,-55.5555555555556,4,2,1,60,0,0
134404,-55.5555555555556,4,1,1,90,0,0
134461,-55.5555555555556,4,2,1,60,0,0
134517,-55.5555555555556,4,1,1,90,0,0
134574,-55.5555555555556,4,2,1,60,0,0
134631,-55.5555555555556,4,1,1,90,0,0
134707,-55.5555555555556,4,2,1,60,0,0
134782,-55.5555555555556,4,1,1,90,0,0
135313,-55.5555555555556,4,2,1,60,0,0
135426,-55.5555555555556,4,1,1,90,0,0
135540,-55.5555555555556,4,1,1,60,0,0
135654,-55.5555555555556,4,2,1,30,0,0
135881,-55.5555555555556,4,1,1,90,0,0
136108,-55.5555555555556,4,2,1,30,0,0
136449,-55.5555555555556,4,1,1,90,0,0
137358,-55.5555555555556,4,1,1,60,0,0
137472,-55.5555555555556,4,1,1,90,0,0
137586,-66.6666666666667,4,1,1,60,0,0
137813,-55.5555555555556,4,1,1,60,0,0
138040,-55.5555555555556,4,1,1,75,0,0
138267,-55.5555555555556,4,1,1,90,0,0
138381,-55.5555555555556,4,2,1,60,0,0
138495,-55.5555555555556,4,1,1,90,0,0
139290,-55.5555555555556,4,2,1,60,0,0
139404,-55.5555555555556,4,1,1,60,0,0
139631,-41.6666666666667,4,1,1,90,0,0
139745,-41.6666666666667,4,2,1,30,0,0
140086,-55.5555555555556,4,1,1,90,0,0
140199,-55.5555555555556,4,2,1,60,0,0
140313,-55.5555555555556,4,1,1,90,0,0
140995,-55.5555555555556,4,1,1,60,0,0
141108,-55.5555555555556,4,1,1,90,0,0
141790,-37.037037037037,4,1,1,90,0,0
141847,-37.037037037037,4,2,1,10,0,0
141904,-55.5555555555556,4,1,1,90,0,0
142017,-55.5555555555556,4,2,1,60,0,0
142131,-55.5555555555556,4,1,1,90,0,0
142813,-55.5555555555556,4,1,1,60,0,0
142926,-55.5555555555556,4,2,1,30,0,0
143154,-55.5555555555556,4,1,1,45,0,0
143495,-37.037037037037,4,1,1,45,0,0
143608,-37.037037037037,4,2,1,10,0,0
143722,-55.5555555555556,4,1,1,90,0,0
144404,-166.666666666667,4,1,1,90,0,0
144517,-166.666666666667,4,2,1,45,0,0
144631,-55.5555555555556,4,1,1,90,0,0
144972,-55.5555555555556,4,1,1,60,0,0
145199,-55.5555555555556,4,1,1,60,0,0
145313,-55.5555555555556,4,1,1,75,0,0
145426,-55.5555555555556,4,1,1,90,0,0
145540,-47.6190476190476,4,1,1,90,0,0
145654,-47.6190476190476,4,2,1,45,0,0
145995,-55.5555555555556,4,1,1,90,0,0
146449,-55.5555555555556,4,1,1,75,0,0
146676,-55.5555555555556,4,1,1,90,0,0
147017,-83.3333333333333,4,1,1,90,0,0
147245,-83.3333333333333,4,2,1,30,0,0
147358,-55.5555555555556,4,1,1,90,0,0
147472,-55.5555555555556,4,2,1,45,0,0
147813,-55.5555555555556,4,1,1,90,0,0
148267,-55.5555555555556,4,1,1,75,0,0
148495,-55.5555555555556,4,1,1,90,0,0
149176,-47.6190476190476,4,1,1,90,0,0
149290,-47.6190476190476,4,2,1,45,0,0
149631,-55.5555555555556,4,1,1,90,0,0
150086,-55.5555555555556,4,1,1,75,0,0
150313,-55.5555555555556,4,1,1,90,0,0
150654,-83.3333333333333,4,1,1,90,0,0
150881,-83.3333333333333,4,2,1,30,0,0
150995,-47.6190476190476,4,1,1,90,0,0
151108,-47.6190476190476,4,2,1,45,0,0
151449,-55.5555555555556,4,1,1,90,0,0
151620,-55.5555555555556,4,1,1,75,0,0
151904,-83.3333333333333,4,1,1,90,0,0
151961,-83.3333333333333,4,1,1,60,0,0
152017,-83.3333333333333,4,1,1,55,0,0
152074,-83.3333333333333,4,1,1,50,0,0
152131,-83.3333333333333,4,1,1,45,0,0
152188,-83.3333333333333,4,1,1,40,0,0
152358,-83.3333333333333,4,1,1,60,0,0
152472,-83.3333333333333,4,1,1,67,0,0
152586,-83.3333333333333,4,1,1,75,0,0
152699,-83.3333333333333,4,1,1,83,0,0
152813,-47.6190476190476,4,1,2,90,0,0
152926,-47.6190476190476,4,2,1,10,0,0
153267,-55.5555555555556,4,1,1,90,0,0
153722,-55.5555555555556,4,1,1,75,0,0
153949,-55.5555555555556,4,1,1,90,0,0
154290,-55.5555555555556,4,2,1,30,0,0
154347,-55.5555555555556,4,1,1,90,0,0
154517,-55.5555555555556,4,2,1,30,0,0
154631,-47.6190476190476,4,1,1,90,0,0
154745,-47.6190476190476,4,2,1,10,0,0
155086,-55.5555555555556,4,1,1,90,0,0
155881,-55.5555555555556,4,1,1,75,0,0
155995,-55.5555555555556,4,1,1,90,0,0
156449,-47.6190476190476,4,1,1,90,0,0
156563,-47.6190476190476,4,2,1,10,0,0
156904,-55.5555555555556,4,1,1,90,0,0
157358,-55.5555555555556,4,1,1,75,0,0
157586,-55.5555555555556,4,1,1,90,0,0
157926,-55.5555555555556,4,2,1,30,0,0
157983,-55.5555555555556,4,1,1,90,0,0
158154,-55.5555555555556,4,2,1,30,0,0
158267,-47.6190476190476,4,1,1,90,0,0
158381,-47.6190476190476,4,1,1,10,0,0
158722,-55.5555555555556,4,1,1,90,0,0
160029,-83.3333333333333,4,1,1,90,0,0
160199,-83.3333333333333,4,1,1,75,0,0
160654,-83.3333333333333,4,1,1,60,0,0
161336,-83.3333333333333,4,1,1,75,0,0
161506,-83.3333333333333,4,2,1,20,0,0
161620,-83.3333333333333,4,1,1,60,0,0
161733,-83.3333333333333,4,2,1,20,0,0
161847,-83.3333333333333,4,1,1,60,0,0
162017,-83.3333333333333,4,1,1,75,0,0
162472,-83.3333333333333,4,1,1,60,0,0
163267,-83.3333333333333,4,1,1,75,0,0
163608,-83.3333333333333,4,1,1,60,0,0
163722,-65.359477124183,4,1,1,67,0,0
164063,-65.359477124183,4,2,1,10,0,0
164176,-65.359477124183,4,1,1,82,0,0
164290,-65.359477124183,4,1,1,67,0,0
164972,-65.359477124183,4,1,1,82,0,0
165142,-65.359477124183,4,2,1,45,0,0
165313,-65.359477124183,4,1,1,67,0,0
165370,-65.359477124183,4,2,1,45,0,0
165540,-65.359477124183,4,1,1,67,0,0
165654,-65.359477124183,4,2,1,10,0,0
165995,-65.359477124183,4,1,1,75,0,0
166108,-65.359477124183,4,1,1,45,0,0
166222,-65.359477124183,4,1,1,67,0,0
166336,-65.359477124183,4,1,1,45,0,0
166733,-65.359477124183,4,1,1,45,0,0
166904,-65.359477124183,4,1,1,67,0,0
167017,-65.359477124183,4,1,1,53,0,0
167131,-65.359477124183,4,1,1,60,0,0
167245,-65.359477124183,4,1,1,67,0,0
167358,-53.763440860215,4,1,2,75,0,0
167472,-53.763440860215,4,2,1,10,0,0
167813,-83.3333333333333,4,1,1,75,0,0
167926,-83.3333333333333,4,1,1,60,0,0
168154,-83.3333333333333,4,1,1,75,0,0
168836,-83.3333333333333,4,1,1,37,0,0
168949,-83.3333333333333,4,1,1,75,0,0
169063,-83.3333333333333,4,1,1,37,0,0
169176,-53.763440860215,4,1,1,75,0,0
169290,-53.763440860215,4,1,1,37,0,0
169631,-83.3333333333333,4,1,1,75,0,0
170995,-39.6825396825397,4,1,1,75,0,0
171051,-39.6825396825397,4,1,1,37,0,0
171222,-39.6825396825397,4,1,1,75,0,0
171392,-39.6825396825397,4,1,1,37,0,0
171676,-32.258064516129,4,1,1,75,0,0
171733,-32.258064516129,4,1,1,37,0,0
171904,-39.6825396825397,4,1,1,75,0,0
172358,-39.6825396825397,4,1,1,60,0,0
172813,-83.3333333333333,4,1,1,75,0,1
173324,-83.3333333333333,4,1,1,73,0,1
173381,-83.3333333333333,4,1,1,70,0,1
173438,-83.3333333333333,4,1,1,67,0,1
173495,-83.3333333333333,4,1,1,65,0,1
173551,-83.3333333333333,4,1,1,63,0,1
173608,-83.3333333333333,4,1,1,60,0,1
173779,-83.3333333333333,4,1,1,57,0,1
173836,-83.3333333333333,4,1,1,55,0,1
173892,-83.3333333333333,4,1,1,53,0,1
173949,-83.3333333333333,4,1,1,50,0,1
174006,-83.3333333333333,4,1,1,47,0,1
174063,-83.3333333333333,4,1,1,45,0,1
174233,-83.3333333333333,4,1,1,43,0,1
174290,-83.3333333333333,4,1,1,40,0,1
174347,-83.3333333333333,4,1,1,37,0,1
174404,-83.3333333333333,4,1,1,35,0,1
174461,-83.3333333333333,4,1,1,33,0,1
174517,-83.3333333333333,4,1,1,30,0,1
174631,-111.111111111111,4,2,4,30,0,0
181676,-111.111111111111,4,2,1,15,0,0
188949,-111.111111111111,4,2,1,30,0,0
196336,-111.111111111111,4,2,1,45,0,0
196563,-111.111111111111,4,2,1,30,0,0
197472,-111.111111111111,4,2,1,15,0,0
197813,-111.111111111111,4,2,1,30,0,0
201904,-111.111111111111,4,2,1,45,0,1
202017,-111.111111111111,4,2,1,30,0,1
202699,-55.5555555555556,4,2,1,75,0,0
202926,-55.5555555555556,4,2,1,10,0,0
203267,-83.3333333333333,4,1,1,45,0,0
203438,-83.3333333333333,4,1,1,30,0,0
203495,-83.3333333333333,4,2,1,75,0,0
203608,-111.111111111111,4,1,2,90,0,0
203836,-111.111111111111,4,2,1,30,0,0
204517,-166.666666666667,4,2,1,45,0,0
204745,-166.666666666667,4,2,1,23,0,0
204972,-166.666666666667,4,2,1,45,0,0
205199,-166.666666666667,4,2,1,23,0,0
205426,-83.3333333333333,4,2,1,45,0,0
206108,-111.111111111111,4,2,1,30,0,0
206336,-111.111111111111,4,2,1,45,0,0
206563,-111.111111111111,4,2,1,30,0,0
206790,-111.111111111111,4,2,1,45,0,0
207017,-111.111111111111,4,2,1,30,0,0
207245,-111.111111111111,4,2,1,45,0,0
207472,-111.111111111111,4,2,1,30,0,0
208154,-111.111111111111,4,2,1,45,0,0
210881,-111.111111111111,4,1,1,60,0,0
211108,-111.111111111111,4,2,1,30,0,0
211336,-111.111111111111,4,2,1,45,0,0
212017,-111.111111111111,4,2,1,23,0,0
212245,-111.111111111111,4,2,1,45,0,0
212472,-111.111111111111,4,2,1,23,0,0
212699,-111.111111111111,4,2,1,45,0,0
212926,-111.111111111111,4,2,1,23,0,0
213267,-111.111111111111,4,2,1,45,0,0
213381,-111.111111111111,4,2,1,30,0,0
213608,-111.111111111111,4,2,1,45,0,0
213836,-111.111111111111,4,2,1,30,0,0
214063,-111.111111111111,4,2,1,45,0,0
214290,-111.111111111111,4,2,1,30,0,0
214517,-111.111111111111,4,2,1,45,0,0
214745,-111.111111111111,4,2,1,23,0,0
215426,-111.111111111111,4,2,1,45,0,0
216563,-111.111111111111,4,2,1,23,0,0
217245,-166.666666666667,4,2,1,45,0,0
217472,-166.666666666667,4,2,1,23,0,0
218154,-166.666666666667,4,1,1,45,0,0
218381,-166.666666666667,4,1,1,30,0,0
218722,-166.666666666667,4,1,1,45,0,0
218836,-166.666666666667,4,1,1,30,0,0
219631,-166.666666666667,4,1,1,45,0,0
219745,-166.666666666667,4,1,1,30,0,0
220540,-166.666666666667,4,1,1,45,0,0
220654,-166.666666666667,4,1,1,30,0,0
221449,-166.666666666667,4,1,1,45,0,0
221563,-166.666666666667,4,1,1,30,0,0
222358,-166.666666666667,4,1,1,45,0,0
222472,-166.666666666667,4,1,1,30,0,0
223267,-166.666666666667,4,1,1,45,0,0
223381,-166.666666666667,4,1,1,30,0,0
224176,-166.666666666667,4,1,1,45,0,0
224290,-166.666666666667,4,1,1,30,0,0
225086,-166.666666666667,4,1,1,45,0,0
225199,-166.666666666667,4,1,1,30,0,0
225540,-166.666666666667,4,1,1,75,0,0
225654,-166.666666666667,4,1,1,37,0,0
225995,-166.666666666667,4,1,2,60,0,0
226108,-166.666666666667,4,1,1,37,0,0
226904,-166.666666666667,4,1,2,60,0,0
227017,-166.666666666667,4,1,1,37,0,0
227813,-166.666666666667,4,1,2,60,0,0
227926,-166.666666666667,4,1,1,37,0,0
228722,-166.666666666667,4,1,2,60,0,0
228836,-166.666666666667,4,1,1,37,0,0
229631,-166.666666666667,4,1,2,60,0,0
229745,-166.666666666667,4,1,1,37,0,0
230540,-166.666666666667,4,1,2,60,0,0
230654,-166.666666666667,4,1,1,37,0,0
230767,-166.666666666667,4,1,1,60,0,0
230881,-166.666666666667,4,1,1,37,0,1
230995,-166.666666666667,4,1,1,45,0,1
231449,-166.666666666667,4,1,1,53,0,1
231904,-166.666666666667,4,1,1,60,0,1
232358,-166.666666666667,4,1,1,60,0,0
232415,-166.666666666667,4,1,1,45,0,0
232813,-41.6666666666667,4,1,4,60,0,1
233154,-111.111111111111,4,1,1,60,0,0
234517,-60.6060606060606,4,1,1,60,0,0
234972,-111.111111111111,4,1,1,60,0,0
236336,-78.4313725490196,4,1,1,60,0,0
236790,-111.111111111111,4,1,1,60,0,0
238154,-91.743119266055,4,1,1,60,0,0
238608,-111.111111111111,4,1,1,60,0,0
240199,-111.111111111111,4,1,1,30,0,0
240426,-111.111111111111,4,1,1,60,0,0
242017,-111.111111111111,4,1,1,30,0,0
242245,-111.111111111111,4,1,1,60,0,0
243836,-111.111111111111,4,1,1,30,0,0
244063,-111.111111111111,4,1,1,60,0,0
245654,-111.111111111111,4,1,1,30,0,0
245881,-111.111111111111,4,1,1,60,0,0
246847,-111.111111111111,4,1,1,45,0,0
246904,-111.111111111111,4,1,1,60,0,0
247358,-111.111111111111,4,1,1,75,0,0
247472,-111.111111111111,4,1,1,30,0,0
247699,-111.111111111111,4,1,1,60,0,0
247926,-111.111111111111,4,1,1,30,0,0
248154,-111.111111111111,4,1,1,45,0,0
248267,-111.111111111111,4,1,1,60,0,0
248381,-111.111111111111,4,1,1,45,0,0
248722,-111.111111111111,4,1,1,60,0,0
248836,-111.111111111111,4,1,1,45,0,0
249063,-95.2380952380952,4,1,1,60,0,0
249290,-95.2380952380952,4,1,1,45,0,0
249517,-95.2380952380952,4,1,1,60,0,0
249745,-95.2380952380952,4,1,1,30,0,0
249972,-95.2380952380952,4,1,1,45,0,0
250086,-95.2380952380952,4,1,1,60,0,0
250199,-95.2380952380952,4,1,1,45,0,0
250540,-95.2380952380952,4,1,1,60,0,0
250654,-95.2380952380952,4,1,1,30,0,0
250767,-95.2380952380952,4,1,1,45,0,0
250881,-95.2380952380952,4,1,1,30,0,0
250995,-83.3333333333333,4,1,1,60,0,0
251108,-83.3333333333333,4,1,1,30,0,0
251336,-83.3333333333333,4,1,1,60,0,0
251563,-83.3333333333333,4,1,1,30,0,0
251790,-83.3333333333333,4,1,1,45,0,0
251904,-83.3333333333333,4,1,1,60,0,0
252017,-83.3333333333333,4,1,1,30,0,0
252245,-83.3333333333333,4,1,1,45,0,0
252358,-83.3333333333333,4,1,1,60,0,0
252472,-83.3333333333333,4,1,1,45,0,0
252699,-74.0740740740741,4,1,1,60,0,0
252926,-74.0740740740741,4,1,1,30,0,0
253154,-74.0740740740741,4,1,1,60,0,0
253381,-74.0740740740741,4,1,1,30,0,0
253608,-74.0740740740741,4,1,1,45,0,0
253722,-74.0740740740741,4,1,1,60,0,0
253836,-74.0740740740741,4,1,1,45,0,0
254176,-111.111111111111,4,1,1,60,0,0
254461,-111.111111111111,4,1,1,45,0,0
254631,-111.111111111111,4,1,1,60,0,0
259176,-166.666666666667,4,1,1,60,0,0
260086,-111.111111111111,4,1,1,60,0,1
260199,-111.111111111111,4,2,1,5,0,1
260995,-111.111111111111,4,2,1,60,0,1
261108,-111.111111111111,4,2,1,5,0,0
261904,-55.5555555555556,4,1,1,75,0,1
262017,-55.5555555555556,4,2,1,37,0,1
262358,-47.6190476190476,4,1,1,75,0,1
262472,-47.6190476190476,4,2,1,5,0,1
262699,-47.6190476190476,4,1,1,75,0,1
262813,-55.5555555555556,4,1,1,75,0,1
264176,-55.5555555555556,4,1,1,75,0,1
264631,-55.5555555555556,4,1,1,75,0,1
265313,-55.5555555555556,4,1,1,90,0,1
265540,-55.5555555555556,4,1,1,75,0,1
267472,-55.5555555555556,4,2,1,10,0,1
267813,-55.5555555555556,4,1,1,75,0,1
268267,-55.5555555555556,4,1,1,45,0,1
268495,-55.5555555555556,4,1,1,75,0,1
268551,-55.5555555555556,4,1,1,60,0,1
268722,-55.5555555555556,4,1,1,75,0,1
269290,-55.5555555555556,4,2,1,37,0,1
269631,-47.6190476190476,4,1,1,75,0,1
269745,-47.6190476190476,4,2,1,10,0,1
269972,-55.5555555555556,4,1,1,75,0,1
271222,-55.5555555555556,4,1,2,75,0,1
271336,-55.5555555555556,4,1,1,75,0,1
272586,-55.5555555555556,4,1,2,75,0,1
272699,-55.5555555555556,4,1,1,75,0,1
274574,-55.5555555555556,4,1,1,60,0,1
274801,-55.5555555555556,4,1,1,53,0,1
275029,-55.5555555555556,4,1,1,45,0,1
275256,-55.5555555555556,4,1,1,38,0,1
275483,-55.5555555555556,4,1,1,53,0,1
275995,-55.5555555555556,4,1,1,75,0,1
276222,-166.666666666667,4,1,2,75,0,1
276336,-166.666666666667,4,2,1,10,0,1
276449,-41.6666666666667,4,1,1,75,0,1
276563,-41.6666666666667,4,2,1,37,0,1
276904,-37.037037037037,4,1,1,75,0,1
277017,-37.037037037037,4,2,1,10,0,1
277245,-37.037037037037,4,1,1,75,0,1
277358,-55.5555555555556,4,1,1,75,0,1
279858,-55.5555555555556,4,1,2,75,0,1
279972,-55.5555555555556,4,1,1,75,0,1
282017,-55.5555555555556,4,2,1,10,0,1
282358,-55.5555555555556,4,1,1,75,0,1
282586,-55.5555555555556,4,1,1,60,0,1
282813,-166.666666666667,4,1,1,45,0,1
282926,-166.666666666667,4,2,1,10,0,1
283040,-55.5555555555556,4,1,1,75,0,1
283722,-41.6666666666667,4,1,1,75,0,1
283836,-41.6666666666667,4,2,1,37,0,1
284176,-37.037037037037,4,1,1,75,0,1
284290,-37.037037037037,4,2,1,10,0,1
284517,-55.5555555555556,4,1,1,75,0,1
284972,-55.5555555555556,4,1,1,75,0,1
285199,-55.5555555555556,4,1,1,37,0,1
285540,-55.5555555555556,4,1,1,75,0,1
285767,-55.5555555555556,4,1,2,75,0,1
285881,-55.5555555555556,4,1,1,75,0,1
287131,-55.5555555555556,4,1,1,75,0,1
287245,-55.5555555555556,4,1,1,75,0,1
287358,-166.666666666667,4,1,1,30,0,0
287472,-166.666666666667,4,1,1,45,0,0
288267,-166.666666666667,4,1,1,53,0,0
289176,-166.666666666667,4,1,1,60,0,0
290086,-83.3333333333333,4,1,1,75,0,0
290142,-83.3333333333333,4,1,1,60,0,0
290540,-55.5555555555556,4,1,1,75,0,0
290767,-166.666666666667,4,1,2,75,0,0
290881,-166.666666666667,4,2,2,10,0,0
290995,-47.6190476190476,4,1,1,90,0,1
291108,-47.6190476190476,4,2,1,10,0,1
291449,-55.5555555555556,4,1,1,90,0,1
292188,-55.5555555555556,4,2,1,10,0,1
292358,-41.6666666666667,4,1,1,90,0,1
292415,-41.6666666666667,4,2,1,10,0,1
292813,-55.5555555555556,4,1,1,90,0,1
292926,-55.5555555555556,4,1,2,90,0,1
293154,-55.5555555555556,4,2,1,10,0,1
293267,-55.5555555555556,4,1,1,90,0,1
294176,-55.5555555555556,4,1,1,75,0,1
294404,-55.5555555555556,4,1,2,90,0,1
294517,-55.5555555555556,4,1,1,90,0,1
294631,-55.5555555555556,4,1,1,90,0,1
296449,-41.6666666666667,4,1,1,90,0,1
296904,-55.5555555555556,4,1,1,90,0,1
297472,-83.3333333333333,4,1,1,60,0,1
297813,-83.3333333333333,4,1,1,75,0,1
298267,-47.6190476190476,4,1,1,90,0,1
298381,-47.6190476190476,4,2,1,10,0,1
298722,-55.5555555555556,4,1,1,90,0,1
299631,-41.6666666666667,4,1,1,90,0,1
299745,-41.6666666666667,4,1,1,10,0,1
300086,-55.5555555555556,4,1,1,90,0,1
300313,-55.5555555555556,4,1,2,90,0,1
300426,-55.5555555555556,4,1,1,90,0,1
301563,-55.5555555555556,4,1,1,75,0,1
301676,-55.5555555555556,4,1,1,90,0,1
301904,-55.5555555555556,4,1,1,90,0,1
303722,-111.111111111111,4,1,1,60,0,1
304631,-111.111111111111,4,1,1,75,0,1
304745,-111.111111111111,4,1,1,60,0,1
304858,-111.111111111111,4,1,1,87,0,1
304972,-111.111111111111,4,1,1,60,0,1
305086,-111.111111111111,4,1,1,90,0,1
305199,-111.111111111111,4,1,1,60,0,1
305313,-111.111111111111,4,1,1,90,0,0
305426,-111.111111111111,4,1,1,60,0,0
305540,-41.6666666666667,4,1,1,90,0,1
305597,-41.6666666666667,4,2,1,10,0,1
305995,-55.5555555555556,4,1,1,90,0,1
306222,-55.5555555555556,4,2,1,10,0,1
306336,-55.5555555555556,4,1,1,90,0,1
306449,-55.5555555555556,4,2,1,10,0,1
306563,-55.5555555555556,4,1,1,90,0,1
306904,-41.6666666666667,4,1,1,90,0,1
307017,-41.6666666666667,4,2,1,10,0,1
307358,-55.5555555555556,4,1,1,90,0,1
307586,-55.5555555555556,4,1,2,90,0,1
307699,-55.5555555555556,4,1,1,90,0,1
310995,-41.6666666666667,4,1,1,90,0,1
311620,-41.6666666666667,4,1,1,75,0,1
311904,-83.3333333333333,4,1,1,60,0,1
312358,-83.3333333333333,4,1,1,75,0,1
312813,-41.6666666666667,4,1,1,90,0,1
312926,-41.6666666666667,4,2,1,10,0,1
313267,-55.5555555555556,4,1,1,90,0,1
313495,-55.5555555555556,4,2,1,10,0,1
313608,-55.5555555555556,4,1,1,90,0,1
313722,-55.5555555555556,4,2,1,10,0,1
313836,-55.5555555555556,4,1,1,90,0,1
314176,-41.6666666666667,4,1,1,90,0,1
314290,-41.6666666666667,4,2,1,10,0,1
314631,-55.5555555555556,4,1,1,90,0,1
314858,-55.5555555555556,4,1,2,90,0,1
314972,-55.5555555555556,4,1,1,90,0,1
315767,-83.3333333333333,4,1,1,90,0,1
315824,-83.3333333333333,4,1,1,75,0,1
315881,-55.5555555555556,4,1,1,90,0,1
316449,-166.666666666667,4,1,1,45,0,1
317358,-133.333333333333,4,1,1,30,0,1
317472,-133.333333333333,4,1,1,45,0,1
318154,-166.666666666667,4,2,1,5,0,1
318267,-166.666666666667,4,1,1,45,0,1
318381,-166.666666666667,4,2,1,10,0,1
318495,-166.666666666667,4,1,1,45,0,1
318608,-166.666666666667,4,2,1,10,0,1
318722,-83.3333333333333,4,1,1,60,0,1
318949,-83.3333333333333,4,1,1,70,0,1
319176,-83.3333333333333,4,1,1,80,0,1
319404,-83.3333333333333,4,1,1,90,0,1
319631,-55.5555555555556,4,1,1,100,0,0
319858,-55.5555555555556,4,1,2,100,0,0
320086,-55.5555555555556,4,1,4,100,0,1
320199,-55.5555555555556,4,1,4,45,0,1
320426,-83.3333333333333,4,2,1,75,0,0
322017,-83.3333333333333,4,2,1,45,0,0
322245,-83.3333333333333,4,2,1,75,0,0
323836,-83.3333333333333,4,2,1,45,0,0
324063,-83.3333333333333,4,2,1,75,0,0
325654,-83.3333333333333,4,2,1,45,0,0
325881,-83.3333333333333,4,2,1,75,0,0
327472,-83.3333333333333,4,2,1,45,0,0
327813,-83.3333333333333,4,2,1,75,0,0
327926,-83.3333333333333,4,2,1,60,0,0
328154,-83.3333333333333,4,2,1,75,0,0
328267,-83.3333333333333,4,2,1,60,0,0
328495,-83.3333333333333,4,2,1,75,0,0
329290,-83.3333333333333,4,2,1,45,0,0
329631,-83.3333333333333,4,2,1,75,0,0
331108,-83.3333333333333,4,2,1,45,0,0
331449,-83.3333333333333,4,2,1,75,0,0
331563,-83.3333333333333,4,2,1,45,0,0
331676,-83.3333333333333,4,2,1,75,0,0
332926,-83.3333333333333,4,2,1,45,0,0
333267,-83.3333333333333,4,1,1,75,0,0
334745,-83.3333333333333,4,1,1,45,0,0
334972,-83.3333333333333,4,1,1,75,0,0
335199,-83.3333333333333,4,1,1,45,0,0
335426,-83.3333333333333,4,1,1,75,0,0
336563,-83.3333333333333,4,1,1,45,0,0
336790,-83.3333333333333,4,1,1,75,0,0
337017,-83.3333333333333,4,1,1,45,0,0
337245,-83.3333333333333,4,1,1,75,0,0
338381,-83.3333333333333,4,1,1,45,0,0
338608,-83.3333333333333,4,1,1,75,0,0
338836,-83.3333333333333,4,1,1,45,0,0
339063,-83.3333333333333,4,1,1,75,0,0
340199,-83.3333333333333,4,1,1,45,0,0
340426,-83.3333333333333,4,1,1,75,0,0
340654,-83.3333333333333,4,1,1,45,0,0
340881,-83.3333333333333,4,1,1,75,0,0
341904,-83.3333333333333,4,1,1,45,0,0
342699,-83.3333333333333,4,1,1,52,0,0
343608,-83.3333333333333,4,1,1,60,0,0
344517,-83.3333333333333,4,1,1,67,0,0
345540,-83.3333333333333,4,1,1,75,0,0
347131,-83.3333333333333,4,1,1,90,0,0
347188,-83.3333333333333,4,1,1,75,0,0
347245,-83.3333333333333,4,1,1,90,0,0
347301,-83.3333333333333,4,1,1,75,0,0
347358,-111.111111111111,4,1,1,100,0,1
347472,-111.111111111111,4,2,1,5,0,1
348267,-111.111111111111,4,1,1,60,0,1
348722,-83.3333333333333,4,1,2,60,0,0
349176,-55.5555555555556,4,1,2,75,0,0
349290,-55.5555555555556,4,1,1,30,0,0
349631,-83.3333333333333,4,1,1,60,0,0
350995,-55.5555555555556,4,1,1,60,0,0
351108,-55.5555555555556,4,1,1,30,0,0
351449,-83.3333333333333,4,1,1,60,0,0
352415,-83.3333333333333,4,1,1,30,0,0
352472,-83.3333333333333,4,1,1,60,0,0
352529,-83.3333333333333,4,1,1,30,0,0
352586,-83.3333333333333,4,1,1,60,0,0
352642,-83.3333333333333,4,1,1,30,0,0
352699,-83.3333333333333,4,1,1,60,0,0
352813,-55.5555555555556,4,1,1,60,0,0
352926,-55.5555555555556,4,1,1,30,0,0
353267,-83.3333333333333,4,1,1,60,0,0
355540,-83.3333333333333,4,1,1,45,0,0
355995,-83.3333333333333,4,1,1,60,0,0
356449,-55.5555555555556,4,1,2,75,0,0
356563,-55.5555555555556,4,1,3,30,0,0
356904,-83.3333333333333,4,1,1,60,0,0
358267,-55.5555555555556,4,1,1,60,0,0
358381,-55.5555555555556,4,1,1,30,0,0
358722,-83.3333333333333,4,1,1,60,0,0
359688,-83.3333333333333,4,1,1,30,0,0
359745,-83.3333333333333,4,1,1,60,0,0
359801,-83.3333333333333,4,1,1,30,0,0
359858,-83.3333333333333,4,1,1,60,0,0
359915,-83.3333333333333,4,1,1,30,0,0
359972,-83.3333333333333,4,1,1,45,0,0
360086,-55.5555555555556,4,1,2,60,0,0
360199,-55.5555555555556,4,1,2,30,0,0
360540,-83.3333333333333,4,1,1,60,0,0
362586,-166.666666666667,4,1,1,60,0,0
362642,-166.666666666667,4,2,1,5,0,0
362813,-83.3333333333333,4,1,1,60,0,0
362926,-83.3333333333333,4,1,1,75,0,0
363040,-83.3333333333333,4,1,1,75,0,0
363154,-83.3333333333333,4,1,1,45,0,0
363722,-55.5555555555556,4,1,2,75,0,0
363836,-55.5555555555556,4,1,2,30,0,0
364176,-83.3333333333333,4,1,1,60,0,0
365540,-55.5555555555556,4,1,1,60,0,0
365654,-55.5555555555556,4,1,1,30,0,0
365995,-83.3333333333333,4,1,1,60,0,0
367358,-55.5555555555556,4,1,2,60,0,0
367472,-55.5555555555556,4,1,2,30,0,0
367813,-83.3333333333333,4,1,1,60,0,0
369176,-55.5555555555556,4,1,1,60,0,0
369290,-55.5555555555556,4,1,1,30,0,0
369631,-83.3333333333333,4,1,1,60,0,0
370086,-83.3333333333333,4,1,1,45,0,0
370540,-83.3333333333333,4,1,1,60,0,0
370995,-55.5555555555556,4,1,2,75,0,0
371108,-55.5555555555556,4,1,2,30,0,0
371449,-83.3333333333333,4,1,1,60,0,0
372813,-55.5555555555556,4,1,1,60,0,0
372926,-55.5555555555556,4,1,1,30,0,0
373267,-83.3333333333333,4,1,1,60,0,0
376449,-166.666666666667,4,1,1,60,0,0
377358,-166.666666666667,4,1,1,75,0,0
377813,-166.666666666667,4,1,1,23,0,0
377926,-166.666666666667,4,1,1,75,0,0
378040,-166.666666666667,4,1,1,23,0,0
378154,-166.666666666667,4,1,1,60,0,0
378267,-100,4,1,3,75,0,0
378381,-100,4,1,1,60,0,0
378836,-100,4,1,1,30,0,0
379063,-100,4,1,1,60,0,0
379290,-100,4,1,1,30,0,0
379517,-100,4,1,1,60,0,0
379745,-100,4,1,1,30,0,0
379972,-100,4,1,1,60,0,0
380654,-100,4,1,1,30,0,0
380881,-100,4,1,1,60,0,0
381108,-100,4,1,1,30,0,0
381336,-100,4,1,1,60,0,0
381563,-100,4,1,1,30,0,0
381790,-100,4,1,1,45,0,0
381904,-100,4,1,1,60,0,0
382926,-100,4,1,1,30,0,0
383154,-100,4,1,1,60,0,0
383381,-100,4,1,1,30,0,0
383608,-100,4,1,1,60,0,0
384631,-100,4,1,1,45,0,0
385199,-100,4,1,1,30,0,0
385313,-100,4,1,1,45,0,0
385426,-100,4,1,1,30,0,0
385540,-100,4,1,2,60,0,0
385654,-100,4,1,1,60,0,0
386563,-100,4,1,1,30,0,0
386790,-100,4,1,1,60,0,0
387017,-100,4,1,1,30,0,0
387245,-100,4,1,1,45,0,0
387358,-100,4,1,1,60,0,0
387926,-100,4,1,1,30,0,0
388154,-100,4,1,1,60,0,0
388381,-100,4,1,1,30,0,0
388608,-100,4,1,1,60,0,0
389290,-100,4,1,1,30,0,0
389517,-100,4,1,1,60,0,0
390199,-100,4,1,1,30,0,0
390426,-100,4,1,1,60,0,0
390654,-100,4,1,1,30,0,0
390881,-100,4,1,1,45,0,0
390995,-100,4,1,3,45,0,0
391108,-100,4,1,1,60,0,0
392301,-41.6666666666667,4,1,1,90,0,0
392472,-41.6666666666667,4,2,1,5,0,0
392586,-41.6666666666667,4,1,1,90,0,0
392699,-41.6666666666667,4,2,1,5,0,0
392813,-100,4,1,3,60,0,0
392926,-100,4,1,1,60,0,0
393381,-100,4,1,1,30,0,0
393608,-100,4,1,1,60,0,0
393836,-100,4,1,1,30,0,0
394063,-100,4,1,1,60,0,0
394290,-100,4,1,1,30,0,0
394517,-100,4,1,1,60,0,0
395199,-100,4,1,1,30,0,0
395426,-100,4,1,1,60,0,0
395654,-100,4,1,1,30,0,0
395881,-100,4,1,1,60,0,0
396108,-100,4,1,1,30,0,0
396336,-100,4,1,1,45,0,0
396449,-100,4,1,1,60,0,0
397472,-100,4,1,1,30,0,0
397699,-100,4,1,1,60,0,0
397926,-100,4,1,1,30,0,0
398154,-100,4,1,1,60,0,0
399176,-100,4,1,1,45,0,0
399631,-100,4,1,1,75,0,0
400086,-100,4,1,1,60,0,0
400199,-100,4,1,1,30,0,0
400313,-100,4,1,1,60,0,0
400426,-100,4,1,1,30,0,0
400540,-100,4,1,1,60,0,0
400654,-100,4,1,1,30,0,0
400767,-100,4,1,1,60,0,0
400881,-100,4,1,1,30,0,0
400995,-100,4,1,1,67,0,0
401108,-100,4,1,1,33,0,0
401222,-100,4,1,1,67,0,0
401336,-100,4,1,1,33,0,0
401449,-100,4,1,1,67,0,0
401563,-100,4,1,1,33,0,0
401676,-100,4,1,1,67,0,0
401790,-100,4,1,1,33,0,0
401904,-100,4,1,1,75,0,0
402017,-100,4,1,1,37,0,0
402131,-100,4,1,1,75,0,0
402245,-100,4,1,1,37,0,0
402358,-100,4,1,1,75,0,0
402472,-100,4,1,1,37,0,0
402586,-100,4,1,1,75,0,0
402699,-100,4,1,1,37,0,0
402813,-100,4,1,1,83,0,0
402926,-100,4,1,1,41,0,0
403040,-100,4,1,1,83,0,0
403154,-100,4,1,1,41,0,0
403267,-100,4,1,1,83,0,0
403381,-100,4,1,1,41,0,0
403495,-100,4,1,1,83,0,0
403608,-100,4,1,1,41,0,0
403722,-100,4,1,1,75,0,0
403949,-100,4,1,1,80,0,0
404176,-100,4,1,1,85,0,0
404404,-100,4,1,1,90,0,0
404631,-83.3333333333333,4,1,1,60,0,0
405426,-83.3333333333333,4,1,1,30,0,0
405540,-83.3333333333333,4,1,1,30,0,1
405654,-83.3333333333333,4,2,1,10,0,1
406449,-83.3333333333333,4,1,1,60,0,0
407131,-111.111111111111,4,1,1,75,0,0
407245,-83.3333333333333,4,2,1,30,0,0
407358,-83.3333333333333,4,1,3,60,0,0

[Colours]
Combo1 : 243,134,3
Combo2 : 212,37,64
Combo3 : 243,158,5
Combo4 : 232,225,225
Combo5 : 237,49,31

[HitObjects]
40,129,29176,6,0,B|70:78|145:78|185:144|139:220|72:275|89:319|89:319|114:292|152:281|171:288,1,398.999987823487
235,286,30995,1,0,0:0:0:0:
494,137,32813,6,0,B|458:118|412:126|391:159|391:159|356:137|308:142|279:185,1,227.999993041992
223,220,34176,1,0,0:0:0:0:
272,17,34631,2,0,P|241:68|385:38,1,341.999989562989
391,46,36449,6,0,B|436:287|436:287|418:239|377:210,1,341.999989562989
75,307,38267,2,0,P|160:248|278:287,1,227.999993041992
361,185,39631,1,0,0:0:0:0:
253,24,40086,6,0,P|256:77|301:33,1,142.499995651245
418,66,40767,2,0,L|378:77,1,28.4999991302491
258,213,40995,2,0,P|300:193|344:191,1,85.4999973907472
352,191,41449,1,0,0:0:0:0:
194,300,41676,1,0,0:0:0:0:
235,70,41904,6,0,P|231:144|187:79,1,199.499993911743
178,71,42813,2,0,L|190:49,2,14.2499995651245
109,100,43040,2,0,L|116:121,2,14.2499995651245
39,73,43267,2,0,L|13:67,1,14.2499995651245
0,158,43495,1,0,0:0:0:0:
322,88,43722,6,0,P|409:67|333:142,1,256.499992172241,4|0,0:0|0:0,0:0:0:0:
339,150,44176,1,0,0:0:0:0:
308,237,44404,1,0,0:0:0:0:
119,205,44631,1,0,0:0:0:0:
211,174,45086,1,0,0:0:0:0:
0,99,45540,6,0,B|29:81|43:51|43:51|52:73|43:123|3:139|-10:184|-6:243|10:261,1,284.999991302491
161,206,46904,1,0,0:0:0:0:
123,15,47131,1,0,0:0:0:0:
230,94,47358,6,0,P|188:149|91:139,1,170.999994781494
5,85,48267,2,0,L|17:169,1,85.4999973907472
159,315,48722,2,0,L|171:231,1,85.4999973907472
276,150,49176,5,0,0:0:0:0:
429,205,49404,1,0,0:0:0:0:
304,310,49631,2,0,L|284:325,3,14.2499995651245
379,96,50086,1,0,0:0:0:0:
342,162,50313,2,0,L|346:179,1,14.2499995651245,8|0,0:0|0:0,0:0:0:0:
157,139,50540,1,2,0:0:0:0:
443,44,50995,6,0,P|453:134|401:175,1,142.499995651245
406,176,51676,1,0,0:0:0:0:
389,181,51790,1,0,0:0:0:0:
169,144,52131,1,0,0:0:0:0:
244,85,52358,2,0,P|294:81|330:93,1,85.4999973907472
169,144,52813,6,0,B|145:105|148:65|167:35|167:35|139:67|92:79|57:64,1,227.999993041992
0,29,53949,1,0,0:0:0:0:
29,90,54176,1,0,0:0:0:0:
14,144,54404,1,0,0:0:0:0:
295,81,54631,6,0,P|428:124|277:138,1,398.999987823487
451,4,55540,6,0,P|485:222|198:182,1,598.49998173523
468,153,56449,6,0,L|491:334,1,170.999994781494,4|0,0:0|0:0,0:0:0:0:
492,336,58267,6,0,L|427:329,1,56.9999982604981
365,356,58608,2,0,L|300:363,1,56.9999982604981
237,276,58949,6,0,L|172:269,1,56.9999982604981
110,296,59290,2,0,L|45:303,1,56.9999982604981
178,354,59631,6,0,P|194:320|196:277,1,56.9999982604981
40,271,59972,2,0,P|24:237|22:194,1,56.9999982604981
257,194,60313,6,0,P|273:160|275:117,1,56.9999982604981
63,72,60654,2,0,P|47:38|45:-5,1,56.9999982604981
186,87,60995,6,0,L|172:146,1,56.9999982604981
44,150,61336,2,0,L|58:209,1,56.9999982604981
122,252,61676,1,0,0:0:0:0:
144,258,61790,1,0,0:0:0:0:
204,323,61904,6,0,L|261:290,1,56.9999982604981
458,351,62245,2,0,L|401:318,1,56.9999982604981
151,317,62586,6,0,L|208:284,1,56.9999982604981
511,345,62926,2,0,L|454:312,1,56.9999982604981
362,147,63267,6,0,P|367:109|385:74,1,56.9999982604981
487,285,63608,2,0,P|482:323|464:358,1,56.9999982604981
229,126,63949,6,0,P|234:88|252:53,1,56.9999982604981
354,264,64290,2,0,P|349:302|331:337,1,56.9999982604981
90,247,64631,6,0,L|158:259,1,56.9999982604981
383,180,64972,1,0,0:0:0:0:
361,186,65086,5,0,0:0:0:0:
383,112,65199,1,2,0:2:0:0:
436,168,65313,5,0,0:0:0:0:
309,130,65426,1,2,0:2:0:0:
404,39,65540,2,0,L|470:33,1,56.9999982604981
512,113,65995,5,2,0:1:0:0:
505,134,66108,1,0,0:1:0:0:
419,178,66336,1,0,0:1:0:0:
426,199,66449,1,2,0:1:0:0:
508,248,66676,1,0,0:1:0:0:
468,336,66904,1,2,0:1:0:0:
446,330,67017,1,0,0:1:0:0:
366,275,67245,1,0,0:1:0:0:
344,281,67358,1,2,0:1:0:0:
266,337,67586,1,0,0:1:0:0:
184,287,67813,1,2,0:1:0:0:
190,265,67926,1,0,0:1:0:0:
96,241,68154,1,0,0:1:0:0:
90,219,68267,1,2,0:1:0:0:
147,141,68495,1,0,0:1:0:0:
236,235,68722,1,2,0:1:0:0:
231,257,68836,1,0,0:1:0:0:
333,129,69063,1,0,0:1:0:0:
328,107,69176,6,0,L|338:45,1,56.9999982604981
246,16,69631,1,2,0:1:0:0:
223,12,69745,1,0,0:1:0:0:
116,59,69972,1,0,0:1:0:0:
139,55,70086,1,2,0:1:0:0:
205,90,70313,1,0,0:1:0:0:
91,153,70540,1,2,0:1:0:0:
68,149,70654,1,0,0:1:0:0:
0,241,70881,1,0,0:1:0:0:
23,237,70995,5,2,0:0:0:0:
14,264,71108,1,0,0:0:0:0:
6,291,71222,1,0,0:0:0:0:
103,228,71336,5,2,0:0:0:0:
94,201,71449,1,0,0:0:0:0:
86,174,71563,1,0,0:0:0:0:
178,136,71676,6,0,L|172:160,3,14.2499995651245,2|0|0|0,0:0|0:0|0:0|0:0,0:0:0:0:
215,217,71904,5,0,0:0:0:0:
174,149,72017,1,0,0:0:0:0:
293,215,72131,1,0,0:0:0:0:
177,284,72245,2,0,L|186:235,1,28.4999991302491,8|0,0:3|0:0,0:0:0:0:
403,319,72472,2,0,L|394:270,1,28.4999991302491,8|0,0:3|0:0,0:0:0:0:
354,68,72699,1,4,0:3:0:0:
429,123,72813,6,0,P|431:154|414:184,1,56.9999982604981,12|0,0:0|0:0,0:0:0:0:
335,216,73267,1,8,0:0:0:0:
363,23,73722,1,8,0:0:0:0:
333,182,74176,1,8,0:0:0:0:
137,97,74631,6,0,P|106:95|76:112,1,56.9999982604981,8|0,0:0|0:0,0:0:0:0:
44,191,75085,1,8,0:0:0:0:
300,156,75540,1,8,0:0:0:0:
79,201,75994,1,8,0:0:0:0:
143,128,76222,1,0,0:0:0:0:
143,93,76336,1,0,0:0:0:0:
126,63,76449,6,0,L|58:55,1,56.9999982604981,8|0,0:0|0:0,0:0:0:0:
274,151,76904,2,0,L|342:143,1,56.9999982604981,8|0,0:0|0:0,0:0:0:0:
75,153,77358,6,0,L|83:221,1,56.9999982604981,8|0,0:0|0:0,0:0:0:0:
413,77,77813,2,0,L|405:9,1,56.9999982604981,8|0,0:0|0:0,0:0:0:0:
242,292,78267,6,0,L|310:284,1,56.9999982604981,8|0,0:0|0:0,0:0:0:0:
110,63,78722,2,0,L|42:71,1,56.9999982604981,8|0,0:0|0:0,0:0:0:0:
16,163,79176,6,0,L|18:174,14,7.12499978256226,8|0|0|0|0|0|0|0|0|0|0|0|0|0|0,0:0|0:0|0:0|0:0|0:0|0:0|0:0|0:0|0:0|0:0|0:0|0:0|0:0|0:0|0:0,0:0:0:0:
104,206,79631,1,0,0:0:0:0:
104,206,79745,2,0,L|89:255,1,28.4999991302491,2|0,0:2|0:0,0:0:0:0:
272,157,79972,1,2,0:2:0:0:
248,65,80086,5,12,0:0:0:0:
299,150,80313,1,0,0:0:0:0:
272,157,80426,2,0,L|239:167,1,28.4999991302491,0|8,0:0|0:0,0:0:0:0:
67,113,80654,1,0,0:0:0:0:
94,120,80767,2,0,L|127:130,1,28.4999991302491
311,37,80995,5,8,0:0:0:0:
291,56,81108,2,0,L|267:81,1,28.4999991302491
113,12,81336,1,0,0:0:0:0:
132,31,81449,2,0,L|155:56,1,28.4999991302491,8|0,0:0|0:0,0:0:0:0:
408,116,81676,5,0,0:0:0:0:
381,123,81790,2,0,L|348:133,1,28.4999991302491,0|8,0:0|0:0,0:0:0:0:
17,89,82017,1,0,0:0:0:0:
44,96,82131,2,0,L|77:106,1,28.4999991302491
364,215,82358,5,8,0:0:0:0:
337,207,82472,2,0,L|303:199,1,28.4999991302491
69,189,82699,1,0,0:0:0:0:
96,181,82812,2,0,L|129:173,1,28.4999991302491,8|0,0:0|0:0,0:0:0:0:
297,303,83040,5,0,0:0:0:0:
278,282,83153,2,0,L|252:258,1,28.4999991302491,0|8,0:0|0:0,0:0:0:0:
96,318,83381,1,0,0:0:0:0:
115,297,83495,2,0,L|140:273,1,28.4999991302491
377,227,83722,6,0,P|363:214|332:208,1,28.4999991302491,8|0,0:0|0:0,0:0:0:0:
60,254,83949,2,0,P|69:238|98:224,1,28.4999991302491,8|0,0:0|0:0,0:0:0:0:
454,234,84176,6,0,P|453:215|435:189,1,28.4999991302491,8|0,0:0|0:0,0:0:0:0:
22,316,84404,2,0,P|6:306|-7:277,1,28.4999991302491,8|0,0:0|0:0,0:0:0:0:
234,5,84631,5,8,0:0:0:0:
274,36,84745,1,8,0:0:0:0:
290,84,84858,1,8,0:0:0:0:
277,133,84972,1,8,0:0:0:0:
239,168,85086,1,8,0:0:0:0:
201,203,85199,1,8,0:0:0:0:
188,252,85313,1,8,0:0:0:0:
204,300,85426,1,8,0:0:0:0:
244,331,85540,5,2,0:3:0:0:
245,335,85597,1,0,0:0:0:0:
246,339,85654,1,0,0:0:0:0:
247,343,85711,1,0,0:0:0:0:
248,348,85767,1,0,0:0:0:0:
249,352,85824,1,0,0:0:0:0:
250,356,85881,1,0,0:0:0:0:
251,360,85938,1,0,0:0:0:0:
252,364,85995,6,0,L|265:379,1,14.2499995651245
270,309,86108,2,0,L|271:335,1,14.2499995651245
323,282,86222,2,0,L|312:304,1,14.2499995651245
382,285,86336,2,0,L|359:297,1,14.2499995651245
424,326,86449,2,0,L|398:324,1,14.2499995651245,4|0,0:3|0:0,0:0:0:0:
384,274,86563,2,0,L|371:268,1,14.2499995651245
389,215,86676,2,0,L|374:198,1,14.2499995651245
419,165,86790,2,0,L|418:147,1,14.2499995651245,8|0,0:3|0:0,0:0:0:0:
475,149,86904,2,0,L|485:128,1,14.2499995651245,2|0,0:0|0:0,0:0:0:0:
100,68,87131,1,4,0:3:0:0:
191,274,87358,5,4,0:0:0:0:
191,274,101904,6,0,P|239:328|357:288,1,199.499993911743
103,353,102813,2,0,L|60:348,1,28.4999991302491,4|0,0:0|0:0,0:0:0:0:
58,348,104176,6,0,P|101:340|145:363,1,85.4999973907472
502,307,104631,2,0,L|470:301,1,28.4999991302491,4|0,0:0|0:0,0:0:0:0:
463,309,105540,6,0,P|401:236|438:149,1,199.499993911743
259,334,106449,2,0,L|268:367,1,28.4999991302491,4|0,0:0|0:0,0:0:0:0:
271,377,107813,6,0,P|279:334|256:290,1,85.4999973907472
19,185,108267,2,0,L|28:218,1,28.4999991302491,4|0,0:0|0:0,0:0:0:0:
28,223,109176,6,0,L|227:185,1,199.499993911743
47,41,110086,2,0,L|37:74,1,28.4999991302491,4|0,0:0|0:0,0:0:0:0:
36,88,111449,6,0,L|26:2,1,85.4999973907472
292,115,111904,2,0,L|282:148,1,28.4999991302491,4|0,0:0|0:0,0:0:0:0:
282,152,112813,6,0,L|83:114,1,199.499993911743
363,29,113722,2,0,L|372:62,1,28.4999991302491,4|0,0:0|0:0,0:0:0:0:
374,72,115086,6,0,L|460:62,1,85.4999973907472
174,5,115540,2,0,L|164:38,1,28.4999991302491,4|0,0:0|0:0,0:0:0:0:
165,44,116449,5,4,0:0:0:0:
171,53,116563,1,0,0:0:0:0:
174,63,116676,1,0,0:0:0:0:
176,74,116790,1,0,0:0:0:0:
176,85,116904,1,0,0:0:0:0:
175,96,117017,1,0,0:0:0:0:
172,107,117131,1,0,0:0:0:0:
167,117,117245,1,0,0:0:0:0:
161,126,117358,1,8,0:0:0:0:
153,134,117472,1,0,0:0:0:0:
143,140,117586,1,0,0:0:0:0:
132,144,117699,1,0,0:0:0:0:
120,146,117813,1,0,0:0:0:0:
108,147,117926,1,0,0:0:0:0:
96,146,118040,1,0,0:0:0:0:
84,143,118154,1,0,0:0:0:0:
92,150,118267,1,8,0:0:0:0:
98,159,118381,1,0,0:0:0:0:
103,169,118495,1,0,0:0:0:0:
106,179,118608,1,0,0:0:0:0:
108,190,118722,1,0,0:0:0:0:
109,201,118836,1,0,0:0:0:0:
109,212,118949,1,0,0:0:0:0:
108,223,119063,1,0,0:0:0:0:
106,234,119176,1,8,0:0:0:0:
104,245,119290,1,0,0:0:0:0:
100,255,119404,1,0,0:0:0:0:
95,265,119517,1,0,0:0:0:0:
88,274,119631,1,0,0:0:0:0:
79,282,119745,1,0,0:0:0:0:
70,289,119858,1,0,0:0:0:0:
59,294,119972,1,0,0:0:0:0:
47,296,120086,1,8,0:0:0:0:
58,308,120199,1,0,0:0:0:0:
74,314,120313,1,0,0:0:0:0:
90,316,120426,1,0,0:0:0:0:
107,317,120540,1,0,0:0:0:0:
124,315,120654,1,0,0:0:0:0:
140,311,120767,1,0,0:0:0:0:
156,305,120881,1,0,0:0:0:0:
171,298,120995,1,8,0:0:0:0:
186,291,121108,1,0,0:0:0:0:
202,285,121222,1,0,0:0:0:0:
218,281,121335,1,0,0:0:0:0:
235,279,121449,1,0,0:0:0:0:
252,280,121563,1,0,0:0:0:0:
268,282,121676,1,0,0:0:0:0:
284,288,121790,1,0,0:0:0:0:
295,300,121903,1,8,0:0:0:0:
281,321,122017,1,0,0:0:0:0:
260,336,122131,1,0,0:0:0:0:
234,340,122245,1,0,0:0:0:0:
208,336,122358,1,0,0:0:0:0:
187,320,122472,1,0,0:0:0:0:
163,299,122586,1,0,0:0:0:0:
137,295,122699,1,0,0:0:0:0:
111,299,122813,1,8,0:0:0:0:
90,314,122927,1,0,0:0:0:0:
76,335,123041,1,0,0:0:0:0:
83,310,123154,1,0,0:0:0:0:
83,284,123267,1,0,0:0:0:0:
78,258,123381,1,0,0:0:0:0:
63,236,123495,1,0,0:0:0:0:
43,220,123608,1,0,0:0:0:0:
8,153,123722,5,12,0:0:0:0:
21,118,123836,1,0,0:0:0:0:
50,95,123949,1,0,0:0:0:0:
86,88,124063,1,0,0:0:0:0:
122,90,124176,1,0,0:0:0:0:
156,104,124290,1,0,0:0:0:0:
180,131,124404,1,0,0:0:0:0:
204,158,124517,1,0,0:0:0:0:
238,172,124631,1,8,0:0:0:0:
274,174,124744,1,0,0:0:0:0:
310,167,124858,1,0,0:0:0:0:
339,144,124971,1,0,0:0:0:0:
352,109,125085,1,0,0:0:0:0:
348,71,125199,1,0,0:0:0:0:
329,38,125313,1,0,0:0:0:0:
294,24,125426,1,0,0:0:0:0:
257,32,125540,1,8,0:0:0:0:
235,62,125654,1,0,0:0:0:0:
231,98,125767,1,0,0:0:0:0:
239,134,125881,1,0,0:0:0:0:
259,164,125995,1,0,0:0:0:0:
279,194,126108,1,0,0:0:0:0:
287,230,126222,1,0,0:0:0:0:
283,266,126335,1,0,0:0:0:0:
261,296,126449,1,8,0:0:0:0:
225,307,126563,1,0,0:0:0:0:
188,301,126676,1,0,0:0:0:0:
162,274,126790,1,0,0:0:0:0:
155,237,126904,1,0,0:0:0:0:
164,201,127017,1,0,0:0:0:0:
190,174,127131,1,0,0:0:0:0:
226,168,127245,1,0,0:0:0:0:
341,198,127358,5,0,0:0:0:0:
337,186,127415,1,0,0:0:0:0:
334,174,127472,1,0,0:0:0:0:
331,163,127529,1,0,0:0:0:0:
328,151,127586,2,0,L|322:131,3,14.2499995651245
206,118,127813,5,0,0:0:0:0:
210,106,127870,1,0,0:0:0:0:
213,94,127927,1,0,0:0:0:0:
216,83,127984,1,0,0:0:0:0:
219,71,128041,2,0,L|224:51,3,14.2499995651245
443,127,128267,5,0,0:0:0:0:
428,114,128324,1,0,0:0:0:0:
415,101,128381,1,0,0:0:0:0:
403,89,128438,1,0,0:0:0:0:
390,75,128495,2,0,L|368:53,2,21.3749993476868
76,83,128722,5,0,0:0:0:0:
91,70,128779,1,0,0:0:0:0:
104,57,128836,1,0,0:0:0:0:
116,45,128893,1,0,0:0:0:0:
129,31,128950,2,0,L|150:9,2,21.3749993476868
265,69,129176,5,0,0:0:0:0:
269,80,129233,1,0,0:0:0:0:
271,92,129290,1,0,0:0:0:0:
269,104,129347,1,0,0:0:0:0:
265,116,129404,1,0,0:0:0:0:
261,128,129461,1,0,0:0:0:0:
259,140,129518,1,0,0:0:0:0:
261,152,129575,1,0,0:0:0:0:
256,192,129631,12,0,130370,0:0:0:0:
126,76,130426,5,0,0:0:0:0:
126,76,130483,1,0,0:0:0:0:
126,76,130540,1,12,0:0:0:0:
128,81,130995,6,0,P|181:59|248:72,1,85.4999973907472,2|0,0:3|2:0,0:0:0:0:
302,81,131222,1,2,2:1:0:0:
212,271,131449,1,8,0:0:0:0:
208,254,131563,2,0,L|191:156,1,85.4999973907472,2|0,2:1|2:0,0:0:0:0:
347,222,131790,1,2,2:1:0:0:
351,239,131904,2,0,L|368:337,1,85.4999973907472,2|0,0:3|2:0,0:0:0:0:
369,339,132131,1,0,2:1:0:0:
480,159,132358,2,0,P|396:214|431:115,1,256.499992172241,8|0,0:0|2:0,0:0:0:0:
511,281,132813,6,0,P|473:301|405:304,1,85.4999973907472,2|0,0:3|2:0,0:0:0:0:
335,289,133040,1,2,2:1:0:0:
435,14,133267,1,8,0:0:0:0:
431,31,133381,2,0,L|414:129,1,85.4999973907472,2|0,2:1|2:0,0:0:0:0:
229,199,133608,1,2,2:1:0:0:
233,182,133722,2,0,L|263:10,1,170.999994781494,2|0,0:3|2:0,0:0:0:0:
65,53,134176,6,0,L|108:42,1,42.7499986953736,8|0,0:0|2:0,0:0:0:0:
50,74,134290,2,0,L|92:62,1,42.7499986953736,4|0,2:3|2:0,0:0:0:0:
125,89,134404,6,0,L|82:77,1,42.7499986953736,4|0,2:3|2:0,0:0:0:0:
140,110,134517,2,0,L|97:98,1,42.7499986953736,4|0,2:3|2:0,0:0:0:0:
22,167,134631,6,0,P|9:223|33:286,1,85.4999973907472,2|0,0:3|2:0,0:0:0:0:
162,321,134858,1,2,2:1:0:0:
162,321,135086,1,8,0:0:0:0:
170,306,135199,2,0,P|182:249|158:186,1,85.4999973907472,2|0,2:1|2:0,0:0:0:0:
97,43,135426,1,2,2:1:0:0:
34,119,135540,2,0,L|276:136,1,170.999994781494,2|0,0:3|2:0,0:0:0:0:
492,64,135995,2,0,P|408:119|443:20,1,256.499992172241,8|0,0:0|2:0,0:0:0:0:
508,201,136449,5,2,0:3:0:0:
504,226,136563,1,0,2:0:0:0:
500,251,136676,1,0,3:0:0:0:
500,251,136904,5,8,0:0:0:0:
508,201,137017,1,0,2:0:0:0:
461,220,137131,1,0,3:0:0:0:
489,224,137245,1,0,2:0:0:0:
447,135,137358,5,2,0:3:0:0:
447,135,137472,1,0,2:0:0:0:
372,194,137586,2,0,L|379:239,3,35.625001358986
329,311,137813,5,4,0:3:0:0:
424,327,137926,1,4,0:3:0:0:
348,300,138040,5,4,0:3:0:0:
405,338,138154,1,4,0:3:0:0:
472,321,138267,6,0,P|489:271|485:228,1,85.4999973907472,2|0,0:3|2:0,2:0:0:0:
457,148,138495,1,2,2:1:0:0:
224,252,138722,1,8,0:0:0:0:
236,264,138836,2,0,L|331:248,1,85.4999973907472,0|2,0:0|2:1,0:0:0:0:
512,124,139063,1,0,2:0:0:0:
500,136,139177,2,0,L|405:120,1,85.4999973907472,2|0,0:3|2:0,0:0:0:0:
116,69,139517,1,0,0:0:0:0:
122,77,139631,2,0,B|156:55|173:19|173:19|183:60|170:115|119:138|102:185|114:249|140:287,1,341.999989562989,8|0,0:0|0:0,0:0:0:0:
31,307,140086,6,0,P|14:257|18:214,1,85.4999973907472,2|0,0:3|2:0,2:0:0:0:
46,134,140314,1,2,2:1:0:0:
306,256,140540,1,8,0:0:0:0:
294,268,140654,2,0,L|199:252,1,85.4999973907472,0|2,0:0|2:1,0:0:0:0:
0,55,140881,1,0,2:0:0:0:
12,67,140995,2,0,L|107:51,1,85.4999973907472,2|0,0:3|2:0,0:0:0:0:
445,106,141336,5,0,0:0:0:0:
425,69,141449,1,8,0:0:0:0:
487,105,141563,1,0,0:0:0:0:
424,141,141676,1,2,2:1:0:0:
445,106,141790,6,0,B|450:138|450:138|440:173,1,64.1250002446175
369,315,141904,6,0,P|313:328|250:304,1,85.4999973907472,2|0,0:3|2:0,0:0:0:0:
148,186,142131,1,2,2:1:0:0:
148,186,142359,1,8,0:0:0:0:
163,178,142472,2,0,P|220:166|283:190,1,85.4999973907472,0|2,0:0|2:1,0:0:0:0:
433,47,142699,1,0,0:0:0:0:
442,61,142813,2,0,L|412:244,1,170.999994781494,2|0,0:3|2:0,0:0:0:0:
498,318,143267,6,0,L|486:272,3,42.7499986953736
478,338,143495,2,0,P|415:380|443:301,1,192.375000733852
500,161,143722,5,4,2:3:0:0:
484,168,143836,1,4,2:3:0:0:
363,210,143949,5,4,2:3:0:0:
347,203,144063,1,4,2:3:0:0:
172,120,144176,5,8,0:0:0:0:
259,161,144290,1,4,2:3:0:0:
343,111,144404,2,0,L|337:66,1,42.7499986953736,8|0,2:3|0:0,0:0:0:0:
334,51,144631,5,4,2:3:0:0:
351,180,144745,1,4,2:3:0:0:
367,308,144858,1,4,0:3:0:0:
367,308,145086,5,0,0:0:0:0:
354,211,145199,1,8,0:0:0:0:
246,330,145313,1,8,0:0:0:0:
452,237,145426,1,8,0:0:0:0:
268,105,145540,6,0,P|251:9|348:98,1,299.249990867615,4|0,0:3|0:0,0:0:0:0:
303,49,145995,2,0,B|366:6|409:87|465:44,1,170.999994781494,8|2,0:0|2:1,0:0:0:0:
242,177,146336,2,0,B|178:134|135:215|79:172,1,170.999994781494
32,111,146676,1,2,2:1:0:0:
194,7,146904,1,8,0:0:0:0:
281,216,147131,2,0,L|268:287,1,56.9999982604981,2|0,2:1|2:0,0:0:0:0:
484,55,147358,6,0,P|501:151|404:62,1,299.249990867615,4|0,0:3|0:0,0:0:0:0:
449,111,147813,2,0,B|385:153|342:72|286:115,1,170.999994781494,8|2,0:0|2:1,0:0:0:0:
3,218,148154,2,0,B|66:175|109:256|165:213,1,170.999994781494
213,152,148495,1,2,2:1:0:0:
205,76,148609,1,0,0:0:0:0:
129,60,148722,1,4,0:3:0:0:
91,126,148836,1,4,2:3:0:0:
143,184,148950,1,2,2:1:0:0:
14,123,149176,6,0,P|-3:27|94:116,1,299.249990867615,4|0,0:3|0:0,0:0:0:0:
49,67,149631,2,0,B|112:24|155:105|211:62,1,170.999994781494,8|2,0:0|2:1,0:0:0:0:
496,158,149972,2,0,B|432:200|389:119|333:162,1,170.999994781494
286,224,150312,1,2,2:1:0:0:
457,79,150540,1,8,0:0:0:0:
497,302,150767,2,0,L|484:373,1,56.9999982604981,2|0,2:1|2:0,0:0:0:0:
251,168,150995,6,0,P|234:264|331:175,1,299.249990867615,4|0,0:3|0:0,0:0:0:0:
402,144,151449,1,8,0:0:0:0:
402,144,151563,1,0,0:0:0:0:
364,23,151676,1,0,0:0:0:0:
364,23,151790,1,0,0:0:0:0:
310,78,151904,6,0,L|317:118,7,28.4999991302491
367,166,152358,5,0,0:0:0:0:
441,140,152472,1,4,2:3:0:0:
384,219,152586,1,4,2:3:0:0:
290,192,152699,1,4,2:3:0:0:
411,297,152813,6,0,P|435:154|301:224,1,349.124989345551,4|0,0:0|0:0,0:0:0:0:
316,300,153267,2,0,B|253:343|210:262|154:305,1,170.999994781494,8|2,0:0|2:1,0:0:0:0:
0,143,153608,2,0,B|63:186|106:105|162:148,1,170.999994781494
233,118,153949,1,2,2:1:0:0:
41,77,154176,2,0,B|34:34|34:34|51:-4,1,85.4999973907472,8|0,0:0|2:0,0:0:0:0:
322,91,154404,2,0,B|329:134|329:134|311:173,1,85.4999973907472,2|0,2:1|2:0,0:0:0:0:
85,266,154631,6,0,P|61:123|195:193,1,349.124989345551
180,269,155086,2,0,B|243:312|286:231|342:274,1,170.999994781494,8|2,0:0|2:1,0:0:0:0:
413,244,155426,1,0,0:0:0:0:
413,244,155654,1,0,0:0:0:0:
457,308,155767,1,2,2:1:0:0:
454,324,155881,5,4,0:3:0:0:
369,368,155995,1,4,0:3:0:0:
300,302,156108,1,4,0:3:0:0:
342,216,156222,1,4,0:3:0:0:
437,229,156335,1,8,0:3:0:0:
381,286,156449,6,0,P|250:348|280:200,1,349.124989345551,4|0,0:0|0:0,0:0:0:0:
347,157,156904,2,0,B|410:200|453:119|509:162,1,170.999994781494,8|2,0:0|2:1,0:0:0:0:
205,57,157245,2,0,B|142:100|99:19|43:62,1,170.999994781494
2,127,157586,1,2,2:1:0:0:
288,89,157813,2,0,B|295:46|295:46|278:8,1,85.4999973907472,8|0,0:0|2:0,0:0:0:0:
65,202,158041,2,0,B|58:245|58:245|76:284,1,85.4999973907472,2|0,2:1|2:0,0:0:0:0:
331,257,158267,6,0,P|317:112|205:214,1,349.124989345551
150,257,158722,1,8,0:0:0:0:
89,106,158949,1,2,2:1:0:0:
466,192,159176,1,8,0:0:0:0:
461,217,159290,1,8,0:0:0:0:
456,242,159404,1,8,0:0:0:0:
452,267,159517,1,4,0:3:0:0:
382,196,159631,5,4,2:3:0:0:
390,152,159745,1,4,0:3:0:0:
399,108,159859,1,4,2:3:0:0:
406,64,159972,1,4,0:3:0:0:
315,106,160086,6,0,L|346:331,1,227.999993041992,4|8,0:0|0:0,0:0:0:0:
483,253,160767,1,2,2:1:0:0:
449,245,160881,1,0,0:0:0:0:
312,339,161108,1,0,0:0:0:0:
278,347,161222,1,2,2:1:0:0:
157,304,161449,2,0,L|178:221,1,56.9999982604981,8|0,0:0|2:0,0:0:0:0:
219,61,161676,2,0,L|279:120,1,56.9999982604981,2|0,2:1|2:0,0:0:0:0:
397,236,161904,6,0,L|169:296,1,227.999993041992,0|8,0:0|0:0,0:0:0:0:
68,223,162586,1,2,2:1:0:0:
76,189,162699,1,0,0:0:0:0:
241,88,162926,1,0,0:0:0:0:
249,122,163040,1,2,2:1:0:0:
251,133,163154,1,0,0:0:0:0:
259,167,163267,5,4,2:3:0:0:
172,72,163381,1,4,2:3:0:0:
297,44,163495,1,4,2:3:0:0:
243,95,163608,1,12,2:3:0:0:
101,49,163722,6,0,L|369:-13,1,254.362511449729,4|8,0:0|0:0,0:0:0:0:
361,0,164176,1,8,0:0:0:0:
450,97,164404,1,2,2:1:0:0:
444,132,164517,1,0,0:0:0:0:
323,180,164745,1,0,0:0:0:0:
329,215,164858,1,2,2:1:0:0:
444,132,165086,6,0,L|451:86,2,36.3375016356755,8|0|0,0:0|0:0|0:0,0:0:0:0:
323,180,165313,6,0,L|330:226,2,36.3375016356755,2|0|0,2:1|0:0|0:0,0:0:0:0:
202,132,165540,6,0,L|460:159,1,254.362511449729
507,98,165995,1,8,0:0:0:0:
507,98,166108,1,8,0:0:0:0:
381,81,166222,1,8,0:0:0:0:
381,81,166335,1,8,0:0:0:0:
440,8,166449,5,0,0:0:0:0:
288,65,166563,1,0,0:0:0:0:
413,167,166676,2,0,L|457:156,3,36.3375016356755
348,221,166904,5,4,0:3:0:0:
354,241,167017,1,4,0:3:0:0:
360,262,167131,1,4,0:3:0:0:
366,282,167245,1,4,0:3:0:0:
413,167,167358,6,0,L|153:221,1,265.050008290901,4|0,0:0|0:0,0:0:0:0:
102,285,167813,2,0,P|72:236|79:181,1,113.999996520996,0|0,0:0|2:0,0:0:0:0:
148,74,168154,1,0,0:0:0:0:
266,181,168381,1,0,2:0:0:0:
261,203,168495,1,0,0:0:0:0:
367,133,168722,2,0,L|350:69,1,56.9999982604981,0|0,0:0|2:0,0:0:0:0:
288,291,168949,2,0,L|305:355,1,56.9999982604981,0|0,0:0|2:0,0:0:0:0:
503,178,169176,6,0,B|424:128|371:180|315:228|247:178,1,265.050008290901,0|0,0:0|2:0,0:0:0:0:
234,165,169631,1,0,0:0:0:0:
370,78,169858,1,0,2:0:0:0:
392,82,169972,1,0,0:0:0:0:
228,188,170199,1,0,2:0:0:0:
222,148,170313,1,0,0:0:0:0:
197,117,170426,1,0,0:0:0:0:
158,106,170540,1,4,0:3:0:0:
118,112,170654,1,4,0:3:0:0:
91,141,170767,1,4,0:3:0:0:
152,182,170881,1,2,2:1:0:0:
87,155,170995,6,0,B|54:216|74:292|74:292|59:263|41:251,1,179.549994520569,4|0,0:2|0:0,0:0:0:0:
42,253,171222,1,0,0:0:0:0:
176,181,171336,6,0,B|264:125|323:183|385:237|462:181,1,299.249990867615,4|0,0:2|2:0,0:0:0:0:
244,264,171676,6,0,B|197:283|179:352|179:352|150:290|82:283,1,220.875001685143,4|0,0:2|0:0,0:0:0:0:
38,327,171904,5,4,0:3:0:0:
35,338,172017,1,0,0:3:0:0:
110,274,172131,5,4,0:3:0:0:
104,250,172188,1,4,0:3:0:0:
98,226,172245,1,4,0:3:0:0:
92,203,172301,1,4,0:3:0:0:
86,179,172358,2,0,L|128:193,14,29.9249990867615
43,120,172813,5,0,0:3:0:0:
57,100,172870,1,0,0:0:0:0:
78,90,172926,1,0,0:0:0:0:
101,88,172983,1,0,0:0:0:0:
124,91,173040,1,0,0:0:0:0:
145,101,173097,1,0,0:0:0:0:
162,117,173154,1,0,0:0:0:0:
173,138,173211,1,0,0:0:0:0:
178,160,173267,2,0,L|169:200,7,28.4999991302491
247,197,173722,6,0,L|252:227,7,28.4999991302491
322,202,174176,6,0,L|337:228,7,28.4999991302491
392,176,174631,5,4,0:1:0:0:
114,112,181904,5,2,0:3:0:0:
458,145,189176,6,0,L|482:290,2,128.249996086121
511,68,190086,2,0,B|454:30|353:52|349:130|230:133|189:85,1,341.999989562989
190,86,191676,5,0,0:0:0:0:
243,9,191904,1,0,0:0:0:0:
96,79,192131,1,0,0:0:0:0:
231,172,192358,1,0,0:0:0:0:
378,102,192586,1,0,0:0:0:0:
286,96,192813,2,0,L|264:228,2,128.249996086121
227,22,193722,1,0,0:0:0:0:
41,79,194176,1,0,0:0:0:0:
124,134,194631,5,0,0:0:0:0:
149,128,194745,1,0,0:0:0:0:
174,123,194858,1,0,0:0:0:0:
248,66,195086,1,0,0:0:0:0:
356,186,195313,1,0,0:0:0:0:
297,336,195540,2,0,L|445:309,2,128.249996086121
216,382,196449,5,4,0:1:0:0:
59,344,196790,1,0,0:0:0:0:
275,278,197131,1,0,0:0:0:0:
353,294,197358,2,0,L|323:148,1,128.249996086121
309,101,197813,1,0,0:0:0:0:
64,188,198267,1,0,0:0:0:0:
64,188,198949,5,0,0:0:0:0:
54,112,199176,1,0,0:0:0:0:
54,112,199404,1,0,0:0:0:0:
154,191,199631,1,0,0:0:0:0:
144,267,199858,1,0,0:0:0:0:
270,248,200086,2,0,L|402:224,2,128.249996086121
228,309,200995,1,0,0:0:0:0:
163,59,201449,1,0,0:0:0:0:
177,261,201904,6,0,P|93:189|195:197,1,256.499992172241,8|0,2:3|0:0,0:0:0:0:
177,261,202813,6,0,P|71:225|183:178,1,299.249990867615,8|0,2:3|0:0,0:0:0:0:
252,151,203267,1,0,0:0:0:0:
252,151,203324,1,0,0:0:0:0:
252,151,203381,2,0,L|241:100,1,28.4999991302491
322,201,203495,1,4,0:3:0:0:
11,90,203722,6,0,B|41:36|137:55|108:122|204:141|234:88,1,256.499992172241,4|0,0:0|0:0,0:0:0:0:
451,21,204631,2,0,L|437:99,1,56.9999982604981
281,278,205086,2,0,L|294:201,1,56.9999982604981
368,39,205540,6,0,B|355:110|355:110|377:194|377:194|365:263,1,227.999993041992
348,332,206222,1,0,0:0:0:0:
373,256,206449,1,0,0:0:0:0:
308,209,206676,1,0,0:0:0:0:
243,256,206904,1,0,0:0:0:0:
268,331,207131,1,0,0:0:0:0:
312,202,207358,6,0,L|157:222,2,128.249996086121
388,229,208267,1,0,0:0:0:0:
261,43,208722,1,0,0:0:0:0:
40,95,209176,5,0,0:0:0:0:
38,113,209290,1,0,0:0:0:0:
36,131,209404,1,0,0:0:0:0:
34,147,209517,1,0,0:0:0:0:
167,139,209858,1,0,0:0:0:0:
222,215,210086,1,0,0:0:0:0:
275,92,210426,1,0,0:0:0:0:
403,120,210767,1,0,0:0:0:0:
318,26,210995,6,0,L|232:41,1,85.4999973907472,0|0,0:3|0:0,0:0:0:0:
217,36,211336,1,0,0:0:0:0:
133,83,211563,1,0,0:0:0:0:
117,79,211676,1,0,0:0:0:0:
33,126,211904,2,0,P|88:114|144:126,1,85.4999973907472
161,274,212358,2,0,P|106:286|50:274,1,85.4999973907472,8|0,0:0|0:0,0:0:0:0:
10,101,212813,6,0,P|74:84|143:98,1,128.249996086121,8|0,0:0|0:0,0:0:0:0:
150,99,213267,1,8,0:0:0:0:
150,99,213495,1,0,0:0:0:0:
146,179,213722,1,8,0:0:0:0:
221,207,213949,1,0,0:0:0:0:
272,145,214177,1,8,0:0:0:0:
228,79,214404,1,0,0:0:0:0:
219,215,214631,6,0,L|345:187,2,128.249996086121,8|0|0,0:0|0:0|0:0,0:0:0:0:
143,188,215540,1,8,0:0:0:0:
270,374,215995,1,8,0:0:0:0:
491,322,216449,6,0,L|466:183,2,128.249996086121,8|0|0,0:0|0:0|0:0,0:0:0:0:
372,281,217358,2,0,L|355:374,2,85.4999973907472,8|0|0,0:0|0:0|0:0,0:0:0:0:
314,231,218267,6,0,L|282:236,3,28.4999991302491,4|0|0|0,0:3|0:0|0:0|0:0,0:0:0:0:
236,297,218722,2,0,L|207:292,1,28.4999991302491,2|0,0:1|0:0,0:0:0:0:
163,228,218949,2,0,L|131:233,1,28.4999991302491
18,325,219176,6,0,L|23:293,3,28.4999991302491,4|0|0|0,0:0|0:0|0:0|0:0,0:0:0:0:
93,232,219631,2,0,L|88:200,3,28.4999991302491,2|0|0|0,0:0|0:0|0:0|0:0,0:0:0:0:
10,104,220086,6,0,L|15:72,3,28.4999991302491,4|0|0|0,0:3|0:0|0:0|0:0,0:0:0:0:
74,16,220540,2,0,L|79:48,1,28.4999991302491,2|0,0:0|0:0,0:0:0:0:
130,153,220767,2,0,L|135:121,1,28.4999991302491
219,86,220995,6,0,L|251:81,3,28.4999991302491,4|0|0|0,0:0|0:0|0:0|0:0,0:0:0:0:
330,128,221449,2,0,L|362:133,3,28.4999991302491,2|0|0|0,0:0|0:0|0:0|0:0,0:0:0:0:
453,84,221904,6,0,L|448:52,3,28.4999991302491,4|0|0|0,0:3|0:0|0:0|0:0,0:0:0:0:
512,170,222358,2,0,L|507:198,1,28.4999991302491,2|0,0:0|0:0,0:0:0:0:
435,231,222586,2,0,L|439:259,1,28.4999991302491
483,348,222813,6,0,L|515:343,3,28.4999991302491,4|0|0|0,0:0|0:0|0:0|0:0,0:0:0:0:
384,367,223267,2,0,L|352:362,3,28.4999991302491,2|0|0|0,0:0|0:0|0:0|0:0,0:0:0:0:
455,331,223722,6,0,L|451:303,1,28.4999991302491,4|0,0:3|0:0,0:0:0:0:
360,257,223949,1,0,0:0:0:0:
364,240,224063,2,0,L|368:211,1,28.4999991302491,0|2,0:0|0:0,0:0:0:0:
437,178,224290,1,0,0:0:0:0:
433,161,224404,2,0,L|428:132,1,28.4999991302491
470,352,224631,6,0,L|465:323,1,28.4999991302491,4|0,0:0|0:0,0:0:0:0:
343,280,224858,1,0,0:0:0:0:
347,263,224972,2,0,L|351:234,1,28.4999991302491,0|2,0:0|0:0,0:0:0:0:
460,163,225199,1,0,0:0:0:0:
456,146,225313,2,0,L|451:117,1,28.4999991302491
319,29,225540,5,4,0:3:0:0:
302,32,225654,1,0,0:0:0:0:
285,35,225767,1,0,0:0:0:0:
268,38,225881,1,0,0:0:0:0:
215,85,225995,2,0,L|177:75,1,28.4999991302491,8|0,0:0|0:0,0:0:0:0:
129,37,226222,2,0,L|91:47,1,28.4999991302491
7,33,226449,5,4,0:0:0:0:
10,50,226563,1,0,0:0:0:0:
13,67,226676,1,0,0:0:0:0:
16,84,226790,1,0,0:0:0:0:
63,137,226904,2,0,L|53:175,3,28.4999991302491,8|0|0|0,0:0|0:0|0:0|0:0,0:0:0:0:
15,223,227358,2,0,L|25:261,3,28.4999991302491,4|0|0|0,0:3|0:0|0:0|0:0,0:0:0:0:
12,346,227813,6,0,L|50:336,1,28.4999991302491,8|0,0:0|0:0,0:0:0:0:
111,347,228040,2,0,L|149:357,1,28.4999991302491
213,321,228267,5,4,0:3:0:0:
207,304,228381,1,0,0:0:0:0:
201,288,228494,1,0,0:0:0:0:
195,272,228608,1,0,0:0:0:0:
232,210,228722,2,0,L|194:200,1,28.4999991302491,8|0,0:0|0:0,0:0:0:0:
91,172,228949,2,0,L|129:162,1,28.4999991302491
289,10,229176,5,4,0:3:0:0:
272,15,229290,1,0,0:0:0:0:
255,21,229404,1,0,0:0:0:0:
239,26,229517,1,0,0:0:0:0:
222,32,229631,1,8,0:0:0:0:
205,38,229745,1,0,0:0:0:0:
189,44,229858,1,0,0:0:0:0:
172,50,229972,1,0,0:0:0:0:
156,56,230086,6,0,L|164:23,1,28.4999991302491,4|0,0:0|0:0,0:0:0:0:
51,107,230313,2,0,L|43:74,1,28.4999991302491
185,166,230540,2,0,L|193:133,1,28.4999991302491,8|0,0:0|0:0,0:0:0:0:
13,222,230767,2,0,L|5:189,1,28.4999991302491,4|0,0:3|0:0,0:0:0:0:
100,223,230995,5,0,0:0:0:0:
95,256,231108,1,0,0:0:0:0:
76,284,231222,1,0,0:0:0:0:
47,303,231336,1,0,0:0:0:0:
13,307,231449,1,0,0:0:0:0:
52,284,231563,1,0,0:0:0:0:
97,279,231676,1,0,0:0:0:0:
139,296,231790,1,0,0:0:0:0:
167,331,231904,1,0,0:0:0:0:
195,366,232017,1,0,0:0:0:0:
237,383,232131,1,0,0:0:0:0:
282,378,232244,1,0,0:0:0:0:
321,355,232358,2,0,L|317:329,6,14.2499995651245
250,288,232813,6,0,L|14:324,1,227.999993041992,4|0,0:0|0:0,0:0:0:0:
24,322,233267,1,4,3:3:0:0:
179,142,233495,1,0,0:0:0:0:
184,176,233608,1,0,0:0:0:0:
189,209,233722,1,4,3:3:0:0:
73,85,233949,1,0,0:0:0:0:
69,107,234062,1,0,0:0:0:0:
66,129,234176,1,4,3:3:0:0:
203,38,234404,1,0,0:0:0:0:
484,156,234631,6,0,L|328:145,1,156.750001494885,4|0,0:3|0:0,0:0:0:0:
251,138,235086,1,4,3:3:0:0:
390,57,235313,1,0,0:0:0:0:
422,65,235426,1,0,0:0:0:0:
455,74,235540,1,4,3:3:0:0:
273,12,235767,1,0,0:0:0:0:
251,17,235880,1,0,0:0:0:0:
230,23,235994,1,4,3:3:0:0:
98,8,236222,1,0,0:0:0:0:
229,113,236449,6,0,L|347:84,1,121.124998382807,4|0,0:3|0:0,0:0:0:0:
422,65,236904,1,4,3:3:0:0:
344,244,237131,1,0,0:0:0:0:
311,232,237245,1,0,0:0:0:0:
278,220,237358,1,4,3:3:0:0:
193,266,237586,1,0,0:0:0:0:
172,272,237699,1,0,0:0:0:0:
151,278,237813,1,4,3:3:0:0:
59,250,238040,1,0,0:0:0:0:
123,15,238267,6,0,L|146:117,1,103.550001106033,4|0,0:3|0:0,0:0:0:0:
166,192,238722,1,4,3:3:0:0:
150,206,238836,1,0,0:0:0:0:
134,221,238949,1,0,0:0:0:0:
118,236,239063,2,0,L|132:190,1,42.7499986953736,0|4,0:0|3:3,0:0:0:0:
15,103,239290,1,0,0:0:0:0:
31,89,239404,1,0,0:0:0:0:
47,74,239517,1,0,0:0:0:0:
63,59,239631,2,0,L|49:105,1,42.7499986953736,4|0,3:3|0:0,0:0:0:0:
74,228,239858,2,0,L|88:182,1,42.7499986953736,0|0,0:3|0:0,0:0:0:0:
190,118,240086,6,0,L|273:136,1,85.4999973907472,4|0,0:3|0:0,0:0:0:0:
348,156,240541,1,4,3:3:0:0:
430,100,240767,1,0,0:0:0:0:
425,79,240881,1,0,3:0:0:0:
253,14,241108,1,0,0:0:0:0:
258,35,241222,1,0,3:0:0:0:
277,109,241449,1,4,0:3:0:0:
406,5,241676,1,0,3:0:0:0:
119,63,241904,6,0,L|137:146,1,85.4999973907472,4|0,0:3|0:0,0:0:0:0:
151,221,242359,1,4,3:3:0:0:
236,272,242585,1,0,0:0:0:0:
253,258,242699,1,0,3:0:0:0:
466,275,242926,1,0,0:0:0:0:
432,255,243040,1,0,3:0:0:0:
393,252,243154,1,0,0:0:0:0:
357,268,243267,1,4,3:3:0:0:
336,300,243381,1,0,0:0:0:0:
336,338,243495,1,0,0:0:0:0:
488,307,243722,6,0,L|477:222,1,85.4999973907472,4|0,0:3|0:0,0:0:0:0:
466,145,244177,1,4,3:3:0:0:
357,264,244404,1,0,0:0:0:0:
365,283,244517,1,0,3:0:0:0:
216,216,244745,1,0,0:0:0:0:
224,197,244858,1,0,3:0:0:0:
279,381,245086,1,4,3:0:0:0:
92,336,245313,1,0,0:0:0:0:
413,176,245540,6,0,L|402:261,1,85.4999973907472,4|0,0:3|0:0,0:0:0:0:
386,335,245995,1,4,3:3:0:0:
366,344,246109,1,0,0:0:0:0:
347,354,246222,1,0,0:0:0:0:
328,365,246336,2,0,L|353:324,1,42.7499986953736,0|4,0:0|3:3,0:0:0:0:
487,244,246563,5,0,0:0:0:0:
455,311,246676,1,0,0:0:0:0:
455,311,246733,1,0,0:0:0:0:
455,311,246790,2,0,L|461:339,1,21.3749993476868
487,244,246904,5,4,3:0:0:0:
427,211,247017,1,4,0:3:0:0:
407,145,247131,1,4,0:3:0:0:
420,77,247245,1,4,0:3:0:0:
475,38,247358,6,0,L|367:29,1,85.4999973907472,12|0,0:0|0:0,0:0:0:0:
269,87,247813,2,0,L|161:96,1,85.4999973907472,8|0,0:0|0:0,0:0:0:0:
166,95,248154,1,0,0:0:0:0:
149,97,248267,1,8,0:0:0:0:
24,37,248495,1,0,0:0:0:0:
41,37,248608,1,0,0:0:0:0:
58,39,248722,1,8,0:0:0:0:
183,9,248949,1,0,0:0:0:0:
264,118,249176,6,0,L|273:218,1,99.7499969558717,8|0,0:0|0:0,0:0:0:0:
99,337,249631,2,0,L|108:236,1,99.7499969558717,8|0,0:0|0:0,0:0:0:0:
109,219,249972,1,0,0:0:0:0:
111,202,250085,1,8,0:0:0:0:
246,291,250313,1,0,0:0:0:0:
245,308,250427,1,0,0:0:0:0:
243,325,250540,2,0,L|289:307,1,49.8749984779358,8|0,0:0|0:0,0:0:0:0:
469,269,250767,2,0,L|423:250,1,49.8749984779358,8|0,0:0|0:0,0:0:0:0:
216,167,250995,6,0,L|330:158,1,113.999996520996,8|0,0:0|0:0,0:0:0:0:
512,291,251449,2,0,L|398:282,1,113.999996520996,8|0,0:0|0:0,0:0:0:0:
381,281,251790,1,0,0:0:0:0:
363,279,251904,1,8,0:0:0:0:
209,345,252131,1,0,0:0:0:0:
226,343,252245,1,0,0:0:0:0:
244,341,252359,1,8,0:0:0:0:
338,364,252586,1,0,0:0:0:0:
121,223,252813,6,0,L|132:95,1,128.250000489235,8|0,0:0|0:0,0:0:0:0:
338,0,253267,2,0,L|327:121,1,128.250000489235,8|0,0:0|0:0,0:0:0:0:
325,145,253608,1,0,0:0:0:0:
323,162,253722,1,8,0:0:0:0:
477,236,253949,1,0,0:0:0:0:
475,219,254062,1,0,0:0:0:0:
473,202,254176,5,8,0:0:0:0:
424,253,254290,1,8,0:0:0:0:
458,315,254404,2,0,L|495:322,2,21.3749993476868
366,351,254631,5,8,0:0:0:0:
371,367,254858,1,8,0:0:0:0:
215,308,255086,5,8,0:0:0:0:
210,324,255313,1,8,0:0:0:0:
425,302,255540,5,8,0:0:0:0:
433,316,255767,1,8,0:0:0:0:
156,259,255995,5,8,0:0:0:0:
148,273,256222,1,8,0:0:0:0:
468,239,256449,5,8,0:0:0:0:
479,250,256676,1,8,0:0:0:0:
113,196,256904,5,8,0:0:0:0:
102,207,257131,1,8,0:0:0:0:
492,166,257358,5,8,0:0:0:0:
506,174,257585,1,8,0:0:0:0:
89,123,257813,5,8,0:0:0:0:
75,131,258040,1,8,0:0:0:0:
234,5,258267,5,8,0:0:0:0:
274,36,258381,1,8,0:0:0:0:
290,84,258494,1,8,0:0:0:0:
277,133,258608,1,8,0:0:0:0:
239,168,258722,1,8,0:0:0:0:
201,203,258835,1,8,0:0:0:0:
188,252,258949,1,8,0:0:0:0:
204,300,259062,1,8,0:0:0:0:
244,331,259176,5,0,0:3:0:0:
245,335,259233,1,0,0:0:0:0:
246,339,259290,1,0,0:0:0:0:
247,343,259347,1,0,0:0:0:0:
248,348,259403,1,0,0:0:0:0:
249,352,259460,1,0,0:0:0:0:
250,356,259517,1,0,0:0:0:0:
251,360,259574,1,0,0:0:0:0:
252,364,259631,6,0,L|265:379,1,14.2499995651245
270,309,259744,2,0,L|271:335,1,14.2499995651245
323,282,259858,2,0,L|312:304,1,14.2499995651245
382,285,259972,2,0,L|359:297,1,14.2499995651245
424,326,260086,2,0,B|453:344|467:374|467:374|476:352|467:302|427:286|408:220|422:155|464:119,1,320.624990215302
474,119,260995,1,8,0:3:0:0:
256,192,261108,12,0,261790,0:0:0:0:
99,177,261904,6,0,P|105:78|175:155,1,256.499992172241,4|0,0:3|0:0,0:0:0:0:
3,81,262358,2,0,P|99:2|230:55,1,249.374992389679,8|0,0:0|0:0,0:0:0:0:
221,43,262699,1,0,0:0:0:0:
225,299,262813,1,4,0:3:0:0:
208,279,262926,2,0,L|227:179,1,85.4999973907472,0|0,0:0|3:0,0:0:0:0:
318,24,263267,2,0,B|349:84|349:84|315:268,1,256.499992172241,8|0,0:0|2:0,0:0:0:0:
489,328,263722,6,0,B|459:274|363:293|392:360|296:379|266:326,1,256.499992172241,4|0,0:3|2:0,0:0:0:0:
251,303,264176,1,8,0:0:0:0:
512,252,264404,1,0,0:0:0:0:
490,238,264517,2,0,P|446:225|392:235,1,85.4999973907472,0|4,0:0|2:3,0:0:0:0:
247,349,264745,1,0,0:0:0:0:
269,363,264858,2,0,P|313:376|367:366,1,85.4999973907472,0|0,0:0|2:0,0:0:0:0:
512,252,265086,5,4,2:3:0:0:
393,302,265199,1,4,2:3:0:0:
288,223,265313,1,4,2:3:0:0:
169,273,265426,1,4,2:3:0:0:
215,149,265540,5,4,0:3:0:0:
220,132,265654,1,0,0:0:0:0:
275,243,265767,5,0,0:0:0:0:
280,260,265881,1,0,0:0:0:0:
192,127,265995,5,8,0:0:0:0:
197,110,266109,1,0,0:0:0:0:
252,265,266222,5,0,0:0:0:0:
257,282,266336,1,0,0:0:0:0:
169,105,266449,5,4,0:3:0:0:
174,88,266563,1,0,0:0:0:0:
229,287,266676,5,0,0:0:0:0:
234,304,266790,1,0,0:0:0:0:
146,83,266904,5,8,0:0:0:0:
151,66,267018,1,0,0:0:0:0:
206,309,267131,5,0,0:0:0:0:
208,318,267188,1,0,0:0:0:0:
211,326,267245,1,0,0:0:0:0:
213,334,267301,1,0,0:0:0:0:
215,342,267358,6,0,B|197:313|167:299|167:299|201:291|247:302|266:344|305:358|359:348|390:327,1,299.249990867615,4|0,0:3|0:0,0:0:0:0:
131,383,267813,1,8,0:0:0:0:
101,352,267926,1,0,0:0:0:0:
58,346,268040,1,0,0:0:0:0:
20,366,268154,1,0,0:0:0:0:
18,242,268267,5,2,0:3:0:0:
18,242,268381,1,0,0:0:0:0:
83,197,268495,6,0,L|71:149,3,42.7499986953736
173,236,268722,5,0,0:0:0:0:
170,252,268836,1,0,0:0:0:0:
167,268,268949,1,0,0:0:0:0:
164,285,269063,1,0,0:0:0:0:
391,170,269176,6,0,P|385:269|315:192,1,256.499992172241,4|0,0:3|0:0,0:0:0:0:
487,266,269631,2,0,P|391:345|260:292,1,249.374992389679,8|0,0:0|0:0,0:0:0:0:
269,304,269971,1,0,0:0:0:0:
265,48,270085,1,4,0:3:0:0:
282,68,270199,2,0,L|263:168,1,85.4999973907472,0|0,0:0|3:0,0:0:0:0:
172,323,270540,2,0,B|141:263|141:263|175:79,1,256.499992172241,8|0,0:0|2:0,0:0:0:0:
324,54,270995,6,0,P|308:115|261:144,1,85.4999973907472,4|0,0:3|2:0,0:0:0:0:
207,167,271222,2,0,P|144:168|103:130,1,85.4999973907472,2|0,0:3|2:0,0:0:0:0:
67,83,271449,2,0,P|49:22|75:-27,1,85.4999973907472,8|0,0:0|2:0,0:0:0:0:
175,77,271676,5,0,0:0:0:0:
172,94,271790,2,0,L|156:189,1,85.4999973907472,0|4,0:0|2:3,0:0:0:0:
303,304,272017,1,0,0:0:0:0:
299,287,272131,2,0,L|283:192,1,85.4999973907472,0|0,0:0|2:0,0:0:0:0:
46,151,272358,5,8,0:0:0:0:
126,291,272472,1,0,0:0:0:0:
267,211,272586,1,0,0:3:0:0:
187,70,272699,1,0,0:0:0:0:
157,178,272813,5,4,0:3:0:0:
170,167,272926,1,0,0:0:0:0:
352,131,273040,5,0,0:0:0:0:
339,119,273153,1,0,0:0:0:0:
126,179,273267,5,8,0:0:0:0:
138,167,273380,1,0,0:0:0:0:
383,131,273495,5,0,0:0:0:0:
371,119,273608,1,0,0:0:0:0:
94,179,273722,5,4,0:3:0:0:
106,167,273835,1,0,0:0:0:0:
415,131,273949,5,0,0:0:0:0:
403,119,274062,1,0,0:0:0:0:
62,179,274176,5,8,0:0:0:0:
74,167,274289,1,0,0:0:0:0:
447,131,274404,5,0,0:0:0:0:
435,119,274517,1,0,0:0:0:0:
404,242,274631,5,2,0:0:0:0:
404,242,274745,1,2,0:0:0:0:
327,97,274858,5,2,0:0:0:0:
327,97,274972,1,2,0:0:0:0:
300,226,275086,5,2,0:0:0:0:
300,226,275199,1,2,0:0:0:0:
236,154,275313,5,2,0:0:0:0:
236,154,275426,1,2,0:0:0:0:
179,207,275540,5,0,0:0:0:0:
179,207,275597,1,0,0:0:0:0:
179,207,275654,1,0,0:0:0:0:
179,207,275711,1,0,0:0:0:0:
179,207,275767,2,0,L|133:198,2,42.7499986953736
230,283,275995,5,4,0:3:0:0:
323,190,276108,1,4,0:3:0:0:
286,353,276222,2,0,P|286:369|295:381,1,28.4999991302491,6|0,0:3|0:0,0:0:0:0:
122,237,276449,6,0,P|129:105|223:207,1,341.999989562989,4|0,0:3|0:0,0:0:0:0:
0,95,276904,2,0,P|131:0|299:69,1,320.625001223087,8|0,0:0|0:0,0:0:0:0:
296,62,277244,1,0,0:0:0:0:
240,315,277358,1,4,2:3:0:0:
158,173,277472,2,0,P|197:138|236:131,1,85.4999973907472,0|2,0:0|2:1,0:0:0:0:
498,308,277813,2,0,P|384:343|314:229,1,256.499992172241,8|0,0:0|2:0,0:0:0:0:
418,23,278267,6,0,B|364:53|383:149|450:120|469:216|415:247,1,256.499992172241,4|0,0:3|2:0,0:0:0:0:
393,261,278721,1,8,0:0:0:0:
342,0,278949,1,0,0:0:0:0:
328,22,279062,2,0,P|315:66|325:120,1,85.4999973907472,0|4,0:0|2:3,0:0:0:0:
439,265,279290,1,0,0:0:0:0:
453,243,279403,2,0,P|466:199|456:145,1,85.4999973907472,0|0,0:0|2:0,0:0:0:0:
401,74,279631,5,4,2:3:0:0:
282,24,279744,1,4,2:3:0:0:
177,103,279858,1,6,2:3:0:0:
58,53,279971,1,4,2:3:0:0:
104,177,280085,5,4,0:3:0:0:
109,194,280199,1,0,0:0:0:0:
188,250,280313,1,0,0:0:0:0:
282,232,280426,1,0,0:0:0:0:
297,97,280540,5,8,0:0:0:0:
302,114,280654,1,0,0:0:0:0:
381,170,280768,1,0,0:0:0:0:
475,152,280881,1,0,0:0:0:0:
63,116,280995,5,4,0:3:0:0:
68,133,281109,1,0,0:0:0:0:
147,189,281223,1,0,0:0:0:0:
241,171,281336,1,0,0:0:0:0:
256,36,281449,5,8,0:0:0:0:
261,53,281563,1,0,0:0:0:0:
340,109,281676,1,0,0:0:0:0:
434,91,281791,5,0,0:0:0:0:
442,90,281847,1,0,0:0:0:0:
450,89,281904,2,0,B|468:60|498:46|498:46|464:38|418:49|399:91|360:105|306:95|275:74,1,299.249990867615,4|0,0:3|0:0,0:0:0:0:
510,158,282358,5,0,0:0:0:0:
506,174,282472,1,0,0:0:0:0:
502,190,282586,1,2,2:1:0:0:
497,206,282699,1,2,2:1:0:0:
459,319,282813,6,0,L|450:285,1,28.4999991302491,2|0,0:3|0:0,0:0:0:0:
376,264,283040,5,0,0:0:0:0:
376,264,283097,1,0,0:0:0:0:
376,264,283154,1,0,0:0:0:0:
336,339,283267,5,0,0:0:0:0:
276,304,283381,1,0,0:0:0:0:
207,313,283495,1,0,0:0:0:0:
161,363,283608,1,0,0:0:0:0:
87,257,283722,6,0,P|169:153|186:291,1,341.999989562989,4|0,0:3|0:0,0:0:0:0:
68,70,284176,2,0,P|229:67|327:220,1,320.625001223087,8|0,0:0|0:0,0:0:0:0:
329,213,284517,1,0,0:0:0:0:
140,384,284631,1,4,2:3:0:0:
153,225,284745,2,0,P|205:227|237:249,1,85.4999973907472,0|2,0:0|2:1,0:0:0:0:
505,124,285086,2,0,P|442:164|322:58,1,256.499992172241,8|0,0:0|2:0,0:0:0:0:
512,230,285540,6,0,P|461:251|385:242,1,85.4999973907472,4|0,0:3|2:0,0:0:0:0:
337,232,285767,2,0,P|293:198|263:128,1,85.4999973907472,2|0,0:3|2:0,0:0:0:0:
247,81,285995,2,0,P|254:26|300:-34,1,85.4999973907472,8|0,0:0|2:0,0:0:0:0:
456,45,286222,5,0,0:0:0:0:
470,66,286336,2,0,L|363:51,1,85.4999973907472,0|4,0:0|2:3,0:0:0:0:
97,159,286563,1,0,0:0:0:0:
83,180,286677,2,0,L|190:165,1,85.4999973907472,0|0,0:0|2:0,0:0:0:0:
394,140,286904,5,8,0:0:0:0:
361,228,287017,1,0,0:0:0:0:
487,128,287131,1,2,0:0:0:0:
339,67,287245,1,0,0:0:0:0:
394,140,287358,5,2,0:3:0:0:
404,154,287472,1,0,0:0:0:0:
361,228,287586,5,0,0:0:0:0:
362,244,287700,1,0,0:0:0:0:
287,286,287813,5,8,0:0:0:0:
280,300,287927,1,0,0:0:0:0:
195,300,288040,5,0,0:0:0:0:
181,308,288154,1,0,0:0:0:0:
364,122,288267,5,0,0:0:0:0:
373,135,288381,1,0,0:0:0:0:
330,209,288495,5,0,0:0:0:0:
331,225,288609,1,0,0:0:0:0:
256,267,288722,5,8,0:0:0:0:
249,281,288836,1,0,0:0:0:0:
164,281,288949,5,0,0:0:0:0:
150,289,289063,1,0,0:0:0:0:
76,246,289176,6,0,L|49:250,2,14.2499995651245
156,194,289404,2,0,L|183:198,2,14.2499995651245
14,149,289631,6,0,L|-13:153,2,14.2499995651245
196,75,289858,2,0,L|223:79,2,14.2499995651245
102,28,290086,5,0,0:0:0:0:
102,28,290142,1,0,0:0:0:0:
102,28,290199,1,0,0:0:0:0:
102,28,290256,1,0,0:0:0:0:
102,28,290313,1,0,0:0:0:0:
102,28,290370,1,0,0:0:0:0:
102,28,290426,1,0,0:0:0:0:
71,114,290540,5,4,0:3:0:0:
193,69,290654,1,4,0:3:0:0:
105,241,290767,2,0,P|87:235|68:235,1,28.4999991302491,6|0,0:3|0:0,0:0:0:0:
0,315,290995,6,0,B|41:240|173:266|133:359|266:385|307:312,1,349.124989345551,4|0,0:3|2:0,0:0:0:0:
377,336,291449,1,8,0:0:0:0:
386,321,291563,2,0,L|371:215,1,85.4999973907472,0|2,0:0|2:1,0:0:0:0:
180,93,291790,2,0,L|195:199,1,85.4999973907472,0|4,0:0|2:3,0:0:0:0:
487,46,292017,1,0,0:0:0:0:
490,62,292131,2,0,P|413:63|383:20,1,128.249996086121,2|0,0:0|0:0,0:0:0:0:
510,61,292358,6,0,P|394:170|381:6,1,398.999987823487,8|0,0:0|0:0,0:0:0:0:
424,85,292813,5,4,0:3:0:0:
174,33,293040,2,0,B|155:33|140:27|140:27|163:61|207:64|263:60,1,128.249996086121,2|0,0:3|0:0,0:0:0:0:
424,85,293267,1,8,0:0:0:0:
315,204,293495,1,2,0:0:0:0:
308,219,293608,2,0,P|248:235|192:213,1,85.4999973907472,0|4,0:0|2:3,0:0:0:0:
138,189,293836,1,0,0:0:0:0:
121,184,293949,2,0,P|90:130|96:70,1,85.4999973907472,2|0,0:0|2:0,0:0:0:0:
145,11,294176,5,0,0:3:0:0:
231,83,294290,1,4,2:3:0:0:
39,47,294404,1,6,2:3:0:0:
197,154,294517,1,4,2:3:0:0:
373,78,294631,5,4,0:3:0:0:
368,61,294745,1,0,0:0:0:0:
498,164,294858,5,0,0:0:0:0:
493,181,294972,1,0,0:0:0:0:
351,59,295086,5,8,0:0:0:0:
346,42,295200,1,0,0:0:0:0:
476,183,295313,5,0,0:0:0:0:
471,200,295427,1,0,0:0:0:0:
475,79,295540,5,4,0:3:0:0:
491,73,295654,1,0,0:0:0:0:
307,178,295767,5,0,0:0:0:0:
291,172,295881,1,0,0:0:0:0:
482,58,295995,5,8,0:0:0:0:
498,52,296109,1,0,0:0:0:0:
300,157,296222,5,0,0:0:0:0:
291,154,296279,1,0,0:0:0:0:
284,151,296336,1,0,0:0:0:0:
275,148,296392,1,0,0:0:0:0:
266,145,296449,2,0,B|434:121|434:121|343:193,1,227.999993041992,4|0,0:3|0:0,0:0:0:0:
378,165,296790,1,0,0:0:0:0:
288,56,296904,5,8,0:0:0:0:
384,44,297017,1,8,0:0:0:0:
267,45,297131,5,0,3:0:0:0:
396,28,297244,1,0,3:0:0:0:
345,147,297358,1,0,0:0:0:0:
340,158,297586,6,0,L|297:169,3,28.4999991302491
410,190,297813,5,0,0:0:0:0:
407,206,297926,1,0,0:0:0:0:
490,167,298040,1,0,0:0:0:0:
487,151,298153,1,0,0:0:0:0:
475,46,298267,6,0,B|400:87|426:219|519:179|545:312|472:353,1,349.124989345551,4|0,0:3|2:0,0:0:0:0:
342,277,298722,2,0,P|384:272|424:286,1,85.4999973907472,8|0,0:0|2:0,0:0:0:0:
474,352,298949,5,2,0:0:0:0:
254,315,299063,1,0,0:0:0:0:
402,250,299176,1,4,0:3:0:0:
285,297,299290,1,0,0:0:0:0:
180,221,299404,2,0,P|178:178|196:140,1,85.4999973907472,2|0,0:0|2:0,0:0:0:0:
397,142,299631,6,0,P|388:303|266:199,1,398.999987823487,8|0,0:0|0:0,0:0:0:0:
512,369,300086,6,0,L|418:363,1,85.4999973907472,4|0,0:3|2:0,0:0:0:0:
353,221,300313,1,2,0:3:0:0:
342,232,300540,2,0,L|436:238,1,85.4999973907472,8|0,0:0|2:0,0:0:0:0:
501,94,300767,1,2,0:0:0:0:
512,105,300881,2,0,P|452:121|396:98,1,85.4999973907472,0|4,0:0|2:3,0:0:0:0:
337,71,301108,1,0,0:0:0:0:
337,86,301222,2,0,P|283:54|259:0,1,85.4999973907472,2|0,0:0|2:3,0:0:0:0:
22,182,301449,5,8,0:0:0:0:
138,130,301563,1,4,2:3:0:0:
231,215,301676,1,4,2:3:0:0:
347,163,301790,1,4,2:3:0:0:
229,56,301904,5,4,0:3:0:0:
212,59,302017,1,0,0:0:0:0:
253,147,302131,1,0,0:0:0:0:
347,163,302244,1,0,0:0:0:0:
214,51,302358,5,8,0:0:0:0:
193,54,302471,1,0,0:0:0:0:
242,160,302585,1,0,0:0:0:0:
355,179,302698,1,0,0:0:0:0:
196,45,302813,5,4,0:3:0:0:
170,48,302926,1,0,0:0:0:0:
229,175,303040,1,0,0:0:0:0:
365,198,303153,1,0,0:0:0:0:
174,37,303267,5,8,0:0:0:0:
143,40,303380,1,0,0:0:0:0:
213,193,303494,1,0,0:0:0:0:
377,220,303607,1,0,0:0:0:0:
442,174,303722,6,0,L|429:111,1,42.7499986953736,4|0,0:3|0:0,0:0:0:0:
315,106,303949,6,0,L|261:70,1,42.7499986953736,4|0,0:3|0:0,0:0:0:0:
177,147,304176,6,0,L|113:159,1,42.7499986953736,4|0,0:3|0:0,0:0:0:0:
109,274,304404,6,0,L|73:327,1,42.7499986953736,4|0,0:3|0:0,0:0:0:0:
419,140,304631,5,4,0:3:0:0:
414,123,304745,1,0,0:0:0:0:
292,72,304858,5,4,0:3:0:0:
277,63,304972,1,0,0:0:0:0:
154,113,305086,5,8,0:0:0:0:
137,116,305199,1,0,0:0:0:0:
86,240,305313,5,8,0:0:0:0:
78,255,305426,1,0,0:0:0:0:
168,360,305540,6,0,B|160:338|135:329|135:329|202:306|265:352|265:352|284:335|284:335|346:380|416:336,1,341.999989562989,4|0,0:3|0:0,0:0:0:0:
407,340,305995,1,8,0:0:0:0:
136,323,306108,2,0,P|195:316|267:351,1,128.249996086121
408,347,306336,2,0,P|350:364|268:328,1,128.249996086121
275,268,306563,1,0,0:0:0:0:
371,187,306676,2,0,B|408:209|408:209|461:195,1,85.4999973907472,2|0,0:0|2:0,0:0:0:0:
249,42,306904,2,0,P|230:174|154:49,1,341.999989562989,8|0,0:0|0:0,0:0:0:0:
447,56,307358,6,0,L|361:71,1,85.4999973907472,4|0,0:3|2:0,0:0:0:0:
206,103,307586,1,2,0:3:0:0:
512,273,307813,2,0,L|426:257,1,85.4999973907472,8|0,0:0|2:0,0:0:0:0:
114,195,308041,1,2,0:0:0:0:
101,206,308154,2,0,P|88:254|104:301,1,85.4999973907472,0|4,0:0|2:3,0:0:0:0:
278,351,308381,1,0,0:0:0:0:
291,340,308494,2,0,P|304:292|288:245,1,85.4999973907472,2|0,0:0|2:3,0:0:0:0:
249,202,308722,5,4,0:3:0:0:
249,202,308836,1,4,0:3:0:0:
224,295,308949,1,2,0:0:0:0:
380,257,309063,1,4,0:3:0:0:
203,326,309176,5,4,0:3:0:0:
186,321,309290,1,0,0:0:0:0:
164,156,309404,5,0,0:0:0:0:
172,171,309518,1,0,0:0:0:0:
108,294,309631,5,8,0:0:0:0:
95,281,309745,1,0,0:0:0:0:
159,127,309859,5,0,0:0:0:0:
158,144,309973,1,0,0:0:0:0:
41,218,310086,5,4,0:3:0:0:
36,200,310200,1,0,0:0:0:0:
168,99,310314,5,0,0:0:0:0:
159,113,310426,1,0,0:0:0:0:
20,119,310540,5,8,0:0:0:0:
25,101,310654,1,0,0:0:0:0:
190,79,310768,5,0,0:0:0:0:
175,87,310882,1,0,0:0:0:0:
52,23,310995,6,0,B|220:-1|220:-1|129:71,1,227.999993041992,4|0,0:3|0:0,0:0:0:0:
115,83,311336,1,0,0:0:0:0:
276,60,311449,5,8,0:0:0:0:
115,83,311563,1,0,0:0:0:0:
244,95,311676,1,8,0:0:0:0:
164,148,311790,1,8,0:0:0:0:
343,225,311904,5,2,0:3:0:0:
343,225,312131,2,0,L|331:173,3,28.4999991302491
404,273,312358,1,0,0:0:0:0:
404,273,312472,1,0,0:0:0:0:
512,203,312586,1,0,0:0:0:0:
512,203,312699,1,0,0:0:0:0:
424,50,312813,6,0,B|446:42|455:17|455:17|478:84|432:147|432:147|449:166|449:166|404:228|448:298,1,341.999989562989,4|0,0:3|0:0,0:0:0:0:
443,289,313268,1,8,0:0:0:0:
467,18,313381,2,0,P|474:77|439:149,1,128.249996086121
432,291,313609,2,0,P|415:233|451:151,1,128.249996086121
376,119,313836,1,0,0:0:0:0:
300,224,313949,2,0,B|290:268|290:268|309:311,1,85.4999973907472,2|0,0:0|2:0,0:0:0:0:
142,48,314176,2,0,P|123:180|47:55,1,341.999989562989,8|0,0:0|0:0,0:0:0:0:
99,109,314631,5,4,0:3:0:0:
63,263,314745,1,0,0:3:0:0:
99,109,314858,2,0,P|114:153|106:194,1,85.4999973907472,2|0,0:3|2:0,0:0:0:0:
47,340,315086,2,0,P|32:296|40:255,1,85.4999973907472,8|0,0:0|2:0,0:0:0:0:
6,191,315313,1,2,0:0:0:0:
6,191,315426,1,0,0:0:0:0:
384,274,315654,1,0,0:0:0:0:
384,274,315767,2,0,L|429:263,1,28.4999991302491,2|0,0:0|0:0,0:0:0:0:
418,338,315881,5,8,2:3:0:0:
352,269,315995,1,4,0:3:0:0:
344,175,316108,1,4,0:3:0:0:
395,96,316222,1,4,0:3:0:0:
485,67,316336,1,4,0:3:0:0:
507,200,316449,6,0,L|464:193,1,28.4999991302491,2|0,0:3|0:0,0:0:0:0:
372,269,316676,2,0,L|346:233,1,28.4999991302491
227,222,316904,2,0,L|233:179,1,28.4999991302491,8|0,0:0|0:0,0:0:0:0:
158,87,317131,2,0,L|193:61,1,28.4999991302491
432,55,317358,6,0,L|387:86,1,35.625001358986,2|0,0:3|0:0,0:0:0:0:
373,235,317585,2,0,L|319:226,1,35.625001358986
203,321,317813,2,0,L|171:276,1,35.625001358986,8|0,0:0|0:0,0:0:0:0:
23,262,318040,2,0,L|31:208,1,35.625001358986
272,216,318267,6,0,L|324:204,1,42.7499986953736
487,96,318495,2,0,L|435:84,1,42.7499986953736
340,135,318722,5,0,0:0:0:0:
417,153,318836,1,0,0:0:0:0:
493,172,318950,1,0,0:0:0:0:
477,176,319006,1,0,0:0:0:0:
461,175,319063,1,0,0:0:0:0:
444,171,319120,1,0,0:0:0:0:
430,163,319177,1,0,0:0:0:0:
416,154,319234,1,0,0:0:0:0:
402,145,319290,1,0,0:0:0:0:
388,136,319347,1,0,0:0:0:0:
372,131,319404,1,0,0:0:0:0:
356,130,319461,1,0,0:0:0:0:
340,135,319518,1,0,0:0:0:0:
468,91,319631,5,4,2:3:0:0:
365,216,319744,1,4,2:3:0:0:
222,137,319858,1,6,1:3:0:0:
449,11,320086,6,0,L|436:202,1,170.999994781494,4|0,0:0|0:0,0:0:0:0:
419,341,320540,1,4,3:3:0:0:
325,246,320767,1,0,2:1:0:0:
346,254,320881,1,0,2:0:0:0:
367,262,320995,1,4,3:3:0:0:
237,119,321222,1,0,2:1:0:0:
216,127,321336,1,0,2:0:0:0:
195,135,321450,1,4,3:3:0:0:
143,214,321676,1,0,2:3:0:0:
11,61,321904,6,0,L|139:74,1,113.999996520996,4|0,3:3|2:0,0:0:0:0:
334,17,322358,1,4,3:3:0:0:
303,0,322472,1,0,2:0:0:0:
269,6,322586,1,0,2:0:0:0:
246,31,322699,2,0,L|259:89,1,56.9999982604981,0|4,2:0|3:3,0:0:0:0:
340,168,322926,1,0,2:0:0:0:
336,145,323040,1,0,2:0:0:0:
367,178,323154,1,0,2:0:0:0:
374,222,323267,1,4,3:3:0:0:
355,263,323381,1,0,2:0:0:0:
314,283,323495,1,0,2:0:0:0:
134,223,323722,6,0,L|250:200,1,113.999996520996,4|0,3:3|2:0,0:0:0:0:
314,134,324176,1,4,3:3:0:0:
408,265,324404,1,0,2:0:0:0:
405,287,324517,1,0,2:0:0:0:
402,309,324631,1,4,3:3:0:0:
314,134,324858,1,0,2:0:0:0:
317,112,324971,1,0,2:0:0:0:
320,90,325085,1,4,3:3:0:0:
401,34,325313,1,0,2:0:0:0:
512,206,325540,6,0,L|396:183,1,113.999996520996,4|0,3:3|2:0,0:0:0:0:
234,243,325995,1,4,3:3:0:0:
251,213,326108,1,0,2:0:0:0:
284,206,326222,1,0,2:0:0:0:
317,215,326336,2,0,L|308:278,1,56.9999982604981,0|4,2:0|3:3,0:0:0:0:
278,371,326563,1,0,2:0:0:0:
260,356,326676,2,0,L|266:318,2,28.4999991302491,0|0|0,2:0|2:0|2:0,2:0:0:0:
360,325,326904,1,4,3:3:0:0:
142,266,327131,1,0,2:0:0:0:
372,154,327358,6,0,P|429:190|412:293,1,170.999994781494,4|0,3:3|2:0,0:0:0:0:
250,251,327813,2,0,L|363:232,1,113.999996520996,4|0,3:3|2:0,0:0:0:0:
261,353,328154,2,0,L|148:333,1,113.999996520996,0|0,3:0|2:0,0:0:0:0:
80,320,328495,1,0,3:0:0:0:
131,102,328722,1,4,3:3:0:0:
44,343,328949,1,0,2:0:0:0:
151,184,329176,6,0,P|213:157|287:230,1,170.999994781494,4|0,3:3|2:0,0:0:0:0:
290,289,329631,1,4,3:3:0:0:
396,210,329858,1,0,2:0:0:0:
389,187,329972,2,0,L|373:120,1,56.9999982604981,0|4,3:0|2:3,0:0:0:0:
485,0,330199,1,0,2:0:0:0:
490,10,330313,1,0,3:3:0:0:
471,44,330426,1,0,2:3:0:0:
434,60,330540,1,4,3:3:0:0:
393,55,330654,1,0,2:0:0:0:
363,28,330767,1,0,3:3:0:0:
140,126,330995,6,0,P|217:150|274:92,1,170.999994781494,4|0,3:3|2:0,0:0:0:0:
187,21,331449,2,0,L|199:77,1,56.9999982604981,4|0,3:3|2:2,1:3:0:0:
342,142,331676,1,0,2:0:0:0:
355,162,331790,2,0,L|343:217,1,56.9999982604981,0|4,3:3|2:3,0:0:0:0:
284,259,332017,1,0,2:0:0:0:
284,259,332131,1,0,3:3:0:0:
315,66,332358,1,4,3:0:0:0:
228,308,332586,1,0,2:0:0:0:
482,263,332813,6,0,P|425:204|347:228,1,170.999994781494,4|0,3:3|2:0,0:0:0:0:
316,292,333267,1,4,3:0:0:0:
319,303,333381,1,0,2:0:0:0:
255,233,333495,1,0,2:0:0:0:
294,147,333608,1,0,2:0:0:0:
352,200,333722,5,4,3:0:0:0:
355,211,333836,1,4,2:3:0:0:
416,138,333949,5,4,2:3:0:0:
417,132,334006,1,4,2:3:0:0:
419,126,334063,1,4,2:3:0:0:
381,64,334176,5,0,3:0:0:0:
419,126,334290,1,4,2:3:0:0:
481,88,334404,1,4,2:3:0:0:
443,26,334517,1,4,2:3:0:0:
419,126,334631,6,0,P|424:188|446:245,1,113.999996520996,4|0,0:3|2:0,0:0:0:0:
285,349,335086,2,0,P|303:295|307:238,1,113.999996520996,4|0,0:3|2:0,0:0:0:0:
302,216,335426,1,0,3:0:0:0:
187,157,335654,1,0,2:0:0:0:
166,166,335767,1,0,3:0:0:0:
345,90,335995,1,4,0:3:0:0:
223,51,336222,1,0,2:0:0:0:
318,167,336449,6,0,P|374:163|428:144,1,113.999996520996,4|0,0:3|2:0,0:0:0:0:
280,314,336904,2,0,P|226:295|169:291,1,113.999996520996,4|0,0:3|2:0,0:0:0:0:
147,296,337245,1,0,3:0:0:0:
24,235,337472,1,0,2:0:0:0:
46,230,337586,5,0,3:3:0:0:
5,169,337699,1,0,2:0:0:0:
49,113,337813,1,4,0:3:0:0:
114,139,337926,1,0,2:0:0:0:
113,209,338040,1,4,0:3:0:0:
71,2,338267,6,0,P|67:59|49:113,1,113.999996520996,4|0,0:3|2:0,0:0:0:0:
233,223,338722,2,0,P|214:169|210:112,1,113.999996520996,4|0,0:3|2:0,0:0:0:0:
217,90,339063,1,0,3:0:0:0:
367,13,339290,1,0,2:0:0:0:
360,35,339403,1,0,3:0:0:0:
411,117,339631,1,4,0:3:0:0:
505,31,339858,1,0,2:0:0:0:
322,96,340086,6,0,P|265:92|211:73,1,113.999996520996,4|0,0:3|2:0,0:0:0:0:
18,204,340540,2,0,P|71:185|128:181,1,113.999996520996,4|0,0:3|2:0,0:0:0:0:
150,187,340881,1,0,3:0:0:0:
255,321,341108,1,0,2:0:0:0:
253,309,341222,1,0,3:0:0:0:
188,279,341336,1,0,2:0:0:0:
131,321,341449,5,4,0:3:0:0:
160,231,341563,1,4,2:3:0:0:
174,304,341676,1,4,0:3:0:0:
129,184,341790,1,4,0:3:0:0:
224,97,341904,5,8,0:3:0:0:
232,118,342131,1,8,0:3:0:0:
449,48,342358,5,8,0:3:0:0:
441,69,342585,1,8,0:3:0:0:
187,83,342813,5,8,0:3:0:0:
195,104,343040,1,8,0:3:0:0:
486,34,343267,5,8,0:3:0:0:
478,55,343494,1,8,0:3:0:0:
248,40,343722,5,8,0:3:0:0:
269,48,343949,1,8,0:3:0:0:
454,188,344176,5,8,0:3:0:0:
433,196,344403,1,8,0:3:0:0:
234,4,344631,5,8,0:3:0:0:
255,12,344858,1,8,0:3:0:0:
479,219,345086,5,8,0:3:0:0:
458,227,345313,1,8,0:3:0:0:
326,174,345540,5,0,0:3:0:0:
334,153,345654,1,0,0:3:0:0:
295,162,345767,1,0,0:0:0:0:
318,195,345881,1,0,0:3:0:0:
357,186,345995,1,0,0:0:0:0:
345,118,346108,1,0,0:0:0:0:
409,141,346222,1,0,0:0:0:0:
421,209,346336,1,0,0:0:0:0:
370,254,346449,1,0,0:0:0:0:
359,257,346506,1,0,0:0:0:0:
348,260,346563,1,0,0:0:0:0:
337,263,346620,1,0,0:0:0:0:
326,266,346676,1,0,0:0:0:0:
315,269,346733,1,0,0:0:0:0:
304,272,346790,1,0,0:0:0:0:
293,275,346847,1,0,0:0:0:0:
282,278,346904,2,0,L|288:241,3,28.4999991302491
212,303,347131,6,0,L|218:340,1,28.4999991302491,0|0,0:3|0:0,0:0:0:0:
312,346,347245,2,0,L|306:383,1,28.4999991302491,0|0,0:3|0:0,0:0:0:0:
411,255,347358,6,0,B|431:227|462:216|462:216|441:205|390:210|371:248|304:261|240:242|208:197,1,320.624990215302
209,187,348267,1,8,0:3:0:0:
209,187,348608,1,0,0:0:0:0:
383,114,348722,5,12,0:0:0:0:
69,37,349176,6,0,P|40:134|120:71,1,256.499992172241,4|0,0:0|0:0,0:0:0:0:
184,42,349631,2,0,L|245:51,1,56.9999982604981,8|0,0:0|2:0,0:0:0:0:
364,14,349858,1,0,0:0:0:0:
439,83,349972,2,0,L|378:92,1,56.9999982604981,0|4,0:0|2:3,0:0:0:0:
260,195,350199,1,0,0:0:0:0:
260,195,350313,2,0,P|256:233|271:266,1,56.9999982604981,0|0,0:0|2:0,0:0:0:0:
500,326,350540,2,0,P|504:288|489:255,1,56.9999982604981,8|0,0:0|2:0,0:0:0:0:
403,257,350767,2,0,P|378:227|345:214,1,56.9999982604981,0|0,0:0|2:0,0:0:0:0:
123,325,350995,6,0,P|234:372|324:291,1,256.499992172241,4|0,0:3|0:0,0:0:0:0:
286,228,351449,2,0,L|208:241,1,56.9999982604981,8|0,0:0|2:0,0:0:0:0:
81,115,351676,1,0,0:0:0:0:
42,183,351790,2,0,L|120:196,1,56.9999982604981,0|4,0:0|2:3,0:0:0:0:
277,115,352017,2,0,P|278:80|263:43,1,56.9999982604981,0|0,0:0|2:0,0:0:0:0:
88,5,352245,1,0,0:0:0:0:
69,71,352358,2,0,P|83:95|103:110,1,28.4999991302491,8|0,0:0|2:0,0:0:0:0:
102,108,352472,2,0,P|129:114|153:111,1,28.4999991302491,0|0,0:0|2:0,0:0:0:0:
151,110,352586,2,0,P|175:95|190:76,1,28.4999991302491,0|0,0:0|2:0,0:0:0:0:
226,49,352699,1,0,0:0:0:0:
347,125,352813,6,0,P|259:77|292:171,1,256.499992172241,4|0,0:0|0:0,0:0:0:0:
350,213,353267,2,0,L|339:276,1,56.9999982604981,8|0,0:0|2:0,0:0:0:0:
431,359,353495,1,0,0:0:0:0:
481,309,353608,2,0,L|470:246,1,56.9999982604981,0|4,0:0|2:3,0:0:0:0:
284,159,353836,1,0,0:0:0:0:
284,159,353949,2,0,P|316:169|366:157,1,56.9999982604981,0|0,0:0|2:0,0:0:0:0:
466,62,354176,2,0,P|437:61|410:70,1,56.9999982604981,8|0,0:0|2:0,0:0:0:0:
432,237,354404,2,0,P|446:212|451:184,1,56.9999982604981,8|0,0:0|2:0,0:0:0:0:
328,72,354631,5,4,0:3:0:0:
510,132,354745,1,4,0:3:0:0:
367,259,354858,1,8,0:3:0:0:
367,259,355086,5,0,3:0:0:0:
320,206,355199,1,0,3:0:0:0:
387,191,355313,1,0,3:0:0:0:
357,219,355426,1,0,3:0:0:0:
504,323,355540,5,2,0:3:0:0:
504,323,355767,6,0,L|540:315,3,28.4999991302491
418,360,355995,5,4,0:3:0:0:
421,337,356108,1,4,0:3:0:0:
424,314,356222,1,4,0:3:0:0:
427,291,356336,1,4,0:3:0:0:
333,321,356449,6,0,P|234:335|297:259,1,256.499992172241,4|0,0:0|0:0,0:0:0:0:
358,220,356904,2,0,B|365:192|365:192|356:162,1,56.9999982604981,8|0,0:0|2:0,0:0:0:0:
247,44,357131,1,0,0:0:0:0:
183,76,357245,2,0,B|176:104|176:104|185:134,1,56.9999982604981,0|4,0:0|2:3,0:0:0:0:
392,104,357472,1,0,0:0:0:0:
392,104,357586,2,0,P|368:96|323:102,1,56.9999982604981,0|0,0:0|2:0,0:0:0:0:
157,237,357813,2,0,P|185:238|212:230,1,56.9999982604981,8|0,0:0|2:0,0:0:0:0:
156,113,358040,2,0,P|177:94|190:69,1,56.9999982604981,0|0,0:0|2:0,0:0:0:0:
67,26,358267,6,0,B|38:79|38:79|79:279,1,256.499992172241,4|0,0:0|0:0,0:0:0:0:
181,104,358722,2,0,L|85:95,1,56.9999982604981,8|0,0:0|2:0,0:0:0:0:
308,234,358949,1,0,0:0:0:0:
308,234,359063,2,0,L|404:225,1,56.9999982604981,0|4,0:0|2:3,0:0:0:0:
268,310,359290,2,0,L|172:301,1,56.9999982604981,0|0,0:0|2:3,0:0:0:0:
103,184,359517,1,0,0:0:0:0:
84,118,359631,2,0,P|98:94|118:79,1,28.4999991302491,8|0,0:0|2:0,0:0:0:0:
117,81,359744,2,0,P|144:75|168:78,1,28.4999991302491,0|0,0:0|2:0,0:0:0:0:
166,79,359858,2,0,P|190:94|205:113,1,28.4999991302491,0|0,0:0|2:0,0:0:0:0:
241,140,359971,1,8,2:3:0:0:
301,35,360086,6,0,P|401:28|331:99,1,256.499992172241,4|0,0:0|0:0,0:0:0:0:
271,137,360540,2,0,L|281:197,1,56.9999982604981,8|0,0:0|2:0,0:0:0:0:
402,302,360767,1,0,0:0:0:0:
459,259,360881,2,0,L|449:199,1,56.9999982604981,0|4,0:0|2:3,0:0:0:0:
271,137,361108,1,0,0:0:0:0:
271,137,361222,2,0,P|301:145|349:135,1,56.9999982604981,0|0,0:0|2:0,0:0:0:0:
462,17,361449,2,0,P|433:15|406:23,1,56.9999982604981,8|0,0:0|2:0,0:0:0:0:
331,224,361676,2,0,P|360:215|397:183,1,56.9999982604981,0|0,0:0|2:0,0:0:0:0:
445,130,361904,5,4,0:3:0:0:
438,108,362017,1,4,0:3:0:0:
279,172,362131,5,4,0:3:0:0:
286,150,362244,1,4,0:3:0:0:
161,81,362358,5,8,0:0:0:0:
308,13,362472,1,0,0:0:0:0:
438,108,362586,2,0,L|432:154,1,42.7499986953736,4|0,0:3|0:0,0:0:0:0:
452,95,362813,5,4,2:3:0:0:
436,222,362926,1,12,2:3:0:0:
420,349,363040,1,4,0:3:0:0:
420,349,363267,5,0,0:0:0:0:
398,355,363381,1,4,0:3:0:0:
480,293,363495,5,4,0:3:0:0:
502,299,363609,1,4,0:3:0:0:
415,216,363722,6,0,P|322:255|364:165,1,256.499992172241,4|0,0:0|0:0,0:0:0:0:
420,123,364176,2,0,L|411:61,1,56.9999982604981,8|0,0:0|2:0,0:0:0:0:
240,11,364404,1,0,3:0:0:0:
240,11,364517,2,0,P|280:22|310:17,1,56.9999982604981,0|4,0:0|2:3,0:0:0:0:
465,147,364745,1,0,0:0:0:0:
465,147,364858,2,0,P|436:147|409:156,1,56.9999982604981,0|0,3:0|2:3,0:0:0:0:
287,331,365086,2,0,P|300:306|305:278,1,56.9999982604981,8|0,0:0|2:3,0:0:0:0:
216,84,365313,2,0,P|230:108|252:126,1,56.9999982604981,0|0,3:0|2:3,0:0:0:0:
499,103,365540,6,0,P|427:8|317:54,1,256.499992172241,4|0,0:0|0:0,0:0:0:0:
342,122,365995,2,0,L|398:112,1,56.9999982604981,8|0,0:0|2:0,0:0:0:0:
230,19,366222,1,0,3:0:0:0:
230,19,366335,2,0,P|190:8|160:13,1,56.9999982604981,0|4,0:0|2:3,0:0:0:0:
12,161,366563,2,0,P|40:160|67:151,1,56.9999982604981,0|0,0:0|3:3,0:0:0:0:
121,95,366790,1,0,0:0:0:0:
116,72,366904,5,8,0:0:0:0:
161,13,367017,1,4,0:3:0:0:
231,38,367131,1,4,0:3:0:0:
228,113,367245,1,0,0:3:0:0:
157,133,367358,6,0,P|56:145|138:202,1,256.499992172241,4|0,0:0|0:0,0:0:0:0:
194,245,367813,2,0,L|267:225,1,56.9999982604981,8|0,0:0|2:0,0:0:0:0:
393,92,368040,1,0,3:0:0:0:
393,92,368154,2,0,P|395:120|389:148,1,56.9999982604981,0|4,0:0|2:3,0:0:0:0:
215,65,368381,1,0,0:0:0:0:
215,65,368495,2,0,P|212:36|218:8,1,56.9999982604981,0|0,3:0|2:3,0:0:0:0:
419,57,368722,2,0,B|391:50|391:50|361:59,1,56.9999982604981,8|0,0:0|2:0,0:0:0:0:
221,205,368949,2,0,B|249:212|249:212|279:203,1,56.9999982604981,0|0,3:0|2:0,0:0:0:0:
74,28,369176,6,0,P|119:138|25:210,1,256.499992172241,4|0,0:0|0:0,0:0:0:0:
3,143,369631,1,8,3:1:0:0:
8,120,369745,1,0,3:0:0:0:
25,210,369858,5,0,0:0:0:0:
63,272,369972,1,0,0:0:0:0:
31,337,370086,1,2,0:3:0:0:
31,337,370313,6,0,L|-11:327,3,28.4999991302491
94,377,370540,5,4,0:3:0:0:
116,371,370654,1,4,0:3:0:0:
138,366,370767,1,4,0:3:0:0:
160,361,370881,1,4,0:3:0:0:
212,223,370995,6,0,P|274:302|176:285,1,256.499992172241,4|0,0:0|0:0,0:0:0:0:
111,314,371449,2,0,L|32:304,1,56.9999982604981,8|0,0:0|2:0,0:0:0:0:
257,150,371676,1,0,3:0:0:0:
257,150,371790,2,0,P|292:159|316:179,1,56.9999982604981,0|4,0:0|2:3,0:0:0:0:
243,361,372017,1,0,0:0:0:0:
243,361,372131,2,0,P|233:326|238:295,1,56.9999982604981,0|0,3:0|2:3,0:0:0:0:
435,205,372358,2,0,P|444:239|439:270,1,56.9999982604981,8|0,0:0|2:3,0:0:0:0:
411,350,372586,1,0,3:0:0:0:
325,133,372813,6,0,P|434:87|506:182,1,256.499992172241,4|0,0:0|0:0,0:0:0:0:
460,237,373267,2,0,L|394:224,1,56.9999982604981,8|0,0:0|2:0,0:0:0:0:
218,323,373495,1,0,3:0:0:0:
218,323,373608,2,0,L|284:310,1,56.9999982604981,0|4,0:0|2:3,0:0:0:0:
444,378,373836,2,0,L|378:365,1,56.9999982604981,0|0,0:0|3:0,0:0:0:0:
268,288,374063,1,0,0:0:0:0:
273,311,374177,5,8,0:0:0:0:
228,370,374290,1,4,0:3:0:0:
158,345,374404,1,4,0:3:0:0:
161,270,374518,1,0,0:3:0:0:
232,250,374631,6,0,P|261:260|306:258,1,56.9999982604981,4|0,0:0|2:0,0:0:0:0:
470,157,374858,2,0,P|441:158|414:168,1,56.9999982604981,0|0,3:0|2:0,0:0:0:0:
306,47,375086,1,8,0:0:0:0:
293,66,375199,2,0,L|306:131,1,56.9999982604981,0|0,0:0|3:0,0:0:0:0:
161,253,375426,2,0,L|174:188,1,56.9999982604981,0|4,0:0|2:3,0:0:0:0:
93,92,375654,1,0,0:0:0:0:
93,92,375767,2,0,L|138:82,3,28.4999991302491
35,44,375995,5,8,0:0:0:0:
35,44,376108,1,0,0:0:0:0:
76,168,376222,1,0,0:0:0:0:
76,168,376336,1,0,0:0:0:0:
23,237,376449,5,2,0:0:0:0:
14,264,376562,1,0,0:0:0:0:
6,291,376676,1,0,0:0:0:0:
103,228,376790,5,2,0:0:0:0:
94,201,376903,1,0,0:0:0:0:
86,174,377017,1,0,0:0:0:0:
178,136,377131,6,0,L|172:160,3,14.2499995651245,2|0|0|0,0:0|0:0|0:0|0:0,0:0:0:0:
215,217,377358,5,8,0:0:0:0:
174,149,377471,1,8,0:0:0:0:
293,215,377585,1,8,0:0:0:0:
177,284,377699,2,0,L|186:235,1,28.4999991302491,8|0,0:3|0:0,0:0:0:0:
403,319,377926,2,0,L|394:270,1,28.4999991302491,8|0,0:3|0:0,0:0:0:0:
354,68,378153,1,4,0:3:0:0:
180,165,378267,5,4,0:0:0:0:
226,11,378495,1,0,0:0:0:0:
298,115,378722,2,0,P|301:177|272:218,1,95,8|0,0:0|0:0,0:0:0:0:
66,170,379176,2,0,L|180:151,1,95,4|0,0:3|0:0,0:0:0:0:
361,312,379631,2,0,L|247:293,1,95,8|0,0:0|0:0,0:0:0:0:
176,334,380086,5,4,0:3:0:0:
218,146,380313,1,0,0:0:0:0:
128,182,380540,2,0,P|121:228|140:271,1,95,8|0,0:0|0:0,0:0:0:0:
374,230,380995,2,0,L|260:211,1,95,4|0,0:3|0:0,0:0:0:0:
38,133,381449,2,0,L|152:114,1,95,8|0,0:0|0:0,0:0:0:0:
181,61,381790,5,4,0:3:0:0:
181,61,381904,1,4,0:3:0:0:
231,215,382131,1,0,0:0:0:0:
109,322,382358,1,8,0:0:0:0:
59,168,382585,1,0,0:0:0:0:
208,233,382813,2,0,P|214:279|195:322,1,95,4|0,0:3|0:0,0:0:0:0:
43,203,383267,2,0,P|36:156|55:113,1,95,8|0,0:0|0:0,0:0:0:0:
40,21,383722,5,4,0:3:0:0:
226,85,383949,1,0,0:0:0:0:
140,184,384176,1,8,3:1:0:0:
127,113,384290,1,0,3:0:0:0:
140,184,384404,1,0,3:1:0:0:
127,113,384518,1,0,3:0:0:0:
238,199,384631,5,2,0:3:0:0:
52,242,384858,6,0,L|10:233,3,23.75
108,289,385086,6,0,P|137:277|176:287,1,47.5,4|0,0:3|0:0,0:0:0:0:
109,359,385313,2,0,P|85:357|64:347,1,47.5
251,302,385540,5,4,0:0:0:0:
434,364,385767,1,0,0:0:0:0:
268,172,385995,1,8,0:0:0:0:
58,314,386222,1,0,0:0:0:0:
143,170,386449,2,0,P|149:216|130:259,1,95,4|0,0:3|0:0,0:0:0:0:
10,153,386904,2,0,P|3:106|22:63,1,95,8|0,0:0|0:0,0:0:0:0:
105,22,387245,5,0,0:0:0:0:
105,22,387358,1,0,0:0:0:0:
246,158,387586,1,0,0:0:0:0:
78,117,387813,2,0,P|122:102|168:112,1,95,8|0,0:0|0:0,0:0:0:0:
198,303,388267,2,0,P|153:317|107:307,1,95,4|0,0:3|0:0,0:0:0:0:
32,249,388722,1,8,0:0:0:0:
32,249,388836,1,0,0:0:0:0:
112,93,389063,5,0,0:0:0:0:
112,93,389176,2,0,P|122:138|107:183,1,95,4|0,0:3|0:0,0:0:0:0:
32,249,389631,1,8,0:0:0:0:
71,27,389858,1,0,0:0:0:0:
0,87,390086,2,0,P|-6:133|12:176,1,95,4|0,0:3|0:0,0:0:0:0:
203,157,390540,2,0,P|209:110|190:67,1,95,8|0,0:0|0:0,0:0:0:0:
175,56,390881,1,0,0:0:0:0:
105,41,390995,5,4,0:0:0:0:
294,0,391222,1,0,0:0:0:0:
380,96,391449,1,8,0:0:0:0:
361,90,391563,1,8,0:0:0:0:
270,123,391676,1,8,0:0:0:0:
251,117,391790,1,8,0:0:0:0:
157,143,391904,5,0,0:0:0:0:
157,143,392017,1,0,0:0:0:0:
201,202,392131,1,0,0:0:0:0:
199,216,392188,1,0,0:0:0:0:
196,230,392245,1,0,0:0:0:0:
193,244,392301,1,0,0:0:0:0:
143,295,392358,2,0,P|92:326|25:277,1,113.999996520996,12|0,0:0|0:0,0:0:0:0:
1,121,392586,2,0,P|47:90|99:106,1,113.999996520996,12|0,0:0|0:0,0:0:0:0:
173,167,392813,5,4,0:0:0:0:
245,23,393040,1,0,0:0:0:0:
242,239,393267,2,0,P|258:194|259:147,1,95,8|0,0:0|0:0,0:0:0:0:
56,47,393722,2,0,P|39:91|38:138,1,95,4|0,0:3|0:0,0:0:0:0:
265,261,394176,2,0,P|281:216|282:169,1,95,8|0,0:0|0:0,0:0:0:0:
255,95,394631,5,4,0:3:0:0:
321,314,394858,1,0,0:0:0:0:
481,244,395086,2,0,P|436:227|389:226,1,95,8|0,0:0|0:0,0:0:0:0:
215,346,395540,2,0,P|262:344|306:328,1,95,4|0,0:3|0:0,0:0:0:0:
497,208,395995,2,0,P|452:191|405:190,1,95,8|4,0:0|0:3,0:0:0:0:
386,194,396336,1,4,0:3:0:0:
320,155,396449,5,4,0:3:0:0:
346,29,396676,1,0,0:0:0:0:
185,141,396904,1,8,0:0:0:0:
211,267,397131,1,0,0:0:0:0:
6,191,397358,2,0,P|50:207|97:208,1,95,4|0,0:3|0:3,0:0:0:0:
260,53,397813,2,0,P|215:36|168:35,1,95,8|0,0:0|0:3,0:0:0:0:
99,73,398267,5,0,0:0:0:0:
356,54,398495,1,0,0:0:0:0:
274,151,398722,1,8,0:0:0:0:
255,146,398836,1,8,0:0:0:0:
202,201,398949,1,8,0:0:0:0:
239,268,399063,1,4,0:3:0:0:
128,333,399176,5,2,0:3:0:0:
128,333,399290,1,0,0:0:0:0:
84,274,399404,6,0,L|89:236,3,23.75
128,333,399631,5,4,0:3:0:0:
223,349,399744,1,4,0:3:0:0:
147,322,399858,5,4,0:3:0:0:
204,360,399972,1,4,0:3:0:0:
271,343,400085,6,0,P|287:309|283:261,1,47.5,4|0,0:3|2:0,2:0:0:0:
376,257,400313,2,0,P|363:221|326:190,1,47.5,4|0,0:3|2:0,2:0:0:0:
389,121,400540,2,0,P|355:105|307:109,1,47.5,4|0,0:3|2:0,2:0:0:0:
303,16,400767,2,0,P|267:28|236:65,1,47.5,4|0,0:3|2:0,2:0:0:0:
136,331,400995,6,0,P|171:318|202:281,1,47.5,4|0,0:3|2:0,2:0:0:0:
271,344,401223,2,0,P|286:310|282:262,1,47.5,4|0,0:3|2:0,2:0:0:0:
376,257,401450,2,0,P|363:221|326:190,1,47.5,4|0,0:3|2:0,2:0:0:0:
389,122,401677,2,0,P|355:106|307:110,1,47.5,4|0,0:3|2:0,2:0:0:0:
50,227,401904,6,0,P|84:243|132:238,1,47.5,4|0,0:3|2:0,2:0:0:0:
136,331,402132,2,0,P|171:318|202:281,1,47.5,4|0,0:3|2:0,2:0:0:0:
272,344,402359,2,0,P|287:310|283:262,1,47.5,4|0,0:3|2:0,2:0:0:0:
376,258,402586,2,0,P|363:222|326:191,1,47.5,4|0,0:3|2:0,2:0:0:0:
62,92,402813,6,0,P|74:127|111:158,1,47.5,4|0,0:3|2:0,2:0:0:0:
49,227,403041,2,0,P|83:242|131:238,1,47.5,4|0,0:3|2:0,2:0:0:0:
136,332,403268,2,0,P|171:319|202:282,1,47.5,4|0,0:3|2:0,2:0:0:0:
271,345,403495,2,0,P|286:311|282:263,1,47.5,4|0,0:3|2:0,2:0:0:0:
376,258,403722,5,0,0:0:0:0:
376,258,403836,1,0,0:0:0:0:
348,131,403949,1,0,0:0:0:0:
348,131,404063,1,0,0:0:0:0:
270,189,404176,5,0,0:0:0:0:
270,189,404290,1,0,0:0:0:0:
242,62,404403,1,0,0:0:0:0:
242,62,404517,1,0,0:0:0:0:
152,140,404631,5,0,0:0:0:0:
153,111,404688,1,0,0:0:0:0:
143,84,404745,1,0,0:0:0:0:
123,64,404801,1,0,0:0:0:0:
95,57,404858,1,0,0:0:0:0:
66,62,404915,1,0,0:0:0:0:
41,76,404972,1,0,0:0:0:0:
27,101,405029,1,0,0:0:0:0:
40,129,405086,5,0,0:0:0:0:
40,129,405142,1,0,0:0:0:0:
40,129,405199,1,0,0:0:0:0:
40,129,405256,1,0,0:0:0:0:
40,129,405313,6,0,B|16:151,3,28.4999991302491
40,129,405540,6,0,B|70:78|145:78|185:144|139:220|72:275|89:319|89:319|114:292|152:281|171:288,1,398.999987823487
235,286,406449,5,8,0:0:0:0:
228,319,406563,1,8,0:0:0:0:
380,271,406676,1,8,0:0:0:0:
373,238,406790,1,8,0:0:0:0:
259,81,406904,1,4,0:3:0:0:
259,81,407017,1,4,0:3:0:0:
200,129,407131,2,0,L|213:188,1,42.7499986953736,4|0,0:3|0:0,0:0:0:0:
494,322,407358,5,12,0:0:0:0:
