osu file format v14

[General]
AudioFilename: audio.mp3
AudioLeadIn: 0
PreviewTime: 160122
Countdown: 0
SampleSet: Soft
StackLeniency: 0.2
Mode: 0
LetterboxInBreaks: 0
EpilepsyWarning: 1
WidescreenStoryboard: 1

[Editor]
Bookmarks: 14724,29269,43815,58360,72906,87451,101997,116542,131087,145633,160178,189269,203815,218360,276542,291088,305633,320179,334724,349269,363815
DistanceSpacing: 0.55
BeatDivisor: 8
GridSize: 4
TimelineZoom: 1.7

[Metadata]
Title:Ibuki
TitleUnicode:Ibuki
Artist:Nhato
ArtistUnicode:Nhato
Creator:Alheak
Version:Second Wind
Source:
Tags:otographic wubs jcore uplifting trance electronic marathon
BeatmapID:1179747
BeatmapSetID:557579

[Difficulty]
HPDrainRate:5
CircleSize:4.4
OverallDifficulty:9
ApproachRate:9.6
SliderMultiplier:2.5
SliderTickRate:1

[Events]
//Background and Video events
0,0,"bg.jpg",0,0
//Break Periods
2,58560,71088
2,131288,136542
2,189469,201997
2,276742,289269
//Storyboard Layer 0 (Background)
Sprite,Background,Centre,"bg.jpg",320,240 F,0,0,179,0,1 F,0,179,131088,1 F,0,131088,145633,0 F,0,145633,218360,1 F,0,218360,243815,0 F,0,243815,247451,1 F,0,247451,272906,0 F,0,272906,363815,1 S,1,363815,,0.46 F,1,363815,365633,1,0
//Storyboard Layer 1 (Fail)
//Storyboard Layer 2 (Pass)
//Storyboard Layer 3 (Foreground)
Sprite,Foreground,Centre,"bg.jpg",320,240 C,0,58360,,255,0,0 F,2,58360,72906,1,0 S,1,58360,72906,0.46,0.47 F,0,72906,128815,0 F,1,128815,129269,0.4,0.6 S,0,128815,129269,0.47 F,1,129269,131088,1,0 F,1,131088,145633,1 S,0,131088,145633,0.46 F,0,145633,160179,0 F,2,160179,187451,1,0 F,0,187451,216542,0 F,0,216542,217906,0,1 F,0,217906,218360,1,0 M,0,218360,218815,320,240,319.3689,241.9054 R,0,218360,225633,0,0.02 F,0,218360,243815,1 M,0,218815,219156,319.3689,241.9054,320.8937,241.2691 M,0,219156,219383,320.8937,241.2691,320.5689,238.8827 M,0,219383,219497,320.5689,238.8827,320.7057,239.8288 M,0,219497,219724,320.7057,239.8288,322.6371,240.2983 M,0,219724,220179,322.6371,240.2983,318.7064,239.113 M,0,220179,220519,318.7064,239.113,318.4171,240.5811 M,0,220519,220633,318.4171,240.5811,318.7942,239.9158 M,0,220633,220974,318.7942,239.9158,320.1679,241.9492 M,0,220974,221201,320.1679,241.9492,319.8317,239.0795 M,0,221201,221315,319.8317,239.0795,320.7683,240.7008 M,0,221315,221542,320.7683,240.7008,319.1777,241.597 M,0,221542,221656,319.1777,241.597,318.8518,241.346 M,0,221656,221769,318.8518,241.346,318.7185,240.9635 M,0,221769,221883,318.7185,240.9635,318.7972,240.5696 M,0,221883,221997,318.7972,240.5696,319.928,239.0657 M,0,221997,222224,319.928,239.0657,319.8393,241.4107 M,0,222224,222338,319.8393,241.4107,320.0584,239.7641 M,0,222338,222451,320.0584,239.7641,320.5106,241.2076 M,0,222451,222679,320.5106,241.2076,319.4751,240.2221 M,0,222679,222792,319.4751,240.2221,321.5247,240.9522 M,0,222792,222906,321.5247,240.9522,318.9952,240.9595 M,0,222906,223133,318.9952,240.9595,320.9399,240.0396 M,0,223133,223247,320.9399,240.0396,318.9494,241.2004 M,0,223247,223360,318.9494,241.2004,321.4095,240.722 M,0,223360,223588,321.4095,240.722,320.2941,239.3972 M,0,223588,223815,320.2941,239.3972,318.9829,240.944 M,0,223815,224269,318.9829,240.944,321.4398,241.6194 M,0,224269,224383,321.4398,241.6194,321.3744,240.9162 M,0,224383,224497,321.3744,240.9162,321.2838,240.1892 M,0,224497,224610,321.2838,240.1892,321.1928,239.4719 M,0,224610,224838,321.1928,239.4719,320.0119,240.7847 M,0,224838,224951,320.0119,240.7847,320.1101,239.9678 M,0,224951,225179,320.1101,239.9678,321.1311,240.4097 M,0,225179,225406,321.1311,240.4097,319.0013,240.3541 M,0,225406,225633,319.0013,240.3541,322.62,239.7235 M,0,225633,226088,322.62,239.7235,319.3462,242.0672 R,0,225633,232906,0.02,-0.02 M,0,226088,226429,319.3462,242.0672,321.9035,242.0107 M,0,226429,226656,321.9035,242.0107,320.799,239.8301 M,0,226656,226769,320.799,239.8301,321.028,240.9483 M,0,226769,226997,321.028,240.9483,322.2003,239.3895 M,0,226997,227451,322.2003,239.3895,318.992,241.5739 M,0,227451,227792,318.992,241.5739,322.4599,240.9457 M,0,227792,227906,322.4599,240.9457,320.4046,240.6395 M,0,227906,228247,320.4046,240.6395,319.2841,239.8864 M,0,228247,228474,319.2841,239.8864,322.4828,239.0789 M,0,228474,228588,322.4828,239.0789,320.9948,239.3908 M,0,228588,228815,320.9948,239.3908,322.0599,240.1539 M,0,228815,229042,322.0599,240.1539,323.1606,240.9315 M,0,229042,229156,323.1606,240.9315,320.8316,241.6093 M,0,229156,229269,320.8316,241.6093,322.9383,241.8661 M,0,229269,229497,322.9383,241.8661,319.7994,241.5287 M,0,229497,229610,319.7994,241.5287,321.398,240.7953 M,0,229610,229724,321.398,240.7953,319.264,240.518 M,0,229724,229951,319.264,240.518,322.3926,240.9452 M,0,229951,230064,322.3926,240.9452,321.0239,239.8595 M,0,230064,230179,321.0239,239.8595,323.1402,240.0986 M,0,230179,230407,323.1402,240.0986,320.0014,239.761 M,0,230407,230520,320.0014,239.761,321.6,239.0276 M,0,230520,230633,321.6,239.0276,319.466,238.7503 M,0,230633,230860,319.466,238.7503,322.5947,239.1775 M,0,230860,230974,322.5947,239.1775,319.9959,239.7518 M,0,230974,231088,319.9959,239.7518,321.77,241.7475 M,0,231088,231542,321.77,241.7475,321.4177,240.3375 M,0,231542,231997,321.4177,240.3375,320.3642,241.3634 M,0,231997,232224,320.3642,241.3634,321.1736,241.1636 M,0,232224,232451,321.1736,241.1636,319.5417,240.5716 M,0,232451,232565,319.5417,240.5716,321.6154,239.6157 M,0,232565,232679,321.6154,239.6157,320.2961,239.3162 M,0,232679,232906,320.2961,239.3162,322.703,238.8832 M,0,232906,233360,322.703,238.8832,318.607,242.0588 R,0,232906,240179,-0.02,0.02 M,0,233360,233701,318.607,242.0588,322.0061,241.9106 M,0,233701,233929,322.0061,241.9106,320.61,238.9891 M,0,233929,234042,320.61,238.9891,320.1461,240.7799 M,0,234042,234269,320.1461,240.7799,318.1515,239.4678 M,0,234269,234724,318.1515,239.4678,322.8315,240.3047 M,0,234724,235065,322.8315,240.3047,321.0883,241.413 M,0,235065,235179,321.0883,241.413,320.0609,240.6641 M,0,235179,235519,320.0609,240.6641,321.1106,239.7766 M,0,235519,235747,321.1106,239.7766,320.3511,238.6078 M,0,235747,235860,320.3511,238.6078,322.6435,239.4061 M,0,235860,236088,322.6435,239.4061,321.5464,241.7741 M,0,236088,236201,321.5464,241.7741,320.8155,241.7677 M,0,236201,236315,320.8155,241.7677,320.2082,241.3877 M,0,236315,236429,320.2082,241.3877,319.8821,240.7639 M,0,236429,236542,319.8821,240.7639,321.5588,239.4276 M,0,236542,236769,321.5588,239.4276,318.4656,239.3543 M,0,236769,236883,318.4656,239.3543,320.9047,238.7735 M,0,236883,236997,320.9047,238.7735,319.669,239.7477 M,0,236997,237224,319.669,239.7477,320.9167,242.1775 M,0,237224,237338,320.9167,242.1775,318.4592,241.6218 M,0,237338,237452,318.4592,241.6218,320.4646,241.4162 M,0,237452,237679,320.4646,241.4162,323.2047,242.3042 M,0,237679,237792,323.2047,242.3042,322.4221,240.233 M,0,237792,237906,322.4221,240.233,320.6542,241.2123 M,0,237906,238133,320.6542,241.2123,318.9265,239.3821 M,0,238133,238360,318.9265,239.3821,318.0993,240.9838 M,0,238360,238815,318.0993,240.9838,322.281,241.7698 M,0,238815,238929,322.281,241.7698,322.2228,241.0677 M,0,238929,239042,322.2228,241.0677,322.4922,240.4007 M,0,239042,239156,322.4922,240.4007,322.5249,239.224 M,0,239156,239383,322.5249,239.224,319.7452,238.9722 M,0,239383,239497,319.7452,238.9722,319.8474,239.7997 M,0,239497,239724,319.8474,239.7997,318.6885,239.458 M,0,239724,239951,318.6885,239.458,321.0369,239.8546 M,0,239951,240179,321.0369,239.8546,318.5004,241.5385 M,0,240179,240633,318.5004,241.5385,319.095,239.2454 R,0,240179,243815,0.02,-0.02 M,0,240633,240974,319.095,239.2454,321.111,240.8425 M,0,240974,241201,321.111,240.8425,318.6911,240.0284 M,0,241201,241315,318.6911,240.0284,321.3069,240.7203 M,0,241315,241542,321.3069,240.7203,319.4731,240.4172 M,0,241542,241997,319.4731,240.4172,322.1447,240.2742 M,0,241997,242338,322.1447,240.2742,320.7814,241.0227 M,0,242338,242451,320.7814,241.0227,321.7378,239.6202 M,0,242451,242792,321.7378,239.6202,322.7074,239.3962 M,0,242792,243019,322.7074,239.3962,320.1771,239.674 M,0,243019,243133,320.1771,239.674,320.7718,240.8767 M,0,243133,243360,320.7718,240.8767,319.1877,241.4288 M,0,243360,243588,319.1877,241.4288,320.1619,239.4443 M,0,243588,243701,320.1619,239.4443,319.9716,241.1444 M,0,243701,243815,319.9716,241.1444,320,240 F,0,243815,247451,1,0 R,0,243815,247451,-0.02,0 M,0,247451,247906,320,240,318.748,242.0998 R,0,247451,254724,0,0.02 F,0,247451,272906,1 M,0,247906,248247,318.748,242.0998,319.9675,240.091 M,0,248247,248474,319.9675,240.091,320.3497,242.0109 M,0,248474,248588,320.3497,242.0109,320.8035,240.0001 M,0,248588,248815,320.8035,240.0001,322.028,241.74 M,0,248815,249269,322.028,241.74,319.2803,241.7574 M,0,249269,249610,319.2803,241.7574,319.9928,239.8976 M,0,249610,249724,319.9928,239.8976,319.1299,240.919 M,0,249724,250065,319.1299,240.919,322.7613,241.8492 M,0,250065,250292,322.7613,241.8492,319.9276,241.5085 M,0,250292,250406,319.9276,241.5085,321.6193,240.5351 M,0,250406,250633,321.6193,240.5351,319.5862,239.1053 M,0,250633,250860,319.5862,239.1053,322.9059,240.8111 M,0,250860,251088,322.9059,240.8111,319.739,240.4481 M,0,251088,251201,319.739,240.4481,320.8074,240.0245 M,0,251201,251315,320.8074,240.0245,319.6681,240.7002 M,0,251315,251428,319.6681,240.7002,320.8467,239.787 M,0,251428,251542,320.8467,239.787,320.4385,241.0279 M,0,251542,251656,320.4385,241.0279,320.0944,239.4403 M,0,251656,251769,320.0944,239.4403,320.6609,241.1144 M,0,251769,251883,320.6609,241.1144,319.8566,239.3411 M,0,251883,251997,319.8566,239.3411,319.5886,240.9434 M,0,251997,252110,319.5886,240.9434,320.8759,239.5494 M,0,252110,252224,320.8759,239.5494,320.8988,241.1955 M,0,252224,252337,320.8988,241.1955,319.639,239.242 M,0,252337,252451,319.639,239.242,321.3264,240.3624 M,0,252451,252679,321.3264,240.3624,321.5433,241.7036 M,0,252679,252906,321.5433,241.7036,322.5454,241.977 M,0,252906,253019,322.5454,241.977,322.4455,241.0998 M,0,253019,253133,322.4455,241.0998,322.3344,240.201 M,0,253133,253360,322.3344,240.201,320.3734,242.312 M,0,253360,253474,320.3734,242.312,320.4637,241.4531 M,0,253474,253588,320.4637,241.4531,320.5746,240.5645 M,0,253588,253701,320.5746,240.5645,320.6257,238.9256 M,0,253701,253929,320.6257,238.9256,321.2363,241.0693 M,0,253929,254042,321.2363,241.0693,319.6124,240.8807 M,0,254042,254269,319.6124,240.8807,321.3561,240.2588 M,0,254269,254497,321.3561,240.2588,319.5735,240.0226 M,0,254497,254724,319.5735,240.0226,321.3057,242.0202 M,0,254724,255179,321.3057,242.0202,320.1031,239.0502 R,0,254724,261997,0.02,-0.02 M,0,255179,255519,320.1031,239.0502,319.031,239.6205 M,0,255519,255747,319.031,239.6205,320.2703,241.4462 M,0,255747,255860,320.2703,241.4462,321.1027,239.8945 M,0,255860,256088,321.1027,239.8945,321.091,241.6789 M,0,256088,256542,321.091,241.6789,320.2209,239.3068 M,0,256542,256883,320.2209,239.3068,321.7122,240.9031 M,0,256883,256997,321.7122,240.9031,321.0171,239.519 M,0,256997,257338,321.0171,239.519,322.3402,241.5352 M,0,257338,257565,322.3402,241.5352,321.3434,241.8754 M,0,257565,257679,321.3434,241.8754,322.1034,239.9688 M,0,257679,257906,322.1034,239.9688,320.301,240.4997 M,0,257906,258133,320.301,240.4997,318.523,239.185 M,0,258133,258247,318.523,239.185,319.5552,239.0518 M,0,258247,258360,319.5552,239.0518,319.1956,241.5505 M,0,258360,258474,319.1956,241.5505,319.352,240.5155 M,0,258474,258588,319.352,240.5155,319.1935,241.5652 M,0,258588,258702,319.1935,241.5652,319.3519,240.5157 M,0,258702,258815,319.3519,240.5157,320.3435,241.8552 M,0,258815,258929,320.3435,241.8552,320.1534,240.5686 M,0,258929,259042,320.1534,240.5686,320.3515,241.8557 M,0,259042,259156,320.3515,241.8557,320.1535,240.5686 M,0,259156,259269,320.1535,240.5686,321.5015,242.1457 M,0,259269,259383,321.5015,242.1457,320.955,240.6215 M,0,259383,259497,320.955,240.6215,321.5096,242.1462 M,0,259497,259611,321.5096,242.1462,320.9551,240.6215 M,0,259611,259724,320.9551,240.6215,322.5995,241.4162 M,0,259724,259951,322.5995,241.4162,321.566,240.1342 M,0,259951,260065,321.566,240.1342,323.0657,239.6113 M,0,260065,260179,323.0657,239.6113,321.3407,239.1261 M,0,260179,260633,321.3407,239.1261,320.5034,240.0613 M,0,260633,261088,320.5034,240.0613,319.315,240.4806 M,0,261088,261542,319.315,240.4806,319.3932,239.1248 M,0,261542,261769,319.3932,239.1248,322.2839,240.7112 M,0,261769,261997,322.2839,240.7112,318.8528,241.7871 M,0,261997,262451,318.8528,241.7871,320.1785,239.9379 R,0,261997,269269,-0.02,0.02 M,0,262451,262792,320.1785,239.9379,321.0118,241.1594 M,0,262792,263019,321.0118,241.1594,319.9901,238.9116 M,0,263019,263133,319.9901,238.9116,321.9999,239.0991 M,0,263133,263360,321.9999,239.0991,320.95,241.881 M,0,263360,263815,320.95,241.881,323.0695,240.8288 M,0,263815,264156,323.0695,240.8288,320.9107,239.4383 M,0,264156,264269,320.9107,239.4383,320.2091,240.3344 M,0,264269,264610,320.2091,240.3344,320.8321,238.6833 M,0,264610,264838,320.8321,238.6833,321.0483,242.0368 M,0,264838,264951,321.0483,242.0368,320.9905,241.1104 M,0,264951,265179,320.9905,241.1104,319.5599,241.8811 M,0,265179,265406,319.5599,241.8811,318.7156,239.6988 M,0,265406,265633,318.7156,239.6988,321.8672,241.927 M,0,265633,265747,321.8672,241.927,322.1087,240.8293 M,0,265747,265860,322.1087,240.8293,321.1711,241.4783 M,0,265860,265974,321.1711,241.4783,320.9517,240.3648 M,0,265974,266088,320.9517,240.3648,321.9695,242.0936 M,0,266088,266202,321.9695,242.0936,322.2297,240.7709 M,0,266202,266315,322.2297,240.7709,321.1023,241.5477 M,0,266315,266429,321.1023,241.5477,320.841,240.2155 M,0,266429,266542,320.841,240.2155,322.0384,242.2522 M,0,266542,266656,322.0384,242.2522,322.3504,240.7025 M,0,266656,266769,322.3504,240.7025,321.0335,241.617 M,0,266769,266883,321.0335,241.617,320.7203,240.0562 M,0,266883,266997,320.7203,240.0562,319.7872,241.6906 M,0,266997,267224,319.7872,241.6906,319.6979,239.9269 M,0,267224,267451,319.6979,239.9269,318.757,240.3893 M,0,267451,267565,318.757,240.3893,319.6376,240.2439 M,0,267565,267679,319.6376,240.2439,320.5364,240.0924 M,0,267679,267906,320.5364,240.0924,320.9654,241.8909 M,0,267906,268019,320.9654,241.8909,321.2197,241.2389 M,0,268019,268133,321.2197,241.2389,321.7822,240.7824 M,0,268133,268247,321.7822,240.7824,322.4778,240.5378 M,0,268247,268474,322.4778,240.5378,321.8648,238.6854 M,0,268474,268588,321.8648,238.6854,320.5587,240.0769 M,0,268588,268815,320.5587,240.0769,319.7756,239.2108 M,0,268815,269042,319.7756,239.2108,321.3978,239.6521 M,0,269042,269269,321.3978,239.6521,319.774,242.2365 M,0,269269,269724,319.774,242.2365,318.8977,242.3524 R,0,269269,272906,0.02,-0.02 M,0,269724,270065,318.8977,242.3524,320.599,242.0935 M,0,270065,270292,320.599,242.0935,323.076,241.4109 M,0,270292,270406,323.076,241.4109,320.8907,240.6141 M,0,270406,270633,320.8907,240.6141,322.2589,242.0561 M,0,270633,271088,322.2589,242.0561,319.4226,239.2906 M,0,271088,271429,319.4226,239.2906,321.0842,240.6229 M,0,271429,271542,321.0842,240.6229,319.7209,240.0362 M,0,271542,271883,319.7209,240.0362,320.5872,242.0504 M,0,271883,272110,320.5872,242.0504,320.1859,238.9405 M,0,272110,272224,320.1859,238.9405,321.7619,240.7494 M,0,272224,272451,321.7619,240.7494,322.4676,239.0875 M,0,272451,272679,322.4676,239.0875,319.6847,241.1109 M,0,272679,272792,319.6847,241.1109,320.3868,239.0411 M,0,272792,272906,320.3868,239.0411,320,240 F,0,272906,276542,1,0 R,0,272906,276542,-0.02,0 F,0,303815,305179,0,1 F,0,305179,305633,1,0 F,0,305633,361997,0 F,0,361997,363815,0,1
Sprite,Foreground,Centre,"bg.jpg",320,240 C,0,58360,,0,255,0 P,0,58360,,A F,2,58360,72906,1,0 S,1,58360,72906,0.47,0.48 F,0,72906,128815,0 F,1,128815,129269,0.4,0.6 S,0,128815,129269,0.47,0.48 F,1,129269,131088,1,0 S,0,129269,131088,0.48,0.47 F,0,131088,145633,1 S,0,131088,145633,0.465 R,2,131088,145633,0,0.04 R,0,145633,,0 F,0,145633,160179,0 F,2,160179,187451,1,0 F,0,187451,216542,0 F,0,216542,217906,0,1 F,0,217906,218360,1,0 M,0,218360,218815,320,240,318.7756,243.8216 F,0,218360,243815,1 M,0,218815,219156,318.7756,243.8216,321.7755,242.5764 M,0,219156,219383,321.7755,242.5764,321.1555,237.7915 M,0,219383,219497,321.1555,237.7915,321.4231,239.6358 M,0,219497,219724,321.4231,239.6358,325.2885,240.5927 M,0,219724,220179,325.2885,240.5927,317.4658,238.2319 M,0,220179,220519,317.4658,238.2319,316.8093,241.1446 M,0,220519,220633,316.8093,241.1446,317.5562,239.8429 M,0,220633,220974,317.5562,239.8429,320.3111,243.8969 M,0,220974,221201,320.3111,243.8969,319.6662,238.1979 M,0,221201,221315,319.6662,238.1979,321.5333,241.384 M,0,221315,221542,321.5333,241.384,318.3707,243.2077 M,0,221542,221656,318.3707,243.2077,317.6874,242.7242 M,0,221656,221769,317.6874,242.7242,317.4138,241.9545 M,0,221769,221883,317.4138,241.9545,317.5683,241.1591 M,0,221883,221997,317.5683,241.1591,319.8314,238.1432 M,0,221997,222224,319.8314,238.1432,319.6766,242.8029 M,0,222224,222338,319.6766,242.8029,320.1135,239.5561 M,0,222338,222451,320.1135,239.5561,321.0223,242.4111 M,0,222451,222679,321.0223,242.4111,318.9604,240.4682 M,0,222679,222792,318.9604,240.4682,323.0392,241.9094 M,0,222792,222906,323.0392,241.9094,318.0208,241.9382 M,0,222906,223133,318.0208,241.9382,321.8604,240.0988 M,0,223133,223247,321.8604,240.0988,317.9172,242.402 M,0,223247,223360,317.9172,242.402,322.7983,241.468 M,0,223360,223588,322.7983,241.468,320.616,238.8094 M,0,223588,223815,320.616,238.8094,317.9723,241.8762 M,0,223815,224269,317.9723,241.8762,322.8594,243.2575 M,0,224269,224383,322.8594,243.2575,322.7772,241.8652 M,0,224383,224497,322.7772,241.8652,322.5956,240.3973 M,0,224497,224610,322.5956,240.3973,322.4119,238.948 M,0,224610,224838,322.4119,238.948,320.0482,241.559 M,0,224838,224951,320.0482,241.559,320.221,239.9512 M,0,224951,225179,320.221,239.9512,322.2644,240.819 M,0,225179,225406,322.2644,240.819,318.0253,240.7164 M,0,225406,225633,318.0253,240.7164,325.2205,239.4543 M,0,225633,226088,325.2205,239.4543,318.7444,244.1291 M,0,226088,226429,318.7444,244.1291,323.7949,244.0626 M,0,226429,226656,323.7949,244.0626,321.6359,239.7012 M,0,226656,226769,321.6359,239.7012,322.0727,241.894 M,0,226769,226997,322.0727,241.894,324.4214,238.7979 M,0,226997,227451,324.4214,238.7979,318.0284,243.136 M,0,227451,227792,318.0284,243.136,324.9006,241.9227 M,0,227792,227906,324.9006,241.9227,320.858,241.2985 M,0,227906,228247,320.858,241.2985,318.5771,239.786 M,0,228247,228474,318.5771,239.786,324.9515,238.1557 M,0,228474,228588,324.9515,238.1557,322.039,238.7631 M,0,228588,228815,322.039,238.7631,324.1408,240.2953 M,0,228815,229042,324.1408,240.2953,326.3628,241.8659 M,0,229042,229156,326.3628,241.8659,321.7273,243.2373 M,0,229156,229269,321.7273,243.2373,325.8945,243.7647 M,0,229269,229497,325.8945,243.7647,319.6579,243.0953 M,0,229497,229610,319.6579,243.0953,322.7932,241.6219 M,0,229610,229724,322.7932,241.6219,318.5559,241.0524 M,0,229724,229951,318.5559,241.0524,324.7711,241.901 M,0,229951,230064,324.7711,241.901,322.0954,239.738 M,0,230064,230179,322.0954,239.738,326.3019,240.1948 M,0,230179,230407,326.3019,240.1948,320.066,239.5239 M,0,230407,230520,320.066,239.5239,323.2013,238.0505 M,0,230520,230633,323.2013,238.0505,318.964,237.481 M,0,230633,230860,318.964,237.481,325.1793,238.3296 M,0,230860,230974,325.1793,238.3296,320.0436,239.4866 M,0,230974,231088,320.0436,239.4866,323.5409,243.4897 M,0,231088,231542,323.5409,243.4897,322.8708,240.7098 M,0,231542,231997,322.8708,240.7098,320.7574,242.7342 M,0,231997,232224,320.7574,242.7342,322.3552,242.3547 M,0,232224,232451,322.3552,242.3547,319.1071,241.1671 M,0,232451,232565,319.1071,241.1671,323.2221,239.2433 M,0,232565,232679,323.2221,239.2433,320.6245,238.6249 M,0,232679,232906,320.6245,238.6249,325.4125,237.7525 M,0,232906,233360,325.4125,237.7525,317.2682,244.095 M,0,233360,233701,317.2682,244.095,323.9854,243.8619 M,0,233701,233929,323.9854,243.8619,321.2597,238.0172 M,0,233929,234042,321.2597,238.0172,320.3052,241.5403 M,0,234042,234269,320.3052,241.5403,316.3061,238.9508 M,0,234269,234724,316.3061,238.9508,325.6261,240.599 M,0,234724,235065,325.6261,240.599,322.2325,242.832 M,0,235065,235179,322.2325,242.832,320.1447,241.3566 M,0,235179,235519,320.1447,241.3566,322.2229,239.5671 M,0,235519,235747,322.2229,239.5671,320.7245,237.2113 M,0,235747,235860,320.7245,237.2113,325.2945,238.7842 M,0,235860,236088,325.2945,238.7842,323.1459,243.5357 M,0,236088,236201,323.1459,243.5357,321.6629,243.5707 M,0,236201,236315,321.6629,243.5707,320.4333,242.8114 M,0,236315,236429,320.4333,242.8114,319.7687,241.5562 M,0,236429,236542,319.7687,241.5562,323.1154,238.8711 M,0,236542,236769,323.1154,238.8711,316.9623,238.6974 M,0,236769,236883,316.9623,238.6974,321.7792,237.534 M,0,236883,236997,321.7792,237.534,319.3556,239.4707 M,0,236997,237224,319.3556,239.4707,321.8271,244.3494 M,0,237224,237338,321.8271,244.3494,316.9366,243.287 M,0,237338,237452,316.9366,243.287,320.8987,242.8657 M,0,237452,237679,320.8987,242.8657,326.418,244.6373 M,0,237679,237792,326.418,244.6373,324.9084,240.5127 M,0,237792,237906,324.9084,240.5127,321.3582,242.4303 M,0,237906,238133,321.3582,242.4303,317.8672,238.7886 M,0,238133,238360,317.8672,238.7886,316.1773,241.9558 M,0,238360,238815,316.1773,241.9558,324.5236,243.5591 M,0,238815,238929,324.5236,243.5591,324.4905,242.1712 M,0,238929,239042,324.4905,242.1712,325.0298,240.8234 M,0,239042,239156,325.0298,240.8234,325.1006,238.4565 M,0,239156,239383,325.1006,238.4565,319.542,237.9291 M,0,239383,239497,319.542,237.9291,319.6908,239.5786 M,0,239497,239724,319.6908,239.5786,317.3738,238.9116 M,0,239724,239951,317.3738,238.9116,322.0475,239.6982 M,0,239951,240179,322.0475,239.6982,317.0209,243.074 M,0,240179,240633,317.0209,243.074,318.1604,238.5215 M,0,240633,240974,318.1604,238.5215,322.2032,241.6704 M,0,240974,241201,322.2032,241.6704,317.4041,240.0734 M,0,241201,241315,317.4041,240.0734,322.5881,241.4415 M,0,241315,241542,322.5881,241.4415,318.9718,240.8488 M,0,241542,241997,318.9718,240.8488,324.2794,240.557 M,0,241997,242338,324.2794,240.557,321.6056,242.0511 M,0,242338,242451,321.6056,242.0511,323.4921,239.261 M,0,242451,242792,323.4921,239.261,325.4498,238.7852 M,0,242792,243019,325.4498,238.7852,320.409,239.3357 M,0,243019,243133,320.409,239.3357,321.5482,241.7467 M,0,243133,243360,321.5482,241.7467,318.391,242.8749 M,0,243360,243588,318.391,242.8749,320.3078,238.9175 M,0,243588,243701,320.3078,238.9175,319.9462,242.2784 M,0,243701,243815,319.9462,242.2784,320,240 F,0,243815,247451,1,0 M,0,247451,247906,320,240,317.512,244.1992 F,0,247451,272906,1 M,0,247906,248247,317.512,244.1992,319.9102,240.224 M,0,248247,248474,319.9102,240.224,320.6982,244.0245 M,0,248474,248588,320.6982,244.0245,321.614,240.0405 M,0,248588,248815,321.614,240.0405,324.0723,243.4808 M,0,248815,249269,324.0723,243.4808,318.6014,243.5496 M,0,249269,249610,318.6014,243.5496,319.972,239.831 M,0,249610,249724,319.972,239.831,318.2594,241.8366 M,0,249724,250065,318.2594,241.8366,325.5052,243.7167 M,0,250065,250292,325.5052,243.7167,319.9101,243.0543 M,0,250292,250406,319.9101,243.0543,323.2382,241.1011 M,0,250406,250633,323.2382,241.1011,319.2048,238.222 M,0,250633,250860,319.2048,238.222,325.8041,241.6044 M,0,250860,251088,325.8041,241.6044,319.5361,240.9121 M,0,251088,251201,319.5361,240.9121,321.6107,240.0582 M,0,251201,251315,321.6107,240.0582,319.3522,241.4012 M,0,251315,251428,319.3522,241.4012,321.687,239.588 M,0,251428,251542,321.687,239.588,320.8937,242.0518 M,0,251542,251656,320.8937,242.0518,320.1979,238.901 M,0,251656,251769,320.1979,238.901,321.3239,242.218 M,0,251769,251883,321.3239,242.218,319.7265,238.7044 M,0,251883,251997,319.7265,238.7044,319.1745,241.8741 M,0,251997,252110,319.1745,241.8741,321.7435,239.1175 M,0,252110,252224,321.7435,239.1175,321.8149,242.3824 M,0,252224,252337,321.8149,242.3824,319.2963,238.5076 M,0,252337,252451,319.2963,238.5076,322.6459,240.7102 M,0,252451,252679,322.6459,240.7102,323.1129,243.4142 M,0,252679,252906,323.1129,243.4142,325.1223,243.9883 M,0,252906,253019,325.1223,243.9883,324.9424,242.2398 M,0,253019,253133,324.9424,242.2398,324.7188,240.4248 M,0,253133,253360,324.7188,240.4248,320.7944,244.6285 M,0,253360,253474,320.7944,244.6285,320.9359,242.9526 M,0,253474,253588,320.9359,242.9526,321.1587,241.1591 M,0,253588,253701,321.1587,241.1591,321.2632,237.8632 M,0,253701,253929,321.2632,237.8632,322.4853,242.1173 M,0,253929,254042,322.4853,242.1173,319.2497,241.7823 M,0,254042,254269,319.2497,241.7823,322.705,240.5356 M,0,254269,254497,322.705,240.5356,319.1741,240.0507 M,0,254497,254724,319.1741,240.0507,322.6035,244.041 M,0,254724,255179,322.6035,244.041,320.2321,238.1408 M,0,255179,255519,320.2321,238.1408,318.0646,239.2228 M,0,255519,255747,318.0646,239.2228,320.5213,242.8845 M,0,255747,255860,320.5213,242.8845,322.2104,239.8177 M,0,255860,256088,322.2104,239.8177,322.2042,243.3564 M,0,256088,256542,322.2042,243.3564,320.4641,238.6471 M,0,256542,256883,320.4641,238.6471,323.4293,241.7929 M,0,256883,256997,323.4293,241.7929,322.0686,239.0559 M,0,256997,257338,322.0686,239.0559,324.7014,243.0611 M,0,257338,257565,324.7014,243.0611,322.734,243.7812 M,0,257565,257679,322.734,243.7812,324.2347,239.9756 M,0,257679,257906,324.2347,239.9756,320.6447,240.9995 M,0,257906,258133,320.6447,240.9995,317.0529,238.38 M,0,258133,258247,317.0529,238.38,319.0811,238.0876 M,0,258247,258360,319.0811,238.0876,318.3816,243.0818 M,0,258360,258474,318.3816,243.0818,318.6876,241.0616 M,0,258474,258588,318.6876,241.0616,318.3737,243.1412 M,0,258588,258702,318.3737,243.1412,318.6875,241.0628 M,0,258702,258815,318.6875,241.0628,320.6737,243.7213 M,0,258815,258929,320.6737,243.7213,320.3135,241.1744 M,0,258929,259042,320.3135,241.1744,320.7063,243.7235 M,0,259042,259156,320.7063,243.7235,320.3141,241.1745 M,0,259156,259269,320.3141,241.1745,323.0063,244.3035 M,0,259269,259383,323.0063,244.3035,321.9401,241.2861 M,0,259383,259497,321.9401,241.2861,323.0388,244.3057 M,0,259497,259611,323.0388,244.3057,321.9408,241.2861 M,0,259611,259724,321.9408,241.2861,325.2188,242.8457 M,0,259724,259951,325.2188,242.8457,323.1844,240.2969 M,0,259951,260065,323.1844,240.2969,326.1637,239.2259 M,0,260065,260179,326.1637,239.2259,322.7433,238.2445 M,0,260179,260633,322.7433,238.2445,321.0349,240.1049 M,0,260633,261088,321.0349,240.1049,318.6407,240.9621 M,0,261088,261542,318.6407,240.9621,318.7728,238.2592 M,0,261542,261769,318.7728,238.2592,324.5555,241.4052 M,0,261769,261997,324.5555,241.4052,317.7511,243.5881 M,0,261997,262451,317.7511,243.5881,320.335,239.9118 M,0,262451,262792,320.335,239.9118,322.0267,242.3182 M,0,262792,263019,322.0267,242.3182,320.0005,237.8464 M,0,263019,263133,320.0005,237.8464,324,238.1769 M,0,263133,263360,324,238.1769,321.94,243.7435 M,0,263360,263815,321.94,243.7435,326.1588,241.6949 M,0,263815,264156,326.1588,241.6949,321.8832,238.8939 M,0,264156,264269,321.8832,238.8939,320.4377,240.6579 M,0,264269,264610,320.4377,240.6579,321.6688,237.3732 M,0,264610,264838,321.6688,237.3732,322.1134,244.0475 M,0,264838,264951,322.1134,244.0475,322.0023,242.261 M,0,264951,265179,322.0023,242.261,319.14,243.7852 M,0,265179,265406,319.14,243.7852,317.4228,239.4357 M,0,265406,265633,317.4228,239.4357,323.7085,243.8487 M,0,265633,265747,323.7085,243.8487,324.2542,241.697 M,0,265747,265860,324.2542,241.697,322.3851,242.9739 M,0,265860,265974,322.3851,242.9739,321.9277,240.7595 M,0,265974,266088,321.9277,240.7595,323.9586,244.1952 M,0,266088,266202,323.9586,244.1952,324.4992,241.5839 M,0,266202,266315,324.4992,241.5839,322.25,243.1117 M,0,266315,266429,322.25,243.1117,321.705,240.4622 M,0,266429,266542,321.705,240.4622,324.0941,244.5092 M,0,266542,266656,324.0941,244.5092,324.7419,241.4502 M,0,266656,266769,324.7419,241.4502,322.1148,243.249 M,0,266769,266883,322.1148,243.249,321.4623,240.145 M,0,266883,266997,321.4623,240.145,319.5892,243.3829 M,0,266997,267224,319.5892,243.3829,319.3918,239.8877 M,0,267224,267451,319.3918,239.8877,317.5078,240.7778 M,0,267451,267565,317.5078,240.7778,319.2502,240.4956 M,0,267565,267679,319.2502,240.4956,321.065,240.1899 M,0,267679,267906,321.065,240.1899,321.9413,243.7838 M,0,267906,268019,321.9413,243.7838,322.4588,242.5157 M,0,268019,268133,322.4588,242.5157,323.5892,241.5903 M,0,268133,268247,323.5892,241.5903,324.9918,241.0918 M,0,268247,268474,324.9918,241.0918,323.7798,237.3818 M,0,268474,268588,323.7798,237.3818,321.1556,240.1276 M,0,268588,268815,321.1556,240.1276,319.5631,238.4225 M,0,268815,269042,319.5631,238.4225,322.7913,239.2885 M,0,269042,269269,322.7913,239.2885,319.5758,244.4658 M,0,269269,269724,319.5758,244.4658,317.7915,244.7493 M,0,269724,270065,317.7915,244.7493,321.1758,244.235 M,0,270065,270292,321.1758,244.235,326.1635,242.8647 M,0,270292,270406,326.1635,242.8647,321.8433,241.2573 M,0,270406,270633,321.8433,241.2573,324.5369,244.1252 M,0,270633,271088,324.5369,244.1252,318.8907,238.6225 M,0,271088,271429,318.8907,238.6225,322.1578,241.2325 M,0,271429,271542,322.1578,241.2325,319.4632,240.0847 M,0,271542,271883,319.4632,240.0847,321.1693,244.1017 M,0,271883,272110,321.1693,244.1017,320.3834,237.922 M,0,272110,272224,320.3834,237.922,323.5277,241.4784 M,0,272224,272451,323.5277,241.4784,324.9706,238.1896 M,0,272451,272679,324.9706,238.1896,319.4194,242.2038 M,0,272679,272792,319.4194,242.2038,320.7684,238.1041 M,0,272792,272906,320.7684,238.1041,320,240 F,0,272906,276542,1,0 F,0,303815,305179,0,1 F,0,305179,305633,1,0 F,0,305633,361997,0 F,0,361997,363815,0,1
Sprite,Foreground,Centre,"bg.jpg",320,240 C,0,58360,,0,0,255 P,0,58360,,A F,2,58360,72906,1,0 S,1,58360,72906,0.48,0.49 F,0,72906,128815,0 F,1,128815,129269,0.4,0.6 S,0,128815,129269,0.47,0.49 F,1,129269,131088,1,0 S,0,129269,131088,0.49,0.47 F,0,131088,145633,1 S,0,131088,145633,0.47 R,2,131088,145633,0,0.08 R,0,145633,,0 F,0,145633,160179,0 F,2,160179,187451,1,0 F,0,187451,216542,0 F,0,216542,217906,0,1 F,0,217906,218360,1,0 M,0,218360,218815,320,240,318.2201,245.7486 R,0,218360,225633,0,-0.02 F,0,218360,243815,1 M,0,218815,219156,318.2201,245.7486,322.6466,243.9225 M,0,219156,219383,322.6466,243.9225,321.7594,236.7277 M,0,219383,219497,321.7594,236.7277,322.1528,239.4218 M,0,219497,219724,322.1528,239.4218,327.9546,240.8827 M,0,219724,220179,327.9546,240.8827,316.2786,237.3565 M,0,220179,220519,316.2786,237.3565,315.1783,241.6907 M,0,220519,220633,315.1783,241.6907,316.2853,239.7807 M,0,220633,220974,316.2853,239.7807,320.4286,245.8434 M,0,220974,221201,320.4286,245.8434,319.5029,237.3553 M,0,221201,221315,319.5029,237.3553,322.2951,242.0507 M,0,221315,221542,322.2951,242.0507,317.5789,244.8315 M,0,221542,221656,317.5789,244.8315,316.5074,244.1349 M,0,221656,221769,316.5074,244.1349,316.0852,242.974 M,0,221769,221883,316.0852,242.974,316.3126,241.7692 M,0,221883,221997,316.3126,241.7692,319.7094,237.2331 M,0,221997,222224,319.7094,237.2331,319.5113,244.177 M,0,222224,222338,319.5113,244.177,320.1653,239.3753 M,0,222338,222451,320.1653,239.3753,321.535,243.6113 M,0,222451,222679,321.535,243.6113,318.4561,240.7383 M,0,222679,222792,318.4561,240.7383,324.5437,242.8721 M,0,222792,222906,324.5437,242.8721,317.0763,242.9362 M,0,222906,223133,317.0763,242.9362,322.7623,240.1781 M,0,223133,223247,322.7623,240.1781,316.9029,243.6053 M,0,223247,223360,316.9029,243.6053,324.1671,242.2382 M,0,223360,223588,324.1671,242.2382,320.965,238.2372 M,0,223588,223815,320.965,238.2372,316.969,242.7971 M,0,223815,224269,316.969,242.7971,324.2591,244.9139 M,0,224269,224383,324.2591,244.9139,324.2078,242.8474 M,0,224383,224497,324.2078,242.8474,323.9362,240.6254 M,0,224497,224610,323.9362,240.6254,323.6581,238.4288 M,0,224610,224838,323.6581,238.4288,320.1097,242.3229 M,0,224838,224951,320.1097,242.3229,320.3333,239.9497 M,0,224951,225179,320.3333,239.9497,323.4,241.2285 M,0,225179,225406,323.4,241.2285,317.072,241.0869 M,0,225406,225633,317.072,241.0869,327.8022,239.1926 M,0,225633,226088,327.8022,239.1926,318.1941,246.1858 R,0,225633,232906,-0.02,0.02 M,0,226088,226429,318.1941,246.1858,325.6758,246.1556 M,0,226429,226656,325.6758,246.1556,322.5103,239.6147 M,0,226656,226769,322.5103,239.6147,323.1353,242.8384 M,0,226769,226997,323.1353,242.8384,326.6641,238.2252 M,0,226997,227451,326.6641,238.2252,317.1099,244.6868 M,0,227451,227792,317.1099,244.6868,327.3233,242.9306 M,0,227792,227906,327.3233,242.9306,321.3597,241.9779 M,0,227906,228247,321.3597,241.9779,317.8808,239.6993 M,0,228247,228474,317.8808,239.6993,327.4064,237.231 M,0,228474,228588,327.4064,237.231,323.1322,238.1169 M,0,228588,228815,323.1322,238.1169,326.244,240.4235 M,0,228815,229042,326.244,240.4235,329.6073,242.8027 M,0,229042,229156,329.6073,242.8027,322.6882,244.8841 M,0,229156,229269,322.6882,244.8841,328.8706,245.6965 M,0,229269,229497,328.8706,245.6965,319.5761,244.7009 M,0,229497,229610,319.5761,244.7009,324.1873,242.481 M,0,229610,229724,324.1873,242.481,317.8756,241.6044 M,0,229724,229951,317.8756,241.6044,327.1363,242.8681 M,0,229951,230064,327.1363,242.8681,323.2141,239.636 M,0,230064,230179,323.2141,239.636,329.4864,240.2891 M,0,230179,230407,329.4864,240.2891,320.1946,239.2887 M,0,230407,230520,320.1946,239.2887,324.8058,237.0687 M,0,230520,230633,324.8058,237.0687,318.4942,236.1921 M,0,230633,230860,318.4942,236.1921,327.7548,237.4558 M,0,230860,230974,327.7548,237.4558,320.1426,239.2037 M,0,230974,231088,320.1426,239.2037,325.3143,245.2261 M,0,231088,231542,325.3143,245.2261,324.3594,241.1168 M,0,231542,231997,324.3594,241.1168,321.1808,244.1135 M,0,231997,232224,321.1808,244.1135,323.5454,243.5734 M,0,232224,232451,323.5454,243.5734,318.6964,241.7872 M,0,232451,232565,318.6964,241.7872,324.8209,238.8836 M,0,232565,232679,324.8209,238.8836,320.9846,237.9265 M,0,232679,232906,320.9846,237.9265,328.1295,236.6078 M,0,232906,233360,328.1295,236.6078,315.9839,246.1082 R,0,232906,240179,0.02,-0.02 M,0,233360,233701,315.9839,246.1082,325.9395,245.8532 M,0,233701,233929,325.9395,245.8532,321.9482,237.0856 M,0,233929,234042,321.9482,237.0856,320.4785,242.2826 M,0,234042,234269,320.4785,242.2826,314.4644,238.4485 M,0,234269,234724,314.4644,238.4485,328.3839,240.8835 M,0,234724,235065,328.3839,240.8835,323.4315,244.2565 M,0,235065,235179,323.4315,244.2565,320.253,242.0777 M,0,235179,235519,320.253,242.0777,323.3376,239.3723 M,0,235519,235747,323.3376,239.3723,321.1201,235.8112 M,0,235747,235860,321.1201,235.8112,327.9536,238.1343 M,0,235860,236088,327.9536,238.1343,324.7986,245.284 M,0,236088,236201,324.7986,245.284,322.5439,245.4085 M,0,236201,236315,322.5439,245.4085,320.6763,244.2723 M,0,236315,236429,320.6763,244.2723,319.6603,242.3782 M,0,236429,236542,319.6603,242.3782,324.6698,238.3313 M,0,236542,236769,324.6698,238.3313,315.4901,238.0299 M,0,236769,236883,315.4901,238.0299,322.6247,236.2809 M,0,236883,236997,322.6247,236.2809,319.0587,239.1684 M,0,236997,237224,319.0587,239.1684,322.7318,246.5151 M,0,237224,237338,322.7318,246.5151,315.4319,244.9955 M,0,237338,237452,315.4319,244.9955,321.3029,244.3499 M,0,237452,237679,321.3029,244.3499,329.6391,247.0005 M,0,237679,237792,329.6391,247.0005,327.4592,240.84 M,0,237792,237906,327.4592,240.84,322.1138,243.6552 M,0,237906,238133,322.1138,243.6552,316.8234,238.2197 M,0,238133,238360,316.8234,238.2197,314.2347,242.9166 M,0,238360,238815,314.2347,242.9166,326.7271,245.3675 M,0,238815,238929,326.7271,245.3675,326.8018,243.311 M,0,238929,239042,326.8018,243.311,327.614,241.2693 M,0,239042,239156,327.614,241.2693,327.7284,237.6981 M,0,239156,239383,327.7284,237.6981,319.3918,236.8709 M,0,239383,239497,319.3918,236.8709,319.5318,239.3361 M,0,239497,239724,319.5318,239.3361,316.0559,238.3601 M,0,239724,239951,316.0559,238.3601,323.0317,239.5308 M,0,239951,240179,323.0317,239.5308,315.5609,244.6059 M,0,240179,240633,315.5609,244.6059,317.1968,237.8282 R,0,240179,243815,-0.02,0.02 M,0,240633,240974,317.1968,237.8282,323.2759,242.4848 M,0,240974,241201,323.2759,242.4848,316.1383,240.1346 M,0,241201,241315,316.1383,240.1346,323.8441,242.164 M,0,241315,241542,323.8441,242.164,318.4953,241.2949 M,0,241542,241997,318.4953,241.2949,326.4048,240.8488 M,0,241997,242338,326.4048,240.8488,322.4721,243.0855 M,0,242338,242451,322.4721,243.0855,325.2642,238.9226 M,0,242451,242792,325.2642,238.9226,328.2279,238.1677 M,0,242792,243019,328.2279,238.1677,320.6968,238.985 M,0,243019,243133,320.6968,238.985,322.3309,242.6096 M,0,243133,243360,322.3309,242.6096,317.6099,244.3383 M,0,243360,243588,317.6099,244.3383,320.4383,238.4202 M,0,243588,243701,320.4383,238.4202,319.9232,243.4026 M,0,243701,243815,319.9232,243.4026,320,240 F,0,243815,247451,1,0 R,0,243815,247451,0.02,0 M,0,247451,247906,320,240,316.292,246.2982 R,0,247451,254724,0,-0.02 F,0,247451,272906,1 M,0,247906,248247,316.292,246.2982,319.8288,240.3989 M,0,248247,248474,319.8288,240.3989,321.0449,246.042 M,0,248474,248588,321.0449,246.042,322.4313,240.1213 M,0,248588,248815,322.4313,240.1213,326.1329,245.2236 M,0,248815,249269,326.1329,245.2236,317.964,245.3767 M,0,249269,249610,317.964,245.3767,319.9389,239.8013 M,0,249610,249724,319.9389,239.8013,317.3882,242.754 M,0,249724,250065,317.3882,242.754,328.2317,245.6026 M,0,250065,250292,328.2317,245.6026,319.947,244.6381 M,0,250292,250406,319.947,244.6381,324.8584,241.6991 M,0,250406,250633,324.8584,241.6991,318.8557,237.351 M,0,250633,250860,318.8557,237.351,328.6957,242.3805 M,0,250860,251088,328.6957,242.3805,319.3909,241.3914 M,0,251088,251201,319.3909,241.3914,322.4117,240.1017 M,0,251201,251315,322.4117,240.1017,319.0523,242.1031 M,0,251315,251428,319.0523,242.1031,322.5216,239.4031 M,0,251428,251542,322.5216,239.4031,321.3657,243.0721 M,0,251542,251656,321.3657,243.0721,320.311,238.3822 M,0,251656,251769,320.311,238.3822,321.9893,243.3115 M,0,251769,251883,321.9893,243.3115,319.6097,238.0893 M,0,251883,251997,319.6097,238.0893,318.7583,242.7927 M,0,251997,252110,318.7583,242.7927,322.6028,238.7038 M,0,252110,252224,322.6028,238.7038,322.7481,243.5611 M,0,252224,252337,322.7481,243.5611,318.9724,237.7968 M,0,252337,252451,318.9724,237.7968,323.9592,241.0439 M,0,252451,252679,323.9592,241.0439,324.7088,245.1313 M,0,252679,252906,324.7088,245.1313,327.7313,246.0339 M,0,252906,253019,327.7313,246.0339,327.4919,243.421 M,0,253019,253133,327.4919,243.421,327.1548,240.6726 M,0,253133,253360,327.1548,240.6726,321.2646,246.9502 M,0,253360,253474,321.2646,246.9502,321.4179,244.4985 M,0,253474,253588,321.4179,244.4985,321.7525,241.785 M,0,253588,253701,321.7525,241.785,321.9126,236.8136 M,0,253701,253929,321.9126,236.8136,323.7474,243.1444 M,0,253929,254042,323.7474,243.1444,318.9124,242.7043 M,0,254042,254269,318.9124,242.7043,324.0474,240.8311 M,0,254269,254497,324.0474,240.8311,318.8014,240.0849 M,0,254497,254724,318.8014,240.0849,323.894,246.0625 M,0,254724,255179,323.894,246.0625,320.3868,237.2719 R,0,254724,261997,-0.02,0.02 M,0,255179,255519,320.3868,237.2719,317.1016,238.8082 M,0,255519,255747,317.1016,238.8082,320.7531,244.3142 M,0,255747,255860,320.7531,244.3142,323.3226,239.7694 M,0,255860,256088,323.3226,239.7694,323.3397,245.0331 M,0,256088,256542,323.3397,245.0331,320.7302,238.021 M,0,256542,256883,320.7302,238.021,325.1519,242.6706 M,0,256883,256997,325.1519,242.6706,323.1546,238.6101 M,0,256997,257338,323.1546,238.6101,327.0846,244.5783 M,0,257338,257565,327.0846,244.5783,324.1725,245.7173 M,0,257565,257679,324.1725,245.7173,326.3952,240.0215 M,0,257679,257906,326.3952,240.0215,321.0319,241.5006 M,0,257906,258133,321.0319,241.5006,315.5909,237.585 M,0,258133,258247,315.5909,237.585,318.5777,237.1075 M,0,258247,258360,318.5777,237.1075,317.5573,244.5932 M,0,258360,258474,317.5573,244.5932,318.0067,241.6378 M,0,258474,258588,318.0067,241.6378,317.5402,244.7291 M,0,258588,258702,317.5402,244.7291,318.0062,241.6419 M,0,258702,258815,318.0062,241.6419,320.9902,245.5993 M,0,258815,258929,320.9902,245.5993,320.4797,241.818 M,0,258929,259042,320.4797,241.818,321.0644,245.6045 M,0,259042,259156,321.0644,245.6045,320.4819,241.8181 M,0,259156,259269,320.4819,241.8181,324.5145,246.4745 M,0,259269,259383,324.5145,246.4745,322.9554,241.9942 M,0,259383,259497,322.9554,241.9942,324.5887,246.4798 M,0,259497,259611,324.5887,246.4798,322.9577,241.9944 M,0,259611,259724,322.9577,241.9944,327.8587,244.2898 M,0,259724,259951,327.8587,244.2898,324.8558,240.4887 M,0,259951,260065,324.8558,240.4887,329.2957,238.8447 M,0,260065,260179,329.2957,238.8447,324.2089,237.3553 M,0,260179,260633,324.2089,237.3553,321.5963,240.1307 M,0,260633,261088,321.5963,240.1307,317.9779,241.4439 M,0,261088,261542,317.9779,241.4439,318.1393,237.4033 M,0,261542,261769,318.1393,237.4033,326.8142,242.0821 M,0,261769,261997,326.8142,242.0821,316.6944,245.4025 M,0,261997,262451,316.6944,245.4025,320.4708,239.9221 R,0,261997,269269,0.02,-0.02 M,0,262451,262792,320.4708,239.9221,323.0441,243.4777 M,0,262792,263019,323.0441,243.4777,320.0313,236.8043 M,0,263019,263133,320.0313,236.8043,326.0009,237.2341 M,0,263133,263360,326.0009,237.2341,322.97,245.587 M,0,263360,263815,322.97,245.587,329.2691,242.5976 M,0,263815,264156,329.2691,242.5976,322.9181,238.3679 M,0,264156,264269,322.9181,238.3679,320.6875,240.971 M,0,264269,264610,320.6875,240.971,322.5106,236.0691 M,0,264610,264838,322.5106,236.0691,323.1953,246.0321 M,0,264838,264951,323.1953,246.0321,323.0359,243.451 M,0,264951,265179,323.0359,243.451,318.7411,245.7135 M,0,265179,265406,318.7411,245.7135,316.1222,239.2114 M,0,265406,265633,316.1222,239.2114,325.5237,245.7663 M,0,265633,265747,325.5237,245.7663,326.4357,242.603 M,0,265747,265860,326.4357,242.603,323.6431,244.4881 M,0,265860,265974,323.6431,244.4881,322.9293,241.1846 M,0,265974,266088,322.9293,241.1846,325.9679,246.3055 M,0,266088,266202,325.9679,246.3055,326.8091,242.4392 M,0,266202,266315,326.8091,242.4392,323.4443,244.6932 M,0,266315,266429,323.4443,244.6932,322.5933,240.7408 M,0,266429,266542,322.5933,240.7408,326.1678,246.7722 M,0,266542,266656,326.1678,246.7722,327.175,242.2432 M,0,266656,266769,327.175,242.2432,323.2452,244.8973 M,0,266769,266883,323.2452,244.8973,322.2274,240.2669 M,0,266883,266997,322.2274,240.2669,319.4068,245.078 M,0,266997,267224,319.4068,245.078,319.0822,239.8823 M,0,267224,267451,319.0822,239.8823,316.2525,241.1665 M,0,267451,267565,316.2525,241.1665,318.8376,240.755 M,0,267565,267679,318.8376,240.755,321.5851,240.2926 M,0,267679,267906,321.5851,240.2926,322.9276,245.6788 M,0,267906,268019,322.9276,245.6788,323.7178,243.8304 M,0,268019,268133,323.7178,243.8304,325.4215,242.4249 M,0,268133,268247,325.4215,242.4249,327.5426,241.6628 M,0,268247,268474,327.5426,241.6628,325.7463,236.0899 M,0,268474,268588,325.7463,236.0899,321.7924,240.1527 M,0,268588,268815,321.7924,240.1527,319.3638,237.6346 M,0,268815,269042,319.3638,237.6346,324.1809,238.909 M,0,269042,269269,324.1809,238.909,319.4054,246.6873 M,0,269269,269724,319.4054,246.6873,316.6822,247.1906 R,0,269269,272906,-0.02,0.02 M,0,269724,270065,316.6822,247.1906,321.7305,246.4257 M,0,270065,270292,321.7305,246.4257,329.2619,244.3628 M,0,270292,270406,329.2619,244.3628,322.8578,241.9309 M,0,270406,270633,322.8578,241.9309,326.8357,246.2079 M,0,270633,271088,326.8357,246.2079,318.4051,237.9962 M,0,271088,271429,318.4051,237.9962,323.2221,241.8299 M,0,271429,271542,323.2221,241.8299,319.2267,240.1449 M,0,271542,271883,319.2267,240.1449,321.7468,246.1543 M,0,271883,272110,321.7468,246.1543,320.5924,236.9446 M,0,272110,272224,320.5924,236.9446,325.2978,242.1883 M,0,272224,272451,325.2978,242.1883,327.5089,237.3056 M,0,272451,272679,327.5089,237.3056,319.2053,243.2792 M,0,272679,272792,319.2053,243.2792,321.1461,237.1884 M,0,272792,272906,321.1461,237.1884,320,240 F,0,272906,276542,1,0 R,0,272906,276542,0.02,0 F,0,303815,305179,0,1 F,0,305179,305633,1,0 F,0,305633,361997,0 F,0,361997,363815,0,1
Sprite,Foreground,Centre,"bg.jpg",320,240 F,2,43815,58360,0.4,0.6 S,2,43815,58360,0.46,0.48 R,0,43815,145633,0 F,1,58360,61997,0.6,0 S,1,58360,61997,0.48,0.5 F,2,61997,72906,0,0.6 S,2,61997,72906,0.5,0.46 F,2,72906,86997,0.4,0.6 S,2,72906,86997,0.46,0.48 F,0,86997,87451,0.6,0 S,1,86997,87451,0.48,0.49 M,0,87451,87792,320,240,323.9552,239.2828 F,0,87451,116542,0.4 S,2,87451,127451,0.47,0.48 M,0,87792,87906,323.9552,239.2828,321.9391,239.5657 M,0,87906,88133,321.9391,239.5657,318.9388,241.9113 M,0,88133,88360,318.9388,241.9113,323.4788,244.3582 M,0,88360,88701,323.4788,244.3582,323.7496,241.3472 M,0,88701,88815,323.7496,241.3472,318.335,244.0269 M,0,88815,89269,318.335,244.0269,320.5267,237.2205 M,0,89269,89610,320.5267,237.2205,324.6505,239.4644 M,0,89610,89725,324.6505,239.4644,320.153,238.7293 M,0,89725,89951,320.153,238.7293,316.3231,240.5746 M,0,89951,90179,316.3231,240.5746,322.3465,239.4915 M,0,90179,90633,322.3465,239.4915,326.3469,243.5698 M,0,90633,90747,326.3469,243.5698,325.8269,242.7914 M,0,90747,90860,325.8269,242.7914,324.8565,242.3358 M,0,90860,90974,324.8565,242.3358,323.8171,242.4467 M,0,90974,91088,323.8171,242.4467,322.2363,243.7289 M,0,91088,91429,322.2363,243.7289,318.6447,240.8746 M,0,91429,91543,318.6447,240.8746,320.7529,239.3375 M,0,91543,91769,320.7529,239.3375,322.175,243.6667 M,0,91769,91997,322.175,243.6667,317.4435,242.9533 M,0,91997,92338,317.4435,242.9533,317.3289,239.9391 M,0,92338,92451,317.3289,239.9391,320.3066,243.6188 M,0,92451,92906,320.3066,243.6188,319.7261,239.3124 M,0,92906,93133,319.7261,239.3124,316.9145,239.7063 M,0,93133,93360,316.9145,239.7063,323.9183,241.4941 M,0,93360,93474,323.9183,241.4941,323.2184,241.2699 M,0,93474,93588,323.2184,241.2699,322.4644,240.8054 M,0,93588,93701,322.4644,240.8054,321.8693,240.1761 M,0,93701,93815,321.8693,240.1761,321.1574,238.4635 M,0,93815,94042,321.1574,238.4635,324.5432,238.2093 M,0,94042,94269,324.5432,238.2093,325.5109,240.6442 M,0,94269,94497,325.5109,240.6442,324.0502,242.5929 M,0,94497,94724,324.0502,242.5929,319.521,240.9719 M,0,94724,95065,319.521,240.9719,325.6904,239.8394 M,0,95065,95179,325.6904,239.8394,324.1938,238.5768 M,0,95179,95406,324.1938,238.5768,321.3839,241.3115 M,0,95406,95633,321.3839,241.3115,320.5477,237.4462 M,0,95633,95974,320.5477,237.4462,317.771,240.7889 M,0,95974,96088,317.771,240.7889,322.9554,242.3358 M,0,96088,96542,322.9554,242.3358,319.2591,242.7267 M,0,96542,96883,319.2591,242.7267,317.0452,243.3545 M,0,96883,96997,317.0452,243.3545,319.8409,241.1871 M,0,96997,97224,319.8409,241.1871,320.9568,244.4437 M,0,97224,97451,320.9568,244.4437,323.0791,242.4289 M,0,97451,97906,323.0791,242.4289,321.6616,240.4486 M,0,97906,98019,321.6616,240.4486,321.3332,242.049 M,0,98019,98247,321.3332,242.049,320.3667,243.861 M,0,98247,98360,320.3667,243.861,321.1873,238.1772 M,0,98360,98701,321.1873,238.1772,319.9837,238.8436 M,0,98701,98816,319.9837,238.8436,322.9997,238.6169 M,0,98816,99042,322.9997,238.6169,321.44,240.2723 M,0,99042,99269,321.44,240.2723,324.3088,244.6454 M,0,99269,99610,324.3088,244.6454,325.1462,241.8729 M,0,99610,99724,325.1462,241.8729,321.0429,242.6175 M,0,99724,100179,321.0429,242.6175,322.9809,241.3324 M,0,100179,100292,322.9809,241.3324,320.4196,240.9267 M,0,100292,100406,320.4196,240.9267,320.1084,240.4185 M,0,100406,100519,320.1084,240.4185,319.9822,239.8484 M,0,100519,100633,319.9822,239.8484,320.7596,238.337 M,0,100633,100860,320.7596,238.337,324.7752,238.3667 M,0,100860,101088,324.7752,238.3667,324.9955,240.8073 M,0,101088,101201,324.9955,240.8073,323.6199,241.6561 M,0,101201,101315,323.6199,241.6561,321.6724,243.2731 M,0,101315,101656,321.6724,243.2731,322.6134,239.8055 M,0,101656,101769,322.6134,239.8055,321.2523,241.1561 M,0,101769,101883,321.2523,241.1561,319.1451,240.5031 M,0,101883,101997,319.1451,240.5031,317.6829,242.5701 M,0,101997,102451,317.6829,242.5701,317.4536,242.4314 M,0,102451,102679,317.4536,242.4314,318.4891,237.8686 M,0,102679,102792,318.4891,237.8686,319.1098,240.4574 M,0,102792,103020,319.1098,240.4574,318.9422,237.9491 M,0,103020,103133,318.9422,237.9491,320.7989,240.479 M,0,103133,103360,320.7989,240.479,319.396,238.0696 M,0,103360,103588,319.396,238.0696,323.5679,237.5414 M,0,103588,103815,323.5679,237.5414,323.1913,242.9508 M,0,103815,104269,323.1913,242.9508,325.6038,238.239 M,0,104269,104497,325.6038,238.239,320.9321,240.4848 M,0,104497,104610,320.9321,240.4848,323.9586,241.1297 M,0,104610,104838,323.9586,241.1297,322.7592,243.8826 M,0,104838,104951,322.7592,243.8826,322.4552,241.9977 M,0,104951,105065,322.4552,241.9977,321.9291,241.6799 M,0,105065,105179,321.9291,241.6799,320.2986,240.1736 M,0,105179,105292,320.2986,240.1736,319.526,240.4435 M,0,105292,105406,319.526,240.4435,316.8705,241.4489 M,0,105406,105633,316.8705,241.4489,316.3574,237.349 M,0,105633,106088,316.3574,237.349,322.7271,239.127 M,0,106088,106315,322.7271,239.127,317.2145,237.7425 M,0,106315,106429,317.2145,237.7425,318.8043,239.7148 M,0,106429,106656,318.8043,239.7148,316.9961,238.1943 M,0,106656,106769,316.9961,238.1943,316.1999,240.9239 M,0,106769,106997,316.1999,240.9239,320.824,243.6385 M,0,106997,107224,320.824,243.6385,316.6165,242.5728 M,0,107224,107451,316.6165,242.5728,322.8723,241.4715 M,0,107451,107906,322.8723,241.4715,325.3374,239.9694 M,0,107906,108019,325.3374,239.9694,324.7068,240.6194 M,0,108019,108133,324.7068,240.6194,323.9141,241.1324 M,0,108133,108247,323.9141,241.1324,323.0183,241.4426 M,0,108247,108360,323.0183,241.4426,320.4004,242.1289 M,0,108360,108588,320.4004,242.1289,317.468,242.7026 M,0,108588,108815,317.468,242.7026,319.5294,243.9341 M,0,108815,109042,319.5294,243.9341,319.9306,240.5587 M,0,109042,109269,319.9306,240.5587,323.2986,243.0312 M,0,109269,109724,323.2986,243.0312,321.446,239.0006 M,0,109724,109951,321.446,239.0006,326.0889,241.16 M,0,109951,110065,326.0889,241.16,323.3618,241.6032 M,0,110065,110292,323.3618,241.6032,324.4472,239.7921 M,0,110292,110406,324.4472,239.7921,321.649,240.1558 M,0,110406,110633,321.649,240.1558,322.733,238.3431 M,0,110633,110860,322.733,238.3431,318.5746,239.9269 M,0,110860,111088,318.5746,239.9269,320.8315,243.8785 M,0,111088,111542,320.8315,243.8785,319.0566,244.6976 M,0,111542,111769,319.0566,244.6976,320.0811,240.274 M,0,111769,111883,320.0811,240.274,322.9616,243.0655 M,0,111883,112110,322.9616,243.0655,322.1192,238.6613 M,0,112110,112224,322.1192,238.6613,322.8224,240.1332 M,0,112224,112338,322.8224,240.1332,323.6964,240.3227 M,0,112338,112451,323.6964,240.3227,323.8939,238.1665 M,0,112451,112679,323.8939,238.1665,321.6979,241.4833 M,0,112679,112792,321.6979,241.4833,322.0139,243.7097 M,0,112792,112906,322.0139,243.7097,320.3403,237.5542 M,0,112906,113360,320.3403,237.5542,316.6868,241.1911 M,0,113360,113588,316.6868,241.1911,321.6537,242.1438 M,0,113588,113701,321.6537,242.1438,321.0131,239.9629 M,0,113701,113929,321.0131,239.9629,324.3203,237.6593 M,0,113929,114042,324.3203,237.6593,323.6664,239.8332 M,0,114042,114269,323.6664,239.8332,326.1733,243.3967 M,0,114269,114497,326.1733,243.3967,320.6035,242.3679 M,0,114497,114724,320.6035,242.3679,325.1721,240.3874 M,0,114724,115065,325.1721,240.3874,323.2434,240.0277 M,0,115065,115292,323.2434,240.0277,324.9449,243.2206 M,0,115292,115406,324.9449,243.2206,320.8389,241.9644 M,0,115406,115633,320.8389,241.9644,326.0168,239.0593 M,0,115633,115974,326.0168,239.0593,322.8803,237.7812 M,0,115974,116201,322.8803,237.7812,321.0576,238.9756 M,0,116201,116429,321.0576,238.9756,317.8011,238.3395 M,0,116429,116542,317.8011,238.3395,318.756,241.4268 M,0,116542,116997,318.756,241.4268,321.1151,241.0285 F,2,116542,127451,0.4,0.6 M,0,116997,117224,321.1151,241.0285,321.8223,243.1806 M,0,117224,117338,321.8223,243.1806,323.0964,241.8236 M,0,117338,117565,323.0964,241.8236,321.9419,243.4565 M,0,117565,117679,321.9419,243.4565,324.8188,242.0091 M,0,117679,117906,324.8188,242.0091,323.2564,243.8402 M,0,117906,118133,323.2564,243.8402,320.0651,240.6768 M,0,118133,118360,320.0651,240.6768,317.9213,243.7935 M,0,118360,118815,317.9213,243.7935,319.4784,244.0559 M,0,118815,119042,319.4784,244.0559,323.5096,241.2211 M,0,119042,119156,323.5096,241.2211,321.6102,242.2444 M,0,119156,119383,321.6102,242.2444,317.5722,240.0049 M,0,119383,119497,317.5722,240.0049,319.4714,240.4601 M,0,119497,119610,319.4714,240.4601,320.1294,240.1692 M,0,119610,119724,320.1294,240.1692,322.0626,238.9434 M,0,119724,119838,322.0626,238.9434,322.3813,239.6189 M,0,119838,119951,322.3813,239.6189,320.5076,238.5124 M,0,119951,120179,320.5076,238.5124,324.8701,242.4702 M,0,120179,120633,324.8701,242.4702,324.8574,240.3294 M,0,120633,120860,324.8574,240.3294,322.1571,241.2666 M,0,120860,120974,322.1571,241.2666,323.1231,239.3653 M,0,120974,121201,323.1231,239.3653,321.8625,241.1473 M,0,121201,121315,321.8625,241.1473,321.2573,238.9029 M,0,121315,121542,321.2573,238.9029,318.7852,240.5981 M,0,121542,121769,318.7852,240.5981,323.2957,241.432 M,0,121769,121997,323.2957,241.432,318.7859,239.2286 M,0,121997,122451,318.7859,239.2286,321.0357,243.2046 M,0,122451,122565,321.0357,243.2046,321.5607,242.8841 M,0,122565,122679,321.5607,242.8841,321.9512,242.3777 M,0,122679,122792,321.9512,242.3777,322.199,241.7876 M,0,122792,122906,322.199,241.7876,322.484,239.8158 M,0,122906,123133,322.484,239.8158,320.9897,237.5163 M,0,123133,123360,320.9897,237.5163,323.8598,238.4903 M,0,123360,123588,323.8598,238.4903,320.4172,239.2298 M,0,123588,123815,320.4172,239.2298,324.1284,240.7246 M,0,123815,124269,324.1284,240.7246,322.8426,242.4945 M,0,124269,124497,322.8426,242.4945,318.6768,243.5099 M,0,124497,124610,318.6768,243.5099,321.3335,240.6702 M,0,124610,124838,321.3335,240.6702,318.8867,243.5734 M,0,124838,124951,318.8867,243.5734,319.1977,239.7515 M,0,124951,125179,319.1977,239.7515,319.064,243.655 M,0,125179,125406,319.064,243.655,321.2413,239.4331 M,0,125406,125633,321.2413,239.4331,322.4648,244.0287 M,0,125633,126088,322.4648,244.0287,324.0893,243.8406 M,0,126088,126315,324.0893,243.8406,322.9818,240.7568 M,0,126315,126429,322.9818,240.7568,319.1596,244.3551 M,0,126429,126656,319.1596,244.3551,319.8432,241.2471 M,0,126656,126769,319.8432,241.2471,317.8769,241.3849 M,0,126769,126883,317.8769,241.3849,317.7175,240.7677 M,0,126883,126997,317.7175,240.7677,318.5143,238.3754 M,0,126997,127110,318.5143,238.3754,319.2703,238.5875 M,0,127110,127224,319.2703,238.5875,321.2254,240.4718 M,0,127224,127451,321.2254,240.4718,325.2445,238.7894 M,0,127451,127792,325.2445,238.7894,325.4249,242.6358 F,0,127451,127792,0.6,0.4 S,2,127451,128815,0.48,0.47 M,0,127792,128133,325.4249,242.6358,323.8285,238.1127 F,0,127792,128133,0.6,0.4 M,0,128133,128474,323.8285,238.1127,320.5366,237.5222 F,0,128133,128815,0.6,0.4 M,0,128474,128644,320.5366,237.5222,320.4907,241.8304 M,0,128644,128701,320.4907,241.8304,320.4898,241.9166 M,0,128701,128758,320.4898,241.9166,320.4898,241.9183 M,0,128758,128815,320.4898,241.9183,320.4898,241.9184 M,0,128815,129269,320.4898,241.9184,320,240 F,0,128815,129269,0 F,0,129269,131088,0.4,0.6 S,2,129269,131088,0.47,0.48 F,1,131088,132906,0.6,0 S,1,131088,132906,0.48,0.5 F,0,132906,145633,0 F,0,145633,158360,0.6 S,2,145633,158360,0.465,0.46 R,0,145633,158360,0.04,0 F,0,158360,160179,0.6 S,2,158360,160179,0.46,0.47 F,2,160179,161997,0.6,0 S,1,160179,161997,0.47,0.48 F,2,161997,189269,0,0.6 S,2,161997,189269,0.46,0.48 F,1,189269,192906,0.6,0 S,1,189269,192906,0.48,0.5 F,0,192906,203815,0 F,2,203815,218360,0.4,0.6 S,2,203815,218360,0.46,0.48 F,1,218360,220179,0.6,0 S,1,218360,220179,0.48,0.5 F,0,220179,243815,0 F,2,243815,247451,0,0.6 S,2,243815,247451,0.46,0.48 F,1,247451,249269,0.6,0 S,1,247451,249269,0.48,0.5 F,0,249269,272906,0 F,2,272906,276542,0,0.6 S,2,272906,276542,0.46,0.48 F,1,276542,280179,0.6,0 S,1,276542,280179,0.48,0.5 F,2,291088,305179,0.4,0.6 S,2,291088,305179,0.46,0.48 F,0,305179,305633,0.6,0 S,1,305179,305633,0.48,0.49 M,0,305633,306088,320,240,320.4816,242.7076 F,0,305633,334724,0.4 S,2,305633,334724,0.47,0.48 M,0,306088,306315,320.4816,242.7076,321.5296,240.5341 M,0,306315,306429,321.5296,240.5341,318.0306,239.7307 M,0,306429,306656,318.0306,239.7307,321.6006,240.9346 M,0,306656,306770,321.6006,240.9346,319.252,238.5987 M,0,306770,306997,319.252,238.5987,323.885,239.032 M,0,306997,307224,323.885,239.032,318.8177,241.2606 M,0,307224,307451,318.8177,241.2606,324.3964,243.4852 M,0,307451,307906,324.3964,243.4852,320.7879,244.3097 M,0,307906,308133,320.7879,244.3097,319.1758,239.3862 M,0,308133,308247,319.1758,239.3862,321.4035,239.5477 M,0,308247,308474,321.4035,239.5477,325.6881,239.951 M,0,308474,308588,325.6881,239.951,324.2138,241.339 M,0,308588,308701,324.2138,241.339,323.4643,241.8868 M,0,308701,308815,323.4643,241.8868,324.9493,244.3577 M,0,308815,308929,324.9493,244.3577,324.359,243.8672 M,0,308929,309042,324.359,243.8672,321.9472,242.0173 M,0,309042,309269,321.9472,242.0173,318.239,244.5403 M,0,309269,309724,318.239,244.5403,318.1648,239.9108 M,0,309724,309951,318.1648,239.9108,316.5633,244.0182 M,0,309951,310065,316.5633,244.0182,319.6713,242.5404 M,0,310065,310292,319.6713,242.5404,323.8334,244.6508 M,0,310292,310406,323.8334,244.6508,322.2967,241.573 M,0,310406,310633,322.2967,241.573,324.6859,238.2915 M,0,310633,310860,324.6859,238.2915,318.6937,239.0258 M,0,310860,311088,318.6937,239.0258,325.1339,239.7205 M,0,311088,311542,325.1339,239.7205,322.3627,243.8144 M,0,311542,311656,322.3627,243.8144,321.6472,244.5163 M,0,311656,311769,321.6472,244.5163,320.7729,244.7903 M,0,311769,311883,320.7729,244.7903,319.8555,244.7158 M,0,311883,311997,319.8555,244.7158,320.6171,242.2943 M,0,311997,312224,320.6171,242.2943,319.2723,239.8859 M,0,312224,312451,319.2723,239.8859,317.9454,241.8577 M,0,312451,312679,317.9454,241.8577,321.4389,240.6572 M,0,312679,312906,321.4389,240.6572,317.2688,239.7132 M,0,312906,313360,317.2688,239.7132,318.2854,241.9743 M,0,313360,313588,318.2854,241.9743,318.7457,239.1395 M,0,313588,313701,318.7457,239.1395,321.4149,242.1028 M,0,313701,313929,321.4149,242.1028,320.4283,239.4621 M,0,313929,314042,320.4283,239.4621,324.2686,241.5292 M,0,314042,314269,324.2686,241.5292,322.0654,238.5506 M,0,314269,314497,322.0654,238.5506,325.8013,242.191 M,0,314497,314724,325.8013,242.191,321.216,243.4838 M,0,314724,315179,321.216,243.4838,325.4643,239.4097 M,0,315179,315406,325.4643,239.4097,323.0293,243.9082 M,0,315406,315519,323.0293,243.9082,324.1806,241.7382 M,0,315519,315747,324.1806,241.7382,322.0236,238.1748 M,0,315747,315860,322.0236,238.1748,320.7005,239.6235 M,0,315860,315974,320.7005,239.6235,320.234,239.4325 M,0,315974,316088,320.234,239.4325,317.9647,239.3887 M,0,316088,316315,317.9647,239.3887,316.2993,243.7078 M,0,316315,316429,316.2993,243.7078,318.546,244.1942 M,0,316429,316542,318.546,244.1942,316.4309,240.2039 M,0,316542,316997,316.4309,240.2039,317.5486,242.3441 M,0,316997,317224,317.5486,242.3441,317.911,239.4469 M,0,317224,317338,317.911,239.4469,321.8382,241.0889 M,0,317338,317565,321.8382,241.0889,320.9768,243.9018 M,0,317565,317679,320.9768,243.9018,323.8195,241.918 M,0,317679,317906,323.8195,241.918,322.9964,244.6384 M,0,317906,318133,322.9964,244.6384,322.3599,239.5528 M,0,318133,318360,322.3599,239.5528,319.4272,243.9111 M,0,318360,318474,319.4272,243.9111,319.4286,243.0782 M,0,318474,318588,319.4286,243.0782,319.0286,242.2416 M,0,318588,318701,319.0286,242.2416,318.2806,241.7248 M,0,318701,318815,318.2806,241.7248,316.6656,243.2945 M,0,318815,319042,316.6656,243.2945,322.0933,243.9059 M,0,319042,319269,322.0933,243.9059,322.4819,241.4981 M,0,319269,319383,322.4819,241.4981,321.0296,240.77 M,0,319383,319497,321.0296,240.77,319.3006,238.7754 M,0,319497,319838,319.3006,238.7754,317.846,239.3355 M,0,319838,319951,317.846,239.3355,317.4369,240.9667 M,0,319951,320065,317.4369,240.9667,318.6487,242.1393 M,0,320065,320179,318.6487,242.1393,318.293,243.7828 M,0,320179,320633,318.293,243.7828,316.9659,244.6357 M,0,320633,320860,316.9659,244.6357,318.8193,240.7727 M,0,320860,320974,318.8193,240.7727,321.5964,242.9355 M,0,320974,321201,321.5964,242.9355,318.8519,240.2587 M,0,321201,321315,318.8519,240.2587,322.457,239.5252 M,0,321315,321542,322.457,239.5252,325.7892,241.0705 M,0,321542,321769,325.7892,241.0705,324.4558,242.7814 M,0,321769,321997,324.4558,242.7814,322.7091,241.4356 M,0,321997,322451,322.7091,241.4356,319.4742,240.7287 M,0,322451,322679,319.4742,240.7287,321.7495,237.9346 M,0,322679,322792,321.7495,237.9346,318.055,239.7387 M,0,322792,323019,318.055,239.7387,324.3611,238.0948 M,0,323019,323133,324.3611,238.0948,323.6472,240.3219 M,0,323133,323247,323.6472,240.3219,324.0129,241.0064 M,0,323247,323360,324.0129,241.0064,324.6403,243.3201 M,0,323360,323474,324.6403,243.3201,323.8728,243.2064 M,0,323474,323588,323.8728,243.2064,321.3975,243.1841 M,0,323588,323815,321.3975,243.1841,322.6679,244.4237 M,0,323815,324269,322.6679,244.4237,320.1334,240.5485 M,0,324269,324497,320.1334,240.5485,318.5627,243.811 M,0,324497,324610,318.5627,243.811,318.5912,239.7762 M,0,324610,324838,318.5912,239.7762,317.0718,243.0355 M,0,324838,324951,317.0718,243.0355,317.1014,239.0007 M,0,324951,325179,317.1014,239.0007,321.882,239.32 M,0,325179,325406,321.882,239.32,324.4776,237.5864 M,0,325406,325633,324.4776,237.5864,324.2696,242.8117 M,0,325633,326088,324.2696,242.8117,322.6854,241.9362 M,0,326088,326201,322.6854,241.9362,322.0137,242.5787 M,0,326201,326315,322.0137,242.5787,321.1203,242.8516 M,0,326315,326429,321.1203,242.8516,320.2224,242.657 M,0,326429,326542,320.2224,242.657,318.4445,241.3731 M,0,326542,326769,318.4445,241.3731,320.2489,239.2675 M,0,326769,326997,320.2489,239.2675,318.725,238.3853 M,0,326997,327224,318.725,238.3853,322.4545,239.9877 M,0,327224,327451,322.4545,239.9877,318.4691,243.3598 M,0,327451,327906,318.4691,243.3598,320.1494,244.2072 M,0,327906,328133,320.1494,244.2072,319.523,239.7041 M,0,328133,328247,319.523,239.7041,321.8305,243.3341 M,0,328247,328474,321.8305,243.3341,321.2366,238.9067 M,0,328474,328588,321.2366,238.9067,323.5447,242.5381 M,0,328588,328815,323.5447,242.5381,322.1509,237.2308 M,0,328815,329042,322.1509,237.2308,318.703,241.2446 M,0,329042,329269,318.703,241.2446,323.9541,239.7049 M,0,329269,329724,323.9541,239.7049,323.9591,244.5941 M,0,329724,329951,323.9591,244.5941,325.0192,241.1119 M,0,329951,330065,325.0192,241.1119,321.7004,243.2222 M,0,330065,330292,321.7004,243.2222,317.734,242.7844 M,0,330292,330406,317.734,242.7844,320.6547,241.8557 M,0,330406,330519,320.6547,241.8557,320.7731,241.1371 M,0,330519,330633,320.7731,241.1371,320.3354,239.2027 M,0,330633,330747,320.3354,239.2027,319.3867,239.0041 M,0,330747,330860,319.3867,239.0041,319.1077,241.3801 M,0,330860,330974,319.1077,241.3801,316.9022,240.9676 M,0,330974,331088,316.9022,240.9676,322.858,244.5993 M,0,331088,331429,322.858,244.5993,324.9972,239.032 M,0,331429,331542,324.9972,239.032,324.36,241.8406 M,0,331542,331769,324.36,241.8406,320.6472,243.6368 M,0,331769,331997,320.6472,243.6368,321.3929,239.4527 M,0,331997,332338,321.3929,239.4527,321.2079,238.9091 M,0,332338,332394,321.2079,238.9091,321.2042,238.8982 M,0,332394,332451,321.2042,238.8982,321.2041,238.898 M,0,332451,332906,321.2041,238.898,319.1441,241.078 M,0,332906,333247,319.1441,241.078,321.3429,241.0416 M,0,333247,333474,321.3429,241.0416,321.7269,239.4008 M,0,333474,333588,321.7269,239.4008,323.3545,239.028 M,0,333588,333815,323.3545,239.028,323.0671,240.6806 M,0,333815,334156,323.0671,240.6806,323.5414,242.8536 M,0,334156,334383,323.5414,242.8536,326.0508,240.4771 M,0,334383,334610,326.0508,240.4771,321.961,244.1295 M,0,334610,334724,321.961,244.1295,320,240 F,1,334724,335179,0.4,0 S,1,334724,335179,0.48,0.5 S,2,335179,361997,0.46,0.47 F,1,335179,362906,0,0.4 S,2,361997,362906,0.47,0.48 F,1,362906,363815,0.4,0 S,1,362906,363815,0.48,0.5 F,1,363815,365633,1,0 S,1,363815,365633,0.46,0.48
Sprite,Foreground,Centre,"sb\white.png",320,240 P,0,58360,,A F,1,58360,61997,1,0 F,1,86997,87451,0.6,0 F,1,87451,88360,0.4,0 F,1,94724,95179,0.6,0 F,1,101997,102451,0.6,0 F,1,109269,109724,0.6,0 F,1,116542,116997,0.6,0 F,1,123815,124269,0.6,0 F,1,127451,127792,0.6,0 F,1,127792,128133,0.6,0 F,1,128133,128815,0.6,0 F,1,129269,131088,1,0 F,1,131088,134724,1,0 F,1,145633,147451,0.6,0 F,1,152906,153360,0.6,0 F,1,160179,163815,1,0 F,1,167451,169269,1,0 F,1,174724,175179,0.6,0 F,1,176542,176997,0.6,0 F,1,178360,178815,0.6,0 F,1,180179,180633,0.6,0 F,1,181997,182451,0.6,0 F,1,183815,184269,0.6,0 F,1,185633,186088,0.6,0 F,1,187451,187906,0.6,0 F,1,189269,192906,1,0 F,1,218360,220179,1,0 F,1,225633,226088,0.6,0 F,2,231088,231542,0.1,0.2 F,2,231542,231997,0.3,0.4 F,2,231997,232451,0.5,0.6 F,1,232451,232906,0.8,0.4 F,1,232906,234724,1,0 F,1,240179,240633,0.6,0 F,1,247451,249269,1,0 F,1,254724,255179,0.6,0 F,2,260179,260633,0.1,0.2 F,2,260633,261088,0.3,0.4 F,2,261088,261542,0.5,0.6 F,1,261542,261769,0.8,0.4 F,1,261769,261997,0.8,0.4 F,1,261997,263815,1,0 F,1,269269,269724,0.6,0 F,1,276542,280179,1,0 F,1,305179,305633,0.4,0 F,1,305633,306088,0.6,0 F,1,312906,313360,0.6,0 F,1,320179,320633,0.6,0 F,1,327451,327906,0.6,0 F,1,334724,335179,0.6,0 F,1,341997,342451,0.6,0 F,1,349269,349724,0.6,0 F,1,356542,356997,0.6,0 F,1,363815,365633,1,0
//Storyboard Sound Samples

[TimingPoints]
179,454.545454545455,4,2,1,40,1,0
179,-200,4,2,1,40,0,0
14724,-133.333333333333,4,2,1,60,0,0
15519,-66.6666666666667,4,2,1,60,0,0
15860,-133.333333333333,4,2,1,60,0,0
16429,-66.6666666666667,4,2,1,60,0,0
16769,-133.333333333333,4,2,1,60,0,0
17338,-66.6666666666667,4,2,1,60,0,0
17679,-133.333333333333,4,2,1,60,0,0
18247,-66.6666666666667,4,2,1,60,0,0
18588,-133.333333333333,4,2,1,60,0,0
19156,-66.6666666666667,4,2,1,60,0,0
19497,-133.333333333333,4,2,1,60,0,0
20065,-66.6666666666667,4,2,1,60,0,0
20406,-133.333333333333,4,2,1,60,0,0
20974,-66.6666666666667,4,2,1,60,0,0
21315,-133.333333333333,4,2,1,60,0,0
22792,-66.6666666666667,4,2,1,60,0,0
23133,-133.333333333333,4,2,1,60,0,0
23701,-66.6666666666667,4,2,1,60,0,0
24042,-133.333333333333,4,2,1,60,0,0
24610,-66.6666666666667,4,2,1,60,0,0
24951,-133.333333333333,4,2,1,60,0,0
25519,-66.6666666666667,4,2,1,60,0,0
25860,-133.333333333333,4,2,1,60,0,0
26429,-66.6666666666667,4,2,1,60,0,0
26769,-133.333333333333,4,2,1,60,0,0
29269,-100,4,2,1,60,0,0
30065,-66.6666666666667,4,2,1,60,0,0
30406,-100,4,2,1,60,0,0
30974,-66.6666666666667,4,2,1,60,0,0
31315,-100,4,2,1,60,0,0
31883,-66.6666666666667,4,2,1,60,0,0
32224,-100,4,2,1,60,0,0
32792,-66.6666666666667,4,2,1,60,0,0
33133,-100,4,2,1,60,0,0
33701,-66.6666666666667,4,2,1,60,0,0
34042,-100,4,2,1,60,0,0
34610,-66.6666666666667,4,2,1,60,0,0
34951,-100,4,2,1,60,0,0
35633,-200,4,2,1,60,0,0
36031,-200,4,2,1,5,0,0
36088,-100,4,2,1,60,0,0
37338,-66.6666666666667,4,2,1,60,0,0
37679,-100,4,2,1,60,0,0
38247,-66.6666666666667,4,2,1,60,0,0
38588,-100,4,2,1,60,0,0
39156,-66.6666666666667,4,2,1,60,0,0
39497,-100,4,2,1,60,0,0
40065,-66.6666666666667,4,2,1,60,0,0
40406,-100,4,2,1,60,0,0
40974,-66.6666666666667,4,2,1,60,0,0
41315,-100,4,2,1,60,0,0
42679,-100,4,2,1,60,0,0
42906,-200,4,2,1,60,0,0
43815,-100,4,2,1,60,0,0
44610,-66.6666666666667,4,2,1,60,0,0
44951,-100,4,2,1,60,0,0
45519,-66.6666666666667,4,2,1,60,0,0
45860,-100,4,2,1,60,0,0
46429,-66.6666666666667,4,2,1,60,0,0
46769,-100,4,2,1,60,0,0
47338,-66.6666666666667,4,2,1,60,0,0
47679,-100,4,2,1,60,0,0
48247,-66.6666666666667,4,2,1,60,0,0
48588,-100,4,2,1,60,0,0
49156,-66.6666666666667,4,2,1,60,0,0
49497,-100,4,2,1,60,0,0
50179,-200,4,2,1,60,0,0
50576,-200,4,2,1,5,0,0
50633,-200,4,2,1,60,0,0
58360,-200,4,2,1,30,0,0
72792,-200,4,2,1,5,0,0
72906,-133.333333333333,4,2,1,60,0,0
87451,-50,4,2,1,60,0,0
87792,-100,4,2,1,60,0,0
88360,-200,4,2,1,60,0,0
89269,-50,4,2,1,60,0,0
89610,-100,4,2,1,60,0,0
90179,-200,4,2,1,60,0,0
90633,-50,4,2,1,60,0,0
90690,-50,4,2,1,5,0,0
90747,-50,4,2,1,60,0,0
90804,-50,4,2,1,5,0,0
90860,-50,4,2,1,60,0,0
90917,-50,4,2,1,5,0,0
90974,-50,4,2,1,60,0,0
91031,-50,4,2,1,5,0,0
91088,-50,4,2,1,60,0,0
91429,-100,4,2,1,60,0,0
91997,-200,4,2,1,60,0,0
92906,-50,4,2,1,60,0,0
93417,-50,4,2,1,5,0,0
93474,-50,4,2,1,60,0,0
93531,-50,4,2,1,5,0,0
93588,-50,4,2,1,60,0,0
93644,-50,4,2,1,5,0,0
93701,-50,4,2,1,60,0,0
93758,-50,4,2,1,60,0,0
93815,-100,4,2,1,60,0,0
94269,-200,4,2,1,60,0,0
94724,-50,4,2,1,60,0,0
95065,-100,4,2,1,60,0,0
95633,-200,4,2,1,60,0,0
96542,-50,4,2,1,60,0,0
96883,-100,4,2,1,60,0,0
97451,-200,4,2,1,60,0,0
98247,-50,4,2,1,60,0,0
98304,-50,4,2,1,5,0,0
98360,-50,4,2,1,60,0,0
98701,-100,4,2,1,60,0,0
99269,-200,4,2,1,60,0,0
100179,-50,4,2,1,60,0,0
100235,-50,4,2,1,5,0,0
100292,-100,4,2,1,60,0,0
100349,-100,4,2,1,5,0,0
100406,-100,4,2,1,60,0,0
100463,-100,4,2,1,5,0,0
100519,-100,4,2,1,60,0,0
100576,-50,4,2,1,5,0,0
100633,-100,4,2,1,60,0,0
100860,-50,4,2,1,60,0,0
101144,-50,4,2,1,5,0,0
101201,-50,4,2,1,60,0,0
101258,-50,4,2,1,5,0,0
101315,-100,4,2,1,60,0,0
101997,-66.6666666666667,4,2,1,60,0,0
102451,-100,4,2,1,60,0,0
103815,-66.6666666666667,4,2,1,60,0,0
104269,-100,4,2,1,60,0,0
105008,-100,4,2,1,5,0,0
105065,-100,4,2,1,60,0,0
105122,-100,4,2,1,5,0,0
105179,-50,4,2,1,60,0,0
105235,-50,4,2,1,5,0,0
105292,-50,4,2,1,60,0,0
105349,-50,4,2,1,5,0,0
105406,-100,4,2,1,60,0,0
105633,-66.6666666666667,4,2,1,60,0,0
106088,-100,4,2,1,60,0,0
107451,-66.6666666666667,4,2,1,60,0,0
107906,-50,4,2,1,60,0,0
107963,-50,4,2,1,5,0,0
108019,-50,4,2,1,60,0,0
108076,-50,4,2,1,5,0,0
108133,-50,4,2,1,60,0,0
108190,-50,4,2,1,5,0,0
108247,-50,4,2,1,60,0,0
108304,-50,4,2,1,5,0,0
108360,-100,4,2,1,60,0,0
108815,-200,4,2,1,60,0,0
109269,-66.6666666666667,4,2,1,60,0,0
109724,-100,4,2,1,60,0,0
111088,-66.6666666666667,4,2,1,60,0,0
111542,-100,4,2,1,60,0,0
112281,-100,4,2,1,5,0,0
112338,-100,4,2,1,60,0,0
112394,-100,4,2,1,5,0,0
112451,-100,4,2,1,60,0,0
112735,-100,4,2,1,5,0,0
112792,-50,4,2,1,60,0,0
112849,-50,4,2,1,5,0,0
112906,-66.6666666666667,4,2,1,60,0,0
113360,-100,4,2,1,60,0,0
114724,-66.6666666666667,4,2,1,60,0,0
115065,-100,4,2,1,60,0,0
115633,-200,4,2,1,60,0,0
115974,-100,4,2,1,60,0,0
119554,-100,4,2,1,5,0,0
119610,-100,4,2,1,60,0,0
119667,-100,4,2,1,5,0,0
119724,-50,4,2,1,60,0,0
119781,-50,4,2,1,5,0,0
119838,-50,4,2,1,60,0,0
119894,-50,4,2,1,5,0,0
119951,-50,4,2,1,60,0,0
120179,-100,4,2,1,60,0,0
122451,-50,4,2,1,60,0,0
122508,-50,4,2,1,5,0,0
122565,-50,4,2,1,60,0,0
122622,-50,4,2,1,5,0,0
122679,-50,4,2,1,60,0,0
122735,-50,4,2,1,5,0,0
122792,-50,4,2,1,60,0,0
122849,-50,4,2,1,5,0,0
122906,-100,4,2,1,60,0,0
123360,-200,4,2,1,60,0,0
123815,-66.6666666666667,4,2,1,60,0,0
124269,-100,4,2,1,60,0,0
125633,-66.6666666666667,4,2,1,60,0,0
126088,-100,4,2,1,60,0,0
126826,-100,4,2,1,5,0,0
126883,-100,4,2,1,60,0,0
126940,-100,4,2,1,5,0,0
126997,-50,4,2,1,60,0,0
127054,-50,4,2,1,5,0,0
127110,-50,4,2,1,60,0,0
127167,-50,4,2,1,5,0,0
127224,-100,4,2,1,60,0,0
127451,-66.6666666666667,4,2,0,60,0,0
128815,-200,4,2,1,60,0,0
129213,-200,4,2,1,5,0,0
129269,-100,4,2,1,60,0,0
138133,-100,4,2,1,20,0,0
140179,-100,4,2,1,25,0,0
141997,-100,4,2,1,30,0,0
143815,-100,4,2,1,35,0,0
144724,-100,4,2,1,40,0,0
145519,-100,4,2,1,5,0,0
145633,-200,4,2,1,40,0,0
152906,-200,4,2,2,40,0,0
152963,-200,4,2,1,40,0,0
158360,-200,4,2,1,40,0,0
160179,-133.333333333333,4,2,1,60,0,0
211088,-133.333333333333,4,2,1,60,0,0
216088,-100,4,2,1,60,0,0
217906,-100,4,2,0,60,0,0
218360,-83.3333333333333,4,2,1,70,0,1
219497,-166.666666666667,4,2,1,70,0,1
219724,-83.3333333333333,4,2,1,70,0,1
220179,-55.5555555555556,4,2,1,70,0,1
220633,-83.3333333333333,4,2,1,70,0,1
221542,-50,4,2,1,70,0,1
221599,-50,4,2,1,5,0,1
221656,-50,4,2,1,70,0,1
221713,-50,4,2,1,5,0,1
221769,-50,4,2,1,70,0,1
221826,-50,4,2,1,5,0,1
221883,-50,4,2,1,70,0,1
221940,-50,4,2,1,5,0,1
221997,-50,4,2,1,70,0,1
223815,-83.3333333333333,4,2,1,70,0,1
224326,-83.3333333333333,4,2,1,5,0,1
224383,-83.3333333333333,4,2,1,70,0,1
224440,-83.3333333333333,4,2,1,5,0,1
224497,-83.3333333333333,4,2,1,70,0,1
224554,-83.3333333333333,4,2,1,5,0,1
224610,-83.3333333333333,4,2,1,70,0,1
225179,-166.666666666667,4,2,1,70,0,1
225633,-83.3333333333333,4,2,1,70,0,1
226769,-166.666666666667,4,2,1,70,0,1
226997,-83.3333333333333,4,2,1,70,0,1
227451,-55.5555555555556,4,2,1,70,0,1
227906,-83.3333333333333,4,2,1,70,0,1
229269,-55.5555555555556,4,2,1,70,0,1
231088,-166.666666666667,4,2,1,70,0,0
231542,-83.3333333333333,4,2,1,70,0,0
231997,-55.5555555555556,4,2,1,70,0,0
232224,-83.3333333333333,4,2,1,70,0,0
232906,-83.3333333333333,4,2,1,70,0,1
234042,-166.666666666667,4,2,1,70,0,1
234269,-83.3333333333333,4,2,1,70,0,1
234724,-55.5555555555556,4,2,1,70,0,1
235179,-83.3333333333333,4,2,1,70,0,1
236088,-55.5555555555556,4,2,1,70,0,1
236144,-55.5555555555556,4,2,1,5,0,1
236201,-55.5555555555556,4,2,1,70,0,1
236258,-55.5555555555556,4,2,1,5,0,1
236315,-55.5555555555556,4,2,1,70,0,1
236372,-55.5555555555556,4,2,1,5,0,1
236429,-55.5555555555556,4,2,1,70,0,1
236485,-55.5555555555556,4,2,1,5,0,1
236542,-55.5555555555556,4,2,1,70,0,1
238360,-83.3333333333333,4,2,1,70,0,1
238872,-83.3333333333333,4,2,1,5,0,1
238929,-83.3333333333333,4,2,1,70,0,1
238985,-83.3333333333333,4,2,1,5,0,1
239042,-83.3333333333333,4,2,1,70,0,1
239099,-83.3333333333333,4,2,1,5,0,1
239156,-83.3333333333333,4,2,1,70,0,1
239724,-166.666666666667,4,2,1,70,0,1
240179,-83.3333333333333,4,2,1,70,0,1
241315,-166.666666666667,4,2,1,70,0,1
241542,-83.3333333333333,4,2,1,70,0,1
241997,-55.5555555555556,4,2,1,70,0,1
242451,-83.3333333333333,4,2,1,70,0,1
243815,-83.3333333333333,4,2,1,70,0,0
247451,-83.3333333333333,4,2,1,70,0,1
248588,-166.666666666667,4,2,1,70,0,1
248815,-83.3333333333333,4,2,1,70,0,1
249269,-55.5555555555556,4,2,1,70,0,1
249724,-83.3333333333333,4,2,1,70,0,1
250633,-55.5555555555556,4,2,1,70,0,1
252906,-83.3333333333333,4,2,1,70,0,1
253417,-83.3333333333333,4,2,1,5,0,1
253474,-83.3333333333333,4,2,1,70,0,1
253531,-83.3333333333333,4,2,1,5,0,1
253588,-83.3333333333333,4,2,1,70,0,1
253644,-83.3333333333333,4,2,1,5,0,1
253701,-83.3333333333333,4,2,1,70,0,1
254269,-166.666666666667,4,2,1,70,0,1
254724,-83.3333333333333,4,2,1,70,0,1
255860,-166.666666666667,4,2,1,70,0,1
256088,-83.3333333333333,4,2,1,70,0,1
256542,-55.5555555555556,4,2,1,70,0,1
256997,-83.3333333333333,4,2,1,70,0,1
259724,-55.5555555555556,4,2,1,70,0,1
260179,-166.666666666667,4,2,1,70,0,0
261088,-83.3333333333333,4,2,1,70,0,0
261997,-83.3333333333333,4,2,1,70,0,1
263133,-166.666666666667,4,2,1,70,0,1
263360,-83.3333333333333,4,2,1,70,0,1
263815,-55.5555555555556,4,2,1,70,0,1
264269,-83.3333333333333,4,2,1,70,0,1
265179,-55.5555555555556,4,2,1,70,0,1
267451,-83.3333333333333,4,2,1,70,0,1
267963,-83.3333333333333,4,2,1,5,0,1
268019,-83.3333333333333,4,2,1,70,0,1
268076,-83.3333333333333,4,2,1,5,0,1
268133,-83.3333333333333,4,2,1,70,0,1
268190,-83.3333333333333,4,2,1,5,0,1
268247,-83.3333333333333,4,2,1,70,0,1
268815,-166.666666666667,4,2,1,70,0,1
269269,-83.3333333333333,4,2,1,70,0,1
270406,-166.666666666667,4,2,1,70,0,1
270633,-83.3333333333333,4,2,1,70,0,1
271088,-55.5555555555556,4,2,1,70,0,1
271542,-83.3333333333333,4,2,1,70,0,1
274610,-83.3333333333333,4,2,1,5,0,1
274724,-83.3333333333333,4,2,1,70,0,1
276542,-133.333333333333,4,2,1,60,0,0
303360,-100,4,2,1,60,0,0
305179,-100,4,2,0,60,0,0
305633,-66.6666666666667,4,2,1,60,0,0
306088,-100,4,2,1,60,0,0
307451,-66.6666666666667,4,2,1,60,0,0
307906,-100,4,2,1,60,0,0
308644,-100,4,2,1,5,0,0
308701,-100,4,2,1,60,0,0
308758,-100,4,2,1,5,0,0
308815,-66.6666666666667,4,2,1,60,0,0
308872,-66.6666666666667,4,2,1,5,0,0
308929,-66.6666666666667,4,2,1,60,0,0
308985,-66.6666666666667,4,2,1,5,0,0
309042,-100,4,2,1,60,0,0
309269,-66.6666666666667,4,2,1,60,0,0
309724,-100,4,2,1,60,0,0
311088,-66.6666666666667,4,2,1,60,0,0
311599,-66.6666666666667,4,2,1,5,0,0
311656,-66.6666666666667,4,2,1,60,0,0
311713,-66.6666666666667,4,2,1,5,0,0
311769,-66.6666666666667,4,2,1,60,0,0
311826,-66.6666666666667,4,2,1,5,0,0
311883,-66.6666666666667,4,2,1,60,0,0
311940,-66.6666666666667,4,2,1,5,0,0
311997,-100,4,2,1,60,0,0
312451,-200,4,2,1,60,0,0
312906,-66.6666666666667,4,2,1,60,0,0
313360,-100,4,2,1,60,0,0
314724,-66.6666666666667,4,2,1,60,0,0
315179,-100,4,2,1,60,0,0
315917,-100,4,2,1,5,0,0
315974,-100,4,2,1,60,0,0
316031,-100,4,2,1,5,0,0
316088,-100,4,2,1,60,0,0
316372,-100,4,2,1,5,0,0
316429,-50,4,2,1,60,0,0
316485,-50,4,2,1,5,0,0
316542,-66.6666666666667,4,2,1,60,0,0
316997,-100,4,2,1,60,0,0
318360,-50,4,2,1,60,0,0
318417,-50,4,2,1,5,0,0
318474,-50,4,2,1,60,0,0
318531,-50,4,2,1,5,0,0
318588,-50,4,2,1,60,0,0
318644,-50,4,2,1,5,0,0
318701,-50,4,2,1,60,0,0
318758,-50,4,2,1,5,0,0
318815,-100,4,2,1,60,0,0
319042,-50,4,2,1,60,0,0
319326,-50,4,2,1,5,0,0
319383,-50,4,2,1,60,0,0
319440,-50,4,2,1,5,0,0
319497,-100,4,2,1,60,0,0
323190,-100,4,2,1,5,0,0
323247,-100,4,2,1,60,0,0
323304,-100,4,2,1,5,0,0
323360,-50,4,2,1,60,0,0
323417,-50,4,2,1,5,0,0
323474,-50,4,2,1,60,0,0
323531,-50,4,2,1,5,0,0
323588,-50,4,2,1,60,0,0
323815,-100,4,2,1,60,0,0
326088,-50,4,2,1,60,0,0
326144,-50,4,2,1,5,0,0
326201,-50,4,2,1,60,0,0
326258,-50,4,2,1,5,0,0
326315,-50,4,2,1,60,0,0
326372,-50,4,2,1,5,0,0
326429,-50,4,2,1,60,0,0
326485,-50,4,2,1,5,0,0
326542,-100,4,2,1,60,0,0
326997,-200,4,2,1,60,0,0
327451,-66.6666666666667,4,2,1,60,0,0
327906,-100,4,2,1,60,0,0
329269,-66.6666666666667,4,2,1,60,0,0
329724,-100,4,2,1,60,0,0
330463,-100,4,2,1,5,0,0
330519,-100,4,2,1,60,0,0
330576,-100,4,2,1,5,0,0
330633,-50,4,2,1,60,0,0
330690,-50,4,2,1,5,0,0
330747,-50,4,2,1,60,0,0
330804,-50,4,2,1,5,0,0
330860,-100,4,2,1,60,0,0
330917,-100,4,2,1,5,0,0
330974,-50,4,2,1,60,0,0
331031,-50,4,2,1,5,0,0
331088,-66.6666666666667,4,2,1,60,0,0
331542,-100,4,2,1,60,0,0
331997,-200,4,2,1,60,0,0
332906,-100,4,2,1,60,0,0
333815,-200,4,2,1,60,0,0
334156,-100,4,2,1,60,0,0
334724,-133.333333333333,4,2,1,60,0,0
335519,-66.6666666666667,4,2,1,60,0,0
335860,-133.333333333333,4,2,1,60,0,0
336429,-66.6666666666667,4,2,1,60,0,0
336769,-133.333333333333,4,2,1,60,0,0
337338,-66.6666666666667,4,2,1,60,0,0
337679,-133.333333333333,4,2,1,60,0,0
338247,-66.6666666666667,4,2,1,60,0,0
338588,-133.333333333333,4,2,1,60,0,0
339156,-66.6666666666667,4,2,1,60,0,0
339497,-133.333333333333,4,2,1,60,0,0
340065,-66.6666666666667,4,2,1,60,0,0
340406,-133.333333333333,4,2,1,60,0,0
340633,-100,4,2,1,60,0,0
340690,-100,4,2,1,5,0,0
340747,-100,4,2,1,60,0,0
340804,-100,4,2,1,5,0,0
340860,-100,4,2,1,60,0,0
340917,-100,4,2,1,5,0,0
340974,-100,4,2,1,60,0,0
341031,-100,4,2,1,5,0,0
341088,-100,4,2,1,60,0,0
341542,-200,4,2,1,60,0,0
341997,-133.333333333333,4,2,1,60,0,0
342792,-66.6666666666667,4,2,1,60,0,0
343133,-133.333333333333,4,2,1,60,0,0
343701,-66.6666666666667,4,2,1,60,0,0
344042,-133.333333333333,4,2,1,60,0,0
344610,-66.6666666666667,4,2,1,60,0,0
344951,-133.333333333333,4,2,1,60,0,0
345519,-66.6666666666667,4,2,1,60,0,0
345860,-133.333333333333,4,2,1,60,0,0
346429,-66.6666666666667,4,2,1,60,0,0
346769,-133.333333333333,4,2,1,60,0,0
347906,-100,4,2,1,60,0,0
347963,-100,4,2,1,5,0,0
348019,-100,4,2,1,60,0,0
348076,-100,4,2,1,5,0,0
348133,-100,4,2,1,60,0,0
348190,-100,4,2,1,5,0,0
348247,-100,4,2,1,60,0,0
348304,-100,4,2,1,5,0,0
348360,-100,4,2,1,60,0,0
348815,-200,4,2,1,60,0,0
349269,-133.333333333333,4,2,1,60,0,0
350065,-66.6666666666667,4,2,1,60,0,0
350406,-133.333333333333,4,2,1,60,0,0
350974,-66.6666666666667,4,2,1,60,0,0
351315,-133.333333333333,4,2,1,60,0,0
351883,-66.6666666666667,4,2,1,60,0,0
352224,-133.333333333333,4,2,1,60,0,0
352792,-66.6666666666667,4,2,1,60,0,0
353133,-133.333333333333,4,2,1,60,0,0
353701,-66.6666666666667,4,2,1,60,0,0
354042,-133.333333333333,4,2,1,60,0,0
354610,-66.6666666666667,4,2,1,60,0,0
354951,-133.333333333333,4,2,1,60,0,0
355179,-100,4,2,1,60,0,0
355235,-100,4,2,1,5,0,0
355292,-100,4,2,1,60,0,0
355349,-100,4,2,1,5,0,0
355406,-100,4,2,1,60,0,0
355463,-100,4,2,1,5,0,0
355519,-100,4,2,1,60,0,0
355576,-100,4,2,1,5,0,0
355633,-100,4,2,1,60,0,0
356088,-200,4,2,1,60,0,0
356542,-133.333333333333,4,2,1,60,0,0
361542,-100,4,2,1,60,0,0

[Colours]
Combo1 : 234,77,95
Combo2 : 243,171,252
Combo3 : 235,68,246
Combo4 : 250,214,165
Combo5 : 246,114,68
Combo6 : 248,167,179
SliderTrackOverride : 40,30,60
SliderBorder : 202,204,208

[HitObjects]
92,220,179,6,0,B|154:229|154:229|177:249,1,93.75,2|2,0:0|0:0,0:0:0:0:
196,334,633,2,0,P|177:300|178:260,1,62.5,0|2,0:0|0:0,0:0:0:0:
303,145,1088,1,0,0:0:0:0:
251,214,1201,2,0,L|265:296,1,62.5,2|0,0:0|0:0,0:0:0:0:
176,173,1542,22,0,B|163:200|163:200|173:262,1,93.75,2|2,0:0|0:0,0:0:0:0:
132,339,1997,1,0,0:0:0:0:
345,262,2224,2,0,P|314:261|284:266,1,62.5,2|0,0:0|0:0,0:0:0:0:
392,190,2565,2,0,P|362:180|331:177,1,62.5,2|0,0:0|0:0,0:0:0:0:
137,181,2906,2,0,P|163:164|192:152,1,62.5,2|0,0:0|0:0,0:0:0:0:
59,140,3247,2,0,P|79:116|105:98,1,62.5,2|0,0:0|0:0,0:0:0:0:
313,52,3588,1,2,0:0:0:0:
312,227,3815,22,0,B|286:188|286:188|298:129,1,93.75,2|2,0:0|0:0,0:0:0:0:
145,212,4269,2,0,L|207:202,1,62.5,0|2,0:0|0:0,0:0:0:0:
397,165,4724,1,0,0:0:0:0:
335,233,4838,2,0,P|328:267|333:302,1,62.5,2|0,0:0|0:0,0:0:0:0:
241,225,5179,2,0,B|181:236|181:236|139:225,1,93.75,2|2,0:0|0:0,0:0:0:0:
184,148,5633,21,0,0:0:0:0:
71,321,5860,2,0,L|65:259,1,62.5,2|0,0:0|0:0,0:0:0:0:
21,156,6201,2,0,L|84:175,1,62.5,2|0,0:0|0:0,0:0:0:0:
320,268,6542,2,0,L|260:249,1,62.5,2|0,0:0|0:0,0:0:0:0:
269,102,6883,2,0,L|275:164,1,62.5,2|0,0:0|0:0,0:0:0:0:
303,376,7224,1,2,0:0:0:0:
373,196,7451,22,0,B|432:215|432:215|468:210,1,93.75,2|2,0:0|0:0,0:0:0:0:
440,128,7906,2,0,L|380:108,1,62.5,0|2,0:0|0:0,0:0:0:0:
213,59,8360,1,0,0:0:0:0:
259,132,8474,2,0,P|267:165|264:197,1,62.5,2|0,0:0|0:0,0:0:0:0:
168,263,8815,22,0,B|199:259|199:259|258:278,1,93.75,2|2,0:0|0:0,0:0:0:0:
336,242,9269,1,0,0:0:0:0:
72,163,9497,2,0,L|81:224,1,62.5,2|0,0:0|0:0,0:0:0:0:
238,159,9838,2,0,P|201:146|174:148,1,62.5,2|0,0:0|0:0,0:0:0:0:
205,289,10179,2,0,P|234:301|265:301,1,62.5,2|0,0:0|0:0,0:0:0:0:
362,224,10520,2,0,L|372:286,1,62.5,2|0,0:0|0:0,0:0:0:0:
330,360,10860,1,2,0:0:0:0:
490,152,11088,22,0,P|446:137|400:144,1,93.75,2|2,0:0|0:0,0:0:0:0:
345,208,11542,2,0,L|354:146,1,62.5,0|2,0:0|0:0,0:0:0:0:
241,28,11997,1,0,0:0:0:0:
175,85,12110,2,0,P|144:94|110:93,1,62.5,2|0,0:0|0:0,0:0:0:0:
210,163,12451,2,0,P|185:202|142:227,1,93.75,2|2,0:0|0:0,0:0:0:0:
291,189,12906,21,0,0:0:0:0:
218,355,13133,2,0,L|210:290,1,62.5,2|0,0:0|0:0,0:0:0:0:
309,205,13474,2,0,L|301:270,1,62.5,2|0,0:0|0:0,0:0:0:0:
236,371,13815,2,0,L|230:331,1,31.25,2|0,0:0|0:0,0:0:0:0:
214,198,14042,2,0,L|211:171,4,15.625,0|0|2|0|0,0:0|0:0|0:0|0:0|0:0,0:0:0:0:
278,271,14383,1,2,0:0:0:0:
355,285,14497,2,0,L|385:291,1,31.25,2|0,0:0|0:0,0:0:0:0:
386,139,14724,21,4,0:1:0:0:
251,262,14951,2,0,L|244:209,1,46.8750017881394,2|0,0:0|0:0,0:0:0:0:
231,86,15179,1,8,0:0:0:0:
368,120,15292,2,0,L|414:134,1,46.8750017881394,2|0,0:0|0:0,0:0:0:0:
262,55,15519,6,0,P|189:78|249:125,1,187.500007152558,2|0,0:0|0:0,0:0:0:0:
256,204,15860,6,0,P|260:181|259:158,1,46.8750017881394,2|0,0:0|0:0,0:0:0:0:
78,94,16088,1,8,0:0:0:0:
169,128,16201,2,0,P|175:150|177:173,1,46.8750017881394,2|0,0:0|0:0,0:0:0:0:
177,341,16429,6,0,P|153:268|106:328,1,187.500007152558,2|0,0:0|0:0,0:0:0:0:
31,326,16769,6,0,L|77:319,1,46.8750017881394,2|0,0:0|0:0,0:0:0:0:
274,287,16997,1,8,0:0:0:0:
177,173,17110,2,0,P|170:150|168:127,1,46.8750017881394,2|0,0:0|0:0,0:0:0:0:
228,60,17338,6,0,B|188:87|188:87|169:127|169:127|172:83|172:83|148:40,1,187.500007152558,2|0,0:0|0:0,0:0:0:0:
62,59,17679,6,0,L|86:100,1,46.8750017881394,2|0,0:0|0:0,0:0:0:0:
190,275,17906,1,8,0:0:0:0:
233,186,18019,2,0,L|254:144,1,46.8750017881394,2|2,0:0|3:0,0:0:0:0:
295,60,18247,6,0,B|254:144|254:144|268:238,1,187.500007152558,2|0,0:0|0:0,0:0:0:0:
337,271,18588,6,0,P|311:265|281:268,1,46.8750017881394,2|0,0:0|0:0,0:0:0:0:
135,361,18815,1,8,0:0:0:0:
190,275,18929,2,0,P|190:251|185:228,1,46.8750017881394,2|0,0:0|0:0,0:0:0:0:
61,111,19156,6,0,P|107:171|131:98,1,187.500007152558,2|0,0:0|0:0,0:0:0:0:
218,75,19497,6,0,L|212:130,1,46.8750017881394,2|0,0:0|0:0,0:0:0:0:
196,306,19724,1,8,0:0:0:0:
277,238,19838,2,0,P|301:231|322:231,1,46.8750017881394,2|0,0:0|0:0,0:0:0:0:
422,281,20065,6,0,B|394:240|345:230|345:230|373:193|373:193|365:137,1,187.500007152558,2|0,0:0|0:0,0:0:0:0:
283,117,20406,6,0,L|289:163,1,46.8750017881394,2|0,0:0|0:0,0:0:0:0:
319,354,20633,1,8,0:0:0:0:
228,305,20747,2,0,L|181:298,1,46.8750017881394,2|0,0:0|0:0,0:0:0:0:
14,328,20974,6,0,P|87:306|27:258,1,187.500007152558,2|0,0:0|0:0,0:0:0:0:
31,182,21315,6,0,L|38:229,1,46.8750017881394,2|0,0:0|0:0,0:0:0:0:
95,369,21542,1,8,0:0:0:0:
95,369,21656,2,0,L|102:322,1,46.8750017881394,2|0,0:0|0:0,0:0:0:0:
136,58,21997,21,4,0:0:0:0:
149,38,22224,2,0,L|142:85,1,46.8750017881394,2|0,0:0|0:0,0:0:0:0:
117,302,22451,1,8,0:0:0:0:
151,220,22565,2,0,L|158:173,1,46.8750017881394,2|0,0:0|0:0,0:0:0:0:
240,25,22792,6,0,B|233:88|233:88|263:144|263:144|257:203,1,187.500007152558,2|0,0:0|0:0,0:0:0:0:
214,266,23133,6,0,P|221:244|242:221,1,46.8750017881394,2|0,0:0|0:0,0:0:0:0:
430,153,23360,1,8,0:0:0:0:
341,116,23474,2,0,L|319:75,1,46.8750017881394,2|0,0:0|0:0,0:0:0:0:
356,211,23701,6,0,B|325:299|325:299|426:278,1,187.500007152558,2|0,0:0|0:0,0:0:0:0:
483,236,24042,6,0,L|423:248,1,46.8750017881394,2|0,0:0|0:0,0:0:0:0:
232,278,24269,1,8,0:0:0:0:
255,158,24383,2,0,P|256:132|246:102,1,46.8750017881394,2|0,0:0|0:0,0:0:0:0:
155,59,24610,6,0,B|200:53|239:91|239:91|287:65|329:83,1,187.500007152558,2|0,0:0|0:0,0:0:0:0:
292,162,24951,6,0,P|291:185|284:207,1,46.8750017881394,2|0,0:0|0:0,0:0:0:0:
246,46,25179,1,8,0:0:0:0:
168,144,25292,2,0,P|162:166|163:189,1,46.8750017881394,2|2,0:0|3:0,0:0:0:0:
205,354,25519,6,0,P|183:280|135:340,1,187.500007152558,2|0,0:0|0:0,0:0:0:0:
61,324,25860,6,0,P|83:329|106:328,1,46.8750017881394,2|0,0:0|0:0,0:0:0:0:
269,225,26088,1,8,0:0:0:0:
166,244,26201,2,0,P|143:238|122:227,1,46.8750017881394,2|0,0:0|0:0,0:0:0:0:
70,125,26429,6,0,B|81:219|81:219|41:306,1,187.500007152558,2|0,0:0|0:0,0:0:0:0:
12,379,26769,6,0,L|70:375,1,46.8750017881394,2|0,0:0|0:0,0:0:0:0:
257,367,26997,1,8,0:0:0:0:
181,312,27110,2,0,P|175:289|176:266,1,46.8750017881394,2|0,0:0|0:0,0:0:0:0:
223,111,27338,1,0,0:0:0:0:
72,151,27451,5,4,0:1:0:0:
256,192,27565,12,0,28247,0:0:0:0:
443,139,28360,22,0,L|498:126,1,46.8750017881394,8|0,3:0|3:0,3:0:0:0:
345,160,28588,1,8,3:0:0:0:
341,179,28644,1,8,3:0:0:0:
338,198,28701,1,8,3:0:0:0:
335,218,28758,1,8,3:0:0:0:
332,237,28815,21,8,3:0:0:0:
244,176,28929,1,8,3:0:0:0:
149,219,29042,1,4,3:0:0:0:
138,322,29156,1,4,3:0:0:0:
64,157,29269,5,4,0:1:0:0:
234,281,29497,2,0,P|243:314|240:349,1,62.5,2|0,0:0|0:0,0:0:0:0:
244,176,29724,1,8,0:0:0:0:
329,236,29838,2,0,P|346:265|352:300,1,62.5,2|0,0:0|0:0,0:0:0:0:
340,125,30065,6,0,B|350:31|350:31|425:99,1,187.500007152558,2|0,0:0|0:0,0:0:0:0:
501,118,30406,6,0,P|469:118|440:107,1,62.5,2|0,0:0|0:0,0:0:0:0:
263,10,30633,1,8,0:0:0:0:
251,113,30747,2,0,L|244:176,1,62.5,2|0,0:0|0:0,0:0:0:0:
223,350,30974,6,0,P|208:289|81:272,1,187.500007152558,2|0,0:0|0:0,0:0:0:0:
75,344,31315,6,0,L|138:338,1,62.5,2|0,0:0|0:0,0:0:0:0:
426,313,31542,1,8,0:0:0:0:
350,258,31656,2,0,L|287:251,1,62.5,2|0,0:0|0:0,0:0:0:0:
98,260,31883,6,0,P|187:268|223:350,1,187.500007152558,2|0,0:0|0:0,0:0:0:0:
298,348,32224,6,0,P|274:347|238:335,1,62.5,2|0,0:0|0:0,0:0:0:0:
106,159,32451,1,8,0:0:0:0:
124,276,32565,2,0,L|136:338,1,62.5,2|0,0:0|0:0,0:0:0:0:
220,201,32792,6,0,B|228:140|228:140|200:82|200:82|228:98|259:92,1,187.5,2|0,0:0|0:0,0:0:0:0:
302,20,33133,6,0,P|273:10|242:11,1,62.5,2|0,0:0|0:0,0:0:0:0:
17,87,33360,1,8,0:0:0:0:
85,142,33474,2,0,P|114:152|146:153,1,62.5,2|0,0:0|0:0,0:0:0:0:
394,112,33701,6,0,P|334:158|407:182,1,187.500007152558,2|0,0:0|0:0,0:0:0:0:
397,268,34042,6,0,L|390:205,1,62.5,2|0,0:0|0:0,0:0:0:0:
371,23,34269,1,8,0:0:0:0:
306,88,34383,2,0,P|276:97|245:98,1,62.5,2|0,0:0|0:0,0:0:0:0:
94,20,34610,6,0,B|131:105|131:105|122:199,1,187.500007152558,2|0,0:0|0:0,0:0:0:0:
146,278,34951,6,0,L|154:212,1,62.5,2|0,0:0|0:0,0:0:0:0:
180,2,35179,1,8,0:0:0:0:
245,77,35292,2,0,P|274:86|305:87,1,62.5,2|0,0:0|0:0,0:0:0:0:
466,49,35519,1,0,0:0:0:0:
380,291,35633,6,0,P|405:324|404:282,1,109.375,4|0,0:0|0:0,0:0:0:0:
252,295,36088,21,8,3:0:0:0:
435,175,36201,2,0,L|508:164,1,62.5,2|4,3:0|3:0,0:0:0:0:
317,104,36429,1,4,3:0:0:0:
263,318,36542,5,4,0:0:0:0:
274,341,36769,2,0,L|211:333,1,62.5,2|0,0:0|0:0,0:0:0:0:
0,306,36997,1,8,0:0:0:0:
90,264,37110,2,0,P|103:237|101:195,1,62.5,2|0,0:0|0:0,0:0:0:0:
16,75,37338,6,0,B|99:115|99:115|204:100,1,187.500007152558,2|0,0:0|0:0,0:0:0:0:
233,28,37679,6,0,P|219:56|219:87,1,62.5,2|0,0:0|0:0,0:0:0:0:
279,278,37906,1,8,0:0:0:0:
205,216,38019,2,0,L|139:209,1,62.5,2|0,0:0|0:0,0:0:0:0:
330,201,38247,6,0,B|424:191|424:191|374:269,1,187.500007152558,2|0,0:0|0:0,0:0:0:0:
385,351,38588,6,0,P|372:322|369:291,1,62.5,2|0,0:0|0:0,0:0:0:0:
453,75,38815,1,8,0:0:0:0:
370,121,38929,2,0,L|307:127,1,62.5,2|0,0:0|0:0,0:0:0:0:
133,160,39156,6,0,B|195:154|195:154|235:172|235:172|212:137|227:94,1,187.500007152558,2|0,0:0|0:0,0:0:0:0:
297,43,39497,6,0,P|267:51|243:71,1,62.5,2|0,0:0|0:0,0:0:0:0:
180,240,39724,1,8,0:0:0:0:
114,174,39838,2,0,L|33:166,1,62.5,2|0,0:0|0:0,0:0:0:0:
92,270,40065,6,0,P|143:326|246:306,1,187.5,2|0,0:0|0:0,0:0:0:0:
322,286,40406,6,0,L|259:292,1,62.5,2|0,0:0|0:0,0:0:0:0:
83,301,40633,1,8,0:0:0:0:
180,240,40747,2,0,P|192:211|192:180,1,62.5,2|0,0:0|0:0,0:0:0:0:
166,26,40974,6,0,B|124:111|124:111|215:93,1,187.500007152558,2|0,0:0|0:0,0:0:0:0:
254,168,41315,6,0,L|185:182,1,62.5,2|0,0:0|0:0,0:0:0:0:
2,137,41542,1,8,0:0:0:0:
94,117,41656,2,0,L|155:104,1,62.5,2|0,0:0|0:0,0:0:0:0:
390,65,41883,1,0,0:0:0:0:
346,148,41997,5,2,0:0:0:0:
355,171,42110,1,2,0:0:0:0:
364,194,42224,1,2,0:0:0:0:
251,133,42338,53,2,3:0:0:0:
254,168,42451,1,2,3:0:0:0:
258,206,42565,1,2,3:0:0:0:
177,72,42679,53,4,0:0:0:0:
161,168,42792,2,0,L|157:193,2,15.625,2|0|0,0:0|0:0|0:0,0:0:0:0:
147,266,42906,2,0,L|142:300,2,31.25,8|0|0,0:0|0:0|0:0,0:0:0:0:
69,205,43247,53,8,0:3:0:0:
272,155,43360,1,8,0:0:0:0:
51,103,43474,1,8,0:3:0:0:
48,79,43701,53,4,3:0:0:0:
296,39,43815,5,4,0:1:0:0:
180,117,44042,2,0,P|172:149|176:181,1,62.5,2|0,0:0|0:0,0:0:0:0:
266,299,44269,1,8,0:0:0:0:
251,212,44383,2,0,P|256:181|271:154,1,62.5,2|0,0:0|0:0,0:0:0:0:
443,110,44610,6,0,B|350:117|350:117|330:73|274:67,1,187.500007152558,2|0,0:0|0:0,0:0:0:0:
197,106,44951,6,0,P|219:84|247:71,1,62.5,2|0,0:0|0:0,0:0:0:0:
485,27,45179,1,8,0:0:0:0:
443,110,45292,2,0,L|434:186,1,62.5,2|0,0:0|0:0,0:0:0:0:
413,304,45519,6,0,B|421:240|421:240|404:182|404:182|412:120,1,187.500007152558,2|0,0:0|0:0,0:0:0:0:
497,110,45860,6,0,L|488:186,1,62.5,2|0,0:0|0:0,0:0:0:0:
459,376,46088,1,8,0:0:0:0:
391,310,46201,2,0,P|363:294|333:289,1,62.5,2|0,0:0|0:0,0:0:0:0:
266,348,46429,6,0,B|293:308|293:308|333:289|333:289|289:292|289:292|246:268,1,187.500007152558,2|0,0:0|0:0,0:0:0:0:
190,210,46770,6,0,L|256:248,1,62.5,2|0,0:0|0:0,0:0:0:0:
399,215,46997,1,8,0:0:0:0:
316,166,47110,2,0,L|261:134,1,62.5,2|0,0:0|0:0,0:0:0:0:
96,44,47338,6,0,B|177:90|177:90|188:186,1,187.500007152558,2|0,0:0|0:0,0:0:0:0:
244,241,47679,6,0,P|220:220|191:209,1,62.5,2|0,0:0|0:0,0:0:0:0:
0,244,47906,1,8,0:0:0:0:
49,173,48019,2,0,L|42:99,1,62.5,2|0,0:0|0:0,0:0:0:0:
110,234,48247,6,0,B|115:295|115:295|85:352|85:352|114:337|145:344,1,187.5,2|0,0:0|0:0,0:0:0:0:
232,361,48588,6,0,P|197:365|172:356,1,62.5,2|0,0:0|0:0,0:0:0:0:
49,173,48815,1,8,0:0:0:0:
191,209,48929,2,0,L|260:226,1,62.5,2|0,0:0|0:0,0:0:0:0:
432,268,49156,6,0,P|359:245|419:198,1,187.500007152558,2|0,0:0|0:0,0:0:0:0:
391,120,49497,6,0,L|406:202,1,62.5,2|0,0:0|0:0,0:0:0:0:
437,367,49724,1,8,0:0:0:0:
348,322,49838,2,0,P|310:313|277:317,1,62.5,2|0,0:0|0:0,0:0:0:0:
125,338,50065,1,0,0:0:0:0:
273,166,50179,6,0,P|274:124|248:157,1,109.375,4|0,0:0|0:0,0:0:0:0:
149,108,50633,21,8,0:0:0:0:
130,100,50747,1,8,3:0:0:0:
302,91,50860,1,4,3:0:0:0:
319,77,50974,1,4,3:0:0:0:
254,297,51088,6,0,L|236:173,1,125,4|4,0:1|0:0,0:0:0:0:
208,66,51997,2,0,L|225:189,1,125,4|4,0:0|0:0,0:0:0:0:
247,317,52906,21,4,0:0:0:0:
219,50,53360,1,4,0:0:0:0:
155,347,53814,1,4,0:0:0:0:
318,24,54269,1,4,0:0:0:0:
133,213,54724,5,4,0:0:0:0:
292,185,54951,2,0,L|321:180,3,15.625,8|0|0|0,0:0|0:0|0:0|0:0,0:0:0:0:
335,269,55179,1,4,0:0:0:0:
119,231,55406,2,0,L|90:226,3,15.625,8|0|0|0,0:0|0:0|0:0|0:0,0:0:0:0:
76,315,55633,1,4,0:0:0:0:
349,287,55860,2,0,L|378:282,3,15.625,8|0|0|0,0:0|0:0|0:0|0:0,0:0:0:0:
392,371,56088,21,6,0:0:0:0:
299,366,56201,1,2,0:0:0:0:
256,282,56315,1,2,0:0:0:0:
309,201,56429,1,2,0:0:0:0:
163,275,56542,21,4,0:1:0:0:
256,192,56599,12,4,58360,0:1:0:0:
256,192,71997,12,0,72792,0:0:0:0:
145,143,72906,6,0,L|94:134,3,46.8750017881394,4|0|0|0,0:1|0:0|0:0|0:0,0:0:0:0:
214,224,73360,2,0,P|221:247|220:289,1,46.8750017881394,2|0,0:0|0:0,0:0:0:0:
99,290,73588,2,0,P|100:266|107:244,1,46.8750017881394,2|0,0:0|0:0,0:0:0:0:
251,124,73815,22,0,L|302:115,3,46.8750017881394,4|0|0|0,0:0|0:0|0:0|0:0,0:0:0:0:
302,210,74269,2,0,P|324:215|348:214,1,46.8750017881394,2|0,0:0|0:0,0:0:0:0:
482,141,74497,2,0,P|459:140|436:145,1,46.8750017881394,2|0,0:0|0:0,0:0:0:0:
324,308,74724,22,0,P|319:330|320:354,3,46.8750017881394,4|0|0|0,0:0|0:0|0:0|0:0,0:0:0:0:
464,304,75179,2,0,L|400:299,1,46.8750017881394,2|0,0:0|0:0,0:0:0:0:
191,280,75406,2,0,L|255:275,1,46.8750017881394,2|0,0:0|0:0,0:0:0:0:
310,132,75633,22,0,P|315:109|314:85,3,46.8750017881394,4|0|0|0,0:0|0:0|0:0|0:0,0:0:0:0:
259,238,76088,2,0,P|258:261|263:284,1,46.8750017881394,2|0,0:0|0:0,0:0:0:0:
161,162,76315,2,0,P|148:182|142:204,1,46.8750017881394,2|0,0:0|0:0,0:0:0:0:
217,54,76542,22,0,P|210:31|198:11,3,46.8750017881394,4|0|0|0,0:0|0:0|0:0|0:0,0:0:0:0:
314,85,76997,2,0,L|374:91,1,46.8750017881394,2|0,0:0|0:0,0:0:0:0:
357,204,77224,2,0,L|405:239,1,46.8750017881394,2|0,0:0|0:0,0:0:0:0:
284,319,77451,22,0,L|293:378,3,46.8750017881394,4|0|0|0,0:0|0:0|0:0|0:0,0:0:0:0:
210,209,77906,2,0,P|185:202|157:204,1,46.8750017881394,2|0,0:0|0:0,0:0:0:0:
44,293,78133,2,0,P|67:293|89:286,1,46.8750017881394,2|0,0:0|0:0,0:0:0:0:
130,93,78360,21,4,0:0:0:0:
135,75,78474,1,0,0:0:0:0:
141,57,78588,1,0,0:0:0:0:
147,39,78701,1,0,0:0:0:0:
80,4,78815,21,2,0:0:0:0:
100,23,78929,1,0,0:0:0:0:
111,48,79042,1,0,0:0:0:0:
112,76,79156,1,0,0:0:0:0:
59,142,79269,21,4,0:0:0:0:
105,134,79383,1,0,0:0:0:0:
151,126,79497,1,0,0:0:0:0:
197,119,79610,1,0,0:0:0:0:
236,34,79724,5,2,0:0:0:0:
192,95,79838,1,2,0:0:0:0:
222,163,79951,1,2,0:0:0:0:
295,171,80065,1,2,0:0:0:0:
385,52,80179,6,0,L|446:31,1,46.8750017881394,4|0,0:1|0:0,0:0:0:0:
440,164,80406,2,0,L|499:201,1,46.8750017881394,2|0,0:0|0:0,0:0:0:0:
417,277,80633,21,2,0:0:0:0:
420,296,80747,1,2,0:0:0:0:
330,341,80860,1,2,0:0:0:0:
321,368,80974,1,2,0:0:0:0:
216,369,81088,22,0,P|193:377|159:380,3,46.8750017881394,6|0|0|0,0:0|0:0|0:0|0:0,0:0:0:0:
245,208,81542,22,0,P|253:185|256:151,3,46.8750017881394,2|0|0|0,0:0|0:0|0:0|0:0,0:0:0:0:
55,254,81997,22,0,L|117:269,1,46.8750017881394,4|0,0:0|0:0,0:0:0:0:
49,122,82224,2,0,L|95:165,1,46.8750017881394,2|0,0:0|0:0,0:0:0:0:
114,19,82451,21,2,0:0:0:0:
121,44,82565,1,2,0:0:0:0:
183,129,82679,1,2,0:0:0:0:
193,95,82792,1,2,0:0:0:0:
292,66,82906,21,4,0:0:0:0:
281,111,83019,1,0,0:0:0:0:
270,156,83133,1,0,0:0:0:0:
259,201,83247,1,0,0:0:0:0:
174,163,83360,21,2,0:0:0:0:
192,236,83474,1,0,0:0:0:0:
210,308,83588,1,0,0:0:0:0:
228,380,83701,1,0,0:0:0:0:
332,290,83815,6,0,L|370:295,7,23.4375008940697,2|0|0|0|0|0|0|0,0:0|0:0|0:0|0:0|0:0|0:0|0:0|0:0,0:0:0:0:
192,236,84269,22,0,L|154:241,7,23.4375008940697,2|0|0|0|0|0|0|0,0:0|0:0|0:0|0:0|0:0|0:0|0:0|0:0,0:0:0:0:
379,171,84724,22,0,L|417:176,7,23.4375008940697,2|0|0|0|0|0|0|0,0:0|0:0|0:0|0:0|0:0|0:0|0:0|0:0,0:0:0:0:
145,117,85179,22,0,L|107:122,7,23.4375008940697,2|0|0|0|0|0|0|0,0:0|0:0|0:0|0:0|0:0|0:0|0:0|0:0,0:0:0:0:
426,52,85633,21,4,0:0:0:0:
256,192,85690,12,12,86997,0:1:0:0:
182,233,87451,6,0,P|277:252|195:303,1,250,4|0,0:1|0:0,0:0:0:0:
125,276,87792,1,2,0:0:0:0:
227,261,87906,2,0,L|289:252,1,62.5,8|0,0:0|0:0,0:0:0:0:
375,144,88133,2,0,L|313:135,1,62.5,2|0,0:0|0:0,0:0:0:0:
145,24,88360,6,0,L|153:85,1,62.5,4|0,0:0|0:0,0:0:0:0:
136,177,88701,1,0,0:0:0:0:
407,40,88815,2,0,L|394:138,1,93.75,8|0,0:0|0:0,0:0:0:0:
292,383,89269,6,0,B|233:358|234:298|234:298|162:306|162:306|178:278|170:239,1,250,4|0,0:0|0:0,0:0:0:0:
88,264,89610,1,2,0:0:0:0:
317,303,89725,2,0,L|387:314,1,62.5,8|0,0:0|0:0,0:0:0:0:
504,210,89951,2,0,L|439:220,1,62.5,2|0,0:0|0:0,0:0:0:0:
199,266,90179,6,0,P|213:221|205:176,1,93.75,4|0,0:0|0:0,0:0:0:0:
5,61,90633,2,0,P|40:62|66:55,1,62.5,8|0,0:0|0:0,0:0:0:0:
35,104,90747,2,0,P|62:90|85:69,1,62.5
83,126,90860,2,0,P|99:100|108:70,1,62.5
134,120,90974,2,0,P|135:89|127:59,1,62.5
212,56,91088,6,0,B|206:84|221:117|221:117|205:176|205:176|243:115|313:135,1,250,4|0,0:0|0:0,0:0:0:0:
390,200,91429,1,2,0:0:0:0:
281,274,91543,2,0,P|287:243|282:213,1,62.5,8|0,0:0|0:0,0:0:0:0:
212,56,91769,2,0,L|286:69,1,62.5,2|0,0:0|0:0,0:0:0:0:
450,96,91997,6,0,P|464:133|464:163,1,62.5,4|0,0:0|0:0,0:0:0:0:
451,246,92338,1,0,0:0:0:0:
302,59,92451,2,0,P|333:89|351:137,1,93.75,8|0,0:0|0:0,0:0:0:0:
334,278,92906,6,0,B|394:264|394:264|460:271,1,125,4|0,0:0|0:0,0:0:0:0:
474,254,93133,2,0,L|340:239,1,125
121,165,93360,2,0,P|133:195|133:227,1,62.5,8|0,0:0|0:0,0:0:0:0:
163,178,93474,2,0,P|166:210|158:240,1,62.5
200,201,93588,2,0,P|194:232|179:259,1,62.5
229,232,93701,2,0,P|215:261|193:283,1,62.5
264,317,93815,22,0,L|189:304,1,62.5,6|2,0:0|0:0,0:0:0:0:
94,328,94042,2,0,L|60:334,3,31.25,2|2|2|2,0:0|0:0|0:0|0:0,0:0:0:0:
49,206,94269,6,0,L|75:231,1,31.25,2|0,0:0|0:0,0:0:0:0:
123,111,94497,2,0,L|133:145,1,31.25,2|0,0:0|0:0,0:0:0:0:
348,194,94724,6,0,B|308:213|288:260|308:308|308:308|194:283,1,250,4|0,0:1|0:0,0:0:0:0:
35,249,95065,1,2,0:0:0:0:
116,311,95179,2,0,P|147:310|176:300,1,62.5,8|0,0:0|0:0,0:0:0:0:
255,173,95406,2,0,P|255:141|244:112,1,62.5,2|0,0:0|0:0,0:0:0:0:
294,369,95633,6,0,L|308:307,1,62.5,4|0,0:0|0:0,0:0:0:0:
432,198,95974,1,0,0:0:0:0:
170,124,96088,2,0,L|193:222,1,93.75,8|0,0:0|0:0,0:0:0:0:
360,106,96542,6,0,B|346:177|346:177|406:132|406:132|451:172|503:150,1,250,4|0,0:0|0:0,0:0:0:0:
467,75,96883,1,2,0:0:0:0:
325,184,96997,2,0,P|295:192|263:193,1,62.5,8|0,0:0|0:0,0:0:0:0:
272,19,97224,2,0,P|303:19|333:28,1,62.5,2|0,0:0|0:0,0:0:0:0:
167,123,97451,6,0,P|139:97|177:91,1,93.75,4|0,0:0|0:0,0:0:0:0:
240,220,97906,1,8,0:0:0:0:
255,138,98019,2,0,L|262:107,1,31.25
303,49,98247,22,0,L|289:119,1,62.5
261,335,98360,6,0,P|260:258|393:288,1,250,4|0,0:0|0:0,0:0:0:0:
322,296,98701,1,2,0:0:0:0:
170,308,98816,2,0,P|138:306|110:294,1,62.5,8|0,0:0|0:0,0:0:0:0:
251,225,99042,2,0,P|249:193|237:165,1,62.5,2|0,0:0|0:0,0:0:0:0:
106,8,99269,6,0,L|113:77,1,62.5,4|0,0:0|0:0,0:0:0:0:
67,151,99610,1,0,0:0:0:0:
273,111,99724,2,0,B|210:103|210:103|231:113|242:134,1,109.375,8|0,0:0|0:0,0:0:0:0:
172,176,100179,6,0,P|193:199|222:213,1,62.5,4|0,0:0|0:0,0:0:0:0:
302,195,100292,2,0,L|337:201,1,31.25
315,220,100406,2,0,L|354:238,1,31.25
321,248,100519,2,0,P|338:260|348:272,1,31.25
282,323,100633,2,0,P|251:314|220:314,1,62.5,4|0,0:0|0:0,0:0:0:0:
82,320,100860,2,0,P|131:314|93:282,1,125
75,198,101088,6,0,P|64:164|63:135,1,62.5
144,158,101201,2,0,P|142:122|148:94,1,62.5
240,78,101315,2,0,P|263:51|288:36,2,62.5
191,253,101656,1,2,0:0:0:0:
260,182,101769,1,0,0:0:0:0:
364,216,101883,1,2,0:0:0:0:
435,112,101997,22,0,P|370:175|497:229,1,281.250010728836,4|0,0:1|0:0,0:0:0:0:
445,121,102451,6,0,L|441:184,1,62.5,10|0,0:0|0:0,0:0:0:0:
393,349,102679,1,0,0:0:0:0:
363,215,102792,2,0,L|351:154,1,62.5,2|4,0:0|0:0,0:0:0:0:
372,343,103020,1,0,0:0:0:0:
279,214,103133,2,0,L|253:158,1,62.5,2|0,0:0|0:0,0:0:0:0:
351,337,103360,2,0,P|322:328|288:329,1,62.5,10|0,0:0|0:0,0:0:0:0:
141,361,103588,2,0,P|172:361|201:352,1,62.5,2|0,0:0|0:0,0:0:0:0:
164,90,103815,6,0,B|152:182|152:182|190:267|190:267|146:248|98:268,1,281.250010728836,4|0,0:0|0:0,0:0:0:0:
43,331,104269,6,0,P|56:303|77:280,1,62.5,10|0,0:0|0:0,0:0:0:0:
279,214,104497,1,0,0:0:0:0:
123,184,104610,2,0,L|46:171,1,62.5,2|4,0:0|0:0,0:0:0:0:
186,47,104838,1,2,0:0:0:0:
200,144,104951,22,0,L|204:174,1,31.25,2|0,0:0|0:0,0:0:0:0:
226,158,105065,2,0,L|238:186,1,31.25,2|0,0:0|0:0,0:0:0:0:
307,233,105179,22,0,P|320:204|343:180,1,62.5,10|0,0:0|0:0,0:0:0:0:
344,218,105292,2,0,P|368:189|393:177,1,62.5,2|0,0:0|0:0,0:0:0:0:
476,168,105406,22,0,L|485:248,1,62.5,2|2,0:0|0:0,0:0:0:0:
499,374,105633,6,0,B|517:321|474:289|419:305|421:357|421:357|363:339|363:339|332:355|294:351,1,281.250010728836,4|0,0:0|0:0,0:0:0:0:
180,281,106088,6,0,L|252:302,1,62.5,10|0,0:0|0:0,0:0:0:0:
462,352,106315,1,0,0:0:0:0:
377,252,106429,2,0,P|364:220|366:176,1,62.5,2|4,0:0|0:0,0:0:0:0:
469,330,106656,1,0,0:0:0:0:
507,192,106769,2,0,P|510:157|497:115,1,62.5,2|0,0:0|0:0,0:0:0:0:
275,59,106997,2,0,L|352:69,1,62.5,10|0,0:0|0:0,0:0:0:0:
490,115,107224,2,0,L|413:125,1,62.5,2|0,0:0|0:0,0:0:0:0:
173,169,107451,6,0,B|154:221|185:262|185:262|152:351|152:351|190:320|240:338,1,281.250010728836,4|0,0:0|0:0,0:0:0:0:
56,243,107906,6,0,L|47:167,1,62.5,8|0,0:0|0:0,0:0:0:0:
90,209,108019,2,0,L|101:134,1,62.5
129,184,108133,2,0,P|141:152|160:124,1,62.5
173,169,108247,2,0,P|191:144|226:126,1,62.5
303,135,108360,22,0,L|394:126,1,62.5,6|2,0:0|0:0,0:0:0:0:
447,107,108588,2,0,L|483:104,3,31.25,2|2|2|2,0:0|0:0|0:0|0:0,0:0:0:0:
341,46,108815,6,0,L|336:15,1,31.25,2|0,0:0|0:0,0:0:0:0:
323,216,109042,2,0,L|319:247,1,31.25,2|0,0:0|0:0,0:0:0:0:
155,89,109269,22,0,B|107:89|68:141|96:192|96:192|164:185|164:185|228:217,1,281.250010728836,4|0,0:1|0:0,0:0:0:0:
251,293,109724,6,0,P|252:261|242:232,1,62.5,10|0,0:0|0:0,0:0:0:0:
17,181,109951,1,0,0:0:0:0:
158,161,110065,2,0,L|239:149,1,62.5,2|4,0:0|0:0,0:0:0:0:
101,252,110292,1,0,0:0:0:0:
242,232,110406,2,0,L|323:220,1,62.5,2|0,0:0|0:0,0:0:0:0:
185,323,110633,2,0,P|175:353|177:384,1,62.5,10|0,0:0|0:0,0:0:0:0:
394,242,110860,2,0,P|395:210|385:181,1,62.5,2|0,0:0|0:0,0:0:0:0:
277,46,111088,6,0,P|340:151|435:56,1,281.250010728836,4|0,0:0|0:0,0:0:0:0:
368,9,111542,6,0,L|355:71,1,62.5,10|0,0:0|0:0,0:0:0:0:
315,231,111769,1,0,0:0:0:0:
172,87,111883,2,0,L|185:148,1,62.5,2|4,0:0|0:0,0:0:0:0:
217,310,112110,1,0,0:0:0:0:
181,232,112224,22,0,P|167:240|155:250,1,31.25,2|0,0:0|0:0,0:0:0:0:
138,224,112338,2,0,P|125:236|116:248,1,31.25,2|0,0:0|0:0,0:0:0:0:
129,332,112451,22,0,P|162:336|190:328,1,62.5,10|2,0:0|0:0,0:0:0:0:
277,167,112679,6,0,P|280:152|280:135,1,31.25,2|0,0:0|0:0,0:0:0:0:
264,58,112792,2,0,P|255:89|256:120,1,62.5,2|0,0:0|0:0,0:0:0:0:
305,366,112906,22,0,B|381:309|483:345|483:345|453:306|464:252,1,281.250010728836,4|0,0:0|0:0,0:0:0:0:
486,178,113360,6,0,P|447:186|411:182,1,62.5,10|0,0:0|0:0,0:0:0:0:
234,134,113588,1,0,0:0:0:0:
271,244,113701,2,0,P|271:275|264:305,1,62.5,2|4,0:0|0:0,0:0:0:0:
105,357,113929,1,0,0:0:0:0:
141,246,114042,2,0,P|141:214|134:184,1,62.5,2|0,0:0|0:0,0:0:0:0:
15,70,114269,2,0,L|95:82,1,62.5,10|0,0:0|0:0,0:0:0:0:
296,125,114497,2,0,L|216:137,1,62.5,2|0,0:0|0:0,0:0:0:0:
62,223,114724,6,0,P|64:145|161:109,1,187.500007152558,4|0,0:0|0:0,0:0:0:0:
163,239,115065,2,0,L|134:184,1,62.5,2|8,0:0|0:0,0:0:0:0:
76,79,115292,1,0,0:0:0:0:
283,145,115406,2,0,L|222:155,1,62.5,2|0,0:0|0:0,0:0:0:0:
20,289,115633,22,0,L|61:242,1,62.5
182,350,115974,6,0,P|151:351|123:339,1,62.5,8|0,3:0|0:0,0:0:0:0:
270,289,116201,2,0,P|298:277|330:279,1,62.5,8|0,3:0|0:0,0:0:0:0:
431,322,116429,1,4,3:0:0:0:
380,167,116542,6,0,B|359:198|359:198|472:182|472:182|443:158,1,187.5,4|0,0:1|0:0,0:0:0:0:
263,190,116997,6,0,P|263:221|273:249,1,62.5,10|0,0:0|0:0,0:0:0:0:
230,82,117224,1,0,0:0:0:0:
167,152,117338,2,0,P|158:181|161:212,1,62.5,2|4,0:0|0:0,0:0:0:0:
226,69,117565,1,0,0:0:0:0:
81,143,117679,2,0,P|51:151|20:148,1,62.5,2|0,0:0|0:0,0:0:0:0:
162,50,117906,2,0,P|192:46|222:54,1,62.5,10|0,0:0|0:0,0:0:0:0:
320,210,118133,2,0,P|289:205|262:189,1,62.5,2|0,0:0|0:0,0:0:0:0:
424,51,118360,6,0,B|420:85|394:105|394:105|448:140|448:219,1,187.5,4|0,0:0|0:0,0:0:0:0:
344,41,118815,6,0,P|307:33|273:38,1,62.5,10|0,0:0|0:0,0:0:0:0:
144,183,119042,1,0,0:0:0:0:
243,129,119156,2,0,P|280:121|314:126,1,62.5,2|4,0:0|0:0,0:0:0:0:
443,243,119383,1,2,0:0:0:0:
350,216,119497,22,0,P|332:211|312:209,1,31.25,2|0,0:0|0:0,0:0:0:0:
313,232,119610,2,0,P|294:231|274:235,1,31.25,2|0,0:0|0:0,0:0:0:0:
217,293,119724,22,0,P|229:264|252:243,1,62.5,10|0,0:0|0:0,0:0:0:0:
203,258,119838,2,0,P|223:234|250:219,1,62.5,2|0,0:0|0:0,0:0:0:0:
297,314,119951,22,0,P|251:368|192:373,1,125,2|0,0:0|0:0,0:0:0:0:
77,115,120179,6,0,B|88:207|88:207|146:132,1,187.5,4|0,0:0|0:0,0:0:0:0:
82,226,120633,6,0,P|70:269|74:298,1,62.5,10|0,0:0|0:0,0:0:0:0:
217,177,120860,1,0,0:0:0:0:
166,273,120974,2,0,P|165:317|176:344,1,62.5,2|4,0:0|0:0,0:0:0:0:
230,182,121201,1,0,0:0:0:0:
259,296,121315,2,0,P|280:334|304:352,1,62.5,2|0,0:0|0:0,0:0:0:0:
382,209,121542,2,0,L|311:218,1,62.5,10|0,0:0|0:0,0:0:0:0:
154,169,121769,2,0,L|225:178,1,62.5,2|0,0:0|0:0,0:0:0:0:
384,280,121997,6,0,P|435:257|409:143,1,187.5,4|0,0:0|0:0,0:0:0:0:
267,79,122451,6,0,L|195:64,1,62.5,8|0,0:0|0:0,0:0:0:0:
243,99,122565,2,0,L|178:102,1,62.5
224,124,122679,2,0,L|163:143,1,62.5
212,153,122792,2,0,L|154:188,1,62.5
198,251,122906,22,0,P|198:282|209:311,1,62.5,2|2,0:0|0:0,0:0:0:0:
273,364,123133,2,0,L|319:368,3,31.25,2|2|2|2,0:0|0:0|0:0|0:0,0:0:0:0:
128,313,123360,6,0,L|85:310,1,31.25,2|0,0:0|0:0,0:0:0:0:
303,277,123588,2,0,L|346:274,1,31.25,2|0,0:0|0:0,0:0:0:0:
114,203,123815,22,0,B|103:108|103:108|123:14|123:14|88:49|39:44,1,281.250010728836,4|0,0:1|0:0,0:0:0:0:
182,116,124269,6,0,P|214:124|246:120,1,62.5,10|0,0:0|0:0,0:0:0:0:
389,67,124497,1,0,0:0:0:0:
252,210,124610,2,0,P|283:200|309:181,1,62.5,2|4,0:0|0:0,0:0:0:0:
377,62,124838,1,0,0:0:0:0:
359,256,124951,2,0,P|381:232|394:202,1,62.5,2|0,0:0|0:0,0:0:0:0:
366,57,125179,2,0,L|373:136,1,62.5,10|0,0:0|0:0,0:0:0:0:
257,272,125406,2,0,L|251:209,1,62.5,2|0,0:0|0:0,0:0:0:0:
198,38,125633,6,0,B|247:169|247:169|280:29,1,281.250010728836,4|0,0:0|0:0,0:0:0:0:
118,52,126088,6,0,L|140:111,1,62.5,10|0,0:0|0:0,0:0:0:0:
175,206,126315,1,0,0:0:0:0:
365,23,126429,2,0,L|351:84,1,62.5,2|4,0:0|0:0,0:0:0:0:
327,182,126656,1,2,0:0:0:0:
426,172,126769,22,0,L|467:184,1,31.25,2|0,0:0|0:0,0:0:0:0:
432,203,126883,2,0,L|468:225,1,31.25,2|0,0:0|0:0,0:0:0:0:
392,322,126997,22,0,L|373:250,1,62.5,10|0,0:0|0:0,0:0:0:0:
355,309,127110,2,0,L|318:244,1,62.5,2|0,0:0|0:0,0:0:0:0:
258,215,127224,22,0,P|219:203|184:208,1,62.5,6|6,0:0|0:0,0:0:0:0:
59,301,127451,6,0,B|84:237|84:237|72:113,1,187.500007152558,4|0,0:2|0:0,0:0:0:0:
54,107,127792,2,0,B|65:220|65:220|104:223|128:257,1,187.500007152558,4|0,0:0|0:0,0:0:0:0:
134,337,128133,2,0,P|174:272|277:288,1,187.500007152558,4|0,0:0|0:0,0:0:0:0:
297,362,128474,2,0,L|290:269,1,93.7500035762788,0|2,0:0|0:0,0:0:0:0:
296,146,128644,1,2,0:0:0:0:
296,146,128701,1,2,0:0:0:0:
296,146,128758,1,2,0:0:0:0:
296,146,128815,2,0,L|306:266,1,109.375
184,172,129269,21,4,0:0:0:0:
256,192,129326,12,4,131088,0:1:0:0:
164,142,138133,5,4,0:0:0:0:
346,118,138360,5,4,0:1:0:0:
256,192,138417,12,0,145519,0:0:0:0:
398,132,145633,6,0,B|460:119|460:119|500:126,2,93.75,4|0|0,0:0|0:0|0:0,0:0:0:0:
317,192,146542,2,0,P|357:147|207:155,1,375
280,119,148133,21,0,0:0:0:0:
266,199,148360,1,0,0:0:0:0:
328,251,148588,1,0,0:0:0:0:
314,331,148815,1,0,0:0:0:0:
376,383,149042,1,0,0:0:0:0:
237,358,149269,22,0,B|174:344|174:344|137:350,2,93.75
239,276,150179,2,0,B|180:263|180:263|115:270,1,125
96,259,151088,21,0,0:0:0:0:
106,185,151201,1,0,0:0:0:0:
116,111,151315,2,0,B|101:95|94:69|102:46|123:28|148:25|174:30|189:49|194:78|186:95|186:95|247:78|247:78|299:118|370:93,1,375
442,28,152906,22,0,L|455:121,2,93.75,12|0|0,1:0|0:0|0:0,0:0:0:0:
366,94,153815,2,0,B|377:172|377:172|434:215|434:215|460:247|466:309|407:340|363:326|334:297|332:259,1,375
356,184,155406,21,0,0:0:0:0:
276,170,155633,1,0,0:0:0:0:
224,261,155860,1,0,0:0:0:0:
304,247,156087,1,0,0:0:0:0:
196,156,156315,1,0,0:0:0:0:
144,275,156542,22,0,P|139:305|152:370,2,93.75
182,174,157451,2,0,B|121:182|121:182|61:162,1,125
205,182,158360,6,0,B|268:174|268:174|296:183,2,93.75,4|0|0,0:0|0:0|0:0,0:0:0:0:
260,257,159269,2,0,P|304:265|350:245,1,93.75,8|2,3:0|0:0,0:0:0:0:
377,170,159724,1,8,0:0:0:0:
281,55,159951,2,0,L|312:51,1,31.25,4|0,3:0|0:0,0:0:0:0:
475,27,160179,22,0,B|463:120|463:120|475:174,2,140.625005364418,4|0|0,0:1|0:0|0:0,0:0:0:0:
359,156,161088,2,0,P|314:170|268:165,1,93.7500035762788
142,52,161542,2,0,L|149:145,1,93.7500035762788
215,278,161997,22,0,B|210:215|210:215|230:158|230:158|226:94,1,187.500007152558
292,227,162679,1,0,0:0:0:0:
383,248,162906,1,0,0:0:0:0:
328,70,163133,1,0,0:0:0:0:
265,138,163360,1,0,0:0:0:0:
446,179,163588,1,0,0:0:0:0:
419,90,163815,22,0,B|379:65|328:69|328:69|317:45|296:32,2,140.625005364418
236,190,164724,2,0,P|234:144|255:103,1,93.7500035762788
446,179,165179,2,0,P|448:225|427:266,1,93.7500035762788
252,331,165633,5,2,0:0:0:0:
174,312,165747,1,0,0:0:0:0:
96,293,165860,1,0,0:0:0:0:
90,270,165974,1,2,0:0:0:0:
276,239,166201,1,0,0:0:0:0:
282,217,166315,1,2,0:0:0:0:
58,134,166542,2,0,L|34:29,1,93.7500035762788,2|0,0:0|0:0,0:0:0:0:
96,195,166883,2,0,L|127:92,1,93.7500035762788,2|0,0:0|0:0,0:0:0:0:
98,266,167224,1,2,0:0:0:0:
178,255,167338,1,0,0:0:0:0:
258,244,167451,6,0,P|308:282|293:365,2,140.625005364418,4|0|0,0:1|0:0|0:0,0:0:0:0:
170,362,168360,2,0,B|184:337|184:337|244:314,1,93.7500035762788
425,259,168815,2,0,P|396:215|396:174,1,93.7500035762788
503,52,169269,22,0,P|478:138|391:156,1,187.500007152558
237,67,169951,1,0,0:0:0:0:
319,257,170179,1,0,0:0:0:0:
420,75,170406,1,0,0:0:0:0:
308,280,170633,1,0,0:0:0:0:
214,57,170860,1,0,0:0:0:0:
172,298,171088,22,0,L|188:206,1,93.7500035762788,2|0,0:0|0:0,0:0:0:0:
151,290,171429,2,0,L|118:202,1,93.7500035762788,2|0,0:0|0:0,0:0:0:0:
131,281,171769,1,2,0:0:0:0:
325,238,171997,1,0,0:0:0:0:
30,181,172451,1,0,0:0:0:0:
395,128,172906,6,0,B|382:163|397:197|397:197|413:232|402:268,2,140.625005364418
107,221,173815,2,0,B|120:186|105:152|105:152|89:117|100:84,2,140.625005364418
335,58,174724,6,0,L|427:44,1,93.7500035762788,4|0,0:1|0:0,0:0:0:0:
186,83,175179,2,0,L|93:69,1,93.7500035762788
345,142,175633,2,0,L|437:128,1,93.7500035762788
196,167,176088,2,0,L|103:153,1,93.7500035762788
351,274,176542,22,0,P|366:317|361:364,1,93.7500035762788,4|0,0:1|0:0,0:0:0:0:
113,364,176997,2,0,P|109:316|125:272,1,93.7500035762788
302,187,177451,1,0,0:0:0:0:
176,159,177679,1,0,0:0:0:0:
340,79,177906,1,0,0:0:0:0:
150,52,178133,1,0,0:0:0:0:
222,262,178360,21,4,0:1:0:0:
127,45,178701,1,0,0:0:0:0:
363,71,179042,1,0,0:0:0:0:
234,171,179269,2,0,P|219:216|222:262,1,93.7500035762788
431,285,179724,2,0,P|445:240|442:194,1,93.7500035762788
278,55,180179,5,4,0:1:0:0:
361,68,180292,1,0,0:0:0:0:
444,81,180406,1,0,0:0:0:0:
435,57,180519,1,2,0:0:0:0:
299,159,180747,1,0,0:0:0:0:
308,135,180860,1,2,0:0:0:0:
381,288,181088,1,2,0:0:0:0:
196,253,181315,1,0,0:0:0:0:
171,247,181429,1,2,0:0:0:0:
164,115,181656,1,0,0:0:0:0:
145,97,181770,1,2,0:0:0:0:
295,41,181997,6,0,B|308:49|340:51|340:51|383:24|430:46,2,140.625005364418,4|0|0,0:1|0:0|0:0,0:0:0:0:
406,207,182906,2,0,P|407:161|388:119,1,93.7500035762788
214,324,183360,2,0,L|316:312,1,93.7500035762788
121,77,183815,22,0,L|109:179,1,93.7500035762788,4|0,0:1|0:0,0:0:0:0:
411,322,184269,2,0,L|399:220,1,93.7500035762788
194,314,184724,1,0,0:0:0:0:
130,184,184951,1,0,0:0:0:0:
297,271,185179,1,0,0:0:0:0:
367,106,185406,1,0,0:0:0:0:
128,296,185633,22,0,P|81:311|29:304,1,93.7500035762788,4|0,0:1|0:0,0:0:0:0:
389,99,186088,2,0,P|436:96|480:110,1,93.7500035762788
107,259,186542,2,0,P|58:262|10:241,1,93.7500035762788
411,137,186997,2,0,P|456:145|495:171,1,93.7500035762788
75,164,187451,21,4,0:1:0:0:
256,192,187508,12,4,189269,3:1:0:0:
51,329,203815,6,0,P|106:288|111:221,1,140.625005364418,4|0,0:1|0:0,0:0:0:0:
34,249,204269,1,2,0:0:0:0:
230,317,204497,1,0,0:0:0:0:
303,299,204610,1,2,0:0:0:0:
128,204,204838,1,0,0:0:0:0:
199,224,204951,1,2,0:0:0:0:
290,157,205179,1,2,0:0:0:0:
272,45,205406,1,2,0:0:0:0:
449,154,205633,22,0,B|356:137|356:137|291:155,1,140.625005364418
359,223,206088,1,2,0:0:0:0:
183,161,206315,1,0,0:0:0:0:
110,137,206429,1,2,0:0:0:0:
134,284,206656,5,0,0:0:0:0:
100,290,206770,1,2,0:0:0:0:
205,288,206883,21,0,0:0:0:0:
194,321,206997,1,2,0:0:0:0:
245,230,207110,21,0,0:0:0:0:
268,256,207224,1,2,0:0:0:0:
84,97,207451,6,0,B|177:114|177:114|242:96,1,140.625005364418
65,23,207906,1,2,0:0:0:0:
144,221,208133,1,0,0:0:0:0:
156,146,208246,1,2,0:0:0:0:
65,375,208474,1,0,0:0:0:0:
50,300,208587,1,2,0:0:0:0:
179,345,208815,1,2,0:0:0:0:
287,265,209042,1,2,0:0:0:0:
419,292,209269,22,0,B|390:151,1,140.625005364418
416,74,209724,1,2,0:0:0:0:
235,126,209951,1,0,0:0:0:0:
162,107,210065,1,2,0:0:0:0:
285,235,210292,5,0,0:0:0:0:
212,254,210406,1,2,0:0:0:0:
191,243,210519,21,0,0:0:0:0:
118,262,210633,1,2,0:0:0:0:
97,251,210746,21,0,0:0:0:0:
24,270,210860,1,2,0:0:0:0:
399,335,211088,37,4,0:1:0:0:
288,350,211315,1,2,0:0:0:0:
177,365,211542,1,2,0:0:0:0:
66,380,211769,1,2,0:0:0:0:
16,173,211997,5,2,0:0:0:0:
127,188,212224,1,2,0:0:0:0:
238,203,212451,1,2,0:0:0:0:
349,218,212678,1,2,0:0:0:0:
164,70,212906,21,2,0:0:0:0:
123,292,213133,1,2,0:0:0:0:
345,333,213360,1,2,0:0:0:0:
386,111,213588,1,2,0:0:0:0:
84,170,213815,21,2,0:0:0:0:
223,371,214042,1,2,0:0:0:0:
424,232,214269,1,2,0:0:0:0:
285,31,214497,1,2,0:0:0:0:
123,292,214724,21,2,0:0:0:0:
202,270,214838,1,2,0:0:0:0:
281,246,214951,1,2,0:0:0:0:
359,222,215065,1,2,0:0:0:0:
451,72,215179,21,2,0:0:0:0:
361,105,215292,1,2,0:0:0:0:
347,199,215406,1,2,0:0:0:0:
417,260,215519,1,2,0:0:0:0:
509,232,215633,22,0,L|487:241,1,23.4375008940697,2|2,0:0|0:0,0:0:0:0:
489,325,215747,2,0,L|470:310,1,23.4375008940697,2|2,0:0|0:0,0:0:0:0:
397,356,215860,2,0,L|400:333,1,23.4375008940697,2|2,0:0|0:0,0:0:0:0:
324,292,215974,2,0,L|345:285,1,23.4375008940697,2|2,0:0|0:0,0:0:0:0:
403,226,216088,22,0,P|405:213|406:195,1,31.25,2|2,0:0|0:0,0:0:0:0:
385,125,216201,2,0,P|375:113|361:105,1,31.25,2|2,0:0|0:0,0:0:0:0:
291,89,216315,2,0,P|277:92|261:100,1,31.25,2|2,0:0|0:0,0:0:0:0:
212,154,216429,2,0,P|207:166|204:183,1,31.25,2|2,0:0|0:0,0:0:0:0:
229,314,216542,5,4,0:0:0:0:
256,192,216599,12,4,217906,3:2:0:0:
131,186,218360,6,0,B|107:335|107:335|142:321,1,187.499994277954,4|0,0:1|0:0,0:0:0:0:
385,50,218815,2,0,L|408:199,1,149.999995422363,10|0,0:0|0:0,0:0:0:0:
230,115,219156,2,0,L|242:195,1,74.9999977111817,2|4,0:0|0:0,0:0:0:0:
264,353,219383,1,0,0:0:0:0:
250,256,219497,2,0,L|245:217,1,37.4999988555909,2|0,0:0|0:0,0:0:0:0:
57,210,219724,2,0,P|134:238|98:364,1,224.999993133545,10|0,0:0|0:0,0:0:0:0:
452,329,220179,22,0,P|375:301|411:175,1,224.999993133545,4|0,0:0|0:0,0:0:0:0:
477,181,220519,1,0,0:0:0:0:
439,249,220633,2,0,P|377:259|320:198,1,149.999995422363,10|0,0:0|0:0,0:0:0:0:
302,45,220974,2,0,L|312:136,1,74.9999977111817,2|4,0:0|0:0,0:0:0:0:
337,334,221201,1,0,0:0:0:0:
243,169,221315,2,0,P|188:155|155:162,1,74.9999977111817,2|0,0:0|0:0,0:0:0:0:
403,81,221542,2,0,P|425:67|464:59,1,62.5,10|0,0:0|0:0,0:0:0:0:
434,107,221656,2,0,P|460:105|497:118,1,62.5
447,145,221769,2,0,P|470:157|496:186,1,62.5
439,184,221883,2,0,P|452:205|461:245,1,62.5
326,334,221997,22,0,P|376:301|380:241,1,125,4|0,0:0|0:0,0:0:0:0:
336,98,222224,1,2,0:0:0:0:
314,265,222338,1,2,0:0:0:0:
269,119,222451,22,0,P|276:59|328:28,1,125,8|0,0:0|0:0,0:0:0:0:
373,219,222679,1,2,0:0:0:0:
170,146,222792,1,2,0:0:0:0:
422,145,222906,22,0,B|511:134|511:134|498:150|492:168,1,125,4|0,0:0|0:0,0:0:0:0:
225,237,223133,1,2,0:0:0:0:
424,120,223247,1,2,0:0:0:0:
178,169,223360,22,0,B|88:179|88:179|104:191|114:207,1,125,8|0,0:0|0:0,0:0:0:0:
292,301,223588,2,0,B|311:328|319:377,3,62.5
422,145,223815,22,0,B|404:295|404:295|381:218,1,224.999993133545,4|0,0:0|0:0,0:0:0:0:
175,79,224269,2,0,L|163:28,1,37.4999988555909,8|0,0:0|0:0,0:0:0:0:
184,150,224383,2,0,L|172:99,1,37.4999988555909
193,222,224497,2,0,L|181:171,1,37.4999988555909
202,293,224610,2,0,L|222:375,1,74.9999977111817,0|6,0:0|0:0,0:0:0:0:
320,161,224838,1,2,0:0:0:0:
309,244,224951,2,0,L|301:299,3,37.4999988555909,2|2|2|2,0:0|0:0|0:0|0:0,0:0:0:0:
207,199,225179,6,0,L|244:193,1,37.4999988555909,2|0,0:0|0:0,0:0:0:0:
421,205,225406,2,0,L|385:212,1,37.4999988555909,2|0,0:0|0:0,0:0:0:0:
57,268,225633,6,0,P|127:219|109:127,1,187.499994277954,4|0,0:1|0:0,0:0:0:0:
388,33,226088,2,0,P|318:82|317:148,1,149.999995422363,8|0,0:0|0:0,0:0:0:0:
129,41,226429,2,0,P|165:58|195:96,1,74.9999977111817,2|4,0:0|0:0,0:0:0:0:
242,259,226656,1,0,0:0:0:0:
218,145,226769,2,0,P|208:119|200:106,1,37.4999988555909,2|0,0:0|0:0,0:0:0:0:
101,302,226997,2,0,B|174:282|174:282|247:291|247:291|320:272,1,224.999993133545,10|0,0:0|0:0,0:0:0:0:
423,82,227451,22,0,B|349:101|349:101|276:92|276:92|203:111,1,224.999993133545,4|0,0:0|0:0,0:0:0:0:
73,147,227792,1,0,0:0:0:0:
282,177,227906,2,0,L|137:216,1,149.999995422363,10|0,0:0|0:0,0:0:0:0:
392,252,228247,2,0,L|309:275,1,74.9999977111817,2|4,0:0|0:0,0:0:0:0:
71,332,228474,1,0,0:0:0:0:
223,300,228588,2,0,L|296:280,1,74.9999977111817,2|0,0:0|0:0,0:0:0:0:
115,224,228815,2,0,L|187:203,1,74.9999977111817,10|0,0:0|0:0,0:0:0:0:
6,147,229042,1,0,0:0:0:0:
240,80,229156,1,0,0:0:0:0:
27,55,229269,22,0,L|138:68,1,112.499996566773,4|0,0:0|0:0,0:0:0:0:
343,89,229497,1,2,0:0:0:0:
180,162,229610,1,2,0:0:0:0:
395,189,229724,22,0,L|284:176,1,112.499996566773,8|0,0:0|0:0,0:0:0:0:
80,146,229951,1,2,0:0:0:0:
220,255,230064,1,2,0:0:0:0:
7,230,230179,22,0,L|118:243,1,112.499996566773,4|0,0:0|0:0,0:0:0:0:
323,264,230407,1,2,0:0:0:0:
160,337,230520,1,2,0:0:0:0:
375,364,230633,22,0,L|263:350,1,112.499996566773,8|0,0:0|0:0,0:0:0:0:
60,321,230860,1,2,0:0:0:0:
323,264,230974,1,2,0:0:0:0:
143,65,231088,6,0,L|113:34,3,37.4999988555909
180,208,231542,22,0,L|155:289,3,74.9999977111817
285,104,231997,22,0,L|349:88,3,56.2499982833863
203,125,232224,2,0,L|130:142,1,74.9999977111817
367,184,232451,5,8,0:3:0:0:
158,279,232565,1,8,0:3:0:0:
292,308,232679,2,0,L|364:325,1,74.9999977111817,4|0,0:3|0:0,0:0:0:0:
50,351,232906,22,0,B|80:206|80:206|72:156,1,187.499994277954,4|0,0:1|0:0,0:0:0:0:
462,33,233360,2,0,L|429:189,1,149.999995422363,10|0,0:0|0:0,0:0:0:0:
118,51,233701,2,0,P|156:76|171:107,1,74.9999977111817,2|4,0:0|0:0,0:0:0:0:
261,343,233929,1,0,0:0:0:0:
306,161,234042,2,0,L|315:117,1,37.4999988555909,2|0,0:0|0:0,0:0:0:0:
505,294,234269,2,0,P|406:335|326:264,1,224.999993133545,10|0,0:0|0:0,0:0:0:0:
35,209,234724,22,0,P|133:250|213:179,1,224.999993133545,4|0,0:0|0:0,0:0:0:0:
214,99,235065,1,0,0:0:0:0:
315,175,235179,2,0,L|472:150,1,149.999995422363,10|0,0:0|0:0,0:0:0:0:
209,263,235519,2,0,L|131:250,1,74.9999977111817,2|4,0:0|0:0,0:0:0:0:
286,379,235747,1,0,0:0:0:0:
56,298,235860,2,0,P|44:263|49:219,1,74.9999977111817,2|0,0:0|0:0,0:0:0:0:
168,62,236088,2,0,P|144:74|122:98,1,56.2499982833863,10|0,0:0|0:0,0:0:0:0:
240,65,236201,2,0,P|213:63|181:73,1,56.2499982833863
300,103,236315,2,0,P|277:88|245:81,1,56.2499982833863
332,165,236429,2,0,P|340:191|339:219,1,56.2499982833863
164,298,236542,22,0,B|216:277|216:277|278:284,1,112.499996566773,4|0,0:0|0:0,0:0:0:0:
462,313,236769,1,2,0:0:0:0:
228,362,236883,1,2,0:0:0:0:
354,264,236997,22,0,P|365:203|350:147,1,112.499996566773,8|0,0:0|0:0,0:0:0:0:
228,22,237224,1,2,0:0:0:0:
462,76,237338,1,2,0:0:0:0:
272,100,237452,22,0,B|216:107|216:107|164:86,1,112.499996566773,4|0,0:0|0:0,0:0:0:0:
0,11,237679,1,2,0:0:0:0:
90,216,237792,1,2,0:0:0:0:
257,119,237906,22,0,B|313:112|313:112|365:133,1,112.499996566773,8|0,0:0|0:0,0:0:0:0:
428,303,238133,2,0,P|438:328|444:356,3,56.2499982833863
509,141,238360,22,0,B|360:158|360:158|290:129,1,224.999993133545,4|0,0:0|0:0,0:0:0:0:
90,64,238815,2,0,P|112:64|132:71,1,37.4999988555909,8|0,0:0|0:0,0:0:0:0:
100,135,238929,2,0,P|119:145|132:162,1,37.4999988555909
73,201,239042,2,0,P|84:220|87:240,1,37.4999988555909
70,318,239156,2,0,P|117:301|153:305,1,74.9999977111817,0|6,0:0|0:0,0:0:0:0:
348,342,239383,1,2,0:0:0:0:
335,259,239497,2,0,L|331:221,3,37.4999988555909,2|2|2|2,0:0|0:0|0:0|0:0,0:0:0:0:
451,294,239724,6,0,L|413:290,1,37.4999988555909,2|0,0:0|0:0,0:0:0:0:
215,254,239951,2,0,L|253:250,1,37.4999988555909,2|0,0:0|0:0,0:0:0:0:
471,86,240179,6,0,B|437:50|376:43|331:64|331:64|342:45|359:31,1,187.499994277954,4|0,0:1|0:0,0:0:0:0:
409,317,240633,2,0,P|419:244|387:178,1,149.999995422363,10|0,0:0|0:0,0:0:0:0:
208,155,240974,2,0,P|248:143|295:144,1,74.9999977111817,2|4,0:0|0:0,0:0:0:0:
452,238,241201,1,0,0:0:0:0:
188,168,241315,2,0,P|169:162|153:152,1,37.4999988555909,2|0,0:0|0:0,0:0:0:0:
374,199,241542,2,0,P|403:265|290:328,1,224.999993133545,10|0,0:0|0:0,0:0:0:0:
105,213,241997,22,0,P|88:111|187:83,1,224.999993133545,4|0,0:0|0:0,0:0:0:0:
244,138,242338,1,0,0:0:0:0:
147,279,242451,2,0,P|184:217|154:152,1,149.999995422363,10|0,0:0|0:0,0:0:0:0:
51,300,242792,2,0,L|128:291,1,74.9999977111817,2|4,0:0|0:0,0:0:0:0:
305,272,243019,1,0,0:0:0:0:
243,152,243133,2,0,P|240:114|252:79,1,74.9999977111817,2|0,0:0|0:0,0:0:0:0:
402,98,243360,2,0,P|405:135|394:171,1,74.9999977111817,10|0,0:0|0:0,0:0:0:0:
303,297,243588,1,0,0:0:0:0:
323,125,243701,1,0,0:0:0:0:
119,197,243815,5,4,0:0:0:0:
110,186,243929,1,0,0:0:0:0:
103,164,244042,1,0,0:0:0:0:
106,134,244156,1,0,0:0:0:0:
130,105,244269,1,2,0:0:0:0:
174,96,244383,1,0,0:0:0:0:
221,118,244497,1,0,0:0:0:0:
260,162,244610,1,0,0:0:0:0:
319,194,244724,1,0,0:0:0:0:
393,185,244838,1,0,0:0:0:0:
454,130,244951,1,0,0:0:0:0:
447,39,245065,1,0,0:0:0:0:
357,0,245179,1,2,0:0:0:0:
263,46,245292,1,0,0:0:0:0:
237,155,245406,1,0,0:0:0:0:
297,258,245519,1,0,0:0:0:0:
421,288,245633,6,0,L|468:283,7,37.4999988555909
278,246,246088,2,0,L|240:242,7,37.4999988555909,2|0|0|0|0|0|0|0,0:0|0:0|0:0|0:0|0:0|0:0|0:0|0:0,0:0:0:0:
414,109,246542,2,0,P|411:146|397:181,1,74.9999977111817,8|0,0:0|0:0,0:0:0:0:
263,32,246769,2,0,P|280:65|285:103,1,74.9999977111817
147,149,246997,21,8,0:0:0:0:
165,29,247110,1,8,3:0:0:0:
302,120,247224,21,4,3:0:0:0:
246,18,247338,1,4,3:0:0:0:
240,242,247451,22,0,P|294:311|401:257,1,224.999993133545,4|0,0:1|0:0,0:0:0:0:
446,30,247906,2,0,B|455:79|455:79|430:177,1,149.999995422363,10|0,0:0|0:0,0:0:0:0:
322,233,248247,2,0,L|343:148,1,74.9999977111817,2|4,0:0|0:0,0:0:0:0:
285,39,248474,1,0,0:0:0:0:
240,242,248588,2,0,L|231:278,1,37.4999988555909,2|0,0:0|0:0,0:0:0:0:
118,66,248815,2,0,P|53:83|62:218,1,224.999993133545,10|0,0:0|0:0,0:0:0:0:
394,66,249269,22,0,P|458:83|450:218,1,224.999993133545,4|0,0:0|0:0,0:0:0:0:
320,252,249610,1,0,0:0:0:0:
407,148,249724,2,0,B|335:169|335:169|250:158,1,149.999995422363,10|0,0:0|0:0,0:0:0:0:
43,56,250065,2,0,L|120:66,1,74.9999977111817,2|4,0:0|0:0,0:0:0:0:
330,91,250292,1,0,0:0:0:0:
158,188,250406,2,0,P|145:224|147:261,1,74.9999977111817,2|0,0:0|0:0,0:0:0:0:
363,330,250633,2,0,L|243:345,1,112.499996566773,10|0,0:0|0:0,0:0:0:0:
29,158,250860,2,0,L|140:171,1,112.499996566773
349,196,251088,21,4,0:0:0:0:
239,238,251201,1,0,0:0:0:0:
354,170,251315,1,2,0:0:0:0:
235,262,251428,1,2,0:0:0:0:
277,137,251542,21,8,0:0:0:0:
311,297,251656,1,0,0:0:0:0:
254,128,251769,1,2,0:0:0:0:
335,307,251883,1,2,0:0:0:0:
361,145,251997,21,4,0:0:0:0:
232,286,252110,1,0,0:0:0:0:
231,120,252224,1,2,0:0:0:0:
357,317,252337,1,2,0:0:0:0:
187,203,252451,22,0,B|151:190|105:207|105:207|118:200|126:189,1,112.499996566773,8|0,0:0|0:0,0:0:0:0:
167,70,252679,2,0,B|175:42|175:42|173:12,3,56.2499982833863
67,44,252906,21,4,0:0:0:0:
78,132,253019,1,0,0:0:0:0:
89,221,253133,2,0,L|97:304,1,74.9999977111817
285,9,253360,2,0,L|288:46,1,37.4999988555909,8|0,0:0|0:0,0:0:0:0:
273,96,253474,2,0,L|277:134,1,37.4999988555909
262,184,253588,2,0,L|266:222,1,37.4999988555909
258,348,253701,2,0,L|252:274,1,74.9999977111817,0|6,0:0|0:0,0:0:0:0:
197,132,253929,1,2,0:0:0:0:
360,153,254042,2,0,L|410:159,3,37.4999988555909,2|2|2|2,0:0|0:0|0:0|0:0,0:0:0:0:
184,215,254269,6,0,L|146:219,1,37.4999988555909,2|0,0:0|0:0,0:0:0:0:
364,238,254497,2,0,L|398:252,1,37.4999988555909,2|0,0:0|0:0,0:0:0:0:
189,38,254724,6,0,B|252:45|252:45|293:71|293:71|339:56|339:56|403:64,1,224.999993133545,4|0,0:1|0:0,0:0:0:0:
311,337,255179,2,0,B|225:325|225:325|164:342,1,149.999995422363,10|0,0:0|0:0,0:0:0:0:
417,277,255519,2,0,P|425:240|419:203,1,74.9999977111817,2|4,0:0|0:0,0:0:0:0:
292,95,255747,1,0,0:0:0:0:
210,252,255860,2,0,P|213:271|220:289,1,37.4999988555909,2|0,0:0|0:0,0:0:0:0:
212,72,256088,2,0,P|297:11|373:83,1,224.999993133545,10|0,0:0|0:0,0:0:0:0:
299,311,256542,22,0,P|214:372|139:301,1,224.999993133545,4|0,0:0|0:0,0:0:0:0:
149,149,256883,1,0,0:0:0:0:
220,289,256997,2,0,B|210:215|210:215|241:184|237:147,1,149.999995422363,10|0,0:0|0:0,0:0:0:0:
87,86,257338,2,0,P|65:116|60:153,1,74.9999977111817,2|4,0:0|0:0,0:0:0:0:
188,54,257565,1,0,0:0:0:0:
111,245,257679,2,0,L|121:319,1,74.9999977111817,2|0,0:0|0:0,0:0:0:0:
274,216,257906,2,0,L|245:285,1,74.9999977111817,10|0,0:0|0:0,0:0:0:0:
424,265,258133,1,0,0:0:0:0:
361,180,258247,1,0,0:0:0:0:
399,83,258360,21,4,0:0:0:0:
383,189,258474,1,0,0:0:0:0:
377,74,258588,1,2,0:0:0:0:
405,198,258702,1,2,0:0:0:0:
273,50,258815,21,8,0:0:0:0:
293,180,258929,1,0,0:0:0:0:
295,43,259042,1,2,0:0:0:0:
271,185,259156,1,2,0:0:0:0:
148,41,259269,21,4,0:0:0:0:
158,199,259383,1,0,0:0:0:0:
126,33,259497,1,2,0:0:0:0:
180,206,259610,1,2,0:0:0:0:
61,99,259724,22,0,B|34:110|17:134|17:134|26:165|48:181,1,112.499996566773,8|0,0:0|0:0,0:0:0:0:
180,206,259951,1,0,0:0:0:0:
75,275,260065,1,0,0:0:0:0:
189,327,260179,6,0,L|237:319,3,37.4999988555909
271,233,260633,2,0,L|316:250,3,37.4999988555909
389,192,261088,22,0,L|419:229,7,37.4999988555909
380,328,261542,5,8,0:0:0:0:
91,168,261769,1,8,0:0:0:0:
437,62,261997,22,0,B|362:50|362:50|290:71|290:71|324:49|323:8,1,224.999993133545,4|0,0:1|0:0,0:0:0:0:
301,248,262451,2,0,B|375:259|375:259|457:237,1,149.999995422363,10|0,0:0|0:0,0:0:0:0:
219,124,262792,2,0,P|217:173|232:209,1,74.9999977111817,2|4,0:0|0:0,0:0:0:0:
322,350,263019,1,0,0:0:0:0:
120,329,263133,2,0,L|82:323,1,37.4999988555909,2|0,0:0|0:0,0:0:0:0:
227,51,263360,2,0,B|232:123|232:123|213:197|213:197|218:273,1,224.999993133545,10|0,0:0|0:0,0:0:0:0:
14,159,263815,22,0,P|87:63|148:111,1,224.999993133545,4|0,0:0|0:0,0:0:0:0:
232,297,264156,1,0,0:0:0:0:
300,206,264269,2,0,P|375:182|445:192,1,149.999995422363,10|0,0:0|0:0,0:0:0:0:
237,372,264610,2,0,L|231:280,1,74.9999977111817,2|4,0:0|0:0,0:0:0:0:
216,35,264838,1,0,0:0:0:0:
222,131,264951,2,0,L|226:205,1,74.9999977111817,2|0,0:0|0:0,0:0:0:0:
365,53,265179,2,0,P|432:51|477:75,1,112.499996566773,10|0,0:0|0:0,0:0:0:0:
448,272,265406,2,0,P|381:274|336:250,1,112.499996566773
132,47,265633,21,4,0:0:0:0:
111,159,265747,1,0,0:0:0:0:
205,93,265860,1,2,0:0:0:0:
226,205,265974,1,2,0:0:0:0:
124,31,266088,21,8,0:0:0:0:
99,165,266202,1,0,0:0:0:0:
212,86,266315,1,2,0:0:0:0:
237,220,266429,1,2,0:0:0:0:
117,15,266542,21,4,0:0:0:0:
87,172,266656,1,0,0:0:0:0:
219,79,266769,1,2,0:0:0:0:
249,236,266883,1,2,0:0:0:0:
342,71,266997,22,0,P|383:55|417:111,1,112.499996566773,8|0,0:0|0:0,0:0:0:0:
350,249,267224,2,0,B|343:278|343:278|345:305,3,56.2499982833863
444,201,267451,21,4,0:0:0:0:
355,216,267565,1,0,0:0:0:0:
266,231,267679,2,0,L|172:248,1,74.9999977111817
224,51,267906,2,0,P|221:31|213:11,1,37.4999988555909,8|0,0:0|0:0,0:0:0:0:
199,118,268019,2,0,P|206:99|209:77,1,37.4999988555909
143,163,268133,2,0,P|158:150|172:133,1,37.4999988555909
74,187,268247,2,0,P|36:186|2:172,1,74.9999977111817,0|6,0:0|0:0,0:0:0:0:
136,372,268474,1,2,0:0:0:0:
266,231,268588,2,0,L|273:173,3,37.4999988555909,2|2|2|2,0:0|0:0|0:0|0:0,0:0:0:0:
343,319,268815,6,0,L|380:314,1,37.4999988555909,2|0,0:0|0:0,0:0:0:0:
180,274,269042,2,0,L|122:281,1,37.4999988555909,2|0,0:0|0:0,0:0:0:0:
344,16,269269,6,0,B|334:91|334:91|358:162|358:162|348:238,1,224.999993133545,4|0,0:1|0:0,0:0:0:0:
430,7,269724,2,0,B|420:82|420:82|498:60,1,149.999995422363,10|0,0:0|0:0,0:0:0:0:
259,33,270065,2,0,L|177:55,1,74.9999977111817,2|4,0:0|0:0,0:0:0:0:
13,101,270292,1,0,0:0:0:0:
234,180,270406,2,0,P|262:180|286:172,1,37.4999988555909,2|0,0:0|0:0,0:0:0:0:
95,35,270633,2,0,B|105:110|105:110|81:181|81:181|91:257,1,224.999993133545,10|0,0:0|0:0,0:0:0:0:
380,313,271088,22,0,P|429:221|350:154,1,224.999993133545,4|0,0:0|0:0,0:0:0:0:
211,177,271429,1,0,0:0:0:0:
349,237,271542,2,0,P|422:193|426:119,1,149.999995422363,10|0,0:0|0:0,0:0:0:0:
261,35,271883,2,0,L|273:124,1,74.9999977111817,2|0,0:0|0:0,0:0:0:0:
302,348,272110,1,0,0:0:0:0:
144,164,272224,2,0,P|109:150|69:151,1,74.9999977111817,2|0,0:0|0:0,0:0:0:0:
75,332,272451,2,0,P|112:332|146:318,1,74.9999977111817,10|0,0:0|0:0,0:0:0:0:
351,123,272679,1,0,0:0:0:0:
281,337,272792,1,0,0:0:0:0:
234,40,272906,21,4,0:0:0:0:
256,192,272963,12,0,274610,0:0:0:0:
276,252,274724,21,2,0:0:0:0:
256,192,274781,12,4,276542,0:1:0:0:
139,53,291088,38,0,B|127:146|127:146|81:179,1,140.625005364418,4|0,0:1|0:0,0:0:0:0:
51,99,291542,1,2,0:0:0:0:
220,68,291769,1,0,0:0:0:0:
294,52,291883,1,2,0:0:0:0:
267,199,292110,1,0,0:0:0:0:
339,222,292224,1,2,0:0:0:0:
138,249,292451,1,2,0:0:0:0:
173,383,292679,1,2,0:0:0:0:
379,295,292906,22,0,P|415:251|398:165,1,140.625005364418
418,91,293360,1,2,0:0:0:0:
250,108,293588,1,0,0:0:0:0:
177,90,293701,1,2,0:0:0:0:
252,207,293929,5,0,0:0:0:0:
259,230,294042,1,2,0:0:0:0:
196,278,294156,21,0,0:0:0:0:
189,301,294269,1,2,0:0:0:0:
292,340,294383,21,0,0:0:0:0:
299,363,294496,1,2,0:0:0:0:
84,336,294724,6,0,B|90:288|90:288|72:245|72:245|79:197,1,140.625005364418
71,117,295179,1,2,0:0:0:0:
230,220,295406,1,0,0:0:0:0:
156,233,295519,1,2,0:0:0:0:
352,166,295747,1,0,0:0:0:0:
278,153,295860,1,2,0:0:0:0:
325,322,296088,1,2,0:0:0:0:
449,238,296315,1,2,0:0:0:0:
389,82,296542,22,0,P|418:44|460:112,1,140.625005364418
417,161,296997,1,2,0:0:0:0:
270,42,297224,1,0,0:0:0:0:
286,117,297338,1,2,0:0:0:0:
121,165,297565,5,0,0:0:0:0:
196,181,297679,1,2,0:0:0:0:
201,205,297792,21,0,0:0:0:0:
100,245,297906,1,2,0:0:0:0:
95,269,298019,21,0,0:0:0:0:
222,286,298133,1,2,0:0:0:0:
158,32,298360,5,4,0:1:0:0:
243,106,298588,1,2,0:0:0:0:
349,69,298815,1,2,0:0:0:0:
434,143,299042,1,2,0:0:0:0:
136,145,299269,5,2,0:0:0:0:
221,219,299497,1,2,0:0:0:0:
327,182,299724,1,2,0:0:0:0:
412,256,299951,1,2,0:0:0:0:
114,258,300179,21,2,0:0:0:0:
219,59,300406,1,2,0:0:0:0:
418,164,300633,1,2,0:0:0:0:
313,363,300860,1,2,0:0:0:0:
125,136,301088,21,2,0:0:0:0:
340,70,301315,1,2,0:0:0:0:
406,285,301542,1,2,0:0:0:0:
191,351,301769,1,2,0:0:0:0:
219,59,301997,21,2,0:0:0:0:
211,140,302110,1,2,0:0:0:0:
136,173,302224,1,2,0:0:0:0:
69,124,302338,1,2,0:0:0:0:
152,9,302451,21,2,0:0:0:0:
144,91,302565,1,2,0:0:0:0:
136,173,302679,1,2,0:0:0:0:
128,255,302792,1,2,0:0:0:0:
184,319,302906,22,0,L|218:334,1,23.4375008940697,2|2,0:0|0:0,0:0:0:0:
277,330,303019,2,0,L|313:325,1,23.4375008940697,2|2,0:0|0:0,0:0:0:0:
363,293,303133,2,0,L|392:271,1,23.4375008940697,2|2,0:0|0:0,0:0:0:0:
418,217,303247,2,0,L|432:183,1,23.4375008940697,2|2,0:0|0:0,0:0:0:0:
427,123,303360,22,0,L|392:130,1,31.25,2|2,0:0|0:0,0:0:0:0:
356,47,303474,2,0,L|346:77,1,31.25,2|2,0:0|0:0,0:0:0:0:
255,70,303588,2,0,L|275:93,1,31.25,2|2,0:0|0:0,0:0:0:0:
224,168,303701,2,0,L|254:161,1,31.25,2|2,0:0|0:0,0:0:0:0:
293,243,303815,5,4,0:0:0:0:
256,192,303872,12,4,305179,3:2:0:0:
366,21,305633,6,0,B|379:114|379:114|354:204|354:204|384:164|438:172,1,281.250010728836,4|0,0:1|0:0,0:0:0:0:
295,109,306088,6,0,L|286:47,1,62.5,10|0,0:0|0:0,0:0:0:0:
244,216,306315,1,0,0:0:0:0:
420,254,306429,2,0,P|437:286|441:318,1,62.5,2|4,0:0|0:0,0:0:0:0:
238,193,306656,1,0,0:0:0:0:
359,311,306770,2,0,P|357:347|345:376,1,62.5,2|0,0:0|0:0,0:0:0:0:
125,287,306997,2,0,L|198:280,1,62.5,10|0,0:0|0:0,0:0:0:0:
383,176,307224,2,0,L|310:169,1,62.5,2|0,0:0|0:0,0:0:0:0:
99,67,307451,6,0,P|94:156|159:59,1,281.250010728836,4|0,0:0|0:0,0:0:0:0:
285,28,307906,6,0,P|277:71|281:95,1,62.5,10|0,0:0|0:0,0:0:0:0:
362,275,308133,1,0,0:0:0:0:
249,262,308247,2,0,L|176:255,1,62.5,2|4,0:0|0:0,0:0:0:0:
37,242,308474,1,2,0:0:0:0:
115,173,308588,22,0,P|122:156|126:138,1,31.25,2|0,0:0|0:0,0:0:0:0:
151,147,308701,2,0,P|148:128|143:111,1,31.25,2|0,0:0|0:0,0:0:0:0:
76,24,308815,22,0,P|70:51|74:84,1,46.8750017881394,10|0,0:0|0:0,0:0:0:0:
107,51,308929,2,0,P|115:77|135:103,1,46.8750017881394,2|0,0:0|0:0,0:0:0:0:
227,143,309042,22,0,P|258:143|286:132,1,62.5,2|2,0:0|0:0,0:0:0:0:
410,15,309269,6,0,B|392:77|445:135|508:121|508:121|471:167|488:221,1,281.250010728836,4|0,0:0|0:0,0:0:0:0:
410,249,309724,6,0,P|400:215|401:177,1,62.5,10|0,0:0|0:0,0:0:0:0:
490,39,309951,1,0,0:0:0:0:
333,117,310065,2,0,P|303:116|271:107,1,62.5,2|4,0:0|0:0,0:0:0:0:
128,10,310292,1,0,0:0:0:0:
209,166,310406,2,0,P|217:196|218:227,1,62.5,2|0,0:0|0:0,0:0:0:0:
88,327,310633,2,0,L|169:319,1,62.5,10|0,0:0|0:0,0:0:0:0:
390,287,310860,2,0,L|309:279,1,62.5,2|0,0:0|0:0,0:0:0:0:
62,253,311088,6,0,B|75:207|49:165|49:165|65:100|120:72|120:72|88:83|52:67,1,281.250010728836,4|0,0:0|0:0,0:0:0:0:
207,49,311542,6,0,P|229:49|260:58,1,46.8750017881394,8|0,0:0|0:0,0:0:0:0:
240,18,311656,2,0,P|259:30|281:53,1,46.8750017881394
283,5,311769,2,0,P|294:25|301:56,1,46.8750017881394
328,9,311883,2,0,P|328:33|319:62,1,46.8750017881394
399,44,311997,22,0,P|394:74|380:102,1,62.5,6|2,0:0|0:0,0:0:0:0:
287,132,312224,2,0,P|271:131|256:126,3,31.25,2|2|2|2,0:0|0:0|0:0|0:0,0:0:0:0:
430,167,312451,6,0,L|390:173,1,31.25,2|0,0:0|0:0,0:0:0:0:
254,229,312679,2,0,L|284:224,1,31.25,2|0,0:0|0:0,0:0:0:0:
458,255,312906,22,0,P|439:344|299:285,1,281.250010728836,4|0,0:1|0:0,0:0:0:0:
403,141,313360,6,0,L|392:202,1,62.5,10|0,0:0|0:0,0:0:0:0:
381,285,313588,1,0,0:0:0:0:
248,134,313701,2,0,L|269:192,1,62.5,2|4,0:0|0:0,0:0:0:0:
300,269,313929,1,0,0:0:0:0:
107,163,314042,2,0,L|154:202,1,62.5,2|0,0:0|0:0,0:0:0:0:
221,314,314269,2,0,P|225:278|210:237,1,62.5,10|0,0:0|0:0,0:0:0:0:
32,129,314497,2,0,P|25:159|29:190,1,62.5,2|0,0:0|0:0,0:0:0:0:
265,68,314724,6,0,B|170:81|170:81|82:54|82:54|124:86|120:136,1,281.250010728836,4|0,0:0|0:0,0:0:0:0:
48,273,315179,6,0,P|77:261|102:233,1,62.5,10|0,0:0|0:0,0:0:0:0:
174,44,315406,1,0,0:0:0:0:
114,157,315519,2,0,P|117:198|128:226,1,62.5,2|4,0:0|0:0,0:0:0:0:
223,333,315747,1,0,0:0:0:0:
287,257,315860,22,0,P|300:248|315:243,1,31.25,2|0,0:0|0:0,0:0:0:0:
309,268,315974,2,0,P|324:264|339:262,1,31.25,2|0,0:0|0:0,0:0:0:0:
422,270,316088,22,0,P|415:239|418:208,1,62.5,10|2,0:0|0:0,0:0:0:0:
503,54,316315,6,0,L|457:58,1,31.25,2|0,0:0|0:0,0:0:0:0:
389,34,316429,2,0,P|420:34|449:44,1,62.5,2|0,0:0|0:0,0:0:0:0:
497,234,316542,22,0,P|447:348|341:284,1,281.25,4|0,0:0|0:0,0:0:0:0:
439,123,316997,6,0,P|445:172|440:194,1,62.5,10|0,0:0|0:0,0:0:0:0:
422,270,317224,1,0,0:0:0:0:
226,185,317338,2,0,P|223:153|229:123,1,62.5,2|4,0:0|0:0,0:0:0:0:
273,46,317565,1,0,0:0:0:0:
130,148,317679,2,0,P|99:154|68:151,1,62.5,2|0,0:0|0:0,0:0:0:0:
174,10,317906,2,0,L|166:86,1,62.5,10|0,0:0|0:0,0:0:0:0:
205,267,318133,2,0,L|211:204,1,62.5,2|0,0:0|0:0,0:0:0:0:
351,44,318360,22,0,P|385:34|415:34,1,62.5,4|0,0:0|0:0,0:0:0:0:
348,90,318474,2,0,P|372:64|398:49,1,62.5
368,131,318588,2,0,P|376:96|391:70,1,62.5
405,156,318701,2,0,P|395:121|395:91,1,62.5
485,77,318815,2,0,L|424:69,1,62.5,4|0,0:0|0:0,0:0:0:0:
212,48,319042,2,0,P|261:54|223:86,1,125
198,169,319269,6,0,P|187:198|187:233,1,62.5,4|0,0:0|0:0,0:0:0:0:
271,203,319383,2,0,P|267:233|276:267,1,62.5
356,302,319497,2,0,L|417:293,2,62.5
427,272,319838,1,2,0:0:0:0:
446,191,319951,1,0,0:0:0:0:
385,134,320065,1,2,0:0:0:0:
404,53,320179,22,0,P|391:115|324:54,1,187.5,4|0,0:1|0:0,0:0:0:0:
470,12,320633,6,0,P|487:52|488:81,1,62.5,10|0,0:0|0:0,0:0:0:0:
376,206,320860,1,0,0:0:0:0:
239,94,320974,2,0,P|238:62|247:33,1,62.5,2|4,0:0|0:0,0:0:0:0:
379,230,321201,1,0,0:0:0:0:
196,264,321315,2,0,P|164:265|134:256,1,62.5,2|0,0:0|0:0,0:0:0:0:
33,186,321542,2,0,L|38:258,1,62.5,10|0,0:0|0:0,0:0:0:0:
103,102,321769,2,0,L|98:30,1,62.5,2|0,0:0|0:0,0:0:0:0:
189,171,321997,6,0,B|195:264|195:264|277:193,1,187.5,4|0,0:0|0:0,0:0:0:0:
349,205,322451,6,0,P|318:202|288:209,1,62.5,10|0,0:0|0:0,0:0:0:0:
232,344,322679,1,0,0:0:0:0:
419,251,322792,2,0,P|393:233|363:223,1,62.5,2|4,0:0|0:0,0:0:0:0:
100,335,323019,1,2,0:0:0:0:
142,222,323133,22,0,L|149:191,1,31.25,2|0,0:0|0:0,0:0:0:0:
123,190,323247,2,0,L|114:159,1,31.25,2|0,0:0|0:0,0:0:0:0:
92,75,323360,22,0,L|112:151,1,62.5,10|0,0:0|0:0,0:0:0:0:
131,83,323474,2,0,P|153:112|175:130,1,62.5,2|0,0:0|0:0,0:0:0:0:
254,84,323588,22,0,P|316:90|373:66,1,125,2|2,0:0|0:0,0:0:0:0:
188,22,323815,6,0,B|206:68|254:84|254:84|242:177,1,187.5,4|0,0:0|0:0,0:0:0:0:
316,217,324269,6,0,L|325:139,1,62.5,10|0,0:0|0:0,0:0:0:0:
392,50,324497,1,0,0:0:0:0:
389,255,324610,2,0,L|398:177,1,62.5,2|4,0:0|0:0,0:0:0:0:
465,88,324838,1,0,0:0:0:0:
462,293,324951,2,0,P|441:320|413:334,1,62.5,2|0,0:0|0:0,0:0:0:0:
223,273,325179,2,0,P|250:288|268:313,1,62.5,10|0,0:0|0:0,0:0:0:0:
98,360,325406,2,0,L|105:297,1,62.5,2|0,0:0|0:0,0:0:0:0:
111,97,325633,6,0,B|105:156|105:156|127:215|127:215|121:279,1,187.5,4|0,0:0|0:0,0:0:0:0:
190,146,326088,6,0,P|209:140|251:140,1,62.5,8|0,0:0|0:0,0:0:0:0:
222,113,326201,2,0,P|241:117|275:141,1,62.5
266,100,326315,2,0,P|280:113|299:151,1,62.5
310,110,326429,2,0,P|316:129|314:173,1,62.5
398,174,326542,22,0,P|388:204|367:234,1,62.5,6|2,0:0|0:0,0:0:0:0:
306,278,326769,2,0,L|270:282,3,31.25,2|2|2|2,0:0|0:0|0:0|0:0,0:0:0:0:
384,320,326997,6,0,L|415:323,1,31.25,2|0,0:0|0:0,0:0:0:0:
196,239,327224,2,0,L|164:235,1,31.25,2|0,0:0|0:0,0:0:0:0:
399,72,327451,22,0,P|305:176|239:95,1,281.250010728836,4|0,0:1|0:0,0:0:0:0:
311,33,327906,6,0,L|321:95,1,62.5,10|0,0:0|0:0,0:0:0:0:
344,259,328133,1,0,0:0:0:0:
228,73,328247,2,0,L|237:134,1,62.5,2|4,0:0|0:0,0:0:0:0:
260,298,328474,1,0,0:0:0:0:
144,112,328588,2,0,L|153:173,1,62.5,2|0,0:0|0:0,0:0:0:0:
216,381,328815,2,0,P|191:363|176:337,1,62.5,10|0,0:0|0:0,0:0:0:0:
387,175,329042,2,0,P|412:193|428:220,1,62.5,2|0,0:0|0:0,0:0:0:0:
121,256,329269,6,0,B|151:271|204:265|222:221|222:221|154:175|154:175|137:74,1,281.250010728836,4|0,0:0|0:0,0:0:0:0:
126,10,329724,6,0,L|136:71,1,62.5,10|0,0:0|0:0,0:0:0:0:
73,189,329951,1,0,0:0:0:0:
240,80,330065,2,0,P|276:68|308:70,1,62.5,2|4,0:0|0:0,0:0:0:0:
435,104,330292,1,2,0:0:0:0:
285,150,330406,22,0,P|269:161|258:172,1,31.25,2|0,0:0|0:0,0:0:0:0:
282,185,330519,2,0,P|273:202|269:217,1,31.25,2|0,0:0|0:0,0:0:0:0:
304,281,330633,22,0,P|297:250|299:219,1,62.5,10|0,0:0|0:0,0:0:0:0:
351,289,330747,2,0,P|330:266|317:238,1,62.5,2|0,0:0|0:0,0:0:0:0:
364,170,330860,6,0,P|375:180|389:187,1,31.25,2|0,0:0|0:0,0:0:0:0:
474,193,330974,2,0,P|443:199|412:197,1,62.5,2|0,0:0|0:0,0:0:0:0:
174,11,331088,22,0,B|205:73|205:73|183:189,1,187.500007152558,4|0,0:0|0:0,0:0:0:0:
73,293,331429,1,2,0:0:0:0:
107,147,331542,2,0,L|120:86,1,62.5,8|0,0:0|0:0,0:0:0:0:
292,60,331769,2,0,L|280:122,1,62.5,2|0,0:0|0:0,0:0:0:0:
251,271,331997,2,0,L|263:209,1,62.5,4|0,0:0|0:0,0:0:0:0:
261,294,332338,1,2,0:0:0:0:
261,294,332394,1,2,0:0:0:0:
261,294,332451,2,0,P|306:317|350:308,1,93.75,2|0,0:0|0:0,0:0:0:0:
364,185,332906,22,0,P|391:239|368:296,1,125,4|0,0:1|0:0,0:0:0:0:
252,189,333247,2,0,L|264:127,1,62.5,2|0,0:0|0:0,0:0:0:0:
235,271,333474,1,0,0:0:0:0:
154,288,333588,2,0,L|92:300,1,62.5,2|0,0:0|0:0,0:0:0:0:
170,205,333815,22,0,L|179:162,2,31.25,8|8|8,0:0|0:0|0:0,0:0:0:0:
146,98,334156,6,0,P|118:85|85:84,1,62.5,8|8,3:0|0:0,0:0:0:0:
21,219,334383,2,0,P|52:217|80:204,1,62.5,8|0,3:0|0:0,0:0:0:0:
228,34,334610,1,4,3:0:0:0:
422,150,334724,21,4,0:1:0:0:
441,163,334951,2,0,P|469:172|501:171,1,46.8750017881394,2|0,0:0|0:0,0:0:0:0:
354,64,335179,1,8,0:0:0:0:
344,186,335292,2,0,B|345:186|345:186|339:231,1,46.8750017881394,2|0,0:0|0:0,0:0:0:0:
300,342,335519,6,0,B|307:296|307:296|337:260|337:260|320:217|320:217|328:170,1,187.500007152558,2|0,0:0|0:0,0:0:0:0:
343,44,335860,6,0,P|337:64|320:84,1,46.8750017881394,2|0,0:0|0:0,0:0:0:0:
109,122,336088,1,8,0:0:0:0:
211,111,336201,2,0,P|231:117|252:133,1,46.8750017881394,2|0,0:0|0:0,0:0:0:0:
196,267,336429,6,0,P|211:207|125:236,1,187.500007152558,2|0,0:0|0:0,0:0:0:0:
55,210,336769,6,0,P|77:218|101:219,1,46.8750017881394,2|0,0:0|0:0,0:0:0:0:
301,183,336997,1,8,0:0:0:0:
284,286,337110,2,0,L|275:342,1,46.8750017881394,2|0,0:0|0:0,0:0:0:0:
383,250,337338,6,0,B|475:235|475:235|429:321,1,187.500007152558,2|0,0:0|0:0,0:0:0:0:
463,384,337679,6,0,P|456:362|456:339,1,46.8750017881394,2|0,0:0|0:0,0:0:0:0:
497,141,337906,1,8,0:0:0:0:
394,157,338019,2,0,L|347:164,1,46.8750017881394,2|0,0:0|0:0,0:0:0:0:
188,227,338247,6,0,B|219:190|219:190|260:175|260:175|216:173|216:173|176:145,1,187.500007152558,2|0,0:0|0:0,0:0:0:0:
176,70,338588,6,0,P|175:93|182:115,1,46.8750017881394,2|0,0:0|0:0,0:0:0:0:
269,259,338815,1,8,0:0:0:0:
111,197,338929,2,0,P|87:196|65:203,1,46.8750017881394,2|0,0:0|0:0,0:0:0:0:
70,347,339156,6,0,P|77:286|147:344,1,187.500007152558,2|0,0:0|0:0,0:0:0:0:
235,378,339497,6,0,L|225:313,1,46.8750017881394,2|0,0:0|0:0,0:0:0:0:
208,197,339724,1,8,0:0:0:0:
360,273,339838,2,0,P|395:281|413:278,1,46.8750017881394,2|0,0:0|0:0,0:0:0:0:
445,140,340065,6,0,P|394:201|364:129,1,187.500007152558,2|0,0:0|0:0,0:0:0:0:
348,55,340406,6,0,P|355:77|355:101,1,46.8750017881394,2|0,0:0|0:0,0:0:0:0:
252,121,340633,2,0,L|278:89,1,31.25
246,91,340747,2,0,L|253:51,1,31.25
226,68,340860,2,0,L|212:29,1,31.25
197,58,340974,2,0,L|165:31,1,31.25
126,105,341088,22,0,L|54:95,1,62.5,6|2,0:0|0:0,0:0:0:0:
141,189,341315,2,0,P|145:209|146:226,3,31.25,2|2|2|2,0:0|0:0|0:0|0:0,0:0:0:0:
242,279,341542,6,0,P|226:275|211:274,1,31.25,2|0,0:0|0:0,0:0:0:0:
61,288,341769,2,0,P|76:286|91:283,1,31.25,2|0,0:0|0:0,0:0:0:0:
253,166,341997,5,4,0:1:0:0:
268,146,342224,2,0,L|263:89,1,46.8750017881394,2|0,0:0|0:0,0:0:0:0:
340,251,342451,1,8,0:0:0:0:
398,337,342565,2,0,L|402:383,1,46.8750017881394,2|0,0:0|0:0,0:0:0:0:
422,257,342792,6,0,B|413:164|413:164|470:165|494:120,1,187.500007152558,2|0,0:0|0:0,0:0:0:0:
500,52,343133,6,0,P|504:75|503:98,1,46.8750017881394,2|0,0:0|0:0,0:0:0:0:
346,226,343360,1,8,0:0:0:0:
422,81,343474,2,0,P|416:58|407:36,1,46.8750017881394,2|0,0:0|0:0,0:0:0:0:
262,126,343701,6,0,P|292:53|343:114,1,187.500007152558,2|0,0:0|0:0,0:0:0:0:
281,218,344042,6,0,L|328:211,1,46.8750017881394,2|0,0:0|0:0,0:0:0:0:
112,161,344269,1,8,0:0:0:0:
195,146,344383,2,0,L|242:139,1,46.8750017881394,2|0,0:0|0:0,0:0:0:0:
140,80,344610,6,0,B|48:96|48:96|93:9,1,187.500007152558,2|0,0:0|0:0,0:0:0:0:
204,27,344951,6,0,P|216:46|222:70,1,46.8750017881394,2|0,0:0|0:0,0:0:0:0:
166,229,345179,1,8,0:0:0:0:
266,211,345292,2,0,L|312:203,1,46.8750017881394,2|0,0:0|0:0,0:0:0:0:
438,183,345519,6,0,B|374:193|374:193|323:225|323:225|260:235,1,187.500007152558,2|0,0:0|0:0,0:0:0:0:
102,206,345860,6,0,P|125:205|148:212,1,46.8750017881394,2|0,0:0|0:0,0:0:0:0:
267,350,346088,1,8,0:0:0:0:
115,288,346201,2,0,P|91:287|69:294,1,46.8750017881394,2|0,0:0|0:0,0:0:0:0:
129,370,346429,6,0,P|194:309|169:224,1,187.500007152558,2|0,0:0|0:0,0:0:0:0:
34,202,346769,6,0,L|80:197,1,46.8750017881394,2|0,0:0|0:0,0:0:0:0:
254,179,346997,1,8,0:0:0:0:
140,115,347110,2,0,P|132:92|133:69,1,46.8750017881394,2|0,0:0|0:0,0:0:0:0:
318,109,347338,1,2,0:0:0:0:
283,22,347451,6,0,B|238:9|238:9|188:15,1,93.7500035762788,4|0,0:1|0:0,0:0:0:0:
418,107,347906,2,0,L|421:71,1,31.25,8|0,0:0|0:0,0:0:0:0:
429,131,348019,2,0,L|451:101,1,31.25
426,157,348133,2,0,L|458:142,1,31.25
410,178,348247,2,0,L|446:182,1,31.25
348,234,348360,22,0,P|357:265|356:296,1,62.5,8|0,3:0|0:0,0:0:0:0:
283,343,348588,2,0,L|288:378,3,31.25,2|2|2|2,0:0|0:0|0:0|0:0,0:0:0:0:
118,292,348815,6,0,L|153:297,1,31.25,12|0,0:0|0:0,0:0:0:0:
329,219,349042,2,0,L|298:214,1,31.25,12|0,0:0|0:0,0:0:0:0:
80,118,349269,21,4,0:1:0:0:
286,69,349497,2,0,P|309:70|338:81,1,46.8750017881394,2|0,0:0|0:0,0:0:0:0:
189,111,349724,1,8,0:0:0:0:
147,208,349838,2,0,P|148:231|159:260,1,46.8750017881394,2|0,0:0|0:0,0:0:0:0:
238,321,350065,6,0,B|190:315|161:271|161:271|135:310|135:310|90:319,1,187.500007152558,2|0,0:0|0:0,0:0:0:0:
35,257,350406,6,0,L|90:245,1,46.8750017881394,2|0,0:0|0:0,0:0:0:0:
252,216,350633,1,8,0:0:0:0:
378,189,350747,2,0,L|333:199,1,46.8750017881394,2|0,0:0|0:0,0:0:0:0:
161,235,350974,6,0,B|252:216|252:216|241:164|288:129,1,187.500007152558,2|0,0:0|0:0,0:0:0:0:
353,110,351315,6,0,L|308:120,1,46.8750017881394,2|0,0:0|0:0,0:0:0:0:
109,156,351542,1,8,0:0:0:0:
252,216,351656,2,0,P|269:238|277:261,1,46.8750017881394,2|0,0:0|0:0,0:0:0:0:
258,367,351883,6,0,P|281:292|337:347,1,187.500007152558,2|0,0:0|0:0,0:0:0:0:
408,367,352224,6,0,P|384:363|363:354,1,46.8750017881394,2|0,0:0|0:0,0:0:0:0:
242,193,352451,1,8,0:0:0:0:
403,277,352565,2,0,P|432:280|456:271,1,46.8750017881394,2|4,0:0|3:0,0:0:0:0:
462,144,352792,6,0,P|406:199|382:124,1,187.500007152558,2|0,0:0|0:0,0:0:0:0:
440,64,353133,6,0,L|391:53,1,46.8750017881394,2|0,0:0|0:0,0:0:0:0:
211,12,353360,1,8,0:0:0:0:
229,135,353474,2,0,P|231:157|226:182,1,46.8750017881394,2|0,0:0|0:0,0:0:0:0:
127,239,353701,6,0,B|172:245|211:207|211:207|259:233|301:215,1,187.500007152558,2|0,0:0|0:0,0:0:0:0:
264,136,354042,6,0,P|263:113|256:91,1,46.8750017881394,2|0,0:0|0:0,0:0:0:0:
218,252,354270,1,8,0:0:0:0:
140,154,354383,2,0,P|134:132|135:109,1,46.8750017881394,2|0,0:0|0:0,0:0:0:0:
195,41,354610,6,0,B|155:68|155:68|136:108|136:108|139:64|139:64|115:21,1,187.500007152558,2|0,0:0|0:0,0:0:0:0:
33,41,354951,6,0,L|56:83,1,46.8750017881394,2|0,0:0|0:0,0:0:0:0:
144,230,355179,2,0,L|163:260,1,31.25,8|0,0:0|0:0,0:0:0:0:
182,241,355292,2,0,L|213:257,1,31.25
220,231,355406,2,0,L|255:229,1,31.25
247,203,355519,2,0,L|276:183,1,31.25
265,103,355633,22,0,L|275:39,1,62.5,6|2,0:0|0:0,0:0:0:0:
340,139,355860,2,0,P|361:146|379:146,3,31.25,2|2|2|2,0:0|0:0|0:0|0:0,0:0:0:0:
449,218,356088,6,0,P|444:196|435:180,1,31.25,10|0,3:2|0:0,0:0:0:0:
463,85,356315,2,0,P|446:99|437:115,1,31.25,10|0,3:2|0:0,0:0:0:0:
363,288,356542,5,4,0:1:0:0:
301,232,356769,1,0,0:0:0:0:
221,257,356997,1,8,0:0:0:0:
202,338,357224,1,0,0:0:0:0:
74,123,357451,21,4,0:0:0:0:
170,93,357679,1,0,0:0:0:0:
244,160,357905,1,8,0:0:0:0:
221,257,358133,1,0,0:0:0:0:
476,88,358360,21,0,0:0:0:0:
386,7,358587,1,0,0:0:0:0:
271,43,358815,1,8,0:0:0:0:
244,160,359042,1,0,0:0:0:0:
314,357,359269,21,4,0:0:0:0:
202,338,359497,1,0,0:0:0:0:
387,270,359724,21,8,0:0:0:0:
404,251,359838,1,8,3:0:0:0:
163,231,359951,1,4,3:0:0:0:
153,207,360065,1,4,3:0:0:0:
296,141,360179,5,4,0:1:0:0:
302,116,360292,1,0,0:0:0:0:
308,91,360406,1,0,0:0:0:0:
314,66,360519,1,0,0:0:0:0:
208,106,360633,21,8,0:0:0:0:
200,81,360746,1,0,0:0:0:0:
193,56,360860,1,0,0:0:0:0:
186,32,360973,1,0,0:0:0:0:
95,105,361088,22,0,L|63:98,7,23.4375008940697
225,199,361542,22,0,L|259:191,7,31.25
149,284,361997,5,4,0:0:0:0:
256,192,362054,12,8,362906,0:0:0:0:
312,124,363360,6,0,L|388:109,1,62.5,8|8,3:0|3:0,3:0:0:0:
230,137,363588,22,0,L|255:63,1,62.5,4|4,3:0|3:0,3:0:0:0:
200,214,363815,21,4,0:1:0:0:
