osu file format v14

[General]
AudioFilename: audio.mp3
AudioLeadIn: 0
PreviewTime: 219140
Countdown: 0
SampleSet: Soft
StackLeniency: 0.7
Mode: 3
LetterboxInBreaks: 0
SpecialStyle: 0
WidescreenStoryboard: 0

[Editor]
DistanceSpacing: 1.1
BeatDivisor: 4
GridSize: 4
TimelineZoom: 4.699998

[Metadata]
Title:Ibuki
TitleUnicode:Ibuki
Artist:Nhato
ArtistUnicode:Nhato
Creator:-SoraGami-
Version:Breath [SV]
Source:
Tags:Ortographic Music Trance OTO039
BeatmapID:1274422
BeatmapSetID:603378

[Difficulty]
HPDrainRate:9
CircleSize:4
OverallDifficulty:8.5
ApproachRate:5
SliderMultiplier:1.4
SliderTickRate:1

[Events]
//Background and Video events
0,0,"owo.jpg",0,0
//Break Periods
//Storyboard Layer 0 (Background)
//Storyboard Layer 1 (Fail)
//Storyboard Layer 2 (Pass)
//Storyboard Layer 3 (Foreground)
//Storyboard Sound Samples

[TimingPoints]
959,454.545454545455,4,2,1,0,1,0
14595,-54.054054054054,4,2,1,0,0,0
14623,-666.666666666658,4,2,1,0,0,0
14652,-55.5555555555556,4,2,1,0,0,0
14680,-500,4,2,1,0,0,0
14709,-57.1428571428571,4,2,1,0,0,0
14737,-399.999999999997,4,2,1,0,0,0
14765,-58.8235294117647,4,2,1,0,0,0
14794,-333.333333333333,4,2,1,0,0,0
14822,-60.6060606060606,4,2,1,0,0,0
14851,-285.714285714284,4,2,1,0,0,0
14879,-62.5,4,2,1,0,0,0
14907,-250.000000000001,4,2,1,0,0,0
14936,-64.5161290322581,4,2,1,0,0,0
14964,-222.22222222222,4,2,1,0,0,0
14993,-66.6666666666667,4,2,1,0,0,0
15021,-200,4,2,1,0,0,0
15049,-100,4,2,1,0,0,0
15277,-142.857142857143,4,2,1,0,0,0
15428,-62.5,4,2,1,0,0,0
15504,-100,4,2,1,0,0,0
16299,-52.6315789473684,4,2,1,0,0,0
16328,-1000,4,2,1,0,0,0
16356,-52.6315789473684,4,2,1,0,0,0
16385,-1000,4,2,1,0,0,0
16413,-100,4,2,1,0,0,0
17209,-52.6315789473684,4,2,1,0,0,0
17237,-1000,4,2,1,0,0,0
17265,-52.6315789473684,4,2,1,0,0,0
17294,-1000,4,2,1,0,0,0
17322,-100,4,2,1,0,0,0
18118,-52.6315789473684,4,2,1,0,0,0
18146,-1000,4,2,1,0,0,0
18174,-52.6315789473684,4,2,1,0,0,0
18203,-1000,4,2,1,0,0,0
18231,-100,4,2,1,0,0,0
19027,-52.6315789473684,4,2,1,0,0,0
19055,-1000,4,2,1,0,0,0
19084,-52.6315789473684,4,2,1,0,0,0
19112,-1000,4,2,1,0,0,0
19140,-100,4,2,1,0,0,0
19936,-52.6315789473684,4,2,1,0,0,0
19964,-1000,4,2,1,0,0,0
19993,-52.6315789473684,4,2,1,0,0,0
20021,-1000,4,2,1,0,0,0
20049,-100,4,2,1,0,0,0
20845,-52.6315789473684,4,2,1,0,0,0
20873,-1000,4,2,1,0,0,0
20902,-52.6315789473684,4,2,1,0,0,0
20930,-1000,4,2,1,0,0,0
20959,-100,4,2,1,0,0,0
21754,-52.6315789473684,4,2,1,0,0,0
21782,-1000,4,2,1,0,0,0
21811,-52.6315789473684,4,2,1,0,0,0
21839,-1000,4,2,1,0,0,0
21868,-100,4,2,1,0,0,0
22549,-142.857142857143,4,2,1,0,0,0
22701,-62.5,4,2,1,0,0,0
22777,-100,4,2,1,0,0,0
23572,-52.6315789473684,4,2,1,0,0,0
23601,-1000,4,2,1,0,0,0
23629,-52.6315789473684,4,2,1,0,0,0
23657,-1000,4,2,1,0,0,0
23686,-100,4,2,1,0,0,0
24481,-52.6315789473684,4,2,1,0,0,0
24510,-1000,4,2,1,0,0,0
24538,-52.6315789473684,4,2,1,0,0,0
24566,-1000,4,2,1,0,0,0
24595,-100,4,2,1,0,0,0
25390,-52.6315789473684,4,2,1,0,0,0
25419,-1000,4,2,1,0,0,0
25447,-52.6315789473684,4,2,1,0,0,0
25476,-1000,4,2,1,0,0,0
25504,-100,4,2,1,0,0,0
26299,-52.6315789473684,4,2,1,0,0,0
26328,-1000,4,2,1,0,0,0
26356,-52.6315789473684,4,2,1,0,0,0
26385,-1000,4,2,1,0,0,0
26413,-100,4,2,1,0,0,0
27209,-52.6315789473684,4,2,1,0,0,0
27237,-1000,4,2,1,0,0,0
27265,-52.6315789473684,4,2,1,0,0,0
27294,-1000,4,2,1,0,0,0
27322,-100,4,2,1,0,0,0
28118,-52.6315789473684,4,2,1,0,0,0
28146,-1000,4,2,1,0,0,0
28174,-52.6315789473684,4,2,1,0,0,0
28203,-1000,4,2,1,0,0,0
28231,-100,4,2,1,0,0,0
29027,-52.6315789473684,4,2,1,0,0,0
29055,-1000,4,2,1,0,0,0
29084,-52.6315789473684,4,2,1,0,0,0
29112,-1000,4,2,1,0,0,0
29140,-58.8235294117647,4,2,1,0,0,0
29197,-333.333333333333,4,2,1,0,0,0
29254,-58.8235294117647,4,2,1,0,0,0
29311,-333.333333333333,4,2,1,0,0,0
29368,-58.8235294117647,4,2,1,0,0,0
29396,-333.333333333333,4,2,1,0,0,0
29424,-58.8235294117647,4,2,1,0,0,0
29453,-333.333333333333,4,2,1,0,0,0
29481,-58.8235294117647,4,2,1,0,0,0
29510,-333.333333333333,4,2,1,0,0,0
29538,-58.8235294117647,4,2,1,0,0,0
29566,-333.333333333333,4,2,1,0,0,0
29595,-47.6190476190476,4,2,1,0,0,0
29633,-222.222222222223,4,2,1,0,0,0
29709,-47.6190476190476,4,2,1,0,0,0
29746,-222.222222222223,4,2,1,0,0,0
29822,-47.6190476190476,4,2,1,0,0,0
29860,-222.222222222223,4,2,1,0,0,0
29936,-47.6190476190476,4,2,1,0,0,0
29974,-222.222222222223,4,2,1,0,0,0
30049,-100,4,2,1,0,0,0
30845,-52.6315789473684,4,2,1,0,0,0
30873,-1000,4,2,1,0,0,0
30902,-52.6315789473684,4,2,1,0,0,0
30930,-1000,4,2,1,0,0,0
30959,-100,4,2,1,0,0,0
31754,-52.6315789473684,4,2,1,0,0,0
31782,-1000,4,2,1,0,0,0
31811,-52.6315789473684,4,2,1,0,0,0
31839,-1000,4,2,1,0,0,0
31868,-100,4,2,1,0,0,0
32663,-52.6315789473684,4,2,1,0,0,0
32691,-1000,4,2,1,0,0,0
32720,-52.6315789473684,4,2,1,0,0,0
32748,-1000,4,2,1,0,0,0
32777,-100,4,2,1,0,0,0
33572,-52.6315789473684,4,2,1,0,0,0
33601,-1000,4,2,1,0,0,0
33629,-52.6315789473684,4,2,1,0,0,0
33657,-1000,4,2,1,0,0,0
33686,-100,4,2,1,0,0,0
34481,-52.6315789473684,4,2,1,0,0,0
34510,-1000,4,2,1,0,0,0
34538,-52.6315789473684,4,2,1,0,0,0
34566,-1000,4,2,1,0,0,0
34595,-100,4,2,1,0,0,0
35390,-52.6315789473684,4,2,1,0,0,0
35419,-1000,4,2,1,0,0,0
35447,-52.6315789473684,4,2,1,0,0,0
35476,-1000,4,2,1,0,0,0
35504,-100,4,2,1,0,0,0
36299,-52.6315789473684,4,2,1,0,0,0
36328,-1000,4,2,1,0,0,0
36356,-52.6315789473684,4,2,1,0,0,0
36385,-1000,4,2,1,0,0,0
36413,-66.6666666666667,4,2,1,0,0,0
36527,-100,4,2,1,0,0,0
36640,-133.333333333333,4,2,1,0,0,0
36868,-58.8235294117647,4,2,1,0,0,0
36924,-333.333333333333,4,2,1,0,0,0
36981,-58.8235294117647,4,2,1,0,0,0
37038,-333.333333333333,4,2,1,0,0,0
37095,-100,4,2,1,0,0,0
37209,-58.8235294117647,4,2,1,0,0,0
37265,-333.333333333333,4,2,1,0,0,0
37322,-100,4,2,1,0,0,0
38118,-52.6315789473684,4,2,1,0,0,0
38146,-1000,4,2,1,0,0,0
38174,-52.6315789473684,4,2,1,0,0,0
38203,-1000,4,2,1,0,0,0
38231,-100,4,2,1,0,0,0
39027,-52.6315789473684,4,2,1,0,0,0
39055,-1000,4,2,1,0,0,0
39084,-52.6315789473684,4,2,1,0,0,0
39112,-1000,4,2,1,0,0,0
39140,-100,4,2,1,0,0,0
39936,-52.6315789473684,4,2,1,0,0,0
39964,-1000,4,2,1,0,0,0
39993,-52.6315789473684,4,2,1,0,0,0
40021,-1000,4,2,1,0,0,0
40049,-100,4,2,1,0,0,0
40845,-52.6315789473684,4,2,1,0,0,0
40873,-1000,4,2,1,0,0,0
40902,-52.6315789473684,4,2,1,0,0,0
40930,-1000,4,2,1,0,0,0
40959,-100,4,2,1,0,0,0
41754,-52.6315789473684,4,2,1,0,0,0
41782,-1000,4,2,1,0,0,0
41811,-52.6315789473684,4,2,1,0,0,0
41839,-1000,4,2,1,0,0,0
41868,-100,4,2,1,0,0,0
42663,-52.6315789473684,4,2,1,0,0,0
42691,-1000,4,2,1,0,0,0
42720,-52.6315789473684,4,2,1,0,0,0
42748,-1000,4,2,1,0,0,0
42777,-47.6190476190476,4,2,1,0,0,0
42815,-222.222222222221,4,2,1,0,0,0
42890,-47.6190476190476,4,2,1,0,0,0
42928,-222.222222222221,4,2,1,0,0,0
43004,-47.6190476190476,4,2,1,0,0,0
43042,-222.222222222221,4,2,1,0,0,0
43118,-58.8235294117647,4,2,1,0,0,0
43174,-333.333333333333,4,2,1,0,0,0
43231,-47.6190476190476,4,2,1,0,0,0
43269,-222.222222222221,4,2,1,0,0,0
43345,-47.6190476190476,4,2,1,0,0,0
43383,-222.222222222221,4,2,1,0,0,0
43459,-58.8235294117647,4,2,1,0,0,0
43515,-333.333333333333,4,2,1,0,0,0
43572,-58.8235294117647,4,2,1,0,0,0
43601,-333.333333333333,4,2,1,0,0,0
43629,-58.8235294117647,4,2,1,0,0,0
43657,-333.333333333333,4,2,1,0,0,0
43686,-47.6190476190476,4,2,1,0,0,0
43724,-222.222222222221,4,2,1,0,0,0
43799,-47.6190476190476,4,2,1,0,0,0
43837,-222.222222222221,4,2,1,0,0,0
43913,-47.6190476190476,4,2,1,0,0,0
43951,-222.222222222221,4,2,1,0,0,0
44027,-58.8235294117647,4,2,1,0,0,0
44084,-333.333333333333,4,2,1,0,0,0
44140,-58.8235294117647,4,2,1,0,0,0
44197,-333.333333333333,4,2,1,0,0,0
44254,-52.6315789473684,4,2,1,0,0,0
44330,-222.222222222222,4,2,1,0,0,0
44481,-47.6190476190476,4,2,1,0,0,0
44519,-222.222222222222,4,2,1,0,0,0
44595,-100,4,2,1,0,0,0
45390,-52.6315789473684,4,2,1,0,0,0
45419,-1000,4,2,1,0,0,0
45447,-52.6315789473684,4,2,1,0,0,0
45476,-1000,4,2,1,0,0,0
45504,-100,4,2,1,0,0,0
46299,-52.6315789473684,4,2,1,0,0,0
46328,-1000,4,2,1,0,0,0
46356,-52.6315789473684,4,2,1,0,0,0
46385,-1000,4,2,1,0,0,0
46413,-100,4,2,1,0,0,0
47209,-52.6315789473684,4,2,1,0,0,0
47237,-1000,4,2,1,0,0,0
47265,-52.6315789473684,4,2,1,0,0,0
47294,-1000,4,2,1,0,0,0
47322,-100,4,2,1,0,0,0
48118,-52.6315789473684,4,2,1,0,0,0
48146,-1000,4,2,1,0,0,0
48174,-52.6315789473684,4,2,1,0,0,0
48203,-1000,4,2,1,0,0,0
48231,-100,4,2,1,0,0,0
49027,-52.6315789473684,4,2,1,0,0,0
49055,-1000,4,2,1,0,0,0
49084,-52.6315789473684,4,2,1,0,0,0
49112,-1000,4,2,1,0,0,0
49140,-100,4,2,1,0,0,0
49936,-52.6315789473684,4,2,1,0,0,0
49964,-1000,4,2,1,0,0,0
49993,-52.6315789473684,4,2,1,0,0,0
50021,-1000,4,2,1,0,0,0
50049,-100,4,2,1,0,0,0
50845,-52.6315789473684,4,2,1,0,0,0
50873,-1000,4,2,1,0,0,0
50902,-52.6315789473684,4,2,1,0,0,0
50930,-1000,4,2,1,0,0,0
50959,-66.6666666666667,4,2,1,0,0,0
51072,-100,4,2,1,0,0,0
51186,-133.333333333333,4,2,1,0,0,0
51413,-58.8235294117647,4,2,1,0,0,0
51470,-333.333333333333,4,2,1,0,0,0
51527,-58.8235294117647,4,2,1,0,0,0
51584,-333.333333333333,4,2,1,0,0,0
51640,-100,4,2,1,0,0,0
51754,-58.8235294117647,4,2,1,0,0,0
51811,-333.333333333333,4,2,1,0,0,0
51868,-79.9999999999999,4,2,1,0,0,0
51924,-133.333333333333,4,2,1,0,0,0
51981,-100,4,2,1,0,0,0
52322,-79.9999999999999,4,2,1,0,0,0
52379,-133.333333333333,4,2,1,0,0,0
52436,-100,4,2,1,0,0,0
52777,-79.9999999999999,4,2,1,0,0,0
52834,-133.333333333333,4,2,1,0,0,0
52890,-100,4,2,1,0,0,0
53231,-79.9999999999999,4,2,1,0,0,0
53288,-133.333333333333,4,2,1,0,0,0
53345,-100,4,2,1,0,0,0
53686,-79.9999999999999,4,2,1,0,0,0
53743,-133.333333333333,4,2,1,0,0,0
53799,-100,4,2,1,0,0,0
54140,-79.9999999999999,4,2,1,0,0,0
54197,-133.333333333333,4,2,1,0,0,0
54254,-100,4,2,1,0,0,0
54595,-79.9999999999999,4,2,1,0,0,0
54652,-133.333333333333,4,2,1,0,0,0
54709,-100,4,2,1,0,0,0
55049,-79.9999999999999,4,2,1,0,0,0
55106,-133.333333333333,4,2,1,0,0,0
55163,-100,4,2,1,0,0,0
55504,-74.0740740740741,4,2,1,0,0,0
55561,-153.846153846153,4,2,1,0,0,0
55618,-100,4,2,1,0,0,0
55731,-74.0740740740741,4,2,1,0,0,0
55788,-153.846153846153,4,2,1,0,0,0
55845,-100,4,2,1,0,0,0
55959,-74.074074074074,4,2,1,0,0,0
56015,-153.846153846154,4,2,1,0,0,0
56072,-100,4,2,1,0,0,0
56186,-74.074074074074,4,2,1,0,0,0
56243,-153.846153846154,4,2,1,0,0,0
56299,-100,4,2,1,0,0,0
56413,-68.9655172413792,4,2,1,0,0,0
56470,-181.818181818182,4,2,1,0,0,0
56527,-68.9655172413792,4,2,1,0,0,0
56584,-181.818181818182,4,2,1,0,0,0
56640,-68.9655172413792,4,2,1,0,0,0
56697,-181.818181818182,4,2,1,0,0,0
56754,-68.9655172413792,4,2,1,0,0,0
56811,-181.818181818182,4,2,1,0,0,0
56868,-68.9655172413792,4,2,1,0,0,0
56924,-181.818181818182,4,2,1,0,0,0
56981,-68.9655172413792,4,2,1,0,0,0
57038,-181.818181818182,4,2,1,0,0,0
57095,-68.9655172413792,4,2,1,0,0,0
57152,-181.818181818182,4,2,1,0,0,0
57209,-68.9655172413792,4,2,1,0,0,0
57265,-181.818181818182,4,2,1,0,0,0
57322,-100,4,2,1,0,0,0
58913,-166.666666666667,4,2,1,0,0,0
59084,-45.4545454545455,4,2,1,0,0,0
59140,-86.9565217391303,4,2,1,0,0,0
59254,-90.9090909090909,4,2,1,0,0,0
59368,-95.2380952380951,4,2,1,0,0,0
59481,-100,4,2,1,0,0,0
59595,-105.263157894737,4,2,1,0,0,0
59709,-111.111111111111,4,2,1,0,0,0
59822,-117.647058823529,4,2,1,0,0,0
72322,-111.111111111111,4,2,1,0,0,0
72549,-105.263157894737,4,2,1,0,0,0
72777,-100,4,2,1,0,0,0
73004,-95.238095238095,4,2,1,0,0,0
73231,-90.9090909090909,4,2,1,0,0,0
73459,-86.9565217391302,4,2,1,0,0,0
73686,-100,4,2,1,0,0,0
80504,-47.6190476190476,4,2,1,0,0,0
80542,-222.222222222221,4,2,1,0,0,0
80618,-47.6190476190476,4,2,1,0,0,0
80655,-222.222222222221,4,2,1,0,0,0
80731,-47.6190476190476,4,2,1,0,0,0
80769,-222.222222222221,4,2,1,0,0,0
80845,-47.6190476190476,4,2,1,0,0,0
80883,-222.222222222221,4,2,1,0,0,0
80959,-74.0740740740741,4,2,1,0,0,0
81015,-153.846153846154,4,2,1,0,0,0
81072,-100,4,2,1,0,0,0
81640,-74.0740740740741,4,2,1,0,0,0
81697,-153.846153846154,4,2,1,0,0,0
81754,-100,4,2,1,0,0,0
81868,-74.0740740740741,4,2,1,0,0,0
81924,-153.846153846154,4,2,1,0,0,0
81981,-100,4,2,1,0,0,0
82549,-74.0740740740741,4,2,1,0,0,0
82606,-153.846153846154,4,2,1,0,0,0
82663,-100,4,2,1,0,0,0
82777,-74.0740740740741,4,2,1,0,0,0
82834,-153.846153846154,4,2,1,0,0,0
82890,-100,4,2,1,0,0,0
83459,-74.0740740740741,4,2,1,0,0,0
83515,-153.846153846154,4,2,1,0,0,0
83572,-100,4,2,1,0,0,0
83686,-74.0740740740741,4,2,1,0,0,0
83743,-153.846153846154,4,2,1,0,0,0
83799,-100,4,2,1,0,0,0
84368,-74.0740740740741,4,2,1,0,0,0
84424,-153.846153846154,4,2,1,0,0,0
84481,-100,4,2,1,0,0,0
87606,-52.6315789473684,4,2,1,0,0,0
87635,-1000,4,2,1,0,0,0
87663,-52.6315789473684,4,2,1,0,0,0
87691,-1000,4,2,1,0,0,0
87720,-52.6315789473684,4,2,1,0,0,0
87748,-1000,4,2,1,0,0,0
87777,-42.5531914893617,4,2,1,0,0,0
87890,-181.818181818181,4,2,1,0,0,0
88231,-100,4,2,1,0,0,0
89254,-142.857142857143,4,2,1,0,0,0
89405,-62.5,4,2,1,0,0,0
89481,-100,4,2,1,0,0,0
91072,-142.857142857143,4,2,1,0,0,0
91224,-62.5,4,2,1,0,0,0
91299,-100,4,2,1,0,0,0
91413,-66.6666666666667,4,2,1,0,0,0
91470,-200,4,2,1,0,0,0
91527,-66.6666666666667,4,2,1,0,0,0
91584,-200,4,2,1,0,0,0
91640,-66.6666666666667,4,2,1,0,0,0
91697,-200,4,2,1,0,0,0
91754,-66.6666666666667,4,2,1,0,0,0
91811,-200,4,2,1,0,0,0
91868,-100,4,2,1,0,0,0
92890,-142.857142857143,4,2,1,0,0,0
93042,-62.5,4,2,1,0,0,0
93118,-100,4,2,1,0,0,0
94140,-58.8235294117647,4,2,1,0,0,0
94197,-333.333333333333,4,2,1,0,0,0
94254,-58.8235294117647,4,2,1,0,0,0
94311,-333.333333333333,4,2,1,0,0,0
94368,-58.8235294117647,4,2,1,0,0,0
94424,-333.333333333333,4,2,1,0,0,0
94481,-58.8235294117647,4,2,1,0,0,0
94538,-333.333333333333,4,2,1,0,0,0
94595,-100,4,2,1,0,0,0
94822,-52.6315789473684,4,2,1,0,0,0
94851,-1000,4,2,1,0,0,0
94879,-55.5555555555556,4,2,1,0,0,0
94907,-500,4,2,1,0,0,0
94936,-58.8235294117647,4,2,1,0,0,0
94964,-333.333333333333,4,2,1,0,0,0
94993,-62.5,4,2,1,0,0,0
95021,-250,4,2,1,0,0,0
95049,-47.6190476190476,4,2,1,0,0,0
95087,-222.222222222221,4,2,1,0,0,0
95163,-47.6190476190476,4,2,1,0,0,0
95201,-222.222222222221,4,2,1,0,0,0
95277,-47.6190476190476,4,2,1,0,0,0
95315,-222.222222222221,4,2,1,0,0,0
95390,-47.6190476190476,4,2,1,0,0,0
95428,-222.222222222221,4,2,1,0,0,0
95504,-100,4,2,1,0,0,0
96527,-142.857142857143,4,2,1,0,0,0
96678,-62.5,4,2,1,0,0,0
96754,-100,4,2,1,0,0,0
98345,-142.857142857143,4,2,1,0,0,0
98496,-62.5,4,2,1,0,0,0
98572,-100,4,2,1,0,0,0
98799,-133.333333333333,4,2,1,0,0,0
98913,-200,4,2,1,0,0,0
99027,-57.1428571428571,4,2,1,0,0,0
99140,-100,4,2,1,0,0,0
100163,-142.857142857143,4,2,1,0,0,0
100315,-62.5,4,2,1,0,0,0
100390,-100,4,2,1,0,0,0
100504,-52.6315789473684,4,2,1,0,0,0
100532,-1000,4,2,1,0,0,0
100561,-52.6315789473684,4,2,1,0,0,0
100589,-1000,4,2,1,0,0,0
100618,-52.6315789473684,4,2,1,0,0,0
100646,-1000,4,2,1,0,0,0
100674,-52.6315789473684,4,2,1,0,0,0
100703,-1000,4,2,1,0,0,0
100731,-142.857142857143,4,2,1,0,0,0
100883,-62.5,4,2,1,0,0,0
100959,-66.6666666666667,4,2,1,0,0,0
101015,-200,4,2,1,0,0,0
101072,-66.6666666666667,4,2,1,0,0,0
101129,-200,4,2,1,0,0,0
101186,-66.6666666666667,4,2,1,0,0,0
101243,-200,4,2,1,0,0,0
101299,-66.6666666666667,4,2,1,0,0,0
101356,-200,4,2,1,0,0,0
101413,-100,4,2,1,0,0,0
101640,-142.857142857143,4,2,1,0,0,0
101792,-62.5,4,2,1,0,0,0
101868,-58.8235294117647,4,2,1,0,0,0
101924,-333.333333333333,4,2,1,0,0,0
101981,-58.8235294117647,4,2,1,0,0,0
102038,-333.333333333333,4,2,1,0,0,0
102095,-58.8235294117647,4,2,1,0,0,0
102152,-333.333333333333,4,2,1,0,0,0
102209,-100,4,2,1,0,0,0
102436,-47.6190476190476,4,2,1,0,0,0
102474,-222.222222222221,4,2,1,0,0,0
102549,-47.6190476190476,4,2,1,0,0,0
102587,-222.222222222221,4,2,1,0,0,0
102663,-47.6190476190476,4,2,1,0,0,0
102701,-222.222222222221,4,2,1,0,0,0
102777,-100,4,2,1,0,0,0
105618,-47.6190476190476,4,2,1,0,0,0
105655,-222.222222222221,4,2,1,0,0,0
105731,-47.6190476190476,4,2,1,0,0,0
105769,-222.222222222221,4,2,1,0,0,0
105845,-47.6190476190476,4,2,1,0,0,0
105883,-222.222222222221,4,2,1,0,0,0
105959,-47.6190476190476,4,2,1,0,0,0
105996,-222.222222222221,4,2,1,0,0,0
106072,-47.6190476190476,4,2,1,0,0,0
106110,-222.222222222221,4,2,1,0,0,0
106186,-47.6190476190476,4,2,1,0,0,0
106224,-222.222222222221,4,2,1,0,0,0
106299,-100,4,2,1,0,0,0
108799,-58.8235294117647,4,2,1,0,0,0
108856,-333.333333333333,4,2,1,0,0,0
108913,-58.8235294117647,4,2,1,0,0,0
108970,-333.333333333333,4,2,1,0,0,0
109027,-58.8235294117647,4,2,1,0,0,0
109084,-333.333333333333,4,2,1,0,0,0
109140,-100,4,2,1,0,0,0
109368,-52.6315789473684,4,2,1,0,0,0
109396,-1000,4,2,1,0,0,0
109424,-55.5555555555556,4,2,1,0,0,0
109453,-500,4,2,1,0,0,0
109481,-58.8235294117647,4,2,1,0,0,0
109510,-333.333333333333,4,2,1,0,0,0
109538,-62.5,4,2,1,0,0,0
109566,-250,4,2,1,0,0,0
109595,-47.6190476190476,4,2,1,0,0,0
109633,-222.222222222221,4,2,1,0,0,0
109709,-47.6190476190476,4,2,1,0,0,0
109746,-222.222222222221,4,2,1,0,0,0
109822,-47.6190476190476,4,2,1,0,0,0
109860,-222.222222222221,4,2,1,0,0,0
109936,-47.6190476190476,4,2,1,0,0,0
109974,-222.222222222221,4,2,1,0,0,0
110049,-100,4,2,1,0,0,0
112890,-47.6190476190476,4,2,1,0,0,0
112928,-222.222222222221,4,2,1,0,0,0
113004,-47.6190476190476,4,2,1,0,0,0
113042,-222.222222222221,4,2,1,0,0,0
113118,-47.6190476190476,4,2,1,0,0,0
113155,-222.222222222221,4,2,1,0,0,0
113231,-47.6190476190476,4,2,1,0,0,0
113269,-222.222222222221,4,2,1,0,0,0
113345,-47.6190476190476,4,2,1,0,0,0
113383,-222.222222222221,4,2,1,0,0,0
113459,-250,4,2,1,0,0,0
113572,-62.5,4,2,1,0,0,0
113686,-100,4,2,1,0,0,0
219140,-100,4,2,1,0,0,1
231868,-100,4,2,1,0,0,0
233686,-100,4,2,1,0,0,1
246413,-100,4,2,1,0,0,0
248231,-100,4,2,1,0,0,1
260959,-100,4,2,1,0,0,0
262777,-100,4,2,1,0,0,1
277322,-100,4,2,1,0,0,0

[HitObjects]
320,192,959,5,0,0:0:0:0:
448,192,959,1,0,0:0:0:0:
64,192,959,1,0,0:0:0:0:
192,192,1299,1,0,0:0:0:0:
320,192,1413,1,0,0:0:0:0:
448,192,1413,1,0,0:0:0:0:
64,192,1640,1,0,0:0:0:0:
320,192,1868,1,0,0:0:0:0:
448,192,1868,1,0,0:0:0:0:
64,192,1981,1,0,0:0:0:0:
320,192,2322,1,0,0:0:0:0:
448,192,2322,1,0,0:0:0:0:
64,192,2436,1,0,0:0:0:0:
192,192,2663,1,0,0:0:0:0:
320,192,2777,1,0,0:0:0:0:
448,192,2777,1,0,0:0:0:0:
64,192,2890,1,0,0:0:0:0:
192,192,3004,1,0,0:0:0:0:
320,192,3231,1,0,0:0:0:0:
448,192,3231,1,0,0:0:0:0:
192,192,3345,1,0,0:0:0:0:
320,192,3686,1,0,0:0:0:0:
448,192,3686,1,0,0:0:0:0:
64,192,3913,1,0,0:0:0:0:
192,192,4027,1,0,0:0:0:0:
320,192,4140,1,0,0:0:0:0:
448,192,4140,1,0,0:0:0:0:
192,192,4368,1,0,0:0:0:0:
320,192,4595,1,0,0:0:0:0:
448,192,4595,1,0,0:0:0:0:
64,192,4595,1,0,0:0:0:0:
192,192,4936,1,0,0:0:0:0:
320,192,5049,1,0,0:0:0:0:
448,192,5049,1,0,0:0:0:0:
64,192,5277,1,0,0:0:0:0:
320,192,5504,1,0,0:0:0:0:
448,192,5504,1,0,0:0:0:0:
64,192,5618,1,0,0:0:0:0:
448,192,5959,1,0,0:0:0:0:
320,192,5959,1,0,0:0:0:0:
64,192,6072,1,0,0:0:0:0:
192,192,6299,1,0,0:0:0:0:
320,192,6413,1,0,0:0:0:0:
448,192,6413,1,0,0:0:0:0:
64,192,6527,1,0,0:0:0:0:
192,192,6640,1,0,0:0:0:0:
320,192,6868,1,0,0:0:0:0:
448,192,6868,1,0,0:0:0:0:
192,192,6981,1,0,0:0:0:0:
320,192,7322,1,0,0:0:0:0:
448,192,7322,1,0,0:0:0:0:
64,192,7549,1,0,0:0:0:0:
192,192,7663,1,0,0:0:0:0:
320,192,7777,1,0,0:0:0:0:
448,192,7777,1,0,0:0:0:0:
192,192,8004,1,0,0:0:0:0:
64,192,8231,1,0,0:0:0:0:
448,192,8231,1,0,0:0:0:0:
192,192,8231,1,0,0:0:0:0:
320,192,8572,1,0,0:0:0:0:
192,192,8686,1,0,0:0:0:0:
64,192,8686,1,0,0:0:0:0:
448,192,8913,1,0,0:0:0:0:
192,192,9140,1,0,0:0:0:0:
64,192,9140,1,0,0:0:0:0:
448,192,9254,1,0,0:0:0:0:
64,192,9595,1,0,0:0:0:0:
192,192,9595,1,0,0:0:0:0:
448,192,9709,1,0,0:0:0:0:
320,192,9936,1,0,0:0:0:0:
192,192,10049,1,0,0:0:0:0:
64,192,10049,1,0,0:0:0:0:
448,192,10163,1,0,0:0:0:0:
320,192,10277,1,0,0:0:0:0:
192,192,10504,1,0,0:0:0:0:
64,192,10504,1,0,0:0:0:0:
320,192,10618,1,0,0:0:0:0:
64,192,10959,1,0,0:0:0:0:
192,192,10959,1,0,0:0:0:0:
448,192,11186,1,0,0:0:0:0:
320,192,11299,1,0,0:0:0:0:
192,192,11413,1,0,0:0:0:0:
64,192,11413,1,0,0:0:0:0:
320,192,11640,1,0,0:0:0:0:
64,192,11868,1,0,0:0:0:0:
192,192,11868,1,0,0:0:0:0:
448,192,11868,1,0,0:0:0:0:
320,192,12209,1,0,0:0:0:0:
192,192,12322,1,0,0:0:0:0:
64,192,12322,1,0,0:0:0:0:
448,192,12549,1,0,0:0:0:0:
192,192,12777,1,0,0:0:0:0:
64,192,12777,1,0,0:0:0:0:
448,192,12890,1,0,0:0:0:0:
64,192,13231,1,0,0:0:0:0:
192,192,13231,1,0,0:0:0:0:
448,192,13345,1,0,0:0:0:0:
320,192,13572,1,0,0:0:0:0:
192,192,13686,1,0,0:0:0:0:
64,192,13686,1,0,0:0:0:0:
448,192,13799,1,0,0:0:0:0:
320,192,13913,1,0,0:0:0:0:
192,192,14140,1,0,0:0:0:0:
64,192,14140,1,0,0:0:0:0:
320,192,14254,1,0,0:0:0:0:
64,192,14595,1,0,0:0:0:0:
192,192,14595,1,0,0:0:0:0:
448,192,14822,1,0,0:0:0:0:
320,192,14936,1,0,0:0:0:0:
192,192,15049,1,0,0:0:0:0:
64,192,15049,1,0,0:0:0:0:
320,192,15277,1,0,0:0:0:0:
320,192,15504,1,0,0:0:0:0:
448,192,15504,1,0,0:0:0:0:
64,192,15504,1,0,0:0:0:0:
192,192,15731,1,0,0:0:0:0:
448,192,15731,1,0,0:0:0:0:
192,192,15959,1,0,0:0:0:0:
64,192,15959,1,0,0:0:0:0:
320,192,16072,1,0,0:0:0:0:
448,192,16072,1,0,0:0:0:0:
64,192,16186,1,0,0:0:0:0:
192,192,16413,1,0,0:0:0:0:
320,192,16413,1,0,0:0:0:0:
448,192,16413,1,0,0:0:0:0:
64,192,16640,1,0,0:0:0:0:
448,192,16640,1,0,0:0:0:0:
64,192,16868,1,0,0:0:0:0:
192,192,16868,1,0,0:0:0:0:
448,192,16981,1,0,0:0:0:0:
320,192,16981,1,0,0:0:0:0:
192,192,17095,1,0,0:0:0:0:
64,192,17322,1,0,0:0:0:0:
448,192,17322,1,0,0:0:0:0:
320,192,17322,1,0,0:0:0:0:
448,192,17549,1,0,0:0:0:0:
192,192,17549,1,0,0:0:0:0:
320,192,17777,1,0,0:0:0:0:
64,192,17777,1,0,0:0:0:0:
192,192,17890,1,0,0:0:0:0:
448,192,17890,1,0,0:0:0:0:
64,192,18004,1,0,0:0:0:0:
192,192,18231,1,0,0:0:0:0:
320,192,18231,1,0,0:0:0:0:
448,192,18231,1,0,0:0:0:0:
64,192,18459,1,0,0:0:0:0:
448,192,18459,1,0,0:0:0:0:
320,192,18686,1,0,0:0:0:0:
64,192,18686,1,0,0:0:0:0:
192,192,18799,1,0,0:0:0:0:
448,192,18799,1,0,0:0:0:0:
320,192,18913,1,0,0:0:0:0:
192,192,19027,1,0,0:0:0:0:
64,192,19140,1,0,0:0:0:0:
448,192,19140,1,0,0:0:0:0:
320,192,19140,1,0,0:0:0:0:
192,192,19368,1,0,0:0:0:0:
448,192,19368,1,0,0:0:0:0:
192,192,19595,1,0,0:0:0:0:
320,192,19595,1,0,0:0:0:0:
448,192,19709,1,0,0:0:0:0:
64,192,19709,1,0,0:0:0:0:
320,192,19822,1,0,0:0:0:0:
192,192,20049,1,0,0:0:0:0:
64,192,20049,1,0,0:0:0:0:
448,192,20049,1,0,0:0:0:0:
320,192,20277,1,0,0:0:0:0:
64,192,20277,1,0,0:0:0:0:
320,192,20504,1,0,0:0:0:0:
192,192,20504,1,0,0:0:0:0:
64,192,20618,1,0,0:0:0:0:
448,192,20618,1,0,0:0:0:0:
192,192,20731,1,0,0:0:0:0:
320,192,20959,1,0,0:0:0:0:
448,192,20959,1,0,0:0:0:0:
64,192,20959,1,0,0:0:0:0:
192,192,21186,1,0,0:0:0:0:
448,192,21186,1,0,0:0:0:0:
192,192,21413,1,0,0:0:0:0:
64,192,21413,1,0,0:0:0:0:
320,192,21527,1,0,0:0:0:0:
448,192,21527,1,0,0:0:0:0:
64,192,21640,1,0,0:0:0:0:
192,192,21868,1,0,0:0:0:0:
320,192,21868,1,0,0:0:0:0:
448,192,21868,1,0,0:0:0:0:
64,192,22095,1,0,0:0:0:0:
448,192,22095,1,0,0:0:0:0:
192,192,22322,1,0,0:0:0:0:
64,192,22322,1,0,0:0:0:0:
320,192,22436,128,0,22777:0:0:0:0:
192,192,22777,1,0,0:0:0:0:
64,192,22777,1,0,0:0:0:0:
448,192,22777,1,0,0:0:0:0:
320,192,23004,1,0,0:0:0:0:
64,192,23004,1,0,0:0:0:0:
320,192,23231,1,0,0:0:0:0:
448,192,23231,1,0,0:0:0:0:
192,192,23345,1,0,0:0:0:0:
64,192,23345,1,0,0:0:0:0:
448,192,23459,1,0,0:0:0:0:
320,192,23686,1,0,0:0:0:0:
192,192,23686,1,0,0:0:0:0:
64,192,23686,1,0,0:0:0:0:
64,192,23913,1,0,0:0:0:0:
448,192,23913,1,0,0:0:0:0:
320,192,24140,1,0,0:0:0:0:
448,192,24140,1,0,0:0:0:0:
192,192,24254,1,0,0:0:0:0:
64,192,24254,1,0,0:0:0:0:
320,192,24368,1,0,0:0:0:0:
448,192,24595,1,0,0:0:0:0:
192,192,24595,1,0,0:0:0:0:
64,192,24595,1,0,0:0:0:0:
320,192,24822,1,0,0:0:0:0:
64,192,24822,1,0,0:0:0:0:
192,192,25049,1,0,0:0:0:0:
448,192,25049,1,0,0:0:0:0:
320,192,25163,1,0,0:0:0:0:
64,192,25163,1,0,0:0:0:0:
448,192,25277,1,0,0:0:0:0:
320,192,25504,1,0,0:0:0:0:
192,192,25504,1,0,0:0:0:0:
64,192,25504,1,0,0:0:0:0:
448,192,25731,1,0,0:0:0:0:
64,192,25731,1,0,0:0:0:0:
448,192,25959,1,0,0:0:0:0:
192,192,25959,1,0,0:0:0:0:
320,192,26072,1,0,0:0:0:0:
64,192,26072,1,0,0:0:0:0:
192,192,26186,1,0,0:0:0:0:
320,192,26299,1,0,0:0:0:0:
448,192,26413,1,0,0:0:0:0:
192,192,26413,1,0,0:0:0:0:
64,192,26413,1,0,0:0:0:0:
320,192,26640,1,0,0:0:0:0:
64,192,26640,1,0,0:0:0:0:
192,192,26868,1,0,0:0:0:0:
320,192,26868,1,0,0:0:0:0:
448,192,26981,1,0,0:0:0:0:
64,192,26981,1,0,0:0:0:0:
192,192,27095,1,0,0:0:0:0:
64,192,27322,1,0,0:0:0:0:
320,192,27322,1,0,0:0:0:0:
448,192,27322,1,0,0:0:0:0:
192,192,27549,1,0,0:0:0:0:
448,192,27549,1,0,0:0:0:0:
192,192,27777,1,0,0:0:0:0:
320,192,27777,1,0,0:0:0:0:
448,192,27890,1,0,0:0:0:0:
64,192,27890,1,0,0:0:0:0:
320,192,28004,1,0,0:0:0:0:
448,192,28231,1,0,0:0:0:0:
192,192,28231,1,0,0:0:0:0:
64,192,28231,1,0,0:0:0:0:
320,192,28459,1,0,0:0:0:0:
192,192,28459,1,0,0:0:0:0:
320,192,28686,1,0,0:0:0:0:
64,192,28686,1,0,0:0:0:0:
448,192,28799,1,0,0:0:0:0:
192,192,28913,1,0,0:0:0:0:
64,192,29027,1,0,0:0:0:0:
448,192,29140,1,0,0:0:0:0:
320,192,29140,1,0,0:0:0:0:
320,192,29254,1,0,0:0:0:0:
448,192,29254,1,0,0:0:0:0:
64,192,29368,1,0,0:0:0:0:
192,192,29424,1,0,0:0:0:0:
320,192,29481,1,0,0:0:0:0:
448,192,29538,1,0,0:0:0:0:
192,192,29595,1,0,0:0:0:0:
64,192,29595,1,0,0:0:0:0:
320,192,29709,1,0,0:0:0:0:
448,192,29709,1,0,0:0:0:0:
192,192,29822,1,0,0:0:0:0:
64,192,29822,1,0,0:0:0:0:
320,192,29936,1,0,0:0:0:0:
448,192,29936,1,0,0:0:0:0:
448,192,30049,1,0,0:0:0:0:
192,192,30049,1,0,0:0:0:0:
64,192,30049,1,0,0:0:0:0:
320,192,30277,1,0,0:0:0:0:
64,192,30277,1,0,0:0:0:0:
192,192,30390,1,0,0:0:0:0:
320,192,30504,1,0,0:0:0:0:
448,192,30504,1,0,0:0:0:0:
64,192,30618,1,0,0:0:0:0:
192,192,30618,1,0,0:0:0:0:
448,192,30731,1,0,0:0:0:0:
320,192,30845,1,0,0:0:0:0:
64,192,30845,1,0,0:0:0:0:
192,192,30959,1,0,0:0:0:0:
448,192,30959,1,0,0:0:0:0:
320,192,31186,1,0,0:0:0:0:
448,192,31186,1,0,0:0:0:0:
64,192,31299,1,0,0:0:0:0:
192,192,31413,1,0,0:0:0:0:
320,192,31413,1,0,0:0:0:0:
448,192,31527,1,0,0:0:0:0:
64,192,31527,1,0,0:0:0:0:
192,192,31640,1,0,0:0:0:0:
320,192,31754,1,0,0:0:0:0:
448,192,31754,1,0,0:0:0:0:
192,192,31868,1,0,0:0:0:0:
64,192,31868,1,0,0:0:0:0:
64,192,32095,1,0,0:0:0:0:
448,192,32095,1,0,0:0:0:0:
320,192,32209,1,0,0:0:0:0:
192,192,32322,1,0,0:0:0:0:
64,192,32322,1,0,0:0:0:0:
320,192,32436,1,0,0:0:0:0:
448,192,32436,1,0,0:0:0:0:
64,192,32549,1,0,0:0:0:0:
192,192,32663,1,0,0:0:0:0:
320,192,32663,1,0,0:0:0:0:
448,192,32777,1,0,0:0:0:0:
64,192,32777,1,0,0:0:0:0:
448,192,33004,1,0,0:0:0:0:
320,192,33004,1,0,0:0:0:0:
192,192,33118,1,0,0:0:0:0:
64,192,33231,1,0,0:0:0:0:
320,192,33231,1,0,0:0:0:0:
448,192,33345,1,0,0:0:0:0:
192,192,33345,1,0,0:0:0:0:
64,192,33459,1,0,0:0:0:0:
320,192,33572,1,0,0:0:0:0:
448,192,33572,1,0,0:0:0:0:
192,192,33686,1,0,0:0:0:0:
64,192,33686,1,0,0:0:0:0:
192,192,33913,1,0,0:0:0:0:
320,192,33913,1,0,0:0:0:0:
448,192,34027,1,0,0:0:0:0:
64,192,34140,1,0,0:0:0:0:
192,192,34140,1,0,0:0:0:0:
320,192,34254,1,0,0:0:0:0:
448,192,34254,1,0,0:0:0:0:
64,192,34368,1,0,0:0:0:0:
192,192,34481,1,0,0:0:0:0:
448,192,34481,1,0,0:0:0:0:
320,192,34595,1,0,0:0:0:0:
64,192,34595,1,0,0:0:0:0:
192,192,34822,1,0,0:0:0:0:
448,192,34822,1,0,0:0:0:0:
64,192,34936,1,0,0:0:0:0:
320,192,35049,1,0,0:0:0:0:
448,192,35049,1,0,0:0:0:0:
192,192,35163,1,0,0:0:0:0:
64,192,35163,1,0,0:0:0:0:
448,192,35277,1,0,0:0:0:0:
320,192,35390,1,0,0:0:0:0:
192,192,35390,1,0,0:0:0:0:
64,192,35504,1,0,0:0:0:0:
448,192,35504,1,0,0:0:0:0:
64,192,35731,1,0,0:0:0:0:
192,192,35731,1,0,0:0:0:0:
448,192,35845,1,0,0:0:0:0:
320,192,35959,1,0,0:0:0:0:
64,192,35959,1,0,0:0:0:0:
192,192,36072,1,0,0:0:0:0:
448,192,36072,1,0,0:0:0:0:
64,192,36186,1,0,0:0:0:0:
448,192,36299,1,0,0:0:0:0:
320,192,36299,1,0,0:0:0:0:
64,192,36413,128,0,36868:0:0:0:0:
192,192,36413,128,0,36868:0:0:0:0:
320,192,36868,1,0,0:0:0:0:
448,192,36868,1,0,0:0:0:0:
192,192,36981,1,0,0:0:0:0:
64,192,36981,1,0,0:0:0:0:
448,192,37095,1,0,0:0:0:0:
192,192,37209,1,0,0:0:0:0:
64,192,37209,1,0,0:0:0:0:
320,192,37322,1,0,0:0:0:0:
448,192,37322,1,0,0:0:0:0:
64,192,37322,1,0,0:0:0:0:
192,192,37549,1,0,0:0:0:0:
448,192,37549,1,0,0:0:0:0:
320,192,37663,1,0,0:0:0:0:
64,192,37663,1,0,0:0:0:0:
192,192,37777,1,0,0:0:0:0:
448,192,37777,1,0,0:0:0:0:
320,192,37890,1,0,0:0:0:0:
64,192,37890,1,0,0:0:0:0:
192,192,38004,1,0,0:0:0:0:
320,192,38118,1,0,0:0:0:0:
448,192,38118,1,0,0:0:0:0:
64,192,38231,1,0,0:0:0:0:
192,192,38231,1,0,0:0:0:0:
64,192,38459,1,0,0:0:0:0:
448,192,38459,1,0,0:0:0:0:
192,192,38572,1,0,0:0:0:0:
320,192,38572,1,0,0:0:0:0:
448,192,38686,1,0,0:0:0:0:
64,192,38686,1,0,0:0:0:0:
192,192,38799,1,0,0:0:0:0:
320,192,38799,1,0,0:0:0:0:
448,192,38913,1,0,0:0:0:0:
64,192,39027,1,0,0:0:0:0:
320,192,39027,1,0,0:0:0:0:
192,192,39140,1,0,0:0:0:0:
448,192,39140,1,0,0:0:0:0:
192,192,39368,1,0,0:0:0:0:
64,192,39368,1,0,0:0:0:0:
320,192,39481,1,0,0:0:0:0:
448,192,39481,1,0,0:0:0:0:
192,192,39595,1,0,0:0:0:0:
64,192,39595,1,0,0:0:0:0:
320,192,39709,1,0,0:0:0:0:
448,192,39709,1,0,0:0:0:0:
192,192,39822,1,0,0:0:0:0:
64,192,39936,1,0,0:0:0:0:
448,192,39936,1,0,0:0:0:0:
192,192,40049,1,0,0:0:0:0:
320,192,40049,1,0,0:0:0:0:
320,192,40277,1,0,0:0:0:0:
64,192,40277,1,0,0:0:0:0:
192,192,40390,1,0,0:0:0:0:
448,192,40390,1,0,0:0:0:0:
320,192,40504,1,0,0:0:0:0:
64,192,40504,1,0,0:0:0:0:
192,192,40618,1,0,0:0:0:0:
448,192,40618,1,0,0:0:0:0:
320,192,40731,1,0,0:0:0:0:
192,192,40845,1,0,0:0:0:0:
64,192,40845,1,0,0:0:0:0:
320,192,40959,1,0,0:0:0:0:
448,192,40959,1,0,0:0:0:0:
320,192,41186,1,0,0:0:0:0:
192,192,41186,1,0,0:0:0:0:
448,192,41299,1,0,0:0:0:0:
64,192,41299,1,0,0:0:0:0:
192,192,41413,1,0,0:0:0:0:
320,192,41413,1,0,0:0:0:0:
448,192,41527,1,0,0:0:0:0:
64,192,41527,1,0,0:0:0:0:
192,192,41640,1,0,0:0:0:0:
320,192,41754,1,0,0:0:0:0:
448,192,41754,1,0,0:0:0:0:
192,192,41868,1,0,0:0:0:0:
64,192,41868,1,0,0:0:0:0:
448,192,42095,1,0,0:0:0:0:
64,192,42095,1,0,0:0:0:0:
192,192,42209,1,0,0:0:0:0:
320,192,42209,1,0,0:0:0:0:
64,192,42322,1,0,0:0:0:0:
448,192,42322,1,0,0:0:0:0:
192,192,42436,1,0,0:0:0:0:
320,192,42436,1,0,0:0:0:0:
64,192,42549,1,0,0:0:0:0:
320,192,42663,1,0,0:0:0:0:
448,192,42663,1,0,0:0:0:0:
192,192,42777,1,0,0:0:0:0:
64,192,42777,1,0,0:0:0:0:
192,192,42890,1,0,0:0:0:0:
64,192,42890,1,0,0:0:0:0:
320,192,43004,1,0,0:0:0:0:
448,192,43004,1,0,0:0:0:0:
192,192,43118,1,0,0:0:0:0:
64,192,43118,1,0,0:0:0:0:
320,192,43231,1,0,0:0:0:0:
448,192,43231,1,0,0:0:0:0:
320,192,43345,1,0,0:0:0:0:
448,192,43345,1,0,0:0:0:0:
192,192,43459,1,0,0:0:0:0:
64,192,43459,1,0,0:0:0:0:
320,192,43572,1,0,0:0:0:0:
448,192,43572,1,0,0:0:0:0:
192,192,43629,1,0,0:0:0:0:
64,192,43686,1,0,0:0:0:0:
448,192,43686,1,0,0:0:0:0:
64,192,43799,1,0,0:0:0:0:
448,192,43799,1,0,0:0:0:0:
320,192,43913,1,0,0:0:0:0:
192,192,43913,1,0,0:0:0:0:
64,192,44027,1,0,0:0:0:0:
448,192,44027,1,0,0:0:0:0:
192,192,44140,1,0,0:0:0:0:
320,192,44140,1,0,0:0:0:0:
64,192,44254,1,0,0:0:0:0:
448,192,44254,1,0,0:0:0:0:
192,192,44481,1,0,0:0:0:0:
320,192,44481,1,0,0:0:0:0:
320,192,44595,1,0,0:0:0:0:
448,192,44595,1,0,0:0:0:0:
64,192,44595,1,0,0:0:0:0:
192,192,44709,1,0,0:0:0:0:
448,192,44822,1,0,0:0:0:0:
320,192,44822,1,0,0:0:0:0:
64,192,44936,1,0,0:0:0:0:
192,192,45049,1,0,0:0:0:0:
448,192,45049,1,0,0:0:0:0:
320,192,45163,1,0,0:0:0:0:
64,192,45163,1,0,0:0:0:0:
192,192,45277,1,0,0:0:0:0:
320,192,45390,1,0,0:0:0:0:
448,192,45390,1,0,0:0:0:0:
192,192,45504,1,0,0:0:0:0:
64,192,45504,1,0,0:0:0:0:
448,192,45618,1,0,0:0:0:0:
320,192,45731,1,0,0:0:0:0:
64,192,45731,1,0,0:0:0:0:
192,192,45845,1,0,0:0:0:0:
320,192,45959,1,0,0:0:0:0:
448,192,45959,1,0,0:0:0:0:
192,192,46072,1,0,0:0:0:0:
64,192,46072,1,0,0:0:0:0:
448,192,46186,1,0,0:0:0:0:
320,192,46299,1,0,0:0:0:0:
64,192,46299,1,0,0:0:0:0:
192,192,46413,1,0,0:0:0:0:
448,192,46413,1,0,0:0:0:0:
64,192,46527,1,0,0:0:0:0:
320,192,46640,1,0,0:0:0:0:
192,192,46640,1,0,0:0:0:0:
448,192,46754,1,0,0:0:0:0:
64,192,46868,1,0,0:0:0:0:
192,192,46868,1,0,0:0:0:0:
448,192,46981,1,0,0:0:0:0:
320,192,46981,1,0,0:0:0:0:
192,192,47095,1,0,0:0:0:0:
64,192,47209,1,0,0:0:0:0:
448,192,47209,1,0,0:0:0:0:
192,192,47322,1,0,0:0:0:0:
320,192,47322,1,0,0:0:0:0:
64,192,47436,1,0,0:0:0:0:
320,192,47549,1,0,0:0:0:0:
448,192,47549,1,0,0:0:0:0:
192,192,47663,1,0,0:0:0:0:
64,192,47777,1,0,0:0:0:0:
448,192,47777,1,0,0:0:0:0:
192,192,47890,1,0,0:0:0:0:
320,192,47890,1,0,0:0:0:0:
448,192,48004,1,0,0:0:0:0:
320,192,48118,1,0,0:0:0:0:
64,192,48118,1,0,0:0:0:0:
192,192,48231,1,0,0:0:0:0:
448,192,48231,1,0,0:0:0:0:
320,192,48345,1,0,0:0:0:0:
192,192,48459,1,0,0:0:0:0:
64,192,48459,1,0,0:0:0:0:
448,192,48572,1,0,0:0:0:0:
320,192,48686,1,0,0:0:0:0:
64,192,48686,1,0,0:0:0:0:
192,192,48799,1,0,0:0:0:0:
448,192,48799,1,0,0:0:0:0:
64,192,48913,1,0,0:0:0:0:
320,192,49027,1,0,0:0:0:0:
448,192,49027,1,0,0:0:0:0:
192,192,49140,1,0,0:0:0:0:
64,192,49140,1,0,0:0:0:0:
320,192,49254,1,0,0:0:0:0:
192,192,49368,1,0,0:0:0:0:
448,192,49368,1,0,0:0:0:0:
64,192,49481,1,0,0:0:0:0:
320,192,49595,1,0,0:0:0:0:
448,192,49595,1,0,0:0:0:0:
192,192,49709,1,0,0:0:0:0:
64,192,49709,1,0,0:0:0:0:
320,192,49822,1,0,0:0:0:0:
448,192,49936,1,0,0:0:0:0:
64,192,49936,1,0,0:0:0:0:
192,192,50049,1,0,0:0:0:0:
320,192,50049,1,0,0:0:0:0:
448,192,50163,1,0,0:0:0:0:
192,192,50277,1,0,0:0:0:0:
64,192,50277,1,0,0:0:0:0:
320,192,50390,1,0,0:0:0:0:
448,192,50504,1,0,0:0:0:0:
64,192,50504,1,0,0:0:0:0:
192,192,50618,1,0,0:0:0:0:
320,192,50618,1,0,0:0:0:0:
448,192,50731,1,0,0:0:0:0:
192,192,50845,1,0,0:0:0:0:
64,192,50845,1,0,0:0:0:0:
448,192,50959,128,0,51413:0:0:0:0:
320,192,50959,128,0,51413:0:0:0:0:
192,192,51413,1,0,0:0:0:0:
64,192,51413,1,0,0:0:0:0:
320,192,51527,1,0,0:0:0:0:
448,192,51527,1,0,0:0:0:0:
64,192,51640,1,0,0:0:0:0:
320,192,51754,1,0,0:0:0:0:
448,192,51754,1,0,0:0:0:0:
192,192,51868,1,0,0:0:0:0:
64,192,51868,1,0,0:0:0:0:
448,192,51868,1,0,0:0:0:0:
320,192,51981,1,0,0:0:0:0:
192,192,52095,1,0,0:0:0:0:
320,192,52209,1,0,0:0:0:0:
64,192,52322,1,0,0:0:0:0:
192,192,52322,1,0,0:0:0:0:
448,192,52322,1,0,0:0:0:0:
320,192,52436,1,0,0:0:0:0:
64,192,52549,1,0,0:0:0:0:
192,192,52663,1,0,0:0:0:0:
64,192,52777,1,0,0:0:0:0:
320,192,52777,1,0,0:0:0:0:
448,192,52777,1,0,0:0:0:0:
192,192,52890,1,0,0:0:0:0:
448,192,53004,1,0,0:0:0:0:
320,192,53118,1,0,0:0:0:0:
192,192,53231,1,0,0:0:0:0:
64,192,53231,1,0,0:0:0:0:
448,192,53231,1,0,0:0:0:0:
320,192,53345,1,0,0:0:0:0:
192,192,53459,1,0,0:0:0:0:
64,192,53572,1,0,0:0:0:0:
192,192,53686,1,0,0:0:0:0:
320,192,53686,1,0,0:0:0:0:
448,192,53686,1,0,0:0:0:0:
64,192,53799,1,0,0:0:0:0:
448,192,53913,1,0,0:0:0:0:
320,192,54027,1,0,0:0:0:0:
192,192,54140,1,0,0:0:0:0:
64,192,54140,1,0,0:0:0:0:
448,192,54140,1,0,0:0:0:0:
320,192,54254,1,0,0:0:0:0:
64,192,54368,1,0,0:0:0:0:
192,192,54481,1,0,0:0:0:0:
64,192,54595,1,0,0:0:0:0:
320,192,54595,1,0,0:0:0:0:
448,192,54595,1,0,0:0:0:0:
192,192,54709,1,0,0:0:0:0:
320,192,54822,1,0,0:0:0:0:
448,192,54936,1,0,0:0:0:0:
320,192,55049,1,0,0:0:0:0:
192,192,55049,1,0,0:0:0:0:
64,192,55049,1,0,0:0:0:0:
448,192,55163,1,0,0:0:0:0:
192,192,55277,1,0,0:0:0:0:
320,192,55390,1,0,0:0:0:0:
192,192,55504,1,0,0:0:0:0:
64,192,55504,1,0,0:0:0:0:
448,192,55504,1,0,0:0:0:0:
320,192,55618,1,0,0:0:0:0:
64,192,55731,1,0,0:0:0:0:
448,192,55731,1,0,0:0:0:0:
192,192,55845,1,0,0:0:0:0:
320,192,55959,1,0,0:0:0:0:
448,192,55959,1,0,0:0:0:0:
64,192,55959,1,0,0:0:0:0:
192,192,56072,1,0,0:0:0:0:
320,192,56186,1,0,0:0:0:0:
448,192,56186,1,0,0:0:0:0:
64,192,56299,1,0,0:0:0:0:
192,192,56413,1,0,0:0:0:0:
320,192,56413,1,0,0:0:0:0:
448,192,56413,1,0,0:0:0:0:
320,192,56527,1,0,0:0:0:0:
192,192,56640,1,0,0:0:0:0:
64,192,56640,1,0,0:0:0:0:
64,192,56754,1,0,0:0:0:0:
320,192,56868,1,0,0:0:0:0:
448,192,56868,1,0,0:0:0:0:
192,192,56868,1,0,0:0:0:0:
448,192,56981,1,0,0:0:0:0:
192,192,57095,1,0,0:0:0:0:
64,192,57095,1,0,0:0:0:0:
192,192,57209,1,0,0:0:0:0:
448,192,57322,1,0,0:0:0:0:
320,192,57379,1,0,0:0:0:0:
192,192,57436,1,0,0:0:0:0:
64,192,57493,1,0,0:0:0:0:
448,192,57549,1,0,0:0:0:0:
320,192,57606,1,0,0:0:0:0:
192,192,57663,1,0,0:0:0:0:
64,192,57720,1,0,0:0:0:0:
448,192,57777,1,0,0:0:0:0:
320,192,57834,1,0,0:0:0:0:
64,192,57890,1,0,0:0:0:0:
192,192,57947,1,0,0:0:0:0:
320,192,58004,1,0,0:0:0:0:
448,192,58061,1,0,0:0:0:0:
64,192,58118,1,0,0:0:0:0:
192,192,58174,1,0,0:0:0:0:
320,192,58231,1,0,0:0:0:0:
448,192,58231,1,0,0:0:0:0:
64,192,58288,1,0,0:0:0:0:
192,192,58345,1,0,0:0:0:0:
448,192,58402,1,0,0:0:0:0:
320,192,58459,1,0,0:0:0:0:
64,192,58515,1,0,0:0:0:0:
192,192,58572,1,0,0:0:0:0:
320,192,58629,1,0,0:0:0:0:
448,192,58686,1,0,0:0:0:0:
64,192,58686,128,0,59140:0:0:0:0:
320,192,58913,1,0,0:0:0:0:
192,192,58913,1,0,0:0:0:0:
192,192,59140,1,0,0:0:0:0:
320,192,59140,1,0,0:0:0:0:
448,192,59140,128,0,60959:0:0:0:0:
192,192,59822,128,0,60504:0:0:0:0:
64,192,60504,128,0,60959:0:0:0:0:
320,192,60959,128,0,62095:0:0:0:0:
192,192,62095,128,0,62322:0:0:0:0:
448,192,62322,128,0,62549:0:0:0:0:
64,192,62322,1,0,0:0:0:0:
320,192,62436,128,0,62549:0:0:0:0:
192,192,62549,128,0,62777:0:0:0:0:
64,192,62777,1,0,0:0:0:0:
448,192,62777,128,0,63686:0:0:0:0:
192,192,63459,128,0,63686:0:0:0:0:
320,192,63686,128,0,64595:0:0:0:0:
192,192,64140,128,0,64595:0:0:0:0:
64,192,64595,128,0,66413:0:0:0:0:
320,192,65504,1,0,0:0:0:0:
448,192,65504,128,0,66413:0:0:0:0:
192,192,66413,1,0,0:0:0:0:
320,192,66413,128,0,68231:0:0:0:0:
64,192,67095,128,0,67549:0:0:0:0:
448,192,67549,128,0,67777:0:0:0:0:
192,192,67777,128,0,68231:0:0:0:0:
448,192,68231,128,0,69368:0:0:0:0:
64,192,69368,128,0,69595:0:0:0:0:
448,192,69595,1,0,0:0:0:0:
320,192,69595,128,0,69822:0:0:0:0:
192,192,69709,128,0,69822:0:0:0:0:
64,192,69822,128,0,70049:0:0:0:0:
320,192,70049,1,0,0:0:0:0:
448,192,70049,128,0,70959:0:0:0:0:
192,192,70731,128,0,70959:0:0:0:0:
320,192,70959,128,0,71868:0:0:0:0:
64,192,71413,128,0,71640:0:0:0:0:
448,192,71640,128,0,71868:0:0:0:0:
64,192,71868,1,0,0:0:0:0:
192,192,71868,128,0,73686:0:0:0:0:
64,192,73686,1,0,0:0:0:0:
320,192,73686,1,0,0:0:0:0:
448,192,73686,1,0,0:0:0:0:
192,192,73799,1,0,0:0:0:0:
320,192,73913,1,0,0:0:0:0:
448,192,73913,1,0,0:0:0:0:
64,192,74027,1,0,0:0:0:0:
448,192,74140,1,0,0:0:0:0:
192,192,74140,1,0,0:0:0:0:
320,192,74254,1,0,0:0:0:0:
64,192,74254,1,0,0:0:0:0:
448,192,74368,1,0,0:0:0:0:
192,192,74481,1,0,0:0:0:0:
320,192,74595,1,0,0:0:0:0:
64,192,74709,1,0,0:0:0:0:
192,192,74822,1,0,0:0:0:0:
448,192,74822,1,0,0:0:0:0:
320,192,74936,1,0,0:0:0:0:
192,192,75049,1,0,0:0:0:0:
64,192,75049,1,0,0:0:0:0:
320,192,75163,1,0,0:0:0:0:
448,192,75163,1,0,0:0:0:0:
64,192,75277,1,0,0:0:0:0:
448,192,75390,1,0,0:0:0:0:
192,192,75504,1,0,0:0:0:0:
320,192,75618,1,0,0:0:0:0:
192,192,75731,1,0,0:0:0:0:
64,192,75731,1,0,0:0:0:0:
448,192,75845,1,0,0:0:0:0:
320,192,75959,1,0,0:0:0:0:
64,192,75959,1,0,0:0:0:0:
192,192,76072,1,0,0:0:0:0:
448,192,76072,1,0,0:0:0:0:
64,192,76186,1,0,0:0:0:0:
320,192,76299,1,0,0:0:0:0:
192,192,76413,1,0,0:0:0:0:
320,192,76527,1,0,0:0:0:0:
448,192,76640,1,0,0:0:0:0:
64,192,76640,1,0,0:0:0:0:
192,192,76754,1,0,0:0:0:0:
320,192,76868,1,0,0:0:0:0:
448,192,76868,1,0,0:0:0:0:
192,192,76981,1,0,0:0:0:0:
64,192,76981,1,0,0:0:0:0:
320,192,77095,1,0,0:0:0:0:
192,192,77209,1,0,0:0:0:0:
320,192,77322,1,0,0:0:0:0:
448,192,77322,1,0,0:0:0:0:
64,192,77436,1,0,0:0:0:0:
192,192,77549,1,0,0:0:0:0:
448,192,77549,1,0,0:0:0:0:
320,192,77663,1,0,0:0:0:0:
64,192,77777,1,0,0:0:0:0:
192,192,77777,1,0,0:0:0:0:
320,192,77890,1,0,0:0:0:0:
448,192,77890,1,0,0:0:0:0:
64,192,78004,1,0,0:0:0:0:
448,192,78118,1,0,0:0:0:0:
192,192,78231,1,0,0:0:0:0:
64,192,78231,1,0,0:0:0:0:
320,192,78345,1,0,0:0:0:0:
192,192,78459,1,0,0:0:0:0:
448,192,78459,1,0,0:0:0:0:
64,192,78572,1,0,0:0:0:0:
320,192,78686,1,0,0:0:0:0:
448,192,78686,1,0,0:0:0:0:
192,192,78799,1,0,0:0:0:0:
64,192,78799,1,0,0:0:0:0:
320,192,78913,1,0,0:0:0:0:
192,192,79027,1,0,0:0:0:0:
320,192,79140,1,0,0:0:0:0:
448,192,79140,1,0,0:0:0:0:
64,192,79254,1,0,0:0:0:0:
192,192,79368,1,0,0:0:0:0:
448,192,79368,1,0,0:0:0:0:
320,192,79481,1,0,0:0:0:0:
448,192,79595,1,0,0:0:0:0:
64,192,79595,1,0,0:0:0:0:
192,192,79709,1,0,0:0:0:0:
320,192,79709,1,0,0:0:0:0:
64,192,79822,1,0,0:0:0:0:
192,192,79936,1,0,0:0:0:0:
320,192,80049,1,0,0:0:0:0:
448,192,80049,1,0,0:0:0:0:
192,192,80163,1,0,0:0:0:0:
64,192,80277,1,0,0:0:0:0:
448,192,80277,1,0,0:0:0:0:
320,192,80390,1,0,0:0:0:0:
192,192,80504,1,0,0:0:0:0:
64,192,80504,1,0,0:0:0:0:
192,192,80618,1,0,0:0:0:0:
64,192,80618,1,0,0:0:0:0:
320,192,80731,1,0,0:0:0:0:
448,192,80731,1,0,0:0:0:0:
320,192,80845,1,0,0:0:0:0:
448,192,80845,1,0,0:0:0:0:
64,192,80959,1,0,0:0:0:0:
448,192,80959,1,0,0:0:0:0:
192,192,80959,1,0,0:0:0:0:
320,192,81072,1,0,0:0:0:0:
192,192,81186,1,0,0:0:0:0:
64,192,81186,1,0,0:0:0:0:
320,192,81299,1,0,0:0:0:0:
448,192,81299,1,0,0:0:0:0:
192,192,81413,1,0,0:0:0:0:
64,192,81413,1,0,0:0:0:0:
448,192,81527,1,0,0:0:0:0:
320,192,81640,1,0,0:0:0:0:
64,192,81640,1,0,0:0:0:0:
320,192,81754,1,0,0:0:0:0:
192,192,81868,1,0,0:0:0:0:
448,192,81868,1,0,0:0:0:0:
192,192,81981,1,0,0:0:0:0:
320,192,82095,1,0,0:0:0:0:
64,192,82095,1,0,0:0:0:0:
192,192,82209,1,0,0:0:0:0:
448,192,82209,1,0,0:0:0:0:
320,192,82322,1,0,0:0:0:0:
64,192,82322,1,0,0:0:0:0:
448,192,82436,1,0,0:0:0:0:
192,192,82549,1,0,0:0:0:0:
64,192,82549,1,0,0:0:0:0:
64,192,82663,1,0,0:0:0:0:
320,192,82777,1,0,0:0:0:0:
448,192,82777,1,0,0:0:0:0:
320,192,82890,1,0,0:0:0:0:
192,192,83004,1,0,0:0:0:0:
64,192,83004,1,0,0:0:0:0:
320,192,83118,1,0,0:0:0:0:
448,192,83118,1,0,0:0:0:0:
192,192,83231,1,0,0:0:0:0:
64,192,83231,1,0,0:0:0:0:
448,192,83345,1,0,0:0:0:0:
320,192,83459,1,0,0:0:0:0:
192,192,83459,1,0,0:0:0:0:
320,192,83572,1,0,0:0:0:0:
64,192,83686,1,0,0:0:0:0:
448,192,83686,1,0,0:0:0:0:
64,192,83799,1,0,0:0:0:0:
192,192,83913,1,0,0:0:0:0:
320,192,83913,1,0,0:0:0:0:
448,192,84027,1,0,0:0:0:0:
64,192,84027,1,0,0:0:0:0:
192,192,84140,1,0,0:0:0:0:
320,192,84140,1,0,0:0:0:0:
448,192,84254,1,0,0:0:0:0:
64,192,84368,1,0,0:0:0:0:
192,192,84368,1,0,0:0:0:0:
192,192,84481,1,0,0:0:0:0:
320,192,84595,1,0,0:0:0:0:
448,192,84595,1,0,0:0:0:0:
64,192,84652,1,0,0:0:0:0:
192,192,84709,1,0,0:0:0:0:
448,192,84765,1,0,0:0:0:0:
320,192,84822,1,0,0:0:0:0:
192,192,84879,1,0,0:0:0:0:
64,192,84936,1,0,0:0:0:0:
448,192,84936,1,0,0:0:0:0:
320,192,84993,1,0,0:0:0:0:
192,192,85049,1,0,0:0:0:0:
64,192,85049,1,0,0:0:0:0:
448,192,85106,1,0,0:0:0:0:
320,192,85163,1,0,0:0:0:0:
192,192,85220,1,0,0:0:0:0:
64,192,85277,1,0,0:0:0:0:
448,192,85277,1,0,0:0:0:0:
320,192,85334,1,0,0:0:0:0:
192,192,85390,1,0,0:0:0:0:
64,192,85447,1,0,0:0:0:0:
320,192,85504,1,0,0:0:0:0:
448,192,85504,1,0,0:0:0:0:
192,192,85561,1,0,0:0:0:0:
64,192,85618,1,0,0:0:0:0:
320,192,85674,1,0,0:0:0:0:
448,192,85731,1,0,0:0:0:0:
64,192,85788,1,0,0:0:0:0:
192,192,85845,1,0,0:0:0:0:
320,192,85845,1,0,0:0:0:0:
448,192,85902,1,0,0:0:0:0:
192,192,85959,1,0,0:0:0:0:
64,192,85959,1,0,0:0:0:0:
320,192,86015,1,0,0:0:0:0:
448,192,86072,1,0,0:0:0:0:
64,192,86129,1,0,0:0:0:0:
192,192,86186,1,0,0:0:0:0:
320,192,86186,1,0,0:0:0:0:
448,192,86243,1,0,0:0:0:0:
64,192,86299,1,0,0:0:0:0:
192,192,86356,1,0,0:0:0:0:
320,192,86413,1,0,0:0:0:0:
448,192,86413,1,0,0:0:0:0:
64,192,86470,1,0,0:0:0:0:
192,192,86527,1,0,0:0:0:0:
320,192,86584,1,0,0:0:0:0:
448,192,86640,1,0,0:0:0:0:
64,192,86697,1,0,0:0:0:0:
192,192,86754,1,0,0:0:0:0:
320,192,86811,1,0,0:0:0:0:
448,192,86868,1,0,0:0:0:0:
64,192,86924,128,0,87663:0:0:0:0:
192,192,86981,128,0,87663:0:0:0:0:
320,192,87038,128,0,87663:0:0:0:0:
448,192,87095,128,0,87663:0:0:0:0:
64,192,87777,1,0,0:0:0:0:
192,192,87777,1,0,0:0:0:0:
320,192,87777,1,0,0:0:0:0:
448,192,87777,1,0,0:0:0:0:
64,192,88231,1,0,0:0:0:0:
320,192,88231,1,0,0:0:0:0:
448,192,88231,128,0,88459:0:0:0:0:
192,192,88459,1,0,0:0:0:0:
64,192,88459,1,0,0:0:0:0:
320,192,88572,1,0,0:0:0:0:
448,192,88686,1,0,0:0:0:0:
64,192,88686,1,0,0:0:0:0:
192,192,88799,1,0,0:0:0:0:
320,192,88799,1,0,0:0:0:0:
64,192,88913,1,0,0:0:0:0:
448,192,89027,1,0,0:0:0:0:
320,192,89027,1,0,0:0:0:0:
64,192,89140,1,0,0:0:0:0:
192,192,89140,1,0,0:0:0:0:
320,192,89254,128,0,89481:0:0:0:0:
448,192,89481,1,0,0:0:0:0:
64,192,89481,1,0,0:0:0:0:
320,192,89595,1,0,0:0:0:0:
192,192,89595,128,0,90049:0:0:0:0:
448,192,89822,1,0,0:0:0:0:
448,192,89936,1,0,0:0:0:0:
320,192,90049,1,0,0:0:0:0:
64,192,90049,1,0,0:0:0:0:
192,192,90163,1,0,0:0:0:0:
64,192,90277,1,0,0:0:0:0:
448,192,90277,1,0,0:0:0:0:
320,192,90390,1,0,0:0:0:0:
192,192,90504,1,0,0:0:0:0:
64,192,90504,1,0,0:0:0:0:
320,192,90618,1,0,0:0:0:0:
448,192,90618,1,0,0:0:0:0:
64,192,90731,1,0,0:0:0:0:
192,192,90845,1,0,0:0:0:0:
448,192,90845,1,0,0:0:0:0:
320,192,90959,1,0,0:0:0:0:
64,192,90959,1,0,0:0:0:0:
448,192,91072,128,0,91299:0:0:0:0:
192,192,91299,1,0,0:0:0:0:
64,192,91299,1,0,0:0:0:0:
448,192,91413,1,0,0:0:0:0:
320,192,91413,1,0,0:0:0:0:
320,192,91527,1,0,0:0:0:0:
448,192,91527,1,0,0:0:0:0:
192,192,91640,1,0,0:0:0:0:
64,192,91640,1,0,0:0:0:0:
192,192,91754,1,0,0:0:0:0:
64,192,91754,1,0,0:0:0:0:
448,192,91868,1,0,0:0:0:0:
64,192,91868,128,0,92095:0:0:0:0:
192,192,92095,1,0,0:0:0:0:
320,192,92095,1,0,0:0:0:0:
448,192,92209,1,0,0:0:0:0:
192,192,92322,1,0,0:0:0:0:
64,192,92322,1,0,0:0:0:0:
320,192,92436,1,0,0:0:0:0:
448,192,92436,1,0,0:0:0:0:
192,192,92549,1,0,0:0:0:0:
320,192,92663,1,0,0:0:0:0:
64,192,92663,1,0,0:0:0:0:
192,192,92777,1,0,0:0:0:0:
448,192,92777,1,0,0:0:0:0:
320,192,92890,128,0,93118:0:0:0:0:
192,192,93118,1,0,0:0:0:0:
64,192,93118,1,0,0:0:0:0:
320,192,93231,1,0,0:0:0:0:
448,192,93231,128,0,93686:0:0:0:0:
192,192,93459,1,0,0:0:0:0:
192,192,93572,1,0,0:0:0:0:
64,192,93686,1,0,0:0:0:0:
320,192,93686,1,0,0:0:0:0:
192,192,93799,128,0,93913:0:0:0:0:
320,192,93913,128,0,94027:0:0:0:0:
448,192,93913,1,0,0:0:0:0:
64,192,94027,128,0,94140:0:0:0:0:
448,192,94140,1,0,0:0:0:0:
192,192,94140,1,0,0:0:0:0:
192,192,94254,1,0,0:0:0:0:
448,192,94254,1,0,0:0:0:0:
192,192,94368,1,0,0:0:0:0:
448,192,94368,1,0,0:0:0:0:
192,192,94481,1,0,0:0:0:0:
448,192,94481,1,0,0:0:0:0:
320,192,94595,1,0,0:0:0:0:
64,192,94595,1,0,0:0:0:0:
64,192,94709,1,0,0:0:0:0:
448,192,94822,1,0,0:0:0:0:
320,192,94879,1,0,0:0:0:0:
192,192,94936,1,0,0:0:0:0:
64,192,94993,1,0,0:0:0:0:
448,192,95049,1,0,0:0:0:0:
320,192,95049,1,0,0:0:0:0:
448,192,95163,1,0,0:0:0:0:
320,192,95163,1,0,0:0:0:0:
64,192,95277,1,0,0:0:0:0:
192,192,95277,1,0,0:0:0:0:
192,192,95390,1,0,0:0:0:0:
64,192,95390,1,0,0:0:0:0:
64,192,95504,1,0,0:0:0:0:
320,192,95504,1,0,0:0:0:0:
448,192,95504,128,0,95731:0:0:0:0:
192,192,95731,1,0,0:0:0:0:
64,192,95731,1,0,0:0:0:0:
320,192,95845,1,0,0:0:0:0:
192,192,95959,1,0,0:0:0:0:
64,192,95959,1,0,0:0:0:0:
448,192,95959,1,0,0:0:0:0:
448,192,96072,1,0,0:0:0:0:
320,192,96072,1,0,0:0:0:0:
192,192,96186,1,0,0:0:0:0:
320,192,96299,1,0,0:0:0:0:
64,192,96299,1,0,0:0:0:0:
192,192,96413,1,0,0:0:0:0:
448,192,96413,1,0,0:0:0:0:
320,192,96527,128,0,96754:0:0:0:0:
64,192,96754,1,0,0:0:0:0:
320,192,96868,1,0,0:0:0:0:
192,192,96868,1,0,0:0:0:0:
448,192,96868,128,0,97322:0:0:0:0:
64,192,97095,1,0,0:0:0:0:
64,192,97209,1,0,0:0:0:0:
192,192,97322,1,0,0:0:0:0:
320,192,97322,1,0,0:0:0:0:
448,192,97436,1,0,0:0:0:0:
64,192,97549,1,0,0:0:0:0:
320,192,97549,1,0,0:0:0:0:
192,192,97663,1,0,0:0:0:0:
448,192,97777,1,0,0:0:0:0:
64,192,97777,1,0,0:0:0:0:
320,192,97777,1,0,0:0:0:0:
192,192,97890,1,0,0:0:0:0:
448,192,97890,1,0,0:0:0:0:
320,192,98004,1,0,0:0:0:0:
192,192,98118,1,0,0:0:0:0:
64,192,98118,1,0,0:0:0:0:
320,192,98231,1,0,0:0:0:0:
448,192,98231,1,0,0:0:0:0:
64,192,98345,128,0,98572:0:0:0:0:
320,192,98572,1,0,0:0:0:0:
192,192,98686,1,0,0:0:0:0:
64,192,98686,1,0,0:0:0:0:
448,192,98686,1,0,0:0:0:0:
320,192,98799,128,0,99140:0:0:0:0:
192,192,98799,128,0,99140:0:0:0:0:
64,192,99140,1,0,0:0:0:0:
448,192,99140,1,0,0:0:0:0:
320,192,99254,1,0,0:0:0:0:
192,192,99368,1,0,0:0:0:0:
64,192,99368,1,0,0:0:0:0:
448,192,99481,1,0,0:0:0:0:
320,192,99595,1,0,0:0:0:0:
192,192,99595,1,0,0:0:0:0:
64,192,99595,1,0,0:0:0:0:
64,192,99709,1,0,0:0:0:0:
448,192,99709,1,0,0:0:0:0:
192,192,99822,1,0,0:0:0:0:
320,192,99936,1,0,0:0:0:0:
448,192,99936,1,0,0:0:0:0:
192,192,100049,1,0,0:0:0:0:
64,192,100049,1,0,0:0:0:0:
320,192,100163,128,0,100390:0:0:0:0:
64,192,100390,1,0,0:0:0:0:
192,192,100504,1,0,0:0:0:0:
320,192,100504,1,0,0:0:0:0:
448,192,100504,128,0,100959:0:0:0:0:
192,192,100959,1,0,0:0:0:0:
64,192,100959,1,0,0:0:0:0:
192,192,101072,1,0,0:0:0:0:
64,192,101072,1,0,0:0:0:0:
320,192,101186,1,0,0:0:0:0:
448,192,101186,1,0,0:0:0:0:
320,192,101299,1,0,0:0:0:0:
448,192,101299,1,0,0:0:0:0:
64,192,101413,1,0,0:0:0:0:
192,192,101413,128,0,101640:0:0:0:0:
320,192,101527,128,0,101640:0:0:0:0:
448,192,101640,1,0,0:0:0:0:
64,192,101640,128,0,101868:0:0:0:0:
192,192,101868,1,0,0:0:0:0:
320,192,101868,1,0,0:0:0:0:
192,192,101981,1,0,0:0:0:0:
320,192,101981,1,0,0:0:0:0:
448,192,102095,1,0,0:0:0:0:
64,192,102095,1,0,0:0:0:0:
192,192,102209,1,0,0:0:0:0:
320,192,102209,1,0,0:0:0:0:
64,192,102322,1,0,0:0:0:0:
320,192,102436,1,0,0:0:0:0:
448,192,102436,1,0,0:0:0:0:
192,192,102549,1,0,0:0:0:0:
320,192,102549,1,0,0:0:0:0:
192,192,102663,1,0,0:0:0:0:
64,192,102663,1,0,0:0:0:0:
64,192,102777,1,0,0:0:0:0:
320,192,102777,1,0,0:0:0:0:
448,192,102777,128,0,103231:0:0:0:0:
192,192,103004,1,0,0:0:0:0:
320,192,103118,1,0,0:0:0:0:
192,192,103231,1,0,0:0:0:0:
64,192,103231,1,0,0:0:0:0:
320,192,103459,1,0,0:0:0:0:
64,192,103459,1,0,0:0:0:0:
192,192,103572,1,0,0:0:0:0:
448,192,103572,1,0,0:0:0:0:
320,192,103686,1,0,0:0:0:0:
192,192,103799,1,0,0:0:0:0:
64,192,103799,1,0,0:0:0:0:
320,192,103913,1,0,0:0:0:0:
448,192,103913,1,0,0:0:0:0:
64,192,104027,1,0,0:0:0:0:
192,192,104140,1,0,0:0:0:0:
320,192,104140,1,0,0:0:0:0:
448,192,104140,1,0,0:0:0:0:
448,192,104368,1,0,0:0:0:0:
64,192,104368,1,0,0:0:0:0:
192,192,104481,1,0,0:0:0:0:
64,192,104595,128,0,105049:0:0:0:0:
320,192,104595,1,0,0:0:0:0:
448,192,104822,1,0,0:0:0:0:
192,192,104936,1,0,0:0:0:0:
320,192,105049,1,0,0:0:0:0:
448,192,105049,1,0,0:0:0:0:
192,192,105277,1,0,0:0:0:0:
64,192,105277,1,0,0:0:0:0:
320,192,105390,1,0,0:0:0:0:
448,192,105390,1,0,0:0:0:0:
192,192,105504,1,0,0:0:0:0:
448,192,105618,1,0,0:0:0:0:
64,192,105618,1,0,0:0:0:0:
192,192,105731,1,0,0:0:0:0:
320,192,105731,1,0,0:0:0:0:
448,192,105845,1,0,0:0:0:0:
64,192,105845,1,0,0:0:0:0:
192,192,105959,1,0,0:0:0:0:
320,192,105959,1,0,0:0:0:0:
64,192,106072,1,0,0:0:0:0:
448,192,106072,1,0,0:0:0:0:
192,192,106186,1,0,0:0:0:0:
320,192,106186,1,0,0:0:0:0:
64,192,106299,1,0,0:0:0:0:
448,192,106299,1,0,0:0:0:0:
192,192,106413,1,0,0:0:0:0:
320,192,106413,128,0,106868:0:0:0:0:
64,192,106640,1,0,0:0:0:0:
448,192,106754,1,0,0:0:0:0:
192,192,106868,1,0,0:0:0:0:
64,192,106868,1,0,0:0:0:0:
448,192,107095,1,0,0:0:0:0:
192,192,107095,1,0,0:0:0:0:
320,192,107209,1,0,0:0:0:0:
64,192,107209,1,0,0:0:0:0:
448,192,107322,1,0,0:0:0:0:
192,192,107436,1,0,0:0:0:0:
64,192,107436,1,0,0:0:0:0:
320,192,107549,1,0,0:0:0:0:
448,192,107549,1,0,0:0:0:0:
192,192,107663,1,0,0:0:0:0:
64,192,107777,1,0,0:0:0:0:
320,192,107777,1,0,0:0:0:0:
448,192,107777,1,0,0:0:0:0:
192,192,108004,1,0,0:0:0:0:
320,192,108004,1,0,0:0:0:0:
448,192,108118,1,0,0:0:0:0:
192,192,108231,1,0,0:0:0:0:
64,192,108231,128,0,108686:0:0:0:0:
320,192,108345,1,0,0:0:0:0:
192,192,108459,1,0,0:0:0:0:
320,192,108572,1,0,0:0:0:0:
448,192,108572,1,0,0:0:0:0:
192,192,108686,1,0,0:0:0:0:
320,192,108799,1,0,0:0:0:0:
448,192,108799,1,0,0:0:0:0:
192,192,108913,1,0,0:0:0:0:
64,192,108913,1,0,0:0:0:0:
320,192,109027,1,0,0:0:0:0:
448,192,109027,1,0,0:0:0:0:
64,192,109140,1,0,0:0:0:0:
192,192,109140,1,0,0:0:0:0:
192,192,109254,1,0,0:0:0:0:
448,192,109368,1,0,0:0:0:0:
320,192,109424,1,0,0:0:0:0:
64,192,109481,1,0,0:0:0:0:
192,192,109538,1,0,0:0:0:0:
320,192,109595,1,0,0:0:0:0:
448,192,109595,1,0,0:0:0:0:
320,192,109709,1,0,0:0:0:0:
192,192,109822,1,0,0:0:0:0:
64,192,109822,1,0,0:0:0:0:
192,192,109936,1,0,0:0:0:0:
64,192,110049,1,0,0:0:0:0:
320,192,110049,1,0,0:0:0:0:
448,192,110049,128,0,110504:0:0:0:0:
192,192,110277,1,0,0:0:0:0:
320,192,110390,1,0,0:0:0:0:
192,192,110504,1,0,0:0:0:0:
64,192,110504,1,0,0:0:0:0:
320,192,110731,1,0,0:0:0:0:
64,192,110731,1,0,0:0:0:0:
192,192,110845,1,0,0:0:0:0:
448,192,110845,1,0,0:0:0:0:
320,192,110959,1,0,0:0:0:0:
64,192,111072,1,0,0:0:0:0:
192,192,111072,1,0,0:0:0:0:
320,192,111186,1,0,0:0:0:0:
448,192,111186,1,0,0:0:0:0:
64,192,111299,1,0,0:0:0:0:
192,192,111413,1,0,0:0:0:0:
320,192,111413,1,0,0:0:0:0:
448,192,111413,1,0,0:0:0:0:
64,192,111640,1,0,0:0:0:0:
320,192,111640,1,0,0:0:0:0:
448,192,111754,1,0,0:0:0:0:
192,192,111868,128,0,112322:0:0:0:0:
64,192,111868,1,0,0:0:0:0:
320,192,112095,1,0,0:0:0:0:
64,192,112209,1,0,0:0:0:0:
320,192,112322,1,0,0:0:0:0:
448,192,112322,1,0,0:0:0:0:
448,192,112549,1,0,0:0:0:0:
64,192,112549,1,0,0:0:0:0:
192,192,112663,1,0,0:0:0:0:
320,192,112663,1,0,0:0:0:0:
64,192,112777,1,0,0:0:0:0:
192,192,112890,1,0,0:0:0:0:
448,192,112890,1,0,0:0:0:0:
320,192,113004,1,0,0:0:0:0:
64,192,113004,1,0,0:0:0:0:
192,192,113118,1,0,0:0:0:0:
448,192,113118,1,0,0:0:0:0:
320,192,113231,1,0,0:0:0:0:
64,192,113231,1,0,0:0:0:0:
192,192,113345,1,0,0:0:0:0:
448,192,113345,1,0,0:0:0:0:
64,192,113459,128,0,113686:0:0:0:0:
320,192,113459,128,0,113686:0:0:0:0:
192,192,113686,1,0,0:0:0:0:
448,192,113686,128,0,114140:0:0:0:0:
320,192,113913,1,0,0:0:0:0:
64,192,114027,1,0,0:0:0:0:
192,192,114140,1,0,0:0:0:0:
320,192,114140,1,0,0:0:0:0:
64,192,114254,1,0,0:0:0:0:
320,192,114368,1,0,0:0:0:0:
448,192,114368,1,0,0:0:0:0:
192,192,114481,1,0,0:0:0:0:
64,192,114481,1,0,0:0:0:0:
448,192,114595,1,0,0:0:0:0:
320,192,114709,1,0,0:0:0:0:
192,192,114709,1,0,0:0:0:0:
64,192,114822,1,0,0:0:0:0:
448,192,114822,1,0,0:0:0:0:
192,192,114936,1,0,0:0:0:0:
320,192,115049,1,0,0:0:0:0:
448,192,115049,1,0,0:0:0:0:
64,192,115049,1,0,0:0:0:0:
192,192,115277,1,0,0:0:0:0:
320,192,115277,1,0,0:0:0:0:
448,192,115390,1,0,0:0:0:0:
64,192,115504,128,0,115845:0:0:0:0:
192,192,115504,128,0,115845:0:0:0:0:
448,192,115845,1,0,0:0:0:0:
320,192,115845,1,0,0:0:0:0:
192,192,115959,1,0,0:0:0:0:
64,192,115959,1,0,0:0:0:0:
320,192,116072,1,0,0:0:0:0:
448,192,116186,1,0,0:0:0:0:
64,192,116186,1,0,0:0:0:0:
192,192,116299,1,0,0:0:0:0:
320,192,116299,1,0,0:0:0:0:
64,192,116413,1,0,0:0:0:0:
448,192,116413,1,0,0:0:0:0:
448,192,116527,1,0,0:0:0:0:
320,192,116640,1,0,0:0:0:0:
192,192,116640,1,0,0:0:0:0:
192,192,116754,1,0,0:0:0:0:
64,192,116868,1,0,0:0:0:0:
448,192,116868,1,0,0:0:0:0:
192,192,116981,1,0,0:0:0:0:
320,192,116981,1,0,0:0:0:0:
64,192,117095,1,0,0:0:0:0:
448,192,117095,1,0,0:0:0:0:
320,192,117209,1,0,0:0:0:0:
64,192,117209,1,0,0:0:0:0:
192,192,117322,1,0,0:0:0:0:
320,192,117322,1,0,0:0:0:0:
448,192,117322,128,0,117777:0:0:0:0:
64,192,117549,1,0,0:0:0:0:
192,192,117663,1,0,0:0:0:0:
64,192,117777,1,0,0:0:0:0:
320,192,117777,1,0,0:0:0:0:
192,192,118004,1,0,0:0:0:0:
64,192,118004,1,0,0:0:0:0:
320,192,118118,1,0,0:0:0:0:
448,192,118118,1,0,0:0:0:0:
192,192,118231,1,0,0:0:0:0:
320,192,118345,1,0,0:0:0:0:
448,192,118345,1,0,0:0:0:0:
192,192,118459,1,0,0:0:0:0:
64,192,118459,1,0,0:0:0:0:
448,192,118572,1,0,0:0:0:0:
320,192,118686,1,0,0:0:0:0:
192,192,118686,1,0,0:0:0:0:
64,192,118686,1,0,0:0:0:0:
64,192,118913,1,0,0:0:0:0:
448,192,118913,1,0,0:0:0:0:
192,192,119140,128,0,119595:0:0:0:0:
320,192,119140,1,0,0:0:0:0:
64,192,119368,1,0,0:0:0:0:
448,192,119481,1,0,0:0:0:0:
320,192,119595,1,0,0:0:0:0:
64,192,119595,1,0,0:0:0:0:
192,192,119822,1,0,0:0:0:0:
64,192,119822,1,0,0:0:0:0:
320,192,119936,1,0,0:0:0:0:
448,192,119936,1,0,0:0:0:0:
192,192,120049,1,0,0:0:0:0:
64,192,120163,1,0,0:0:0:0:
448,192,120163,1,0,0:0:0:0:
192,192,120277,1,0,0:0:0:0:
320,192,120277,1,0,0:0:0:0:
448,192,120390,1,0,0:0:0:0:
64,192,120390,1,0,0:0:0:0:
192,192,120504,1,0,0:0:0:0:
320,192,120504,1,0,0:0:0:0:
64,192,120618,1,0,0:0:0:0:
448,192,120618,1,0,0:0:0:0:
192,192,120731,1,0,0:0:0:0:
320,192,120731,1,0,0:0:0:0:
448,192,120845,1,0,0:0:0:0:
192,192,120959,1,0,0:0:0:0:
64,192,120959,128,0,121413:0:0:0:0:
320,192,121186,1,0,0:0:0:0:
192,192,121299,1,0,0:0:0:0:
448,192,121413,1,0,0:0:0:0:
320,192,121413,1,0,0:0:0:0:
64,192,121527,1,0,0:0:0:0:
192,192,121640,1,0,0:0:0:0:
448,192,121640,1,0,0:0:0:0:
320,192,121754,1,0,0:0:0:0:
64,192,121754,1,0,0:0:0:0:
448,192,121868,1,0,0:0:0:0:
192,192,121981,1,0,0:0:0:0:
64,192,121981,1,0,0:0:0:0:
320,192,122095,1,0,0:0:0:0:
448,192,122095,1,0,0:0:0:0:
64,192,122209,1,0,0:0:0:0:
192,192,122322,1,0,0:0:0:0:
320,192,122322,1,0,0:0:0:0:
448,192,122322,1,0,0:0:0:0:
320,192,122549,1,0,0:0:0:0:
64,192,122549,1,0,0:0:0:0:
192,192,122777,1,0,0:0:0:0:
448,192,122777,128,0,123231:0:0:0:0:
320,192,123004,1,0,0:0:0:0:
64,192,123118,1,0,0:0:0:0:
192,192,123231,1,0,0:0:0:0:
320,192,123231,1,0,0:0:0:0:
64,192,123345,1,0,0:0:0:0:
448,192,123345,1,0,0:0:0:0:
192,192,123459,1,0,0:0:0:0:
320,192,123459,1,0,0:0:0:0:
64,192,123572,1,0,0:0:0:0:
448,192,123572,1,0,0:0:0:0:
192,192,123686,1,0,0:0:0:0:
320,192,123686,1,0,0:0:0:0:
192,192,123799,1,0,0:0:0:0:
448,192,123913,1,0,0:0:0:0:
320,192,123970,1,0,0:0:0:0:
64,192,124027,1,0,0:0:0:0:
192,192,124084,1,0,0:0:0:0:
320,192,124140,1,0,0:0:0:0:
448,192,124140,1,0,0:0:0:0:
320,192,124254,1,0,0:0:0:0:
448,192,124254,1,0,0:0:0:0:
192,192,124368,1,0,0:0:0:0:
64,192,124368,1,0,0:0:0:0:
192,192,124481,1,0,0:0:0:0:
64,192,124481,1,0,0:0:0:0:
64,192,124595,1,0,0:0:0:0:
320,192,124595,1,0,0:0:0:0:
448,192,124595,128,0,125049:0:0:0:0:
192,192,124822,1,0,0:0:0:0:
320,192,124936,1,0,0:0:0:0:
192,192,125049,1,0,0:0:0:0:
64,192,125049,1,0,0:0:0:0:
448,192,125163,1,0,0:0:0:0:
320,192,125277,1,0,0:0:0:0:
64,192,125277,1,0,0:0:0:0:
192,192,125390,1,0,0:0:0:0:
448,192,125390,1,0,0:0:0:0:
64,192,125504,1,0,0:0:0:0:
320,192,125618,1,0,0:0:0:0:
448,192,125618,1,0,0:0:0:0:
192,192,125731,1,0,0:0:0:0:
64,192,125731,1,0,0:0:0:0:
448,192,125845,1,0,0:0:0:0:
320,192,125959,1,0,0:0:0:0:
192,192,125959,1,0,0:0:0:0:
192,192,126186,1,0,0:0:0:0:
320,192,126186,1,0,0:0:0:0:
448,192,126413,1,0,0:0:0:0:
64,192,126413,128,0,126868:0:0:0:0:
320,192,126640,1,0,0:0:0:0:
192,192,126754,1,0,0:0:0:0:
320,192,126868,1,0,0:0:0:0:
448,192,126868,1,0,0:0:0:0:
64,192,126981,1,0,0:0:0:0:
192,192,127095,1,0,0:0:0:0:
448,192,127095,1,0,0:0:0:0:
320,192,127209,1,0,0:0:0:0:
64,192,127209,1,0,0:0:0:0:
448,192,127322,1,0,0:0:0:0:
192,192,127436,1,0,0:0:0:0:
64,192,127436,1,0,0:0:0:0:
320,192,127549,1,0,0:0:0:0:
448,192,127549,1,0,0:0:0:0:
192,192,127663,1,0,0:0:0:0:
64,192,127663,1,0,0:0:0:0:
320,192,127777,1,0,0:0:0:0:
448,192,127777,1,0,0:0:0:0:
192,192,127890,1,0,0:0:0:0:
64,192,127890,1,0,0:0:0:0:
320,192,128004,1,0,0:0:0:0:
448,192,128004,1,0,0:0:0:0:
320,192,128118,1,0,0:0:0:0:
192,192,128118,1,0,0:0:0:0:
192,192,128231,1,0,0:0:0:0:
64,192,128231,1,0,0:0:0:0:
448,192,128231,1,0,0:0:0:0:
320,192,128572,1,0,0:0:0:0:
448,192,128572,1,0,0:0:0:0:
64,192,128572,1,0,0:0:0:0:
192,192,128913,1,0,0:0:0:0:
64,192,128913,1,0,0:0:0:0:
448,192,128913,1,0,0:0:0:0:
320,192,129140,1,0,0:0:0:0:
448,192,129140,1,0,0:0:0:0:
192,192,129254,1,0,0:0:0:0:
64,192,129254,1,0,0:0:0:0:
448,192,129368,1,0,0:0:0:0:
320,192,129424,1,0,0:0:0:0:
64,192,129481,1,0,0:0:0:0:
192,192,129538,1,0,0:0:0:0:
320,192,129595,1,0,0:0:0:0:
448,192,129595,128,0,130049:0:0:0:0:
64,192,129709,1,0,0:0:0:0:
192,192,129822,1,0,0:0:0:0:
320,192,129936,1,0,0:0:0:0:
64,192,130049,1,0,0:0:0:0:
192,192,130106,1,0,0:0:0:0:
320,192,130163,1,0,0:0:0:0:
448,192,130220,1,0,0:0:0:0:
64,192,130277,1,0,0:0:0:0:
192,192,130334,1,0,0:0:0:0:
448,192,130390,1,0,0:0:0:0:
320,192,130447,1,0,0:0:0:0:
192,192,130504,1,0,0:0:0:0:
64,192,130561,1,0,0:0:0:0:
448,192,130618,1,0,0:0:0:0:
320,192,130674,1,0,0:0:0:0:
64,192,130731,1,0,0:0:0:0:
192,192,130788,1,0,0:0:0:0:
320,192,130845,1,0,0:0:0:0:
448,192,130902,1,0,0:0:0:0:
64,192,130959,1,0,0:0:0:0:
192,192,131015,1,0,0:0:0:0:
448,192,131072,1,0,0:0:0:0:
320,192,131129,1,0,0:0:0:0:
64,192,131186,1,0,0:0:0:0:
192,192,131243,1,0,0:0:0:0:
320,192,131299,1,0,0:0:0:0:
448,192,131356,1,0,0:0:0:0:
192,192,131413,1,0,0:0:0:0:
64,192,131470,1,0,0:0:0:0:
320,192,131527,1,0,0:0:0:0:
448,192,131584,1,0,0:0:0:0:
64,192,131640,1,0,0:0:0:0:
192,192,131697,1,0,0:0:0:0:
448,192,131754,1,0,0:0:0:0:
320,192,131811,1,0,0:0:0:0:
192,192,131868,1,0,0:0:0:0:
64,192,131868,1,0,0:0:0:0:
448,192,132209,1,0,0:0:0:0:
192,192,132549,1,0,0:0:0:0:
320,192,132777,1,0,0:0:0:0:
448,192,134368,1,0,0:0:0:0:
320,192,134595,1,0,0:0:0:0:
192,192,134822,1,0,0:0:0:0:
64,192,135049,1,0,0:0:0:0:
320,192,135277,1,0,0:0:0:0:
192,192,135504,1,0,0:0:0:0:
448,192,135845,1,0,0:0:0:0:
320,192,136186,1,0,0:0:0:0:
64,192,136413,1,0,0:0:0:0:
192,192,136868,1,0,0:0:0:0:
448,192,137322,1,0,0:0:0:0:
320,192,137436,1,0,0:0:0:0:
64,192,137549,1,0,0:0:0:0:
320,192,138913,1,0,0:0:0:0:
192,192,139140,1,0,0:0:0:0:
64,192,139140,128,0,139481:0:0:0:0:
448,192,139481,128,0,139822:0:0:0:0:
192,192,139822,128,0,140049:0:0:0:0:
320,192,140049,128,0,141640:0:0:0:0:
448,192,141640,128,0,141868:0:0:0:0:
320,192,141868,128,0,142095:0:0:0:0:
192,192,142095,128,0,142322:0:0:0:0:
64,192,142322,128,0,142549:0:0:0:0:
320,192,142549,128,0,142777:0:0:0:0:
192,192,142777,128,0,143118:0:0:0:0:
320,192,143118,128,0,143459:0:0:0:0:
448,192,143459,128,0,143686:0:0:0:0:
64,192,143686,128,0,144140:0:0:0:0:
192,192,144140,128,0,144595:0:0:0:0:
320,192,144595,128,0,144936:0:0:0:0:
448,192,144936,128,0,145277:0:0:0:0:
320,192,145277,128,0,145504:0:0:0:0:
192,192,145504,128,0,146413:0:0:0:0:
448,192,146413,1,0,0:0:0:0:
320,192,146413,1,0,0:0:0:0:
64,192,146413,128,0,146754:0:0:0:0:
448,192,146754,128,0,147095:0:0:0:0:
192,192,147095,128,0,147322:0:0:0:0:
320,192,147322,128,0,148913:0:0:0:0:
448,192,147549,1,0,0:0:0:0:
64,192,147777,1,0,0:0:0:0:
448,192,148231,1,0,0:0:0:0:
64,192,148459,1,0,0:0:0:0:
192,192,148686,1,0,0:0:0:0:
448,192,148913,128,0,149140:0:0:0:0:
320,192,149140,128,0,149368:0:0:0:0:
192,192,149368,128,0,149595:0:0:0:0:
64,192,149595,128,0,149822:0:0:0:0:
320,192,149822,128,0,150049:0:0:0:0:
192,192,150049,128,0,150390:0:0:0:0:
64,192,150277,1,0,0:0:0:0:
448,192,150390,128,0,150731:0:0:0:0:
320,192,150731,128,0,150959:0:0:0:0:
64,192,150959,128,0,151413:0:0:0:0:
448,192,151186,1,0,0:0:0:0:
192,192,151413,128,0,151868:0:0:0:0:
320,192,151640,1,0,0:0:0:0:
448,192,151868,128,0,151981:0:0:0:0:
320,192,151981,128,0,152095:0:0:0:0:
64,192,152095,128,0,153686:0:0:0:0:
192,192,152322,1,0,0:0:0:0:
448,192,152549,1,0,0:0:0:0:
320,192,152777,1,0,0:0:0:0:
448,192,153004,1,0,0:0:0:0:
192,192,153118,1,0,0:0:0:0:
320,192,153231,1,0,0:0:0:0:
448,192,153459,1,0,0:0:0:0:
448,192,153686,1,0,0:0:0:0:
320,192,153686,1,0,0:0:0:0:
192,192,153686,128,0,154027:0:0:0:0:
448,192,154027,128,0,154368:0:0:0:0:
64,192,154368,128,0,154595:0:0:0:0:
320,192,154595,128,0,156186:0:0:0:0:
192,192,154822,1,0,0:0:0:0:
64,192,155049,1,0,0:0:0:0:
448,192,155504,1,0,0:0:0:0:
64,192,155731,1,0,0:0:0:0:
192,192,155959,1,0,0:0:0:0:
448,192,156186,128,0,156413:0:0:0:0:
320,192,156413,128,0,156640:0:0:0:0:
192,192,156640,128,0,156868:0:0:0:0:
64,192,156868,128,0,157095:0:0:0:0:
320,192,157095,128,0,157322:0:0:0:0:
192,192,157322,128,0,157663:0:0:0:0:
64,192,157549,1,0,0:0:0:0:
448,192,157663,128,0,158004:0:0:0:0:
320,192,158004,128,0,158231:0:0:0:0:
64,192,158231,128,0,158686:0:0:0:0:
192,192,158686,128,0,159140:0:0:0:0:
448,192,158913,1,0,0:0:0:0:
320,192,159140,128,0,159481:0:0:0:0:
64,192,159140,1,0,0:0:0:0:
448,192,159481,128,0,159822:0:0:0:0:
320,192,159822,128,0,160049:0:0:0:0:
192,192,160049,128,0,160959:0:0:0:0:
64,192,160049,1,0,0:0:0:0:
448,192,160277,1,0,0:0:0:0:
64,192,160390,1,0,0:0:0:0:
320,192,160504,1,0,0:0:0:0:
448,192,160504,1,0,0:0:0:0:
320,192,160731,1,0,0:0:0:0:
448,192,160959,1,0,0:0:0:0:
320,192,160959,1,0,0:0:0:0:
64,192,160959,1,0,0:0:0:0:
