osu file format v14

[General]
AudioFilename: audio.mp3
AudioLeadIn: 0
PreviewTime: 60365
Countdown: 0
SampleSet: Soft
StackLeniency: 0.7
Mode: 0
LetterboxInBreaks: 0
WidescreenStoryboard: 1

[Editor]
Bookmarks: 15833,30365,60365,75365,90365,118490,120365,150365
DistanceSpacing: 0.5
BeatDivisor: 8
GridSize: 8
TimelineZoom: 3.299999

[Metadata]
Title:Hell's Sun (Cut Ver.)
TitleUnicode:Hell's Sun (Cut Ver.)
Artist:Nhato
ArtistUnicode:Nhato
Creator:Icekalt
Version:Hard
Source:東方地霊殿 ~ Subterranean Animism.
Tags:FLASHLIGHT Track No: 05 Alstroemeria Records C86 touhou Masayoshi Minoshima electronic instrumental dubstep trance progressive Akeruyri
BeatmapID:2823788
BeatmapSetID:1318431

[Difficulty]
HPDrainRate:4
CircleSize:3
OverallDifficulty:6
ApproachRate:7.3
SliderMultiplier:1.8
SliderTickRate:1

[Events]
//Background and Video events
0,0,"touhou 1.jpg",0,0
//Break Periods
2,60565,67011
//Storyboard Layer 0 (Background)
//Storyboard Layer 1 (Fail)
//Storyboard Layer 2 (Pass)
//Storyboard Layer 3 (Foreground)
//Storyboard Layer 4 (Overlay)
//Storyboard Sound Samples

[TimingPoints]
365,468.75,4,2,2,60,1,0
29661,-100,4,2,2,65,0,0
52865,-100,4,2,2,70,0,0
60247,-100,4,2,2,5,0,0
60365,-100,4,2,0,60,0,0
64115,-100,4,2,0,65,0,0
67865,-133.333333333333,4,2,2,70,0,0
75365,-100,4,2,2,75,0,0
89779,-100,4,2,2,5,0,0
89896,-100,4,2,2,75,0,0
90365,-90.9090909090909,4,2,1,75,0,0
120365,-90.9090909090909,4,2,1,70,0,0

[Colours]
Combo1 : 216,118,29
Combo2 : 194,73,73

[HitObjects]
21,146,365,6,0,B|61:114|61:114|99:156|99:156|178:138,1,180,4|2,0:3|0:0,0:0:0:0:
214,240,1302,5,0,0:0:0:0:
196,324,1771,1,0,0:0:0:0:
214,240,2240,1,0,0:0:0:0:
196,324,2708,1,0,0:0:0:0:
309,334,3177,1,0,0:0:0:0:
309,334,3411,6,0,B|302:303|302:303|326:295|326:295|335:215,2,135,4|4|4,0:3|0:3|0:3,0:0:0:0:
500,299,4583,5,0,0:0:0:0:
450,212,5052,1,0,0:0:0:0:
500,299,5521,1,0,0:0:0:0:
450,212,5990,1,0,0:0:0:0:
500,299,6458,1,0,0:0:0:0:
450,212,6927,1,0,0:0:0:0:
473,94,7161,6,0,B|452:118|452:118|431:103|431:103|362:144,2,135,4|4|4,0:3|0:3|0:3,0:0:0:0:
289,76,8333,5,0,0:0:0:0:
184,49,8802,1,0,0:0:0:0:
289,76,9271,1,0,0:0:0:0:
184,49,9740,1,0,0:0:0:0:
289,76,10208,1,0,0:0:0:0:
184,49,10677,1,0,0:0:0:0:
95,101,10911,6,0,B|70:133|70:133|101:126|101:126|178:158,2,135,4|4|4,0:3|0:3|0:3,0:0:0:0:
129,252,12083,5,0,0:0:0:0:
249,206,12552,1,0,0:0:0:0:
129,252,13021,1,0,0:0:0:0:
249,206,13490,1,0,0:0:0:0:
129,252,13958,1,0,0:0:0:0:
249,206,14427,1,0,0:0:0:0:
308,285,14661,6,0,B|333:317|333:317|302:310|302:310|225:342,2,135,4|4|4,0:3|0:3|0:3,0:0:0:0:
368,207,15599,1,0,0:0:0:0:
436,288,15833,6,0,L|470:323,7,45,2|0|0|0|0|0|0|0,0:0|0:0|0:0|0:0|0:0|0:0|0:0|0:0,0:0:0:0:
481,205,16771,1,2,0:0:0:0:
492,190,16888,2,0,L|483:145,6,45,0|0|0|0|0|0|0,0:0|0:0|0:0|0:0|0:0|0:0|0:0,0:0:0:0:
393,165,17708,1,2,0:0:0:0:
382,150,17825,2,0,L|390:105,4,45,0|0|0|0|0,0:0|0:0|0:0|0:0|0:0,0:0:0:0:
291,178,18411,6,0,B|260:167|260:167|236:231|236:231|254:276,2,135,4|4|4,0:3|0:3|0:3,0:0:0:0:
306,72,19349,5,0,0:0:0:0:
221,36,19583,2,0,L|168:50,7,45,2|0|0|0|0|0|0|0,0:0|0:0|0:0|0:0|0:0|0:0|0:0|0:0,0:0:0:0:
132,123,20521,1,2,0:0:0:0:
140,137,20638,2,0,L|193:151,6,45,0|0|0|0|0|0|0,0:0|0:0|0:0|0:0|0:0|0:0|0:0,0:0:0:0:
81,210,21458,1,2,0:0:0:0:
89,224,21575,2,0,L|142:238,4,45,0|0|0|0|0,0:0|0:0|0:0|0:0|0:0,0:0:0:0:
209,297,22161,6,0,B|196:340|196:340|293:368,2,135,4|4|4,0:3|0:3|0:3,0:0:0:0:
310,231,23099,5,0,0:0:0:0:
251,158,23333,2,0,L|243:107,7,45,2|0|0|0|0|0|0|0,0:0|0:0|0:0|0:0|0:0|0:0|0:0|0:0,0:0:0:0:
288,41,24271,1,2,0:0:0:0:
298,29,24388,2,0,L|347:22,6,45,0|0|0|0|0|0|0,0:0|0:0|0:0|0:0|0:0|0:0|0:0,0:0:0:0:
337,118,25208,1,2,0:0:0:0:
347,106,25325,2,0,L|396:99,4,45,0|0|0|0|0,0:0|0:0|0:0|0:0|0:0,0:0:0:0:
279,182,25911,6,0,B|259:204|259:204|287:281|287:281|259:313,2,135,4|4|4,0:3|0:3|0:3,0:0:0:0:
393,248,26849,5,0,0:0:0:0:
469,188,27083,2,0,L|448:117,7,45,2|0|0|0|0|0|0|0,0:0|0:0|0:0|0:0|0:0|0:0|0:0|0:0,0:0:0:0:
385,95,28021,1,2,0:0:0:0:
391,81,28138,2,0,L|370:10,6,45,0|0|0|0|0|0|0,0:0|0:0|0:0|0:0|0:0|0:0|0:0,0:0:0:0:
298,6,28958,1,2,0:0:0:0:
284,0,29075,2,0,L|213:21,4,45,0|0|0|0|0,0:0|0:0|0:0|0:0|0:0,0:0:0:0:
189,87,29661,2,0,B|231:105|231:105|215:209,1,135,4|4,0:3|0:3,0:0:0:0:
390,372,30365,6,0,L|398:257,2,89.9999999999999,4|0|8,0:3|0:0|0:0,0:0:0:0:
287,295,31068,1,2,0:0:0:0:
368,173,31302,1,8,0:0:0:0:
141,255,31654,2,0,L|97:247,1,45,2|8,0:0|0:0,0:0:0:0:
87,231,31888,2,0,L|43:223,1,45,2|0,0:0|0:0,0:0:0:0:
167,74,32240,6,0,L|194:192,1,89.9999999999999,8|2,0:0|0:0,0:0:0:0:
294,47,32708,2,0,L|321:165,1,89.9999999999999,8|2,0:0|0:0,0:0:0:0:
421,20,33177,1,8,0:0:0:0:
493,184,33411,2,0,B|450:179|450:179|433:298,1,135,4|4,0:3|0:3,0:0:0:0:
185,345,34115,6,0,L|283:331,2,89.9999999999999,8|2|8,0:0|0:0|0:0,0:0:0:0:
239,234,34818,1,2,0:0:0:0:
373,354,35052,1,8,0:0:0:0:
443,140,35404,2,0,L|455:192,1,45,2|8,0:0|0:0,0:0:0:0:
444,202,35638,2,0,L|456:254,1,45,2|0,0:0|0:0,0:0:0:0:
307,106,35990,6,0,L|280:-12,1,89.9999999999999,8|2,0:0|0:0,0:0:0:0:
180,133,36458,2,0,L|153:15,1,89.9999999999999,8|2,0:0|0:0,0:0:0:0:
53,160,36927,1,8,0:0:0:0:
141,278,37161,2,0,B|114:262|114:262|51:297|51:297|9:276,1,135,4|4,0:3|0:3,0:0:0:0:
201,365,37865,6,0,L|305:340,2,89.9999999999999,4|0|8,0:3|0:0|0:0,0:0:0:0:
258,238,38568,1,2,0:0:0:0:
143,148,38802,1,8,0:0:0:0:
326,66,39154,2,0,L|282:58,1,45,2|8,0:0|0:0,0:0:0:0:
262,66,39388,2,0,L|218:58,1,45,2|0,0:0|0:0,0:0:0:0:
381,156,39740,6,0,L|354:274,1,89.9999999999999,8|2,0:0|0:0,0:0:0:0:
483,122,40208,2,0,L|462:34,1,89.9999999999999,8|2,0:0|0:0,0:0:0:0:
505,220,40677,1,8,0:0:0:0:
402,324,40911,2,0,B|409:281|409:281|296:258,1,135,4|4,0:3|0:3,0:0:0:0:
157,352,41615,2,0,L|67:364,2,89.9999999999999,8|2|8,0:0|0:0|0:0,0:0:0:0:
196,238,42318,1,2,0:0:0:0:
60,251,42552,1,8,0:0:0:0:
206,131,42904,2,0,L|195:87,1,45,2|8,0:0|0:0,0:0:0:0:
192,66,43138,2,0,L|181:22,1,45,2|0,0:0|0:0,0:0:0:0:
308,129,43490,6,0,L|421:91,1,89.9999999999999,8|2,0:0|0:0,0:0:0:0:
320,225,43958,2,0,L|418:242,1,89.9999999999999,8|2,0:0|0:0,0:0:0:0:
280,320,44427,1,8,0:0:0:0:
212,210,44661,2,0,B|176:215|176:215|122:258|122:258|81:265,1,135,4|4,0:3|0:3,0:0:0:0:
151,117,45365,5,4,0:3:0:0:
274,91,45599,1,0,0:0:0:0:
354,210,45833,1,8,0:0:0:0:
229,189,46067,1,2,0:0:0:0:
382,106,46302,1,8,0:0:0:0:
484,276,46654,1,2,0:0:0:0:
416,345,46888,2,0,P|367:330|346:284,1,89.9999999999999,2|0,0:0|0:0,0:0:0:0:
364,281,47240,6,0,L|377:157,1,89.9999999999999,8|2,0:0|0:0,0:0:0:0:
241,144,47708,1,8,0:0:0:0:
256,251,47943,1,2,0:0:0:0:
271,357,48177,1,8,0:0:0:0:
117,295,48411,2,0,B|80:275|80:275|114:171,1,135,4|4,0:3|0:3,0:0:0:0:
305,87,49115,5,8,0:0:0:0:
188,109,49349,1,2,0:0:0:0:
211,226,49583,1,8,0:0:0:0:
328,203,49817,1,2,0:0:0:0:
436,120,50052,1,8,0:0:0:0:
280,43,50404,1,2,0:0:0:0:
188,109,50638,2,0,P|164:80|152:24,1,89.9999999999999,2|0,0:0|0:0,0:0:0:0:
137,13,50990,6,0,L|44:31,1,89.9999999999999,8|2,0:0|0:0,0:0:0:0:
13,149,51458,1,8,0:0:0:0:
117,177,51693,1,2,0:0:0:0:
220,204,51927,1,8,0:0:0:0:
326,140,52161,2,0,B|354:117|354:117|419:133|419:133|437:181,1,135,4|4,0:3|0:3,0:0:0:0:
314,340,52865,6,0,L|210:325,1,90,4|2,0:3|0:0,0:0:0:0:
119,231,53333,2,0,L|208:218,1,90,8|2,0:0|0:0,0:0:0:0:
270,110,53802,1,8,0:0:0:0:
159,127,54036,1,2,0:0:0:0:
229,13,54271,1,8,0:0:0:0:
340,30,54505,1,2,0:0:0:0:
421,127,54740,6,0,L|441:224,1,90,8|2,0:0|0:0,0:0:0:0:
300,165,55208,2,0,L|320:262,1,90,8|2,0:0|0:0,0:0:0:0:
186,330,55677,1,8,0:0:0:0:
86,189,55911,1,8,0:0:0:0:
61,313,56146,1,2,0:0:0:0:
211,206,56380,1,2,0:0:0:0:
256,192,56615,12,2,58372,0:0:0:0:
256,192,58490,12,2,60365,0:0:0:0:
60,184,67865,6,0,B|38:175|38:175|55:99,2,101.250003862381,2|2|2,0:0|0:0|0:0,0:0:0:0:
150,161,68802,1,2,0:0:0:0:
150,161,68919,1,2,0:0:0:0:
214,227,69154,1,2,0:0:0:0:
339,163,69505,6,0,B|361:172|361:172|344:248,1,101.250003862381,2|2,0:0|0:0,0:0:0:0:
482,349,70208,2,0,L|467:275,2,67.5000025749208,2|2|2,0:0|0:0|0:0,0:0:0:0:
372,348,70911,2,0,L|246:366,1,101.250003862381,2|2,0:0|0:0,0:0:0:0:
139,213,71615,6,0,B|117:222|117:222|134:298,2,101.250003862381,2|2|2,0:0|0:0|0:0,0:0:0:0:
187,134,72552,1,2,0:0:0:0:
187,134,72669,1,2,0:0:0:0:
124,65,72904,1,2,0:0:0:0:
294,22,73255,6,0,B|316:31|316:31|299:107,1,101.250003862381,2|2,0:0|0:0,0:0:0:0:
442,171,73958,2,0,L|427:97,2,67.5000025749208,2|2|2,0:0|0:0|0:0,0:0:0:0:
347,217,74661,2,0,L|329:337,1,101.250003862381,2|2,0:0|0:0,0:0:0:0:
132,174,75365,6,0,B|119:138|119:138|2:173,2,135,4|2|2,1:3|0:0|0:0,0:0:0:0:
212,112,76302,1,2,0:0:0:0:
212,112,76419,1,2,0:0:0:0:
240,201,76654,1,2,0:0:0:0:
349,92,77005,6,0,B|362:56|362:56|479:91,1,135,2|2,0:0|0:0,0:0:0:0:
507,270,77708,1,2,0:0:0:0:
399,281,77943,1,2,0:0:0:0:
291,293,78177,1,2,0:0:0:0:
195,226,78411,2,0,B|159:233|159:233|133:297|133:297|94:307,1,135,4|4,1:3|1:3,0:0:0:0:
71,120,79115,6,0,B|33:129|33:129|-2:12,2,135,4|2|2,1:3|0:0|0:0,0:0:0:0:
150,44,80052,1,2,0:0:0:0:
150,44,80169,1,2,0:0:0:0:
195,140,80404,1,2,0:0:0:0:
312,113,80755,6,0,B|349:122|349:122|385:5,1,135,2|2,0:0|0:0,0:0:0:0:
485,204,81458,1,2,0:0:0:0:
377,215,81693,1,2,0:0:0:0:
269,227,81927,1,2,0:0:0:0:
152,143,82161,2,0,B|134:175|134:175|166:236|166:236|149:272,1,135,4|4,1:3|1:3,0:0:0:0:
21,168,82865,6,0,L|6:69,1,90,4|0,1:3|0:0,0:0:0:0:
22,55,83216,2,0,P|46:38|111:33,1,90,2|0,0:0|0:0,0:0:0:0:
128,50,83568,1,2,0:0:0:0:
234,65,83802,1,2,1:2:0:0:
255,53,83919,2,0,P|315:56|350:77,1,90,2|2,1:2|0:0,0:0:0:0:
347,88,84271,1,0,0:0:0:0:
298,199,84505,6,0,B|264:208|264:208|291:325,1,135,2|2,1:2|1:2,0:0:0:0:
305,316,84974,1,0,0:0:0:0:
403,384,85208,1,2,1:2:0:0:
417,267,85443,1,2,1:2:0:0:
432,151,85677,1,2,1:2:0:0:
352,55,85911,2,0,B|316:49|316:49|269:104|269:104|225:97,1,135,4|4,1:3|1:3,0:0:0:0:
231,88,86380,1,0,0:0:0:0:
158,198,86615,6,0,L|201:188,3,45,2|2|2|2,1:2|1:2|1:2|1:2,0:0:0:0:
175,280,87083,2,0,L|219:271,3,45,2|2|2|2,1:2|1:2|1:2|1:2,0:0:0:0:
196,363,87552,2,0,L|240:353,3,45,2|2|2|2,1:2|1:2|1:2|1:2,0:0:0:0:
316,307,88021,1,2,1:2:0:0:
329,309,88138,1,2,1:2:0:0:
342,311,88255,1,2,1:2:0:0:
355,313,88372,1,2,1:2:0:0:
368,315,88490,1,0,0:0:0:0:
99,68,89896,6,0,L|49:64,2,45,0|0|0,0:0|0:0|0:0,0:0:0:0:
200,29,90365,6,0,B|186:99|186:99|195:111|195:111|182:195,1,148.50000453186,6|0,1:1|0:0,0:0:0:0:
170,188,90833,1,8,0:0:0:0:
243,271,91068,1,2,0:0:0:0:
313,180,91302,1,4,0:3:0:0:
317,167,91419,2,0,B|396:152|396:152|441:227,1,148.50000453186,4|8,0:3|0:0,0:0:0:0:
425,241,91888,1,4,0:3:0:0:
233,293,92240,6,0,B|163:307|163:307|151:298|151:298|67:311,1,148.50000453186,6|0,1:1|0:0,0:0:0:0:
74,292,92708,1,8,0:0:0:0:
26,208,92943,1,0,0:0:0:0:
127,131,93177,2,0,L|179:137,3,49.5000015106202,4|4|2|0,0:3|0:3|0:0|0:0,0:0:0:0:
186,161,93646,2,0,B|266:190|258:132|338:158,1,148.50000453186,8|0,0:0|0:0,0:0:0:0:
346,175,94115,6,0,B|332:105|332:105|341:93|341:93|328:9,1,148.50000453186,6|0,1:1|0:0,0:0:0:0:
342,19,94583,1,8,0:0:0:0:
237,51,94818,1,2,0:0:0:0:
147,0,95052,1,4,0:3:0:0:
147,0,95169,1,4,0:3:0:0:
45,47,95404,2,0,B|91:78|107:104|81:238,1,198.000006042481,2|2,0:0|0:0,0:0:0:0:
71,240,95990,6,0,L|21:251,1,49.5000015106202,6|0,1:0|0:0,0:0:0:0:
221,207,96341,2,0,L|269:196,1,49.5000015106202,4|8,1:3|0:0,0:0:0:0:
168,317,96693,2,0,L|179:367,1,49.5000015106202,4|4,1:3|0:3,0:0:0:0:
126,136,97044,2,0,L|115:87,1,49.5000015106202,4|2,1:3|0:0,0:0:0:0:
240,15,97396,1,8,0:0:0:0:
240,15,97630,1,4,0:3:0:0:
356,88,97865,6,0,B|376:137|376:137|346:171|346:171|337:241,1,148.50000453186,6|0,1:1|0:0,0:0:0:0:
354,241,98333,1,8,0:0:0:0:
447,293,98568,1,2,0:0:0:0:
345,355,98802,1,4,0:3:0:0:
330,364,98919,2,0,B|254:351|254:351|218:264,1,148.50000453186,4|8,0:3|0:0,0:0:0:0:
233,269,99388,1,4,0:3:0:0:
64,344,99740,6,0,B|44:295|44:295|74:261|74:261|83:191,1,148.50000453186,6|0,1:1|0:0,0:0:0:0:
72,201,100208,1,8,0:0:0:0:
29,112,100443,1,0,0:0:0:0:
154,138,100677,2,0,L|203:151,3,49.5000015106202,4|4|2|0,0:3|0:3|0:0|0:0,0:0:0:0:
209,167,101146,2,0,B|289:196|281:138|361:164,1,148.50000453186,8|0,0:0|0:0,0:0:0:0:
365,179,101615,6,0,B|385:228|385:228|355:262|355:262|346:332,1,148.50000453186,6|0,1:1|0:0,0:0:0:0:
337,331,102083,1,8,0:0:0:0:
239,286,102318,1,2,0:0:0:0:
143,361,102552,1,4,0:3:0:0:
143,361,102669,1,4,0:3:0:0:
51,287,102904,2,0,B|97:256|113:230|87:96,1,198.000006042481,2|2,0:0|0:0,0:0:0:0:
106,99,103490,6,0,L|153:113,1,49.5000015106202,6|0,1:1|0:0,0:0:0:0:
345,174,103841,2,0,L|297:159,1,49.5000015106202,4|8,1:3|0:0,0:0:0:0:
267,3,104193,2,0,L|252:50,1,49.5000015106202,4|4,1:3|0:3,0:0:0:0:
183,275,104544,2,0,L|197:227,1,49.5000015106202,4|2,1:3|0:0,0:0:0:0:
227,136,104896,1,8,0:0:0:0:
227,136,105130,1,4,0:3:0:0:
341,194,105365,6,0,B|352:246|352:246|330:284|330:284|345:358,1,148.50000453186,6|0,1:1|0:0,0:0:0:0:
355,346,105833,1,8,0:0:0:0:
255,384,106068,1,2,0:0:0:0:
162,319,106302,1,4,0:3:0:0:
149,312,106419,2,0,B|110:279|110:279|140:160,1,148.50000453186,4|8,0:3|0:0,0:0:0:0:
123,174,106888,1,4,0:3:0:0:
232,50,107240,6,0,B|282:39|282:39|320:61|320:61|372:50,1,148.50000453186,6|0,1:1|0:0,0:0:0:0:
379,34,107708,1,8,0:0:0:0:
429,132,107943,1,0,0:0:0:0:
321,179,108177,2,0,L|269:185,3,49.5000015106202,4|4|2|0,0:3|0:3|0:0|0:0,0:0:0:0:
332,191,108646,2,0,B|361:271|303:263|329:343,1,148.50000453186,8|0,0:0|0:0,0:0:0:0:
318,352,109115,6,0,B|267:341|267:341|229:363|229:363|177:352,1,148.50000453186,6|0,1:1|0:0,0:0:0:0:
169,339,109583,1,8,0:0:0:0:
49,342,109818,1,2,0:0:0:0:
120,247,110052,1,4,0:3:0:0:
120,247,110169,1,4,0:3:0:0:
33,163,110404,2,0,B|64:209|90:225|224:199,1,198.000006042481,2|2,0:0|0:0,0:0:0:0:
220,186,110990,6,0,L|209:136,1,49.5000015106202,6|0,1:0|0:0,0:0:0:0:
253,336,111341,2,0,L|264:384,1,49.5000015106202,4|8,1:3|0:0,0:0:0:0:
325,241,111693,2,0,L|374:230,1,49.5000015106202,4|4,1:3|0:3,0:0:0:0:
144,283,112044,2,0,L|95:293,1,49.5000015106202,4|2,1:3|0:0,0:0:0:0:
23,226,112396,1,8,0:0:0:0:
23,226,112630,1,4,0:3:0:0:
68,97,112865,6,0,B|88:123|88:123|211:102,1,148.50000453186,6|0,1:1|0:0,0:0:0:0:
220,115,113333,1,8,0:0:0:0:
335,92,113568,1,2,0:0:0:0:
429,170,113802,1,4,0:3:0:0:
439,185,113919,2,0,B|421:233|421:233|303:260,1,148.50000453186,4|8,0:3|0:0,0:0:0:0:
311,243,114388,1,4,0:3:0:0:
128,342,114740,6,0,B|148:316|148:316|271:337,1,148.50000453186,6|0,1:1|0:0,0:0:0:0:
271,352,115208,1,8,0:0:0:0:
221,238,115443,1,0,0:0:0:0:
288,136,115677,2,0,L|341:144,3,49.5000015106202,4|4|2|0,0:3|0:3|0:0|0:0,0:0:0:0:
359,134,116146,2,0,P|370:99|278:53,1,148.50000453186,8|0,0:0|0:0,0:0:0:0:
275,37,116615,6,0,B|255:11|255:11|132:32,1,148.50000453186,6|0,1:1|0:0,0:0:0:0:
127,20,117083,1,8,0:0:0:0:
84,133,117318,1,2,0:0:0:0:
173,217,117552,2,0,L|163:286,3,49.5000015106202,2|2|2|2,0:2|0:0|0:2|0:0,0:0:0:0:
250,315,118021,2,0,L|294:273,3,49.5000015106202,10|2|2|2,0:2|0:0|0:2|0:0,0:0:0:0:
289,261,118490,6,0,P|341:235|388:236,1,99.0000030212403,4|2,1:2|0:0,0:0:0:0:
432,107,118958,2,0,L|482:102,1,49.5000015106202,10|2,0:0|0:0,0:0:0:0:
307,39,119310,1,2,0:0:0:0:
307,39,119427,1,2,1:2:0:0:
236,117,119662,1,2,0:0:0:0:
236,117,119779,1,2,1:2:0:0:
145,65,120013,2,0,L|157:5,2,49.5000015106202,4|2|4,0:3|1:2|0:3,0:0:0:0:
130,76,120365,6,0,P|138:128|143:242,1,148.50000453186,6|0,1:2|0:0,0:0:0:0:
155,240,120833,1,8,0:0:0:0:
0,348,121185,2,0,P|54:326|108:322,1,99.0000030212403,4|0,0:3|0:0,0:0:0:0:
106,336,121536,2,0,P|163:343|212:367,1,99.0000030212403,2|8,0:0|0:0,0:0:0:0:
316,295,122005,1,2,0:0:0:0:
268,140,122240,6,0,P|326:91|426:29,1,148.50000453186,6|0,1:2|0:0,0:0:0:0:
404,59,122708,2,0,P|411:87|404:119,1,49.5000015106202,8|2,0:0|0:0,0:0:0:0:
489,209,123060,2,0,P|470:260|411:290,1,99.0000030212403,4|0,0:3|0:0,0:0:0:0:
421,302,123411,2,0,L|313:292,1,99.0000030212403,2|8,0:0|0:0,0:0:0:0:
210,362,123880,1,2,0:0:0:0:
168,192,124115,2,0,P|146:138|98:55,1,148.50000453186,6|0,1:2|0:0,0:0:0:0:
103,42,124583,2,0,L|46:50,1,49.5000015106202,8|2,0:0|0:0,0:0:0:0:
241,56,125052,6,0,P|312:30|398:20,2,148.50000453186,2|4|2,1:2|0:3|0:2,0:0:0:0:
234,75,125872,1,2,0:2:0:0:
234,97,125990,2,0,P|289:157|363:114,1,148.50000453186,6|0,1:2|0:0,0:0:0:0:
344,120,126458,1,8,0:0:0:0:
451,164,126693,1,2,0:0:0:0:
381,271,126927,2,0,P|353:278|331:293,3,49.5000015106202,2|2|2|4,1:2|0:0|0:0|0:3,0:0:0:0:
318,313,127396,2,0,P|301:259|253:227,1,99.0000030212403,8|2,0:0|0:2,0:0:0:0:
145,317,127865,6,0,B|136:263|136:263|116:250|116:250|100:163,1,148.50000453186,6|0,1:2|0:0,0:0:0:0:
87,168,128333,2,0,B|87:140|134:110|225:137,1,148.50000453186,8|4,0:0|0:3,0:0:0:0:
232,120,128802,1,2,1:2:0:0:
289,222,129036,2,0,L|392:188,1,99.0000030212403,2|8,0:0|0:0,0:0:0:0:
465,261,129505,1,2,0:0:0:0:
504,111,129740,6,0,B|495:77|495:77|317:104,1,198.000006042481,6|8,1:2|0:0,0:0:0:0:
155,18,130560,2,0,P|108:32|69:86,1,99.0000030212403,4|0,0:3|0:0,0:0:0:0:
59,80,130911,2,0,L|73:201,1,99.0000030212403,2|8,0:0|0:0,0:0:0:0:
17,278,131380,1,2,0:0:0:0:
170,333,131615,2,0,P|204:295|307:248,1,148.50000453186,6|0,1:2|0:0,0:0:0:0:
318,230,132083,2,0,B|351:137|266:171|303:72,1,148.50000453186,8|4,0:0|0:3,0:0:0:0:
312,79,132552,1,2,1:2:0:0:
212,5,132786,1,2,0:0:0:0:
151,105,133021,2,0,L|90:124,3,49.5000015106202,8|2|2|2,0:0|0:0|0:2|0:2,0:0:0:0:
95,139,133490,6,0,P|137:188|176:276,1,148.50000453186,6|0,1:2|0:0,0:0:0:0:
195,276,133958,2,0,P|251:275|247:187,1,148.50000453186,8|4,0:0|0:3,0:0:0:0:
268,178,134427,1,2,1:2:0:0:
372,220,134661,1,2,0:0:0:0:
442,129,134896,2,0,L|428:76,3,49.5000015106202,8|0|2|2,0:0|0:0|0:2|0:0,0:0:0:0:
442,63,135365,6,0,P|360:46|301:19,1,148.50000453186,6|0,1:2|0:0,0:0:0:0:
284,25,135833,1,8,0:0:0:0:
122,70,136185,2,0,P|179:78|227:103,1,99.0000030212403,4|0,0:3|0:0,0:0:0:0:
219,114,136536,2,0,P|264:150|294:195,1,99.0000030212403,2|8,0:0|0:0,0:0:0:0:
247,298,137005,1,2,0:0:0:0:
365,380,137240,6,0,P|385:308|413:239,1,148.50000453186,6|0,1:2|0:0,0:0:0:0:
402,219,137708,2,0,P|404:194|397:170,1,49.5000015106202,8|2,0:0|0:0,0:0:0:0:
481,93,138060,2,0,P|462:42|403:12,1,99.0000030212403,4|0,0:3|0:0,0:0:0:0:
413,0,138411,2,0,L|305:10,1,99.0000030212403,2|8,0:0|0:0,0:0:0:0:
254,104,138880,1,2,0:0:0:0:
133,9,139115,6,0,P|95:72|66:141,1,148.50000453186,6|0,1:2|0:0,0:0:0:0:
74,161,139583,2,0,P|92:176|110:201,1,49.5000015106202,8|2,0:0|0:0,0:0:0:0:
214,366,140052,6,0,P|143:340|57:330,2,148.50000453186,2|4|2,1:2|0:3|0:2,0:0:0:0:
231,359,140872,1,2,0:2:0:0:
244,348,140990,2,0,P|227:271|142:258,1,148.50000453186,6|0,1:2|0:0,0:0:0:0:
154,236,141458,1,8,0:0:0:0:
264,179,141693,1,2,0:0:0:0:
161,110,141927,2,0,P|133:117|111:132,3,49.5000015106202,2|2|2|4,1:2|0:0|0:0|0:3,0:0:0:0:
103,144,142396,2,0,P|58:108|38:58,1,99.0000030212403,8|2,0:0|0:2,0:0:0:0:
160,0,142865,6,0,B|225:12|225:12|238:32|238:32|318:46,1,148.50000453186,6|0,1:2|0:0,0:0:0:0:
311,34,143333,2,0,B|354:30|376:62|342:172,1,148.50000453186,8|4,0:0|0:3,0:0:0:0:
335,162,143802,1,2,1:2:0:0:
391,250,144036,2,0,P|367:290|307:313,1,99.0000030212403,2|8,0:0|0:0,0:0:0:0:
232,378,144505,1,2,0:0:0:0:
127,288,144740,6,0,B|105:138|105:138|176:126,1,198.000006042481,6|8,1:2|0:0,0:0:0:0:
299,8,145560,2,0,P|346:22|385:76,1,99.0000030212403,4|0,0:3|0:0,0:0:0:0:
395,70,145911,2,0,L|381:191,1,99.0000030212403,2|8,0:0|0:0,0:0:0:0:
437,265,146380,1,2,0:0:0:0:
324,335,146615,6,0,P|250:334|182:367,1,148.50000453186,6|0,1:2|0:0,0:0:0:0:
192,384,147083,2,0,B|225:291|140:325|177:226,1,148.50000453186,8|4,0:0|0:3,0:0:0:0:
185,237,147552,1,2,1:2:0:0:
79,187,147786,1,2,0:0:0:0:
135,87,148021,2,0,P|140:62|139:33,3,49.5000015106202,8|2|2|2,0:0|0:0|0:2|1:2,0:0:0:0:
118,18,148490,6,0,P|184:26|254:88,1,148.50000453186,6|0,1:2|0:0,0:0:0:0:
254,98,148958,2,0,P|306:103|366:139,1,99.0000030212403,8|2,0:0|0:0,0:0:0:0:
352,244,149427,2,0,L|161:288,2,148.50000453186,2|4|2,1:2|0:3|0:2,0:0:0:0:
372,263,150247,1,2,1:2:0:0:
