osu file format v14

[General]
AudioFilename: audio.mp3
AudioLeadIn: 0
PreviewTime: 185546
Countdown: 0
SampleSet: Normal
StackLeniency: 0.7
Mode: 3
LetterboxInBreaks: 0
SpecialStyle: 0
WidescreenStoryboard: 0

[Editor]
Bookmarks: 15089,29634,33157,44180,58725,73271,84180,87816,131453,145998,160544,175089,251453,270089,305998,315089,320544,335089,360544
DistanceSpacing: 0.6
BeatDivisor: 4
GridSize: 32
TimelineZoom: 1.4

[Metadata]
Title:Gekka
TitleUnicode:Gekka
Artist:Nhato
ArtistUnicode:Nhato
Creator:Umo-
Version:in the moonlight
Source:
Tags:Rinne EP progressive trance LN marathon complextro otographic music Electronic Video Game Instrumental Arcaea OTO043 Otographic Music Kyukyoku 究極 福室達也 Tatsuya Fukumuro
BeatmapID:2312982
BeatmapSetID:1106691

[Difficulty]
HPDrainRate:8.2
CircleSize:4
OverallDifficulty:7.9
ApproachRate:5
SliderMultiplier:1.4
SliderTickRate:1

[Events]
//Background and Video events
0,0,"gekkabg1.jpg",0,0
//Break Periods
//Storyboard Layer 0 (Background)
//Storyboard Layer 1 (Fail)
//Storyboard Layer 2 (Pass)
//Storyboard Layer 3 (Foreground)
//Storyboard Layer 4 (Overlay)
//Storyboard Sound Samples

[TimingPoints]
92,454.545454545455,4,1,1,40,1,0
87364,-100,4,1,1,40,0,1
101001,-100,4,1,1,40,0,0
101910,-100,4,1,1,40,0,1
114637,-100,4,1,1,40,0,0
189637,-100,4,1,1,40,0,1
200092,-100,4,1,1,40,0,0
204182,-100,4,1,1,40,0,1
214637,-100,4,1,1,40,0,0
247819,-100,4,1,1,40,0,1
259978,-100,4,1,1,40,0,0
260092,-100,4,1,1,40,0,1
261910,-100,4,1,1,40,0,0
262364,-100,4,1,1,40,0,1
276455,-100,4,1,1,40,0,0
291001,-100,4,1,1,40,0,1
291114,-100,4,1,1,40,0,0

[HitObjects]
448,192,92,128,0,546:0:0:0:0:
64,192,92,1,0,0:0:0:0:
192,192,319,1,0,0:0:0:0:
320,192,546,1,0,0:0:0:0:
64,192,546,1,0,0:0:0:0:
64,192,773,1,0,0:0:0:0:
320,192,1001,1,0,0:0:0:0:
448,192,1001,1,0,0:0:0:0:
192,192,1228,1,0,0:0:0:0:
320,192,1455,1,0,0:0:0:0:
448,192,1455,1,0,0:0:0:0:
448,192,1682,1,0,0:0:0:0:
64,192,1910,1,0,0:0:0:0:
320,192,1910,1,0,0:0:0:0:
448,192,2137,1,0,0:0:0:0:
64,192,2364,1,0,0:0:0:0:
320,192,2364,1,0,0:0:0:0:
64,192,2592,1,0,0:0:0:0:
192,192,2819,1,0,0:0:0:0:
448,192,2819,128,0,3273:0:0:0:0:
64,192,3046,1,0,0:0:0:0:
320,192,3160,1,0,0:0:0:0:
192,192,3273,1,0,0:0:0:0:
64,192,3273,1,0,0:0:0:0:
192,192,3501,1,0,0:0:0:0:
320,192,3728,1,0,0:0:0:0:
448,192,3728,1,0,0:0:0:0:
64,192,3955,1,0,0:0:0:0:
320,192,4182,1,0,0:0:0:0:
448,192,4182,1,0,0:0:0:0:
320,192,4410,1,0,0:0:0:0:
64,192,4637,1,0,0:0:0:0:
448,192,4637,1,0,0:0:0:0:
192,192,4864,1,0,0:0:0:0:
448,192,5092,1,0,0:0:0:0:
64,192,5092,1,0,0:0:0:0:
448,192,5319,1,0,0:0:0:0:
64,192,5546,1,0,0:0:0:0:
320,192,5546,1,0,0:0:0:0:
448,192,5773,1,0,0:0:0:0:
64,192,6001,1,0,0:0:0:0:
320,192,6001,1,0,0:0:0:0:
64,192,6228,1,0,0:0:0:0:
320,192,6455,1,0,0:0:0:0:
448,192,6455,1,0,0:0:0:0:
192,192,6682,1,0,0:0:0:0:
64,192,6796,1,0,0:0:0:0:
448,192,6910,1,0,0:0:0:0:
320,192,6910,1,0,0:0:0:0:
320,192,7137,1,0,0:0:0:0:
192,192,7364,1,0,0:0:0:0:
448,192,7364,1,0,0:0:0:0:
64,192,7592,1,0,0:0:0:0:
192,192,7819,1,0,0:0:0:0:
448,192,7819,1,0,0:0:0:0:
448,192,8046,1,0,0:0:0:0:
64,192,8273,1,0,0:0:0:0:
320,192,8273,1,0,0:0:0:0:
192,192,8501,1,0,0:0:0:0:
320,192,8728,1,0,0:0:0:0:
64,192,8728,1,0,0:0:0:0:
320,192,8955,1,0,0:0:0:0:
64,192,9182,1,0,0:0:0:0:
448,192,9182,1,0,0:0:0:0:
320,192,9410,1,0,0:0:0:0:
64,192,9637,1,0,0:0:0:0:
448,192,9637,1,0,0:0:0:0:
64,192,9864,1,0,0:0:0:0:
320,192,10092,1,0,0:0:0:0:
448,192,10092,128,0,10546:0:0:0:0:
192,192,10319,1,0,0:0:0:0:
64,192,10432,1,0,0:0:0:0:
192,192,10546,1,0,0:0:0:0:
320,192,10546,1,0,0:0:0:0:
320,192,10773,1,0,0:0:0:0:
192,192,11001,1,0,0:0:0:0:
448,192,11001,1,0,0:0:0:0:
64,192,11228,1,0,0:0:0:0:
192,192,11455,1,0,0:0:0:0:
448,192,11455,1,0,0:0:0:0:
192,192,11682,1,0,0:0:0:0:
64,192,11910,1,0,0:0:0:0:
320,192,11910,1,0,0:0:0:0:
448,192,12137,1,0,0:0:0:0:
320,192,12364,1,0,0:0:0:0:
64,192,12364,1,0,0:0:0:0:
320,192,12592,1,0,0:0:0:0:
64,192,12819,1,0,0:0:0:0:
192,192,12819,1,0,0:0:0:0:
448,192,13046,5,0,0:0:0:0:
64,192,13273,1,0,0:0:0:0:
192,192,13273,1,0,0:0:0:0:
192,192,13501,1,0,0:0:0:0:
64,192,13728,1,0,0:0:0:0:
448,192,13728,1,0,0:0:0:0:
192,192,13955,1,0,0:0:0:0:
64,192,14069,1,0,0:0:0:0:
448,192,14182,1,0,0:0:0:0:
320,192,14182,1,0,0:0:0:0:
448,192,14410,1,0,0:0:0:0:
320,192,14410,1,0,0:0:0:0:
320,192,14637,1,0,0:0:0:0:
448,192,14637,1,0,0:0:0:0:
192,192,14637,1,0,0:0:0:0:
64,192,14751,1,0,0:0:0:0:
192,192,14864,1,0,0:0:0:0:
448,192,14978,1,0,0:0:0:0:
192,192,15092,1,0,0:0:0:0:
64,192,15092,1,0,0:0:0:0:
320,192,15319,1,0,0:0:0:0:
192,192,15432,1,0,0:0:0:0:
64,192,15546,1,0,0:0:0:0:
448,192,15546,1,0,0:0:0:0:
320,192,15660,1,0,0:0:0:0:
192,192,15773,1,0,0:0:0:0:
320,192,15887,1,0,0:0:0:0:
448,192,16001,1,0,0:0:0:0:
64,192,16001,1,0,0:0:0:0:
192,192,16114,1,0,0:0:0:0:
320,192,16228,1,0,0:0:0:0:
64,192,16342,1,0,0:0:0:0:
448,192,16455,1,0,0:0:0:0:
192,192,16455,1,0,0:0:0:0:
320,192,16569,1,0,0:0:0:0:
192,192,16682,1,0,0:0:0:0:
448,192,16796,1,0,0:0:0:0:
320,192,16910,1,0,0:0:0:0:
192,192,16910,1,0,0:0:0:0:
64,192,17023,1,0,0:0:0:0:
320,192,17137,1,0,0:0:0:0:
448,192,17251,1,0,0:0:0:0:
64,192,17364,1,0,0:0:0:0:
192,192,17364,128,0,17478:0:0:0:0:
320,192,17478,128,0,17592:0:0:0:0:
448,192,17592,128,0,17705:0:0:0:0:
192,192,17705,128,0,17819:0:0:0:0:
448,192,17819,1,0,0:0:0:0:
320,192,17819,128,0,17932:0:0:0:0:
64,192,17932,1,0,0:0:0:0:
192,192,18046,1,0,0:0:0:0:
448,192,18160,1,0,0:0:0:0:
320,192,18273,1,0,0:0:0:0:
192,192,18273,1,0,0:0:0:0:
64,192,18387,1,0,0:0:0:0:
320,192,18501,1,0,0:0:0:0:
448,192,18614,1,0,0:0:0:0:
64,192,18728,1,0,0:0:0:0:
192,192,18728,1,0,0:0:0:0:
320,192,18842,1,0,0:0:0:0:
192,192,18955,1,0,0:0:0:0:
320,192,19069,1,0,0:0:0:0:
448,192,19182,1,0,0:0:0:0:
192,192,19182,1,0,0:0:0:0:
64,192,19296,1,0,0:0:0:0:
320,192,19410,1,0,0:0:0:0:
64,192,19523,1,0,0:0:0:0:
192,192,19637,1,0,0:0:0:0:
448,192,19637,1,0,0:0:0:0:
320,192,19751,1,0,0:0:0:0:
192,192,19864,1,0,0:0:0:0:
64,192,19978,1,0,0:0:0:0:
192,192,20092,1,0,0:0:0:0:
320,192,20092,1,0,0:0:0:0:
448,192,20205,1,0,0:0:0:0:
320,192,20319,1,0,0:0:0:0:
192,192,20432,1,0,0:0:0:0:
320,192,20546,1,0,0:0:0:0:
448,192,20546,1,0,0:0:0:0:
64,192,20660,1,0,0:0:0:0:
192,192,20773,1,0,0:0:0:0:
448,192,20887,1,0,0:0:0:0:
64,192,21001,1,0,0:0:0:0:
320,192,21001,1,0,0:0:0:0:
448,192,21114,1,0,0:0:0:0:
320,192,21228,1,0,0:0:0:0:
64,192,21342,1,0,0:0:0:0:
192,192,21455,1,0,0:0:0:0:
448,192,21455,1,0,0:0:0:0:
320,192,21569,1,0,0:0:0:0:
192,192,21682,1,0,0:0:0:0:
448,192,21796,1,0,0:0:0:0:
320,192,21910,1,0,0:0:0:0:
64,192,21910,1,0,0:0:0:0:
192,192,22023,1,0,0:0:0:0:
320,192,22137,1,0,0:0:0:0:
192,192,22251,1,0,0:0:0:0:
64,192,22364,1,0,0:0:0:0:
320,192,22364,1,0,0:0:0:0:
448,192,22478,1,0,0:0:0:0:
192,192,22592,1,0,0:0:0:0:
320,192,22705,1,0,0:0:0:0:
192,192,22819,1,0,0:0:0:0:
64,192,22819,1,0,0:0:0:0:
448,192,22932,1,0,0:0:0:0:
320,192,23046,1,0,0:0:0:0:
448,192,23160,1,0,0:0:0:0:
192,192,23273,1,0,0:0:0:0:
320,192,23273,1,0,0:0:0:0:
64,192,23387,1,0,0:0:0:0:
192,192,23501,1,0,0:0:0:0:
448,192,23614,1,0,0:0:0:0:
64,192,23728,1,0,0:0:0:0:
192,192,23728,1,0,0:0:0:0:
448,192,23842,1,0,0:0:0:0:
320,192,23955,1,0,0:0:0:0:
64,192,24069,1,0,0:0:0:0:
192,192,24182,1,0,0:0:0:0:
448,192,24182,1,0,0:0:0:0:
320,192,24296,1,0,0:0:0:0:
192,192,24410,1,0,0:0:0:0:
64,192,24523,1,0,0:0:0:0:
448,192,24637,1,0,0:0:0:0:
320,192,24637,128,0,24751:0:0:0:0:
192,192,24751,128,0,24864:0:0:0:0:
448,192,24864,128,0,24978:0:0:0:0:
320,192,24978,128,0,25092:0:0:0:0:
64,192,25092,1,0,0:0:0:0:
192,192,25092,128,0,25205:0:0:0:0:
448,192,25205,1,0,0:0:0:0:
320,192,25319,1,0,0:0:0:0:
64,192,25432,1,0,0:0:0:0:
192,192,25546,1,0,0:0:0:0:
448,192,25546,1,0,0:0:0:0:
320,192,25660,1,0,0:0:0:0:
192,192,25773,1,0,0:0:0:0:
448,192,25887,1,0,0:0:0:0:
320,192,26001,1,0,0:0:0:0:
64,192,26001,1,0,0:0:0:0:
192,192,26114,1,0,0:0:0:0:
320,192,26228,1,0,0:0:0:0:
448,192,26342,1,0,0:0:0:0:
320,192,26455,1,0,0:0:0:0:
192,192,26455,1,0,0:0:0:0:
64,192,26569,1,0,0:0:0:0:
192,192,26682,1,0,0:0:0:0:
448,192,26796,1,0,0:0:0:0:
320,192,26910,1,0,0:0:0:0:
192,192,26910,1,0,0:0:0:0:
64,192,27023,1,0,0:0:0:0:
320,192,27137,5,0,0:0:0:0:
448,192,27251,1,0,0:0:0:0:
320,192,27364,1,0,0:0:0:0:
192,192,27364,1,0,0:0:0:0:
64,192,27478,1,0,0:0:0:0:
192,192,27592,1,0,0:0:0:0:
320,192,27705,1,0,0:0:0:0:
192,192,27819,1,0,0:0:0:0:
64,192,27819,1,0,0:0:0:0:
448,192,27932,1,0,0:0:0:0:
320,192,28046,1,0,0:0:0:0:
64,192,28160,1,0,0:0:0:0:
320,192,28273,5,0,0:0:0:0:
448,192,28273,1,0,0:0:0:0:
448,192,28387,1,0,0:0:0:0:
64,192,28501,1,0,0:0:0:0:
320,192,28614,1,0,0:0:0:0:
192,192,28652,1,0,0:0:0:0:
64,192,28690,1,0,0:0:0:0:
448,192,28728,1,0,0:0:0:0:
192,192,28842,1,0,0:0:0:0:
320,192,28879,1,0,0:0:0:0:
448,192,28917,1,0,0:0:0:0:
64,192,28955,1,0,0:0:0:0:
192,192,29069,1,0,0:0:0:0:
320,192,29182,1,0,0:0:0:0:
448,192,29182,1,0,0:0:0:0:
64,192,29182,1,0,0:0:0:0:
192,192,29296,1,0,0:0:0:0:
320,192,29410,1,0,0:0:0:0:
192,192,29523,1,0,0:0:0:0:
448,192,29637,1,0,0:0:0:0:
64,192,29637,1,0,0:0:0:0:
320,192,29637,128,0,29751:0:0:0:0:
192,192,29751,128,0,29864:0:0:0:0:
448,192,29864,128,0,29978:0:0:0:0:
320,192,29978,128,0,30092:0:0:0:0:
64,192,30092,1,0,0:0:0:0:
192,192,30092,1,0,0:0:0:0:
320,192,30205,1,0,0:0:0:0:
64,192,30319,128,0,30432:0:0:0:0:
192,192,30432,128,0,30546:0:0:0:0:
448,192,30546,1,0,0:0:0:0:
64,192,30546,1,0,0:0:0:0:
320,192,30546,128,0,30660:0:0:0:0:
192,192,30660,1,0,0:0:0:0:
448,192,30773,128,0,30887:0:0:0:0:
192,192,30887,1,0,0:0:0:0:
320,192,31001,1,0,0:0:0:0:
448,192,31001,1,0,0:0:0:0:
64,192,31114,1,0,0:0:0:0:
320,192,31228,1,0,0:0:0:0:
192,192,31342,1,0,0:0:0:0:
448,192,31455,1,0,0:0:0:0:
64,192,31455,1,0,0:0:0:0:
320,192,31455,128,0,31569:0:0:0:0:
192,192,31569,128,0,31682:0:0:0:0:
448,192,31682,1,0,0:0:0:0:
320,192,31796,128,0,31910:0:0:0:0:
64,192,31910,1,0,0:0:0:0:
192,192,31910,1,0,0:0:0:0:
320,192,32023,1,0,0:0:0:0:
64,192,32137,128,0,32251:0:0:0:0:
192,192,32251,128,0,32364:0:0:0:0:
448,192,32364,1,0,0:0:0:0:
64,192,32364,1,0,0:0:0:0:
320,192,32364,128,0,32478:0:0:0:0:
192,192,32478,1,0,0:0:0:0:
448,192,32592,128,0,32705:0:0:0:0:
192,192,32705,128,0,32819:0:0:0:0:
64,192,32819,1,0,0:0:0:0:
320,192,32819,1,0,0:0:0:0:
448,192,32932,1,0,0:0:0:0:
192,192,33046,1,0,0:0:0:0:
320,192,33160,1,0,0:0:0:0:
448,192,33273,128,0,33387:0:0:0:0:
192,192,33273,1,0,0:0:0:0:
64,192,33273,1,0,0:0:0:0:
320,192,33387,128,0,33501:0:0:0:0:
64,192,33501,128,0,33614:0:0:0:0:
192,192,33614,128,0,33728:0:0:0:0:
320,192,33728,1,0,0:0:0:0:
448,192,33728,1,0,0:0:0:0:
64,192,33842,1,0,0:0:0:0:
448,192,33955,128,0,34069:0:0:0:0:
192,192,34069,128,0,34182:0:0:0:0:
448,192,34182,1,0,0:0:0:0:
320,192,34182,1,0,0:0:0:0:
64,192,34182,128,0,34296:0:0:0:0:
192,192,34296,1,0,0:0:0:0:
448,192,34410,128,0,34523:0:0:0:0:
192,192,34523,1,0,0:0:0:0:
64,192,34637,1,0,0:0:0:0:
320,192,34637,1,0,0:0:0:0:
448,192,34751,1,0,0:0:0:0:
192,192,34864,1,0,0:0:0:0:
320,192,34978,1,0,0:0:0:0:
448,192,35092,128,0,35205:0:0:0:0:
192,192,35092,1,0,0:0:0:0:
64,192,35092,1,0,0:0:0:0:
320,192,35205,128,0,35319:0:0:0:0:
64,192,35319,1,0,0:0:0:0:
192,192,35432,128,0,35546:0:0:0:0:
320,192,35546,1,0,0:0:0:0:
448,192,35546,1,0,0:0:0:0:
64,192,35660,1,0,0:0:0:0:
448,192,35773,128,0,35887:0:0:0:0:
192,192,35887,128,0,36001:0:0:0:0:
448,192,36001,1,0,0:0:0:0:
320,192,36001,1,0,0:0:0:0:
64,192,36001,128,0,36114:0:0:0:0:
192,192,36114,1,0,0:0:0:0:
448,192,36228,128,0,36342:0:0:0:0:
192,192,36342,128,0,36455:0:0:0:0:
320,192,36455,1,0,0:0:0:0:
448,192,36455,1,0,0:0:0:0:
64,192,36569,1,0,0:0:0:0:
320,192,36682,1,0,0:0:0:0:
192,192,36796,1,0,0:0:0:0:
320,192,36910,1,0,0:0:0:0:
448,192,36910,1,0,0:0:0:0:
64,192,36910,128,0,37023:0:0:0:0:
192,192,37023,128,0,37137:0:0:0:0:
320,192,37137,128,0,37251:0:0:0:0:
448,192,37251,128,0,37364:0:0:0:0:
64,192,37364,1,0,0:0:0:0:
192,192,37364,1,0,0:0:0:0:
320,192,37478,1,0,0:0:0:0:
448,192,37592,128,0,37705:0:0:0:0:
192,192,37705,128,0,37819:0:0:0:0:
64,192,37819,1,0,0:0:0:0:
448,192,37819,1,0,0:0:0:0:
320,192,37819,128,0,37932:0:0:0:0:
192,192,37932,1,0,0:0:0:0:
448,192,38046,128,0,38160:0:0:0:0:
192,192,38160,1,0,0:0:0:0:
320,192,38273,1,0,0:0:0:0:
448,192,38273,1,0,0:0:0:0:
64,192,38387,1,0,0:0:0:0:
320,192,38501,1,0,0:0:0:0:
192,192,38614,1,0,0:0:0:0:
320,192,38728,1,0,0:0:0:0:
448,192,38728,1,0,0:0:0:0:
64,192,38728,128,0,38842:0:0:0:0:
192,192,38842,128,0,38955:0:0:0:0:
320,192,38955,1,0,0:0:0:0:
448,192,39069,128,0,39182:0:0:0:0:
64,192,39182,1,0,0:0:0:0:
192,192,39182,1,0,0:0:0:0:
320,192,39296,1,0,0:0:0:0:
448,192,39410,128,0,39523:0:0:0:0:
192,192,39523,128,0,39637:0:0:0:0:
64,192,39637,1,0,0:0:0:0:
448,192,39637,1,0,0:0:0:0:
320,192,39637,128,0,39751:0:0:0:0:
192,192,39751,1,0,0:0:0:0:
448,192,39864,128,0,39978:0:0:0:0:
192,192,39978,128,0,40092:0:0:0:0:
448,192,40092,1,0,0:0:0:0:
64,192,40092,1,0,0:0:0:0:
320,192,40205,1,0,0:0:0:0:
192,192,40319,1,0,0:0:0:0:
64,192,40432,1,0,0:0:0:0:
320,192,40546,128,0,40660:0:0:0:0:
448,192,40546,1,0,0:0:0:0:
192,192,40546,1,0,0:0:0:0:
64,192,40660,128,0,40773:0:0:0:0:
192,192,40773,128,0,40887:0:0:0:0:
320,192,40887,128,0,41001:0:0:0:0:
64,192,41001,1,0,0:0:0:0:
448,192,41001,1,0,0:0:0:0:
192,192,41114,1,0,0:0:0:0:
320,192,41228,128,0,41342:0:0:0:0:
192,192,41342,128,0,41455:0:0:0:0:
320,192,41455,1,0,0:0:0:0:
448,192,41455,1,0,0:0:0:0:
64,192,41455,128,0,41569:0:0:0:0:
192,192,41569,1,0,0:0:0:0:
448,192,41682,128,0,41796:0:0:0:0:
192,192,41796,1,0,0:0:0:0:
448,192,41910,1,0,0:0:0:0:
64,192,41910,1,0,0:0:0:0:
320,192,42023,1,0,0:0:0:0:
192,192,42137,1,0,0:0:0:0:
64,192,42251,1,0,0:0:0:0:
320,192,42364,128,0,42478:0:0:0:0:
448,192,42364,1,0,0:0:0:0:
192,192,42364,1,0,0:0:0:0:
64,192,42478,128,0,42592:0:0:0:0:
192,192,42592,1,0,0:0:0:0:
320,192,42705,128,0,42819:0:0:0:0:
64,192,42819,1,0,0:0:0:0:
448,192,42819,1,0,0:0:0:0:
192,192,42932,1,0,0:0:0:0:
320,192,43046,128,0,43160:0:0:0:0:
192,192,43160,128,0,43273:0:0:0:0:
320,192,43273,1,0,0:0:0:0:
448,192,43273,1,0,0:0:0:0:
64,192,43273,128,0,43387:0:0:0:0:
192,192,43387,1,0,0:0:0:0:
448,192,43501,128,0,43614:0:0:0:0:
320,192,43614,128,0,43728:0:0:0:0:
448,192,43728,128,0,43842:0:0:0:0:
192,192,43728,128,0,43842:0:0:0:0:
64,192,43728,128,0,43842:0:0:0:0:
320,192,43842,1,0,0:0:0:0:
192,192,43955,1,0,0:0:0:0:
320,192,44069,1,0,0:0:0:0:
64,192,44182,1,0,0:0:0:0:
448,192,44182,1,0,0:0:0:0:
192,192,44182,128,0,44296:0:0:0:0:
320,192,44296,128,0,44410:0:0:0:0:
64,192,44410,128,0,44523:0:0:0:0:
192,192,44523,128,0,44637:0:0:0:0:
448,192,44637,1,0,0:0:0:0:
320,192,44637,1,0,0:0:0:0:
192,192,44751,1,0,0:0:0:0:
448,192,44864,128,0,44978:0:0:0:0:
320,192,44978,128,0,45092:0:0:0:0:
64,192,45092,1,0,0:0:0:0:
448,192,45092,1,0,0:0:0:0:
192,192,45092,128,0,45205:0:0:0:0:
320,192,45205,1,0,0:0:0:0:
64,192,45319,128,0,45432:0:0:0:0:
320,192,45432,1,0,0:0:0:0:
192,192,45546,1,0,0:0:0:0:
64,192,45546,1,0,0:0:0:0:
448,192,45660,1,0,0:0:0:0:
192,192,45773,1,0,0:0:0:0:
320,192,45887,1,0,0:0:0:0:
64,192,46001,1,0,0:0:0:0:
448,192,46001,1,0,0:0:0:0:
192,192,46001,128,0,46114:0:0:0:0:
320,192,46114,128,0,46228:0:0:0:0:
64,192,46228,1,0,0:0:0:0:
192,192,46342,128,0,46455:0:0:0:0:
448,192,46455,1,0,0:0:0:0:
320,192,46455,1,0,0:0:0:0:
192,192,46569,1,0,0:0:0:0:
448,192,46682,128,0,46796:0:0:0:0:
320,192,46796,128,0,46910:0:0:0:0:
64,192,46910,1,0,0:0:0:0:
448,192,46910,1,0,0:0:0:0:
192,192,46910,128,0,47023:0:0:0:0:
320,192,47023,1,0,0:0:0:0:
64,192,47137,128,0,47251:0:0:0:0:
320,192,47251,128,0,47364:0:0:0:0:
448,192,47364,1,0,0:0:0:0:
192,192,47364,1,0,0:0:0:0:
64,192,47478,1,0,0:0:0:0:
320,192,47592,1,0,0:0:0:0:
192,192,47705,1,0,0:0:0:0:
64,192,47819,128,0,47932:0:0:0:0:
320,192,47819,1,0,0:0:0:0:
448,192,47819,1,0,0:0:0:0:
192,192,47932,128,0,48046:0:0:0:0:
448,192,48046,128,0,48160:0:0:0:0:
320,192,48160,128,0,48273:0:0:0:0:
192,192,48273,1,0,0:0:0:0:
64,192,48273,1,0,0:0:0:0:
448,192,48387,1,0,0:0:0:0:
64,192,48501,128,0,48614:0:0:0:0:
320,192,48614,128,0,48728:0:0:0:0:
64,192,48728,1,0,0:0:0:0:
192,192,48728,1,0,0:0:0:0:
448,192,48728,128,0,48842:0:0:0:0:
320,192,48842,1,0,0:0:0:0:
64,192,48955,128,0,49069:0:0:0:0:
320,192,49069,1,0,0:0:0:0:
448,192,49182,1,0,0:0:0:0:
192,192,49182,1,0,0:0:0:0:
64,192,49296,1,0,0:0:0:0:
320,192,49410,1,0,0:0:0:0:
192,192,49523,1,0,0:0:0:0:
64,192,49637,128,0,49751:0:0:0:0:
320,192,49637,1,0,0:0:0:0:
448,192,49637,1,0,0:0:0:0:
192,192,49751,128,0,49864:0:0:0:0:
448,192,49864,1,0,0:0:0:0:
320,192,49978,128,0,50092:0:0:0:0:
192,192,50092,1,0,0:0:0:0:
64,192,50092,1,0,0:0:0:0:
448,192,50205,1,0,0:0:0:0:
64,192,50319,128,0,50432:0:0:0:0:
320,192,50432,128,0,50546:0:0:0:0:
64,192,50546,1,0,0:0:0:0:
192,192,50546,1,0,0:0:0:0:
448,192,50546,128,0,50660:0:0:0:0:
320,192,50660,1,0,0:0:0:0:
64,192,50773,128,0,50887:0:0:0:0:
320,192,50887,128,0,51001:0:0:0:0:
192,192,51001,1,0,0:0:0:0:
64,192,51001,1,0,0:0:0:0:
448,192,51114,1,0,0:0:0:0:
192,192,51228,1,0,0:0:0:0:
64,192,51228,1,0,0:0:0:0:
320,192,51342,1,0,0:0:0:0:
192,192,51455,1,0,0:0:0:0:
64,192,51455,1,0,0:0:0:0:
448,192,51455,128,0,51569:0:0:0:0:
320,192,51569,128,0,51682:0:0:0:0:
192,192,51682,128,0,51796:0:0:0:0:
448,192,51682,1,0,0:0:0:0:
64,192,51796,128,0,51910:0:0:0:0:
448,192,51910,1,0,0:0:0:0:
320,192,51910,1,0,0:0:0:0:
192,192,52023,1,0,0:0:0:0:
64,192,52137,128,0,52251:0:0:0:0:
320,192,52137,1,0,0:0:0:0:
192,192,52251,128,0,52364:0:0:0:0:
448,192,52364,1,0,0:0:0:0:
64,192,52364,1,0,0:0:0:0:
320,192,52364,128,0,52478:0:0:0:0:
192,192,52478,1,0,0:0:0:0:
448,192,52592,128,0,52705:0:0:0:0:
64,192,52592,1,0,0:0:0:0:
320,192,52705,1,0,0:0:0:0:
192,192,52819,1,0,0:0:0:0:
64,192,52819,1,0,0:0:0:0:
448,192,52932,1,0,0:0:0:0:
192,192,53046,1,0,0:0:0:0:
64,192,53046,1,0,0:0:0:0:
320,192,53160,1,0,0:0:0:0:
192,192,53273,1,0,0:0:0:0:
64,192,53273,1,0,0:0:0:0:
448,192,53273,128,0,53387:0:0:0:0:
320,192,53387,128,0,53501:0:0:0:0:
448,192,53501,1,0,0:0:0:0:
192,192,53501,1,0,0:0:0:0:
64,192,53614,128,0,53728:0:0:0:0:
448,192,53728,1,0,0:0:0:0:
320,192,53728,1,0,0:0:0:0:
192,192,53842,1,0,0:0:0:0:
64,192,53955,128,0,54069:0:0:0:0:
320,192,53955,1,0,0:0:0:0:
192,192,54069,128,0,54182:0:0:0:0:
448,192,54182,1,0,0:0:0:0:
64,192,54182,1,0,0:0:0:0:
320,192,54182,128,0,54296:0:0:0:0:
192,192,54296,1,0,0:0:0:0:
448,192,54410,128,0,54523:0:0:0:0:
64,192,54410,1,0,0:0:0:0:
320,192,54523,128,0,54637:0:0:0:0:
64,192,54637,1,0,0:0:0:0:
448,192,54637,1,0,0:0:0:0:
192,192,54751,1,0,0:0:0:0:
320,192,54864,1,0,0:0:0:0:
448,192,54978,1,0,0:0:0:0:
192,192,55092,128,0,55205:0:0:0:0:
64,192,55092,1,0,0:0:0:0:
448,192,55205,128,0,55319:0:0:0:0:
320,192,55319,128,0,55432:0:0:0:0:
192,192,55432,128,0,55546:0:0:0:0:
448,192,55546,1,0,0:0:0:0:
64,192,55546,1,0,0:0:0:0:
320,192,55660,1,0,0:0:0:0:
192,192,55773,128,0,55887:0:0:0:0:
64,192,55887,1,0,0:0:0:0:
320,192,55887,128,0,56001:0:0:0:0:
448,192,56001,1,0,0:0:0:0:
192,192,56001,128,0,56114:0:0:0:0:
64,192,56114,1,0,0:0:0:0:
448,192,56228,128,0,56342:0:0:0:0:
192,192,56342,1,0,0:0:0:0:
64,192,56455,1,0,0:0:0:0:
448,192,56455,1,0,0:0:0:0:
320,192,56682,128,0,56796:0:0:0:0:
192,192,56910,128,0,57023:0:0:0:0:
448,192,57023,128,0,57137:0:0:0:0:
320,192,57251,128,0,57364:0:0:0:0:
64,192,57364,1,0,0:0:0:0:
192,192,57592,128,0,57705:0:0:0:0:
320,192,57705,128,0,57819:0:0:0:0:
448,192,57819,128,0,57932:0:0:0:0:
192,192,58046,128,0,58273:0:0:0:0:
320,192,58160,128,0,58273:0:0:0:0:
448,192,58273,128,0,58387:0:0:0:0:
64,192,58273,1,0,0:0:0:0:
192,192,58614,128,0,58728:0:0:0:0:
64,192,58728,1,0,0:0:0:0:
448,192,58728,1,0,0:0:0:0:
320,192,58955,128,0,59069:0:0:0:0:
192,192,59069,1,0,0:0:0:0:
64,192,59182,128,0,59296:0:0:0:0:
448,192,59182,1,0,0:0:0:0:
320,192,59296,1,0,0:0:0:0:
64,192,59410,1,0,0:0:0:0:
192,192,59523,1,0,0:0:0:0:
64,192,59637,1,0,0:0:0:0:
448,192,59637,1,0,0:0:0:0:
320,192,59751,1,0,0:0:0:0:
64,192,59864,1,0,0:0:0:0:
192,192,59978,1,0,0:0:0:0:
448,192,60092,1,0,0:0:0:0:
320,192,60092,128,0,60205:0:0:0:0:
64,192,60205,1,0,0:0:0:0:
192,192,60319,1,0,0:0:0:0:
64,192,60432,128,0,60546:0:0:0:0:
192,192,60546,1,0,0:0:0:0:
320,192,60546,1,0,0:0:0:0:
448,192,60660,1,0,0:0:0:0:
192,192,60773,128,0,60887:0:0:0:0:
320,192,60887,1,0,0:0:0:0:
448,192,61001,128,0,61114:0:0:0:0:
64,192,61001,1,0,0:0:0:0:
192,192,61114,1,0,0:0:0:0:
320,192,61228,1,0,0:0:0:0:
320,192,61342,1,0,0:0:0:0:
448,192,61455,1,0,0:0:0:0:
64,192,61455,1,0,0:0:0:0:
192,192,61569,1,0,0:0:0:0:
448,192,61682,1,0,0:0:0:0:
448,192,61796,1,0,0:0:0:0:
192,192,61910,1,0,0:0:0:0:
64,192,61910,128,0,62023:0:0:0:0:
320,192,62023,1,0,0:0:0:0:
192,192,62137,1,0,0:0:0:0:
448,192,62251,128,0,62364:0:0:0:0:
192,192,62364,1,0,0:0:0:0:
64,192,62364,1,0,0:0:0:0:
448,192,62478,1,0,0:0:0:0:
320,192,62592,128,0,62705:0:0:0:0:
64,192,62705,1,0,0:0:0:0:
448,192,62819,128,0,62932:0:0:0:0:
192,192,62819,1,0,0:0:0:0:
64,192,62932,1,0,0:0:0:0:
320,192,63046,1,0,0:0:0:0:
192,192,63160,1,0,0:0:0:0:
64,192,63273,1,0,0:0:0:0:
320,192,63273,1,0,0:0:0:0:
448,192,63387,1,0,0:0:0:0:
192,192,63501,1,0,0:0:0:0:
320,192,63614,1,0,0:0:0:0:
192,192,63728,1,0,0:0:0:0:
64,192,63728,128,0,63842:0:0:0:0:
320,192,63842,1,0,0:0:0:0:
448,192,63955,1,0,0:0:0:0:
192,192,64069,128,0,64182:0:0:0:0:
320,192,64182,1,0,0:0:0:0:
64,192,64182,1,0,0:0:0:0:
448,192,64296,1,0,0:0:0:0:
320,192,64410,128,0,64523:0:0:0:0:
192,192,64523,1,0,0:0:0:0:
448,192,64637,128,0,64751:0:0:0:0:
64,192,64637,1,0,0:0:0:0:
320,192,64751,1,0,0:0:0:0:
192,192,64864,1,0,0:0:0:0:
192,192,64978,1,0,0:0:0:0:
320,192,65092,1,0,0:0:0:0:
448,192,65092,1,0,0:0:0:0:
192,192,65205,1,0,0:0:0:0:
64,192,65319,1,0,0:0:0:0:
64,192,65432,1,0,0:0:0:0:
192,192,65546,1,0,0:0:0:0:
320,192,65546,128,0,65660:0:0:0:0:
448,192,65660,1,0,0:0:0:0:
192,192,65773,1,0,0:0:0:0:
64,192,65887,128,0,66001:0:0:0:0:
448,192,66001,1,0,0:0:0:0:
320,192,66001,1,0,0:0:0:0:
192,192,66114,1,0,0:0:0:0:
448,192,66228,128,0,66342:0:0:0:0:
320,192,66342,1,0,0:0:0:0:
192,192,66455,128,0,66569:0:0:0:0:
64,192,66455,1,0,0:0:0:0:
320,192,66569,1,0,0:0:0:0:
448,192,66682,1,0,0:0:0:0:
192,192,66796,1,0,0:0:0:0:
320,192,66910,1,0,0:0:0:0:
448,192,66910,1,0,0:0:0:0:
64,192,67023,1,0,0:0:0:0:
320,192,67137,1,0,0:0:0:0:
192,192,67251,1,0,0:0:0:0:
448,192,67364,1,0,0:0:0:0:
320,192,67364,128,0,67478:0:0:0:0:
64,192,67478,1,0,0:0:0:0:
192,192,67592,1,0,0:0:0:0:
64,192,67705,128,0,67819:0:0:0:0:
192,192,67819,1,0,0:0:0:0:
320,192,67819,1,0,0:0:0:0:
448,192,67932,1,0,0:0:0:0:
192,192,68046,128,0,68160:0:0:0:0:
320,192,68160,1,0,0:0:0:0:
448,192,68273,128,0,68387:0:0:0:0:
64,192,68273,1,0,0:0:0:0:
192,192,68387,1,0,0:0:0:0:
320,192,68501,1,0,0:0:0:0:
320,192,68614,1,0,0:0:0:0:
448,192,68728,1,0,0:0:0:0:
64,192,68728,1,0,0:0:0:0:
192,192,68842,1,0,0:0:0:0:
448,192,68955,1,0,0:0:0:0:
448,192,69069,1,0,0:0:0:0:
192,192,69182,1,0,0:0:0:0:
64,192,69182,128,0,69296:0:0:0:0:
320,192,69296,1,0,0:0:0:0:
192,192,69410,1,0,0:0:0:0:
448,192,69523,128,0,69637:0:0:0:0:
192,192,69637,1,0,0:0:0:0:
64,192,69637,1,0,0:0:0:0:
448,192,69751,1,0,0:0:0:0:
320,192,69864,128,0,69978:0:0:0:0:
64,192,69978,1,0,0:0:0:0:
448,192,70092,128,0,70205:0:0:0:0:
192,192,70092,1,0,0:0:0:0:
64,192,70205,1,0,0:0:0:0:
320,192,70319,1,0,0:0:0:0:
192,192,70432,1,0,0:0:0:0:
64,192,70546,1,0,0:0:0:0:
320,192,70546,1,0,0:0:0:0:
448,192,70660,1,0,0:0:0:0:
192,192,70773,1,0,0:0:0:0:
320,192,70887,1,0,0:0:0:0:
192,192,71001,1,0,0:0:0:0:
64,192,71001,128,0,71114:0:0:0:0:
320,192,71114,1,0,0:0:0:0:
448,192,71228,1,0,0:0:0:0:
192,192,71342,128,0,71455:0:0:0:0:
320,192,71455,1,0,0:0:0:0:
64,192,71455,1,0,0:0:0:0:
448,192,71569,1,0,0:0:0:0:
320,192,71682,128,0,71796:0:0:0:0:
192,192,71796,1,0,0:0:0:0:
448,192,71910,128,0,72023:0:0:0:0:
320,192,72023,128,0,72137:0:0:0:0:
448,192,72137,128,0,72251:0:0:0:0:
64,192,72194,1,0,0:0:0:0:
320,192,72251,128,0,72364:0:0:0:0:
192,192,72307,1,0,0:0:0:0:
64,192,72364,128,0,72478:0:0:0:0:
448,192,72364,1,0,0:0:0:0:
192,192,72478,128,0,72592:0:0:0:0:
64,192,72592,128,0,72705:0:0:0:0:
448,192,72592,1,0,0:0:0:0:
192,192,72705,128,0,72819:0:0:0:0:
448,192,72819,1,0,0:0:0:0:
64,192,72819,1,0,0:0:0:0:
320,192,72819,128,0,72932:0:0:0:0:
192,192,72932,1,0,0:0:0:0:
448,192,73046,1,0,0:0:0:0:
448,192,73160,128,0,73273:0:0:0:0:
64,192,73273,1,0,0:0:0:0:
192,192,73273,1,0,0:0:0:0:
320,192,73273,1,0,0:0:0:0:
448,192,73387,1,0,0:0:0:0:
192,192,73501,128,0,73614:0:0:0:0:
320,192,73614,1,0,0:0:0:0:
192,192,73728,1,0,0:0:0:0:
64,192,73728,1,0,0:0:0:0:
448,192,73728,128,0,73842:0:0:0:0:
320,192,73842,1,0,0:0:0:0:
64,192,73955,1,0,0:0:0:0:
192,192,74069,1,0,0:0:0:0:
320,192,74182,1,0,0:0:0:0:
448,192,74182,1,0,0:0:0:0:
64,192,74182,1,0,0:0:0:0:
192,192,74296,1,0,0:0:0:0:
448,192,74410,1,0,0:0:0:0:
320,192,74523,1,0,0:0:0:0:
64,192,74637,128,0,74751:0:0:0:0:
192,192,74637,1,0,0:0:0:0:
448,192,74637,1,0,0:0:0:0:
320,192,74751,1,0,0:0:0:0:
192,192,74864,1,0,0:0:0:0:
320,192,74978,128,0,75092:0:0:0:0:
192,192,75092,1,0,0:0:0:0:
448,192,75092,1,0,0:0:0:0:
64,192,75092,1,0,0:0:0:0:
320,192,75205,1,0,0:0:0:0:
448,192,75319,128,0,75432:0:0:0:0:
192,192,75432,1,0,0:0:0:0:
320,192,75546,128,0,75660:0:0:0:0:
64,192,75546,1,0,0:0:0:0:
448,192,75546,1,0,0:0:0:0:
192,192,75660,1,0,0:0:0:0:
448,192,75773,1,0,0:0:0:0:
448,192,75887,1,0,0:0:0:0:
192,192,76001,1,0,0:0:0:0:
64,192,76001,1,0,0:0:0:0:
320,192,76001,1,0,0:0:0:0:
64,192,76114,1,0,0:0:0:0:
320,192,76228,1,0,0:0:0:0:
320,192,76342,1,0,0:0:0:0:
192,192,76455,1,0,0:0:0:0:
64,192,76455,1,0,0:0:0:0:
448,192,76455,128,0,76569:0:0:0:0:
320,192,76569,1,0,0:0:0:0:
64,192,76682,1,0,0:0:0:0:
192,192,76796,128,0,76910:0:0:0:0:
64,192,76910,1,0,0:0:0:0:
320,192,76910,1,0,0:0:0:0:
448,192,76910,1,0,0:0:0:0:
192,192,77023,1,0,0:0:0:0:
320,192,77137,128,0,77251:0:0:0:0:
448,192,77251,1,0,0:0:0:0:
64,192,77364,128,0,77478:0:0:0:0:
192,192,77364,1,0,0:0:0:0:
320,192,77364,1,0,0:0:0:0:
448,192,77478,1,0,0:0:0:0:
192,192,77592,1,0,0:0:0:0:
320,192,77705,1,0,0:0:0:0:
448,192,77819,1,0,0:0:0:0:
192,192,77819,1,0,0:0:0:0:
64,192,77819,1,0,0:0:0:0:
320,192,77932,1,0,0:0:0:0:
64,192,78046,1,0,0:0:0:0:
192,192,78160,1,0,0:0:0:0:
448,192,78273,1,0,0:0:0:0:
64,192,78273,1,0,0:0:0:0:
320,192,78273,128,0,78387:0:0:0:0:
192,192,78387,1,0,0:0:0:0:
448,192,78501,1,0,0:0:0:0:
192,192,78614,128,0,78728:0:0:0:0:
64,192,78728,1,0,0:0:0:0:
448,192,78728,1,0,0:0:0:0:
320,192,78728,1,0,0:0:0:0:
192,192,78842,1,0,0:0:0:0:
64,192,78955,128,0,79069:0:0:0:0:
320,192,79069,1,0,0:0:0:0:
448,192,79182,128,0,79296:0:0:0:0:
192,192,79182,1,0,0:0:0:0:
64,192,79182,1,0,0:0:0:0:
320,192,79296,1,0,0:0:0:0:
448,192,79410,1,0,0:0:0:0:
448,192,79523,1,0,0:0:0:0:
320,192,79637,1,0,0:0:0:0:
192,192,79637,1,0,0:0:0:0:
64,192,79637,1,0,0:0:0:0:
64,192,79751,1,0,0:0:0:0:
192,192,79864,1,0,0:0:0:0:
320,192,79921,1,0,0:0:0:0:
448,192,79978,1,0,0:0:0:0:
64,192,80035,1,0,0:0:0:0:
192,192,80092,1,0,0:0:0:0:
448,192,80092,1,0,0:0:0:0:
320,192,80092,128,0,80205:0:0:0:0:
64,192,80205,1,0,0:0:0:0:
448,192,80319,1,0,0:0:0:0:
320,192,80319,1,0,0:0:0:0:
192,192,80432,128,0,80546:0:0:0:0:
320,192,80546,1,0,0:0:0:0:
448,192,80546,1,0,0:0:0:0:
64,192,80546,1,0,0:0:0:0:
192,192,80660,1,0,0:0:0:0:
320,192,80773,1,0,0:0:0:0:
448,192,80773,128,0,80887:0:0:0:0:
64,192,80887,1,0,0:0:0:0:
320,192,81001,1,0,0:0:0:0:
448,192,81001,1,0,0:0:0:0:
192,192,81001,128,0,81114:0:0:0:0:
64,192,81114,1,0,0:0:0:0:
192,192,81228,1,0,0:0:0:0:
320,192,81228,1,0,0:0:0:0:
448,192,81342,1,0,0:0:0:0:
320,192,81455,1,0,0:0:0:0:
192,192,81455,1,0,0:0:0:0:
64,192,81455,1,0,0:0:0:0:
448,192,81569,1,0,0:0:0:0:
64,192,81682,1,0,0:0:0:0:
192,192,81682,1,0,0:0:0:0:
320,192,81796,1,0,0:0:0:0:
64,192,81910,1,0,0:0:0:0:
448,192,81910,128,0,82023:0:0:0:0:
192,192,82023,1,0,0:0:0:0:
320,192,82023,1,0,0:0:0:0:
64,192,82137,1,0,0:0:0:0:
448,192,82137,1,0,0:0:0:0:
192,192,82251,128,0,82364:0:0:0:0:
64,192,82364,1,0,0:0:0:0:
320,192,82364,1,0,0:0:0:0:
192,192,82478,1,0,0:0:0:0:
448,192,82478,1,0,0:0:0:0:
320,192,82592,1,0,0:0:0:0:
64,192,82592,128,0,82705:0:0:0:0:
448,192,82705,1,0,0:0:0:0:
192,192,82705,1,0,0:0:0:0:
320,192,82819,1,0,0:0:0:0:
64,192,82819,1,0,0:0:0:0:
448,192,82876,1,0,0:0:0:0:
192,192,82932,1,0,0:0:0:0:
320,192,82989,1,0,0:0:0:0:
448,192,83046,1,0,0:0:0:0:
192,192,83103,1,0,0:0:0:0:
64,192,83160,1,0,0:0:0:0:
448,192,83217,1,0,0:0:0:0:
320,192,83273,1,0,0:0:0:0:
192,192,83273,1,0,0:0:0:0:
64,192,83330,1,0,0:0:0:0:
448,192,83387,1,0,0:0:0:0:
320,192,83444,1,0,0:0:0:0:
64,192,83501,1,0,0:0:0:0:
448,192,83557,1,0,0:0:0:0:
192,192,83614,1,0,0:0:0:0:
320,192,83671,1,0,0:0:0:0:
448,192,83728,128,0,84182:0:0:0:0:
192,192,83842,128,0,83955:0:0:0:0:
192,192,84069,128,0,84182:0:0:0:0:
64,192,84410,128,0,84637:0:0:0:0:
448,192,84637,128,0,84864:0:0:0:0:
320,192,84864,128,0,85092:0:0:0:0:
320,192,85205,128,0,85319:0:0:0:0:
192,192,85319,128,0,85546:0:0:0:0:
448,192,85546,128,0,85773:0:0:0:0:
64,192,85546,128,0,86001:0:0:0:0:
320,192,85546,128,0,85622:0:0:0:0:
448,192,85887,1,0,0:0:0:0:
192,192,85944,1,0,0:0:0:0:
320,192,86001,128,0,86455:0:0:0:0:
448,192,86001,1,0,0:0:0:0:
448,192,86228,1,0,0:0:0:0:
64,192,86228,1,0,0:0:0:0:
448,192,86455,128,0,86910:0:0:0:0:
64,192,86569,1,0,0:0:0:0:
192,192,86569,1,0,0:0:0:0:
320,192,86910,128,0,87137:0:0:0:0:
64,192,87251,1,0,0:0:0:0:
192,192,87288,1,0,0:0:0:0:
320,192,87326,1,0,0:0:0:0:
448,192,87364,128,0,87478:0:0:0:0:
64,192,87364,128,0,87478:0:0:0:0:
192,192,87478,1,0,0:0:0:0:
320,192,87592,1,0,0:0:0:0:
64,192,87705,128,0,87819:0:0:0:0:
192,192,87705,128,0,87819:0:0:0:0:
448,192,87819,128,0,87932:0:0:0:0:
320,192,87819,128,0,87895:0:0:0:0:
192,192,87932,1,0,0:0:0:0:
320,192,88046,128,0,88160:0:0:0:0:
64,192,88046,128,0,88160:0:0:0:0:
192,192,88160,1,0,0:0:0:0:
448,192,88273,128,0,88387:0:0:0:0:
64,192,88273,128,0,88387:0:0:0:0:
320,192,88387,1,0,0:0:0:0:
192,192,88501,1,0,0:0:0:0:
64,192,88614,128,0,88728:0:0:0:0:
448,192,88728,128,0,88955:0:0:0:0:
320,192,88728,128,0,88842:0:0:0:0:
192,192,88728,128,0,88804:0:0:0:0:
64,192,88955,1,0,0:0:0:0:
192,192,88993,1,0,0:0:0:0:
320,192,89031,1,0,0:0:0:0:
448,192,89069,1,0,0:0:0:0:
64,192,89107,1,0,0:0:0:0:
192,192,89145,1,0,0:0:0:0:
448,192,89182,128,0,89296:0:0:0:0:
320,192,89182,128,0,89296:0:0:0:0:
64,192,89296,1,0,0:0:0:0:
320,192,89410,1,0,0:0:0:0:
64,192,89523,128,0,89637:0:0:0:0:
192,192,89523,128,0,89637:0:0:0:0:
448,192,89637,128,0,89751:0:0:0:0:
320,192,89637,128,0,89713:0:0:0:0:
64,192,89751,1,0,0:0:0:0:
192,192,89864,128,0,89978:0:0:0:0:
448,192,89864,128,0,89978:0:0:0:0:
320,192,89978,1,0,0:0:0:0:
192,192,90092,128,0,90205:0:0:0:0:
64,192,90092,128,0,90205:0:0:0:0:
320,192,90205,1,0,0:0:0:0:
448,192,90319,1,0,0:0:0:0:
448,192,90432,1,0,0:0:0:0:
64,192,90546,1,0,0:0:0:0:
320,192,90546,128,0,90660:0:0:0:0:
192,192,90546,128,0,90622:0:0:0:0:
448,192,90660,128,0,90887:0:0:0:0:
192,192,90773,128,0,90887:0:0:0:0:
320,192,90887,128,0,91001:0:0:0:0:
64,192,91001,128,0,91114:0:0:0:0:
192,192,91001,128,0,91114:0:0:0:0:
448,192,91114,1,0,0:0:0:0:
192,192,91228,1,0,0:0:0:0:
320,192,91342,128,0,91455:0:0:0:0:
448,192,91342,128,0,91455:0:0:0:0:
64,192,91455,128,0,91569:0:0:0:0:
192,192,91455,128,0,91531:0:0:0:0:
320,192,91569,1,0,0:0:0:0:
448,192,91682,128,0,91796:0:0:0:0:
64,192,91682,128,0,91796:0:0:0:0:
192,192,91796,1,0,0:0:0:0:
320,192,91910,128,0,92023:0:0:0:0:
448,192,91910,128,0,92023:0:0:0:0:
64,192,92023,1,0,0:0:0:0:
448,192,92137,1,0,0:0:0:0:
192,192,92251,1,0,0:0:0:0:
64,192,92364,1,0,0:0:0:0:
320,192,92364,1,0,0:0:0:0:
448,192,92364,1,0,0:0:0:0:
192,192,92478,1,0,0:0:0:0:
64,192,92478,1,0,0:0:0:0:
320,192,92592,128,0,92819:0:0:0:0:
64,192,92705,1,0,0:0:0:0:
448,192,92819,128,0,92932:0:0:0:0:
192,192,92819,128,0,92932:0:0:0:0:
64,192,92932,1,0,0:0:0:0:
448,192,93046,1,0,0:0:0:0:
320,192,93160,128,0,93273:0:0:0:0:
192,192,93160,128,0,93273:0:0:0:0:
64,192,93273,128,0,93349:0:0:0:0:
448,192,93273,128,0,93387:0:0:0:0:
192,192,93387,1,0,0:0:0:0:
320,192,93501,128,0,93614:0:0:0:0:
64,192,93501,128,0,93614:0:0:0:0:
192,192,93614,1,0,0:0:0:0:
320,192,93728,128,0,93842:0:0:0:0:
448,192,93728,128,0,93842:0:0:0:0:
64,192,93842,1,0,0:0:0:0:
192,192,93955,1,0,0:0:0:0:
192,192,94069,1,0,0:0:0:0:
64,192,94182,1,0,0:0:0:0:
448,192,94182,128,0,94296:0:0:0:0:
320,192,94182,128,0,94258:0:0:0:0:
192,192,94296,128,0,94410:0:0:0:0:
320,192,94410,1,0,0:0:0:0:
448,192,94448,1,0,0:0:0:0:
192,192,94485,1,0,0:0:0:0:
64,192,94523,1,0,0:0:0:0:
320,192,94561,1,0,0:0:0:0:
448,192,94599,1,0,0:0:0:0:
64,192,94637,128,0,94751:0:0:0:0:
192,192,94637,128,0,94751:0:0:0:0:
320,192,94751,1,0,0:0:0:0:
192,192,94864,1,0,0:0:0:0:
320,192,94978,128,0,95092:0:0:0:0:
448,192,94978,128,0,95092:0:0:0:0:
192,192,95092,128,0,95167:0:0:0:0:
64,192,95092,128,0,95205:0:0:0:0:
320,192,95205,1,0,0:0:0:0:
192,192,95319,128,0,95432:0:0:0:0:
448,192,95319,128,0,95432:0:0:0:0:
64,192,95432,1,0,0:0:0:0:
320,192,95546,128,0,95660:0:0:0:0:
448,192,95546,128,0,95660:0:0:0:0:
192,192,95660,1,0,0:0:0:0:
64,192,95773,1,0,0:0:0:0:
192,192,95887,128,0,96001:0:0:0:0:
320,192,96001,128,0,96114:0:0:0:0:
64,192,96001,128,0,96076:0:0:0:0:
448,192,96001,128,0,96228:0:0:0:0:
192,192,96228,1,0,0:0:0:0:
64,192,96266,1,0,0:0:0:0:
320,192,96304,1,0,0:0:0:0:
448,192,96342,1,0,0:0:0:0:
192,192,96379,1,0,0:0:0:0:
64,192,96417,1,0,0:0:0:0:
448,192,96455,128,0,96569:0:0:0:0:
320,192,96455,128,0,96569:0:0:0:0:
64,192,96569,1,0,0:0:0:0:
320,192,96682,1,0,0:0:0:0:
64,192,96796,128,0,96910:0:0:0:0:
192,192,96796,128,0,96910:0:0:0:0:
448,192,96910,128,0,97023:0:0:0:0:
320,192,96910,128,0,96985:0:0:0:0:
64,192,97023,1,0,0:0:0:0:
320,192,97137,128,0,97251:0:0:0:0:
192,192,97137,128,0,97251:0:0:0:0:
448,192,97251,1,0,0:0:0:0:
192,192,97364,128,0,97478:0:0:0:0:
64,192,97364,128,0,97478:0:0:0:0:
320,192,97478,1,0,0:0:0:0:
448,192,97592,1,0,0:0:0:0:
448,192,97705,1,0,0:0:0:0:
64,192,97819,1,0,0:0:0:0:
320,192,97819,128,0,97932:0:0:0:0:
192,192,97819,128,0,97895:0:0:0:0:
448,192,97932,128,0,98160:0:0:0:0:
192,192,98046,128,0,98160:0:0:0:0:
320,192,98160,128,0,98273:0:0:0:0:
64,192,98273,128,0,98387:0:0:0:0:
192,192,98273,128,0,98387:0:0:0:0:
448,192,98387,1,0,0:0:0:0:
64,192,98501,1,0,0:0:0:0:
448,192,98614,128,0,98728:0:0:0:0:
320,192,98614,128,0,98728:0:0:0:0:
64,192,98728,128,0,98842:0:0:0:0:
192,192,98728,128,0,98804:0:0:0:0:
448,192,98842,1,0,0:0:0:0:
192,192,98955,128,0,99069:0:0:0:0:
320,192,98955,128,0,99069:0:0:0:0:
64,192,99069,1,0,0:0:0:0:
320,192,99182,128,0,99296:0:0:0:0:
448,192,99182,128,0,99296:0:0:0:0:
192,192,99296,1,0,0:0:0:0:
64,192,99410,1,0,0:0:0:0:
448,192,99523,1,0,0:0:0:0:
320,192,99637,1,0,0:0:0:0:
192,192,99637,1,0,0:0:0:0:
64,192,99637,1,0,0:0:0:0:
320,192,99751,1,0,0:0:0:0:
448,192,99751,1,0,0:0:0:0:
64,192,99864,128,0,100092:0:0:0:0:
320,192,99978,1,0,0:0:0:0:
448,192,100092,128,0,100205:0:0:0:0:
192,192,100092,128,0,100205:0:0:0:0:
320,192,100205,1,0,0:0:0:0:
64,192,100319,1,0,0:0:0:0:
320,192,100432,128,0,100546:0:0:0:0:
192,192,100432,128,0,100546:0:0:0:0:
64,192,100546,128,0,100622:0:0:0:0:
448,192,100546,128,0,100660:0:0:0:0:
320,192,100660,1,0,0:0:0:0:
192,192,100773,128,0,100887:0:0:0:0:
64,192,100773,128,0,100887:0:0:0:0:
320,192,100887,1,0,0:0:0:0:
192,192,101001,128,0,101114:0:0:0:0:
448,192,101001,128,0,101114:0:0:0:0:
448,192,101228,1,0,0:0:0:0:
192,192,101228,1,0,0:0:0:0:
320,192,101342,1,0,0:0:0:0:
448,192,101455,128,0,101682:0:0:0:0:
64,192,101455,128,0,101910:0:0:0:0:
192,192,101455,128,0,101682:0:0:0:0:
320,192,101682,128,0,101796:0:0:0:0:
320,192,101910,128,0,102023:0:0:0:0:
448,192,101910,128,0,102023:0:0:0:0:
64,192,102023,1,0,0:0:0:0:
192,192,102137,1,0,0:0:0:0:
320,192,102251,128,0,102364:0:0:0:0:
448,192,102364,128,0,102478:0:0:0:0:
192,192,102364,128,0,102592:0:0:0:0:
64,192,102364,1,0,0:0:0:0:
320,192,102478,128,0,102592:0:0:0:0:
64,192,102592,128,0,102705:0:0:0:0:
448,192,102592,128,0,102819:0:0:0:0:
64,192,102819,128,0,103046:0:0:0:0:
320,192,102819,128,0,102932:0:0:0:0:
192,192,102932,128,0,103046:0:0:0:0:
448,192,103046,128,0,103160:0:0:0:0:
320,192,103160,128,0,103273:0:0:0:0:
64,192,103273,128,0,103501:0:0:0:0:
448,192,103273,128,0,103349:0:0:0:0:
192,192,103273,128,0,103387:0:0:0:0:
448,192,103501,1,0,0:0:0:0:
320,192,103538,1,0,0:0:0:0:
192,192,103576,1,0,0:0:0:0:
64,192,103614,1,0,0:0:0:0:
448,192,103652,1,0,0:0:0:0:
320,192,103690,1,0,0:0:0:0:
64,192,103728,128,0,103842:0:0:0:0:
192,192,103728,128,0,103955:0:0:0:0:
320,192,103842,128,0,103955:0:0:0:0:
448,192,103955,128,0,104069:0:0:0:0:
320,192,104069,128,0,104182:0:0:0:0:
64,192,104182,128,0,104296:0:0:0:0:
192,192,104182,128,0,104410:0:0:0:0:
448,192,104182,1,0,0:0:0:0:
448,192,104296,128,0,104410:0:0:0:0:
320,192,104410,128,0,104523:0:0:0:0:
64,192,104410,128,0,104637:0:0:0:0:
192,192,104523,128,0,104637:0:0:0:0:
320,192,104637,128,0,104751:0:0:0:0:
448,192,104637,128,0,104864:0:0:0:0:
192,192,104751,128,0,104864:0:0:0:0:
64,192,104864,1,0,0:0:0:0:
64,192,104978,1,0,0:0:0:0:
448,192,105092,1,0,0:0:0:0:
192,192,105092,128,0,105205:0:0:0:0:
320,192,105092,128,0,105167:0:0:0:0:
64,192,105205,128,0,105432:0:0:0:0:
320,192,105319,128,0,105432:0:0:0:0:
192,192,105432,128,0,105546:0:0:0:0:
448,192,105546,128,0,105773:0:0:0:0:
320,192,105546,128,0,105660:0:0:0:0:
192,192,105660,128,0,105773:0:0:0:0:
64,192,105773,128,0,105887:0:0:0:0:
192,192,105887,128,0,106001:0:0:0:0:
448,192,106001,128,0,106114:0:0:0:0:
320,192,106001,128,0,106228:0:0:0:0:
64,192,106001,1,0,0:0:0:0:
192,192,106114,128,0,106228:0:0:0:0:
64,192,106228,128,0,106342:0:0:0:0:
448,192,106228,128,0,106455:0:0:0:0:
320,192,106342,128,0,106455:0:0:0:0:
192,192,106455,128,0,106569:0:0:0:0:
64,192,106455,128,0,106682:0:0:0:0:
320,192,106569,128,0,106682:0:0:0:0:
448,192,106682,128,0,106796:0:0:0:0:
320,192,106796,128,0,106910:0:0:0:0:
192,192,106910,1,0,0:0:0:0:
448,192,106910,1,0,0:0:0:0:
64,192,106910,1,0,0:0:0:0:
320,192,107023,1,0,0:0:0:0:
64,192,107023,1,0,0:0:0:0:
192,192,107137,128,0,107364:0:0:0:0:
64,192,107364,128,0,107592:0:0:0:0:
320,192,107364,128,0,107478:0:0:0:0:
448,192,107478,128,0,107592:0:0:0:0:
320,192,107592,128,0,107705:0:0:0:0:
192,192,107705,128,0,107819:0:0:0:0:
320,192,107819,128,0,108046:0:0:0:0:
64,192,107819,128,0,107932:0:0:0:0:
448,192,107819,1,0,0:0:0:0:
192,192,107932,128,0,108046:0:0:0:0:
64,192,108046,128,0,108273:0:0:0:0:
448,192,108046,128,0,108160:0:0:0:0:
320,192,108160,128,0,108273:0:0:0:0:
448,192,108273,128,0,108501:0:0:0:0:
192,192,108273,128,0,108387:0:0:0:0:
64,192,108387,1,0,0:0:0:0:
320,192,108501,1,0,0:0:0:0:
320,192,108614,1,0,0:0:0:0:
448,192,108728,1,0,0:0:0:0:
64,192,108728,128,0,108842:0:0:0:0:
192,192,108728,128,0,108804:0:0:0:0:
320,192,108842,128,0,108955:0:0:0:0:
192,192,108955,1,0,0:0:0:0:
64,192,108993,1,0,0:0:0:0:
320,192,109031,1,0,0:0:0:0:
448,192,109069,1,0,0:0:0:0:
192,192,109107,1,0,0:0:0:0:
64,192,109145,1,0,0:0:0:0:
448,192,109182,128,0,109410:0:0:0:0:
320,192,109182,128,0,109296:0:0:0:0:
192,192,109296,128,0,109410:0:0:0:0:
64,192,109410,128,0,109523:0:0:0:0:
192,192,109523,128,0,109637:0:0:0:0:
320,192,109637,128,0,109751:0:0:0:0:
448,192,109637,128,0,109864:0:0:0:0:
64,192,109637,1,0,0:0:0:0:
192,192,109751,128,0,109864:0:0:0:0:
320,192,109864,128,0,110092:0:0:0:0:
64,192,109864,128,0,109978:0:0:0:0:
192,192,109978,128,0,110092:0:0:0:0:
448,192,110092,128,0,110205:0:0:0:0:
64,192,110092,128,0,110319:0:0:0:0:
320,192,110205,128,0,110319:0:0:0:0:
448,192,110319,128,0,110432:0:0:0:0:
192,192,110432,128,0,110546:0:0:0:0:
320,192,110546,128,0,110660:0:0:0:0:
448,192,110546,128,0,110622:0:0:0:0:
64,192,110546,128,0,110773:0:0:0:0:
448,192,110773,1,0,0:0:0:0:
320,192,110811,1,0,0:0:0:0:
64,192,110849,1,0,0:0:0:0:
192,192,110887,1,0,0:0:0:0:
448,192,110925,1,0,0:0:0:0:
320,192,110963,1,0,0:0:0:0:
64,192,111001,128,0,111228:0:0:0:0:
192,192,111001,128,0,111114:0:0:0:0:
448,192,111114,128,0,111228:0:0:0:0:
320,192,111228,128,0,111342:0:0:0:0:
192,192,111342,128,0,111455:0:0:0:0:
64,192,111455,128,0,111682:0:0:0:0:
320,192,111455,128,0,111569:0:0:0:0:
448,192,111455,1,0,0:0:0:0:
192,192,111569,128,0,111682:0:0:0:0:
320,192,111682,128,0,111796:0:0:0:0:
448,192,111682,128,0,111910:0:0:0:0:
64,192,111796,128,0,111910:0:0:0:0:
320,192,111910,128,0,112137:0:0:0:0:
192,192,111910,128,0,112023:0:0:0:0:
448,192,112023,128,0,112137:0:0:0:0:
64,192,112137,1,0,0:0:0:0:
64,192,112251,1,0,0:0:0:0:
448,192,112364,1,0,0:0:0:0:
192,192,112364,128,0,112478:0:0:0:0:
320,192,112364,128,0,112440:0:0:0:0:
64,192,112478,128,0,112705:0:0:0:0:
320,192,112592,128,0,112705:0:0:0:0:
192,192,112705,128,0,112819:0:0:0:0:
448,192,112819,128,0,113046:0:0:0:0:
320,192,112819,128,0,112932:0:0:0:0:
64,192,112932,128,0,113046:0:0:0:0:
192,192,113046,128,0,113160:0:0:0:0:
64,192,113160,128,0,113273:0:0:0:0:
448,192,113273,128,0,113501:0:0:0:0:
320,192,113273,128,0,113387:0:0:0:0:
192,192,113273,1,0,0:0:0:0:
64,192,113387,128,0,113501:0:0:0:0:
320,192,113501,128,0,113728:0:0:0:0:
192,192,113501,128,0,113614:0:0:0:0:
448,192,113614,128,0,113728:0:0:0:0:
192,192,113728,128,0,113955:0:0:0:0:
64,192,113728,128,0,113842:0:0:0:0:
320,192,113842,128,0,113955:0:0:0:0:
448,192,113955,128,0,114069:0:0:0:0:
64,192,114069,128,0,114182:0:0:0:0:
192,192,114182,1,0,0:0:0:0:
320,192,114182,1,0,0:0:0:0:
448,192,114182,1,0,0:0:0:0:
192,192,114296,1,0,0:0:0:0:
64,192,114296,1,0,0:0:0:0:
448,192,114410,128,0,114637:0:0:0:0:
192,192,114523,128,0,114637:0:0:0:0:
320,192,114637,128,0,114751:0:0:0:0:
64,192,114637,128,0,114751:0:0:0:0:
448,192,114751,128,0,114864:0:0:0:0:
64,192,114864,128,0,114978:0:0:0:0:
320,192,114864,128,0,114978:0:0:0:0:
448,192,114978,128,0,115092:0:0:0:0:
320,192,115092,128,0,115205:0:0:0:0:
64,192,115092,128,0,115205:0:0:0:0:
192,192,115205,128,0,115319:0:0:0:0:
448,192,115319,1,0,0:0:0:0:
320,192,115376,1,0,0:0:0:0:
64,192,115432,1,0,0:0:0:0:
192,192,115489,1,0,0:0:0:0:
320,192,115546,128,0,115660:0:0:0:0:
448,192,115546,128,0,115660:0:0:0:0:
64,192,115660,128,0,115773:0:0:0:0:
320,192,115773,128,0,115887:0:0:0:0:
448,192,115773,128,0,115887:0:0:0:0:
64,192,115887,1,0,0:0:0:0:
192,192,115925,1,0,0:0:0:0:
320,192,115963,1,0,0:0:0:0:
448,192,116001,128,0,116114:0:0:0:0:
64,192,116114,1,0,0:0:0:0:
192,192,116152,1,0,0:0:0:0:
320,192,116190,1,0,0:0:0:0:
64,192,116228,128,0,116342:0:0:0:0:
448,192,116228,1,0,0:0:0:0:
192,192,116342,1,0,0:0:0:0:
320,192,116455,1,0,0:0:0:0:
64,192,116455,1,0,0:0:0:0:
448,192,116569,1,0,0:0:0:0:
192,192,116682,1,0,0:0:0:0:
320,192,116796,1,0,0:0:0:0:
448,192,116910,1,0,0:0:0:0:
192,192,116910,128,0,117023:0:0:0:0:
64,192,116910,128,0,116985:0:0:0:0:
320,192,117023,128,0,117137:0:0:0:0:
64,192,117137,128,0,117251:0:0:0:0:
192,192,117251,128,0,117364:0:0:0:0:
448,192,117364,1,0,0:0:0:0:
320,192,117364,1,0,0:0:0:0:
192,192,117478,1,0,0:0:0:0:
448,192,117592,128,0,117705:0:0:0:0:
192,192,117705,128,0,117819:0:0:0:0:
320,192,117819,128,0,117932:0:0:0:0:
64,192,117819,1,0,0:0:0:0:
448,192,117819,128,0,117895:0:0:0:0:
192,192,117932,1,0,0:0:0:0:
64,192,118046,128,0,118160:0:0:0:0:
320,192,118160,1,0,0:0:0:0:
192,192,118273,1,0,0:0:0:0:
64,192,118273,1,0,0:0:0:0:
448,192,118387,1,0,0:0:0:0:
192,192,118501,1,0,0:0:0:0:
320,192,118614,1,0,0:0:0:0:
448,192,118728,1,0,0:0:0:0:
192,192,118728,128,0,118842:0:0:0:0:
64,192,118728,128,0,118804:0:0:0:0:
320,192,118842,128,0,118955:0:0:0:0:
64,192,118955,1,0,0:0:0:0:
192,192,119069,128,0,119182:0:0:0:0:
448,192,119182,1,0,0:0:0:0:
320,192,119182,1,0,0:0:0:0:
192,192,119296,1,0,0:0:0:0:
448,192,119410,128,0,119523:0:0:0:0:
192,192,119523,128,0,119637:0:0:0:0:
320,192,119637,128,0,119751:0:0:0:0:
64,192,119637,1,0,0:0:0:0:
448,192,119637,128,0,119713:0:0:0:0:
192,192,119751,1,0,0:0:0:0:
64,192,119864,128,0,119978:0:0:0:0:
320,192,119978,128,0,120092:0:0:0:0:
448,192,120092,1,0,0:0:0:0:
192,192,120092,1,0,0:0:0:0:
64,192,120205,1,0,0:0:0:0:
320,192,120319,1,0,0:0:0:0:
192,192,120432,1,0,0:0:0:0:
64,192,120546,128,0,120660:0:0:0:0:
448,192,120546,1,0,0:0:0:0:
320,192,120546,128,0,120622:0:0:0:0:
192,192,120660,128,0,120773:0:0:0:0:
448,192,120773,128,0,120887:0:0:0:0:
320,192,120887,128,0,121001:0:0:0:0:
192,192,121001,1,0,0:0:0:0:
64,192,121001,1,0,0:0:0:0:
448,192,121114,1,0,0:0:0:0:
64,192,121228,128,0,121342:0:0:0:0:
192,192,121342,128,0,121455:0:0:0:0:
320,192,121455,128,0,121569:0:0:0:0:
64,192,121455,1,0,0:0:0:0:
448,192,121455,128,0,121531:0:0:0:0:
192,192,121569,1,0,0:0:0:0:
64,192,121682,128,0,121796:0:0:0:0:
320,192,121796,1,0,0:0:0:0:
448,192,121910,1,0,0:0:0:0:
192,192,121910,1,0,0:0:0:0:
64,192,122023,1,0,0:0:0:0:
320,192,122137,1,0,0:0:0:0:
192,192,122251,1,0,0:0:0:0:
64,192,122364,128,0,122478:0:0:0:0:
320,192,122364,1,0,0:0:0:0:
448,192,122364,128,0,122440:0:0:0:0:
192,192,122478,128,0,122592:0:0:0:0:
448,192,122592,1,0,0:0:0:0:
320,192,122705,128,0,122819:0:0:0:0:
192,192,122819,1,0,0:0:0:0:
64,192,122819,1,0,0:0:0:0:
320,192,122932,1,0,0:0:0:0:
64,192,123046,128,0,123160:0:0:0:0:
448,192,123046,1,0,0:0:0:0:
192,192,123046,128,0,123122:0:0:0:0:
320,192,123160,128,0,123273:0:0:0:0:
192,192,123273,128,0,123614:0:0:0:0:
448,192,123273,1,0,0:0:0:0:
64,192,123273,128,0,123614:0:0:0:0:
448,192,123501,128,0,123614:0:0:0:0:
320,192,123614,128,0,123728:0:0:0:0:
192,192,123728,1,0,0:0:0:0:
64,192,123728,1,0,0:0:0:0:
448,192,123728,1,0,0:0:0:0:
320,192,123842,1,0,0:0:0:0:
192,192,123955,1,0,0:0:0:0:
320,192,124069,1,0,0:0:0:0:
64,192,124182,1,0,0:0:0:0:
448,192,124182,128,0,124296:0:0:0:0:
320,192,124296,128,0,124410:0:0:0:0:
192,192,124410,128,0,124523:0:0:0:0:
64,192,124523,128,0,124637:0:0:0:0:
448,192,124637,1,0,0:0:0:0:
320,192,124637,1,0,0:0:0:0:
192,192,124751,1,0,0:0:0:0:
64,192,124864,128,0,124978:0:0:0:0:
192,192,124978,128,0,125092:0:0:0:0:
320,192,125092,128,0,125205:0:0:0:0:
448,192,125092,1,0,0:0:0:0:
192,192,125205,1,0,0:0:0:0:
448,192,125319,128,0,125432:0:0:0:0:
320,192,125432,1,0,0:0:0:0:
192,192,125546,1,0,0:0:0:0:
64,192,125546,1,0,0:0:0:0:
448,192,125660,1,0,0:0:0:0:
192,192,125773,1,0,0:0:0:0:
320,192,125887,1,0,0:0:0:0:
64,192,126001,1,0,0:0:0:0:
448,192,126001,128,0,126114:0:0:0:0:
320,192,126114,128,0,126228:0:0:0:0:
192,192,126228,1,0,0:0:0:0:
64,192,126342,128,0,126455:0:0:0:0:
448,192,126455,1,0,0:0:0:0:
320,192,126455,1,0,0:0:0:0:
192,192,126569,1,0,0:0:0:0:
64,192,126682,128,0,126796:0:0:0:0:
192,192,126796,128,0,126910:0:0:0:0:
320,192,126910,128,0,127023:0:0:0:0:
448,192,126910,1,0,0:0:0:0:
192,192,127023,1,0,0:0:0:0:
448,192,127137,128,0,127251:0:0:0:0:
320,192,127251,128,0,127364:0:0:0:0:
64,192,127364,1,0,0:0:0:0:
448,192,127364,1,0,0:0:0:0:
192,192,127478,1,0,0:0:0:0:
320,192,127592,1,0,0:0:0:0:
64,192,127705,1,0,0:0:0:0:
192,192,127819,128,0,127932:0:0:0:0:
448,192,127819,1,0,0:0:0:0:
320,192,127932,128,0,128046:0:0:0:0:
448,192,128046,128,0,128160:0:0:0:0:
64,192,128160,128,0,128273:0:0:0:0:
320,192,128273,1,0,0:0:0:0:
192,192,128273,1,0,0:0:0:0:
448,192,128387,1,0,0:0:0:0:
64,192,128501,128,0,128614:0:0:0:0:
192,192,128614,128,0,128728:0:0:0:0:
320,192,128728,128,0,128842:0:0:0:0:
448,192,128728,1,0,0:0:0:0:
192,192,128842,1,0,0:0:0:0:
64,192,128955,128,0,129069:0:0:0:0:
320,192,129069,1,0,0:0:0:0:
448,192,129182,1,0,0:0:0:0:
64,192,129182,1,0,0:0:0:0:
192,192,129296,1,0,0:0:0:0:
320,192,129410,1,0,0:0:0:0:
64,192,129523,1,0,0:0:0:0:
192,192,129637,128,0,129751:0:0:0:0:
320,192,129751,128,0,129864:0:0:0:0:
448,192,129864,1,0,0:0:0:0:
192,192,129978,128,0,130092:0:0:0:0:
64,192,130092,128,0,130205:0:0:0:0:
448,192,130205,1,0,0:0:0:0:
320,192,130319,128,0,130432:0:0:0:0:
192,192,130432,128,0,130546:0:0:0:0:
448,192,130546,128,0,130660:0:0:0:0:
320,192,130660,1,0,0:0:0:0:
64,192,130773,128,0,131001:0:0:0:0:
320,192,130887,128,0,131001:0:0:0:0:
192,192,131001,128,0,131228:0:0:0:0:
320,192,131228,128,0,131455:0:0:0:0:
192,192,131455,128,0,132364:0:0:0:0:
320,192,131910,128,0,132364:0:0:0:0:
64,192,132364,128,0,132592:0:0:0:0:
192,192,132592,128,0,132819:0:0:0:0:
448,192,132819,128,0,133501:0:0:0:0:
192,192,133046,128,0,133955:0:0:0:0:
320,192,133273,128,0,133728:0:0:0:0:
64,192,133501,128,0,134182:0:0:0:0:
448,192,133728,128,0,134182:0:0:0:0:
320,192,133955,128,0,134182:0:0:0:0:
192,192,134182,128,0,134637:0:0:0:0:
64,192,134410,128,0,134637:0:0:0:0:
448,192,134637,128,0,135092:0:0:0:0:
192,192,134751,128,0,134864:0:0:0:0:
192,192,134978,128,0,135092:0:0:0:0:
64,192,135319,128,0,135546:0:0:0:0:
192,192,135546,128,0,135773:0:0:0:0:
320,192,135773,128,0,136001:0:0:0:0:
320,192,136114,128,0,136228:0:0:0:0:
192,192,136228,128,0,136455:0:0:0:0:
448,192,136455,128,0,137364:0:0:0:0:
64,192,136569,1,0,0:0:0:0:
320,192,136682,1,0,0:0:0:0:
192,192,136796,1,0,0:0:0:0:
320,192,136910,128,0,137819:0:0:0:0:
64,192,137023,1,0,0:0:0:0:
192,192,137137,1,0,0:0:0:0:
64,192,137251,1,0,0:0:0:0:
192,192,137364,128,0,138046:0:0:0:0:
448,192,137478,1,0,0:0:0:0:
64,192,137592,1,0,0:0:0:0:
448,192,137705,1,0,0:0:0:0:
64,192,137819,1,0,0:0:0:0:
320,192,137932,1,0,0:0:0:0:
64,192,138046,128,0,138273:0:0:0:0:
448,192,138046,1,0,0:0:0:0:
192,192,138273,128,0,138501:0:0:0:0:
448,192,138501,128,0,139182:0:0:0:0:
320,192,138728,128,0,139637:0:0:0:0:
64,192,139182,128,0,139864:0:0:0:0:
192,192,139637,128,0,140092:0:0:0:0:
448,192,139864,128,0,140319:0:0:0:0:
320,192,140092,128,0,140546:0:0:0:0:
64,192,140319,128,0,140773:0:0:0:0:
192,192,140546,128,0,141001:0:0:0:0:
320,192,140773,128,0,141228:0:0:0:0:
448,192,141001,128,0,141455:0:0:0:0:
192,192,141228,128,0,141682:0:0:0:0:
320,192,141455,128,0,141910:0:0:0:0:
64,192,141682,128,0,141910:0:0:0:0:
448,192,141910,128,0,142364:0:0:0:0:
192,192,142023,128,0,142137:0:0:0:0:
192,192,142251,128,0,142364:0:0:0:0:
320,192,142251,1,0,0:0:0:0:
64,192,142592,128,0,142819:0:0:0:0:
448,192,142592,1,0,0:0:0:0:
192,192,142819,128,0,143046:0:0:0:0:
448,192,142932,1,0,0:0:0:0:
320,192,143046,128,0,143273:0:0:0:0:
64,192,143273,1,0,0:0:0:0:
320,192,143387,128,0,143501:0:0:0:0:
192,192,143501,128,0,143728:0:0:0:0:
320,192,143614,1,0,0:0:0:0:
64,192,143728,128,0,144182:0:0:0:0:
448,192,143728,128,0,143955:0:0:0:0:
448,192,144069,1,0,0:0:0:0:
320,192,144182,128,0,144637:0:0:0:0:
448,192,144410,1,0,0:0:0:0:
64,192,144637,128,0,145092:0:0:0:0:
448,192,144751,1,0,0:0:0:0:
448,192,145092,1,0,0:0:0:0:
448,192,145319,1,0,0:0:0:0:
64,192,145546,1,0,0:0:0:0:
448,192,145546,128,0,145887:0:0:0:0:
192,192,145773,1,0,0:0:0:0:
320,192,145887,128,0,146228:0:0:0:0:
64,192,146001,1,0,0:0:0:0:
192,192,146228,128,0,146455:0:0:0:0:
64,192,146455,128,0,146910:0:0:0:0:
320,192,146569,1,0,0:0:0:0:
192,192,146796,1,0,0:0:0:0:
448,192,146910,128,0,147137:0:0:0:0:
64,192,147137,128,0,147364:0:0:0:0:
320,192,147251,1,0,0:0:0:0:
192,192,147364,128,0,147705:0:0:0:0:
448,192,147478,1,0,0:0:0:0:
320,192,147592,1,0,0:0:0:0:
64,192,147705,128,0,148501:0:0:0:0:
448,192,147819,1,0,0:0:0:0:
320,192,147932,1,0,0:0:0:0:
192,192,148046,1,0,0:0:0:0:
448,192,148273,1,0,0:0:0:0:
192,192,148387,1,0,0:0:0:0:
320,192,148501,128,0,148614:0:0:0:0:
192,192,148614,128,0,148728:0:0:0:0:
64,192,148728,128,0,148842:0:0:0:0:
320,192,148842,128,0,148955:0:0:0:0:
192,192,148955,128,0,149069:0:0:0:0:
448,192,149069,128,0,149182:0:0:0:0:
64,192,149182,128,0,149523:0:0:0:0:
320,192,149296,1,0,0:0:0:0:
448,192,149410,1,0,0:0:0:0:
192,192,149523,128,0,149864:0:0:0:0:
320,192,149637,1,0,0:0:0:0:
448,192,149751,1,0,0:0:0:0:
320,192,149864,128,0,150092:0:0:0:0:
448,192,150092,128,0,150432:0:0:0:0:
192,192,150205,1,0,0:0:0:0:
64,192,150432,128,0,150773:0:0:0:0:
320,192,150546,1,0,0:0:0:0:
192,192,150773,128,0,151001:0:0:0:0:
320,192,150887,1,0,0:0:0:0:
448,192,151001,128,0,151228:0:0:0:0:
320,192,151114,1,0,0:0:0:0:
64,192,151228,128,0,152023:0:0:0:0:
192,192,151342,128,0,152023:0:0:0:0:
320,192,151455,1,0,0:0:0:0:
448,192,151569,1,0,0:0:0:0:
320,192,151682,1,0,0:0:0:0:
320,192,151910,1,0,0:0:0:0:
448,192,152023,128,0,152251:0:0:0:0:
64,192,152137,128,0,152251:0:0:0:0:
192,192,152251,128,0,152478:0:0:0:0:
320,192,152364,128,0,152478:0:0:0:0:
448,192,152478,128,0,152705:0:0:0:0:
192,192,152592,128,0,152705:0:0:0:0:
320,192,152705,128,0,152819:0:0:0:0:
64,192,152819,128,0,153160:0:0:0:0:
448,192,152932,1,0,0:0:0:0:
192,192,153046,1,0,0:0:0:0:
320,192,153160,128,0,153501:0:0:0:0:
448,192,153273,1,0,0:0:0:0:
64,192,153387,1,0,0:0:0:0:
192,192,153501,128,0,153728:0:0:0:0:
64,192,153728,128,0,154182:0:0:0:0:
448,192,153842,1,0,0:0:0:0:
192,192,153955,1,0,0:0:0:0:
448,192,154069,1,0,0:0:0:0:
320,192,154182,128,0,154410:0:0:0:0:
192,192,154410,128,0,154637:0:0:0:0:
448,192,154523,1,0,0:0:0:0:
64,192,154637,128,0,154978:0:0:0:0:
320,192,154751,1,0,0:0:0:0:
192,192,154864,1,0,0:0:0:0:
448,192,154978,128,0,155773:0:0:0:0:
320,192,155092,1,0,0:0:0:0:
64,192,155205,1,0,0:0:0:0:
192,192,155319,1,0,0:0:0:0:
192,192,155546,1,0,0:0:0:0:
320,192,155660,1,0,0:0:0:0:
192,192,155773,128,0,156001:0:0:0:0:
320,192,155887,128,0,156114:0:0:0:0:
64,192,156001,128,0,156114:0:0:0:0:
448,192,156114,128,0,156342:0:0:0:0:
192,192,156228,128,0,156455:0:0:0:0:
320,192,156342,128,0,156455:0:0:0:0:
64,192,156455,128,0,156796:0:0:0:0:
320,192,156569,1,0,0:0:0:0:
448,192,156682,1,0,0:0:0:0:
192,192,156796,128,0,157137:0:0:0:0:
320,192,157023,1,0,0:0:0:0:
64,192,157137,128,0,157364:0:0:0:0:
320,192,157364,128,0,157705:0:0:0:0:
192,192,157478,1,0,0:0:0:0:
64,192,157705,128,0,158046:0:0:0:0:
320,192,157819,1,0,0:0:0:0:
192,192,158046,128,0,158273:0:0:0:0:
320,192,158160,1,0,0:0:0:0:
448,192,158273,128,0,158501:0:0:0:0:
64,192,158501,128,0,159296:0:0:0:0:
192,192,158614,128,0,159296:0:0:0:0:
320,192,158955,1,0,0:0:0:0:
448,192,159296,128,0,159523:0:0:0:0:
320,192,159410,128,0,159637:0:0:0:0:
192,192,159523,128,0,159751:0:0:0:0:
64,192,159637,128,0,159864:0:0:0:0:
448,192,159751,128,0,159978:0:0:0:0:
320,192,159864,128,0,159978:0:0:0:0:
192,192,159978,128,0,160092:0:0:0:0:
448,192,160092,128,0,160773:0:0:0:0:
64,192,160092,1,0,0:0:0:0:
320,192,160092,128,0,160432:0:0:0:0:
64,192,160432,128,0,161001:0:0:0:0:
192,192,160773,128,0,161455:0:0:0:0:
320,192,161001,128,0,161455:0:0:0:0:
448,192,161455,128,0,161910:0:0:0:0:
320,192,161682,128,0,162251:0:0:0:0:
64,192,161910,128,0,163046:0:0:0:0:
448,192,162251,128,0,163046:0:0:0:0:
320,192,163046,128,0,163387:0:0:0:0:
64,192,163160,128,0,163501:0:0:0:0:
192,192,163273,128,0,163614:0:0:0:0:
448,192,163387,128,0,163728:0:0:0:0:
320,192,163501,128,0,163728:0:0:0:0:
64,192,163614,128,0,163728:0:0:0:0:
192,192,163728,128,0,164410:0:0:0:0:
448,192,164069,128,0,164637:0:0:0:0:
320,192,164410,128,0,164978:0:0:0:0:
64,192,164637,128,0,165319:0:0:0:0:
192,192,164978,128,0,165546:0:0:0:0:
448,192,165319,128,0,165546:0:0:0:0:
64,192,165546,128,0,165773:0:0:0:0:
448,192,165773,128,0,166569:0:0:0:0:
320,192,165887,128,0,166569:0:0:0:0:
64,192,166569,128,0,166910:0:0:0:0:
192,192,166682,128,0,167023:0:0:0:0:
320,192,166796,128,0,167137:0:0:0:0:
448,192,166910,128,0,167364:0:0:0:0:
64,192,167023,128,0,167251:0:0:0:0:
192,192,167137,128,0,167364:0:0:0:0:
320,192,167251,128,0,167364:0:0:0:0:
64,192,167364,128,0,168046:0:0:0:0:
448,192,167705,128,0,168273:0:0:0:0:
192,192,167819,1,0,0:0:0:0:
320,192,168046,128,0,168728:0:0:0:0:
64,192,168273,128,0,168955:0:0:0:0:
192,192,168728,128,0,169182:0:0:0:0:
320,192,168955,128,0,169182:0:0:0:0:
64,192,169182,128,0,170319:0:0:0:0:
448,192,169523,128,0,170319:0:0:0:0:
192,192,169637,1,0,0:0:0:0:
320,192,169864,1,0,0:0:0:0:
192,192,170092,1,0,0:0:0:0:
320,192,170319,128,0,170660:0:0:0:0:
64,192,170432,128,0,170773:0:0:0:0:
192,192,170546,128,0,170887:0:0:0:0:
448,192,170660,128,0,171001:0:0:0:0:
320,192,170773,128,0,171001:0:0:0:0:
64,192,170887,128,0,171001:0:0:0:0:
192,192,171001,128,0,171682:0:0:0:0:
448,192,171342,128,0,171910:0:0:0:0:
64,192,171455,1,0,0:0:0:0:
320,192,171682,128,0,172251:0:0:0:0:
64,192,171910,128,0,172592:0:0:0:0:
192,192,172251,128,0,172819:0:0:0:0:
448,192,172364,1,0,0:0:0:0:
320,192,172592,128,0,172819:0:0:0:0:
448,192,172819,128,0,173160:0:0:0:0:
192,192,173046,128,0,173842:0:0:0:0:
320,192,173160,128,0,173842:0:0:0:0:
64,192,173273,1,0,0:0:0:0:
448,192,173501,1,0,0:0:0:0:
64,192,173728,1,0,0:0:0:0:
448,192,173842,128,0,174182:0:0:0:0:
320,192,173955,128,0,174296:0:0:0:0:
192,192,174069,128,0,174410:0:0:0:0:
64,192,174182,128,0,174523:0:0:0:0:
448,192,174296,128,0,174523:0:0:0:0:
320,192,174410,128,0,174523:0:0:0:0:
192,192,174523,128,0,174637:0:0:0:0:
64,192,174637,1,0,0:0:0:0:
448,192,174637,128,0,174864:0:0:0:0:
320,192,174637,128,0,174751:0:0:0:0:
192,192,174751,128,0,174864:0:0:0:0:
64,192,174864,128,0,175092:0:0:0:0:
320,192,174978,128,0,175205:0:0:0:0:
448,192,175092,128,0,175319:0:0:0:0:
192,192,175092,128,0,175319:0:0:0:0:
64,192,175205,128,0,175432:0:0:0:0:
320,192,175319,128,0,175546:0:0:0:0:
448,192,175432,128,0,175546:0:0:0:0:
64,192,175546,128,0,175773:0:0:0:0:
192,192,175546,128,0,175660:0:0:0:0:
320,192,175660,128,0,175773:0:0:0:0:
448,192,175773,128,0,176001:0:0:0:0:
320,192,175887,128,0,176114:0:0:0:0:
64,192,176001,128,0,176228:0:0:0:0:
192,192,176001,128,0,176228:0:0:0:0:
448,192,176114,128,0,176342:0:0:0:0:
320,192,176228,128,0,176455:0:0:0:0:
192,192,176342,128,0,176455:0:0:0:0:
64,192,176455,128,0,176682:0:0:0:0:
448,192,176455,128,0,176569:0:0:0:0:
320,192,176569,128,0,176682:0:0:0:0:
192,192,176682,128,0,176910:0:0:0:0:
320,192,176796,128,0,177023:0:0:0:0:
448,192,176910,128,0,177137:0:0:0:0:
64,192,176910,128,0,177137:0:0:0:0:
192,192,177023,128,0,177251:0:0:0:0:
320,192,177137,128,0,177364:0:0:0:0:
448,192,177251,128,0,177364:0:0:0:0:
64,192,177364,128,0,177592:0:0:0:0:
192,192,177364,128,0,177478:0:0:0:0:
320,192,177478,128,0,177592:0:0:0:0:
448,192,177592,128,0,177819:0:0:0:0:
320,192,177705,128,0,177932:0:0:0:0:
64,192,177819,128,0,178046:0:0:0:0:
192,192,177819,128,0,178046:0:0:0:0:
448,192,177932,128,0,178160:0:0:0:0:
320,192,178046,128,0,178273:0:0:0:0:
192,192,178160,128,0,178273:0:0:0:0:
448,192,178273,128,0,178501:0:0:0:0:
64,192,178273,128,0,178387:0:0:0:0:
192,192,178387,128,0,178501:0:0:0:0:
64,192,178501,128,0,178728:0:0:0:0:
192,192,178614,128,0,178842:0:0:0:0:
320,192,178728,128,0,178955:0:0:0:0:
448,192,178728,128,0,178955:0:0:0:0:
64,192,178842,128,0,179069:0:0:0:0:
192,192,178955,128,0,179182:0:0:0:0:
320,192,179069,128,0,179182:0:0:0:0:
64,192,179182,128,0,179410:0:0:0:0:
448,192,179182,128,0,179296:0:0:0:0:
192,192,179296,128,0,179410:0:0:0:0:
448,192,179410,128,0,179637:0:0:0:0:
320,192,179523,128,0,179751:0:0:0:0:
64,192,179637,128,0,179864:0:0:0:0:
192,192,179637,128,0,179864:0:0:0:0:
448,192,179751,128,0,179978:0:0:0:0:
320,192,179864,128,0,180092:0:0:0:0:
192,192,179978,128,0,180092:0:0:0:0:
448,192,180092,128,0,180319:0:0:0:0:
64,192,180092,128,0,180205:0:0:0:0:
320,192,180205,128,0,180319:0:0:0:0:
64,192,180319,128,0,180546:0:0:0:0:
448,192,180432,128,0,180660:0:0:0:0:
320,192,180546,128,0,180773:0:0:0:0:
192,192,180546,128,0,180773:0:0:0:0:
64,192,180660,128,0,180887:0:0:0:0:
448,192,180773,128,0,181001:0:0:0:0:
320,192,180887,128,0,181001:0:0:0:0:
192,192,181001,128,0,181228:0:0:0:0:
64,192,181001,128,0,181114:0:0:0:0:
448,192,181114,128,0,181228:0:0:0:0:
64,192,181228,128,0,181455:0:0:0:0:
192,192,181342,128,0,181569:0:0:0:0:
448,192,181455,128,0,181682:0:0:0:0:
320,192,181455,128,0,181682:0:0:0:0:
64,192,181569,128,0,181796:0:0:0:0:
192,192,181682,1,0,0:0:0:0:
320,192,181739,1,0,0:0:0:0:
448,192,181796,1,0,0:0:0:0:
192,192,181853,1,0,0:0:0:0:
448,192,181910,1,0,0:0:0:0:
320,192,181910,1,0,0:0:0:0:
192,192,182023,128,0,182137:0:0:0:0:
320,192,182137,128,0,182251:0:0:0:0:
64,192,182137,1,0,0:0:0:0:
448,192,182251,128,0,182364:0:0:0:0:
192,192,182364,128,0,182478:0:0:0:0:
64,192,182364,1,0,0:0:0:0:
320,192,182478,128,0,182592:0:0:0:0:
448,192,182592,128,0,182705:0:0:0:0:
192,192,182592,1,0,0:0:0:0:
64,192,182705,128,0,182819:0:0:0:0:
320,192,182819,128,0,182932:0:0:0:0:
192,192,182819,1,0,0:0:0:0:
64,192,182932,128,0,183046:0:0:0:0:
448,192,183046,128,0,183160:0:0:0:0:
320,192,183046,1,0,0:0:0:0:
192,192,183160,128,0,183273:0:0:0:0:
64,192,183273,128,0,183387:0:0:0:0:
320,192,183273,1,0,0:0:0:0:
448,192,183387,128,0,183501:0:0:0:0:
320,192,183501,128,0,183614:0:0:0:0:
64,192,183501,1,0,0:0:0:0:
192,192,183614,128,0,183728:0:0:0:0:
448,192,183728,128,0,184637:0:0:0:0:
64,192,183728,1,0,0:0:0:0:
64,192,183842,1,0,0:0:0:0:
320,192,183955,1,0,0:0:0:0:
192,192,183955,1,0,0:0:0:0:
320,192,184069,1,0,0:0:0:0:
192,192,184182,1,0,0:0:0:0:
64,192,184182,1,0,0:0:0:0:
64,192,184296,1,0,0:0:0:0:
192,192,184410,1,0,0:0:0:0:
320,192,184410,1,0,0:0:0:0:
320,192,184523,1,0,0:0:0:0:
192,192,184637,1,0,0:0:0:0:
64,192,184637,1,0,0:0:0:0:
320,192,184694,1,0,0:0:0:0:
448,192,184751,1,0,0:0:0:0:
192,192,184807,1,0,0:0:0:0:
64,192,184864,1,0,0:0:0:0:
448,192,184921,1,0,0:0:0:0:
192,192,184978,1,0,0:0:0:0:
320,192,185035,1,0,0:0:0:0:
64,192,185092,1,0,0:0:0:0:
448,192,185092,1,0,0:0:0:0:
192,192,185148,1,0,0:0:0:0:
320,192,185205,1,0,0:0:0:0:
448,192,185262,1,0,0:0:0:0:
64,192,185319,1,0,0:0:0:0:
192,192,185376,1,0,0:0:0:0:
448,192,185432,1,0,0:0:0:0:
320,192,185489,1,0,0:0:0:0:
192,192,185546,1,0,0:0:0:0:
64,192,185546,128,0,186001:0:0:0:0:
320,192,185660,128,0,185773:0:0:0:0:
320,192,185887,128,0,186001:0:0:0:0:
64,192,186228,128,0,186455:0:0:0:0:
192,192,186455,128,0,186682:0:0:0:0:
320,192,186682,128,0,186910:0:0:0:0:
320,192,187023,128,0,187137:0:0:0:0:
192,192,187137,128,0,187364:0:0:0:0:
448,192,187364,128,0,187478:0:0:0:0:
64,192,187364,128,0,187478:0:0:0:0:
320,192,187478,128,0,187592:0:0:0:0:
448,192,187592,128,0,187705:0:0:0:0:
64,192,187592,128,0,187705:0:0:0:0:
320,192,187705,128,0,187819:0:0:0:0:
64,192,187819,128,0,187932:0:0:0:0:
192,192,187819,128,0,187932:0:0:0:0:
448,192,187932,128,0,188046:0:0:0:0:
192,192,188046,1,0,0:0:0:0:
320,192,188103,1,0,0:0:0:0:
192,192,188160,1,0,0:0:0:0:
320,192,188217,1,0,0:0:0:0:
64,192,188273,128,0,188387:0:0:0:0:
192,192,188273,128,0,188387:0:0:0:0:
320,192,188387,128,0,188501:0:0:0:0:
192,192,188501,128,0,188614:0:0:0:0:
64,192,188501,128,0,188614:0:0:0:0:
320,192,188614,128,0,188728:0:0:0:0:
64,192,188728,128,0,188842:0:0:0:0:
192,192,188785,1,0,0:0:0:0:
320,192,188842,128,0,188955:0:0:0:0:
448,192,188898,1,0,0:0:0:0:
64,192,188955,128,0,189069:0:0:0:0:
192,192,189012,1,0,0:0:0:0:
320,192,189069,128,0,189182:0:0:0:0:
448,192,189126,1,0,0:0:0:0:
64,192,189182,128,0,189523:0:0:0:0:
192,192,189182,128,0,189523:0:0:0:0:
320,192,189296,128,0,189523:0:0:0:0:
448,192,189410,128,0,189637:0:0:0:0:
64,192,189637,128,0,189978:0:0:0:0:
192,192,189637,128,0,189978:0:0:0:0:
320,192,189751,128,0,189978:0:0:0:0:
448,192,189864,128,0,189978:0:0:0:0:
448,192,190092,128,0,190319:0:0:0:0:
64,192,190092,128,0,190205:0:0:0:0:
192,192,190205,128,0,190319:0:0:0:0:
64,192,190319,128,0,190432:0:0:0:0:
320,192,190319,128,0,190432:0:0:0:0:
448,192,190432,128,0,190546:0:0:0:0:
64,192,190546,128,0,190773:0:0:0:0:
192,192,190546,128,0,190660:0:0:0:0:
448,192,190660,128,0,190773:0:0:0:0:
192,192,190773,128,0,190887:0:0:0:0:
320,192,190773,128,0,190887:0:0:0:0:
64,192,190887,128,0,191001:0:0:0:0:
448,192,191001,128,0,191228:0:0:0:0:
320,192,191001,128,0,191228:0:0:0:0:
192,192,191228,128,0,191455:0:0:0:0:
448,192,191455,128,0,191910:0:0:0:0:
64,192,191455,128,0,191910:0:0:0:0:
192,192,191910,128,0,192137:0:0:0:0:
320,192,191910,128,0,192023:0:0:0:0:
448,192,192023,128,0,192137:0:0:0:0:
320,192,192137,128,0,192364:0:0:0:0:
64,192,192251,128,0,192364:0:0:0:0:
448,192,192364,128,0,192592:0:0:0:0:
192,192,192364,128,0,192478:0:0:0:0:
320,192,192478,128,0,192592:0:0:0:0:
64,192,192592,128,0,192819:0:0:0:0:
192,192,192705,128,0,192819:0:0:0:0:
448,192,192819,128,0,192932:0:0:0:0:
320,192,192819,128,0,192932:0:0:0:0:
64,192,192932,128,0,193046:0:0:0:0:
320,192,193046,128,0,193160:0:0:0:0:
448,192,193046,128,0,193273:0:0:0:0:
192,192,193160,128,0,193273:0:0:0:0:
64,192,193273,128,0,193387:0:0:0:0:
320,192,193273,128,0,193387:0:0:0:0:
448,192,193387,128,0,193501:0:0:0:0:
320,192,193501,128,0,193614:0:0:0:0:
64,192,193501,128,0,193728:0:0:0:0:
448,192,193614,128,0,193728:0:0:0:0:
192,192,193728,128,0,193842:0:0:0:0:
320,192,193728,128,0,193842:0:0:0:0:
64,192,193842,128,0,193955:0:0:0:0:
192,192,193955,128,0,194069:0:0:0:0:
448,192,193955,128,0,194182:0:0:0:0:
320,192,194069,128,0,194182:0:0:0:0:
64,192,194182,128,0,194637:0:0:0:0:
192,192,194182,128,0,194637:0:0:0:0:
448,192,194637,1,0,0:0:0:0:
320,192,194637,128,0,194751:0:0:0:0:
448,192,194751,128,0,194864:0:0:0:0:
64,192,194864,1,0,0:0:0:0:
320,192,194864,128,0,194978:0:0:0:0:
64,192,194978,128,0,195092:0:0:0:0:
192,192,195092,1,0,0:0:0:0:
448,192,195092,128,0,195205:0:0:0:0:
192,192,195205,128,0,195319:0:0:0:0:
320,192,195319,1,0,0:0:0:0:
64,192,195319,128,0,195432:0:0:0:0:
320,192,195432,128,0,195546:0:0:0:0:
448,192,195546,128,0,195660:0:0:0:0:
64,192,195546,128,0,195660:0:0:0:0:
192,192,195660,128,0,195887:0:0:0:0:
64,192,195773,128,0,196001:0:0:0:0:
320,192,195887,128,0,196001:0:0:0:0:
192,192,196001,128,0,196228:0:0:0:0:
448,192,196001,128,0,196114:0:0:0:0:
320,192,196114,128,0,196342:0:0:0:0:
448,192,196228,128,0,196455:0:0:0:0:
64,192,196342,128,0,196455:0:0:0:0:
320,192,196455,128,0,196682:0:0:0:0:
192,192,196455,128,0,196569:0:0:0:0:
192,192,196682,1,0,0:0:0:0:
64,192,196682,1,0,0:0:0:0:
192,192,196910,128,0,197251:0:0:0:0:
64,192,196910,128,0,197251:0:0:0:0:
320,192,197023,128,0,197251:0:0:0:0:
448,192,197137,128,0,197251:0:0:0:0:
192,192,197364,128,0,197478:0:0:0:0:
64,192,197364,128,0,197592:0:0:0:0:
320,192,197478,128,0,197592:0:0:0:0:
192,192,197592,128,0,197705:0:0:0:0:
448,192,197592,128,0,197705:0:0:0:0:
64,192,197705,128,0,197819:0:0:0:0:
320,192,197819,128,0,197932:0:0:0:0:
448,192,197819,128,0,198046:0:0:0:0:
64,192,197932,128,0,198046:0:0:0:0:
192,192,198046,128,0,198160:0:0:0:0:
320,192,198046,128,0,198160:0:0:0:0:
448,192,198160,128,0,198273:0:0:0:0:
192,192,198273,128,0,198501:0:0:0:0:
64,192,198273,128,0,198501:0:0:0:0:
320,192,198501,128,0,198728:0:0:0:0:
448,192,198728,128,0,198955:0:0:0:0:
64,192,198728,128,0,198955:0:0:0:0:
192,192,198955,1,0,0:0:0:0:
320,192,199012,1,0,0:0:0:0:
448,192,199069,1,0,0:0:0:0:
64,192,199126,1,0,0:0:0:0:
448,192,199182,128,0,199296:0:0:0:0:
320,192,199182,128,0,199410:0:0:0:0:
64,192,199296,128,0,199410:0:0:0:0:
192,192,199410,128,0,199523:0:0:0:0:
448,192,199523,128,0,199637:0:0:0:0:
320,192,199637,128,0,199751:0:0:0:0:
64,192,199637,128,0,199864:0:0:0:0:
192,192,199751,128,0,199978:0:0:0:0:
448,192,199864,128,0,200092:0:0:0:0:
320,192,199978,128,0,200092:0:0:0:0:
64,192,200092,128,0,200432:0:0:0:0:
192,192,200092,1,0,0:0:0:0:
448,192,200432,128,0,200773:0:0:0:0:
192,192,200546,1,0,0:0:0:0:
320,192,200546,1,0,0:0:0:0:
64,192,200660,1,0,0:0:0:0:
64,192,200773,128,0,201001:0:0:0:0:
320,192,200887,1,0,0:0:0:0:
320,192,201001,1,0,0:0:0:0:
448,192,201001,128,0,201342:0:0:0:0:
192,192,201342,128,0,201682:0:0:0:0:
320,192,201455,1,0,0:0:0:0:
448,192,201455,1,0,0:0:0:0:
448,192,201682,1,0,0:0:0:0:
320,192,201720,1,0,0:0:0:0:
64,192,201758,1,0,0:0:0:0:
192,192,201796,1,0,0:0:0:0:
448,192,201910,1,0,0:0:0:0:
64,192,201910,128,0,202137:0:0:0:0:
320,192,202137,128,0,202251:0:0:0:0:
192,192,202251,128,0,202364:0:0:0:0:
448,192,202364,128,0,202478:0:0:0:0:
64,192,202364,128,0,202478:0:0:0:0:
320,192,202478,128,0,202705:0:0:0:0:
64,192,202705,1,0,0:0:0:0:
192,192,202762,1,0,0:0:0:0:
320,192,202819,1,0,0:0:0:0:
448,192,202819,1,0,0:0:0:0:
64,192,202932,128,0,203046:0:0:0:0:
320,192,203046,128,0,203160:0:0:0:0:
192,192,203046,1,0,0:0:0:0:
192,192,203160,128,0,203273:0:0:0:0:
448,192,203273,1,0,0:0:0:0:
64,192,203273,128,0,203387:0:0:0:0:
448,192,203387,128,0,203501:0:0:0:0:
320,192,203501,1,0,0:0:0:0:
64,192,203501,128,0,203614:0:0:0:0:
192,192,203614,128,0,203728:0:0:0:0:
64,192,203728,128,0,204069:0:0:0:0:
320,192,203728,128,0,204069:0:0:0:0:
192,192,203842,128,0,204069:0:0:0:0:
448,192,203955,128,0,204182:0:0:0:0:
64,192,204182,128,0,204523:0:0:0:0:
192,192,204182,128,0,204523:0:0:0:0:
320,192,204182,128,0,204296:0:0:0:0:
448,192,204296,128,0,204523:0:0:0:0:
320,192,204410,128,0,204523:0:0:0:0:
64,192,204637,128,0,204864:0:0:0:0:
448,192,204637,128,0,204751:0:0:0:0:
192,192,204637,128,0,204751:0:0:0:0:
320,192,204751,128,0,204864:0:0:0:0:
448,192,204864,128,0,204978:0:0:0:0:
192,192,204864,128,0,204978:0:0:0:0:
64,192,204978,128,0,205092:0:0:0:0:
448,192,205092,128,0,205319:0:0:0:0:
320,192,205092,128,0,205205:0:0:0:0:
192,192,205092,128,0,205205:0:0:0:0:
64,192,205205,128,0,205319:0:0:0:0:
320,192,205319,128,0,205432:0:0:0:0:
192,192,205319,128,0,205432:0:0:0:0:
448,192,205432,128,0,205546:0:0:0:0:
64,192,205546,128,0,205773:0:0:0:0:
320,192,205546,128,0,205773:0:0:0:0:
192,192,205773,128,0,206001:0:0:0:0:
64,192,206001,128,0,206455:0:0:0:0:
320,192,206001,128,0,206455:0:0:0:0:
448,192,206001,1,0,0:0:0:0:
448,192,206455,128,0,206682:0:0:0:0:
192,192,206455,128,0,206569:0:0:0:0:
64,192,206569,128,0,206682:0:0:0:0:
320,192,206682,128,0,206910:0:0:0:0:
448,192,206796,128,0,206910:0:0:0:0:
64,192,206910,128,0,207137:0:0:0:0:
192,192,206910,128,0,207023:0:0:0:0:
320,192,207023,128,0,207137:0:0:0:0:
448,192,207137,128,0,207364:0:0:0:0:
192,192,207251,128,0,207364:0:0:0:0:
64,192,207364,128,0,207478:0:0:0:0:
320,192,207364,128,0,207478:0:0:0:0:
448,192,207478,128,0,207592:0:0:0:0:
320,192,207592,128,0,207705:0:0:0:0:
64,192,207592,128,0,207819:0:0:0:0:
192,192,207705,128,0,207819:0:0:0:0:
448,192,207819,128,0,207932:0:0:0:0:
320,192,207819,128,0,207932:0:0:0:0:
64,192,207932,128,0,208046:0:0:0:0:
192,192,208046,128,0,208160:0:0:0:0:
448,192,208046,128,0,208273:0:0:0:0:
320,192,208160,128,0,208273:0:0:0:0:
192,192,208273,128,0,208387:0:0:0:0:
64,192,208273,128,0,208387:0:0:0:0:
448,192,208387,128,0,208501:0:0:0:0:
320,192,208501,128,0,208614:0:0:0:0:
64,192,208501,128,0,208728:0:0:0:0:
192,192,208614,128,0,208728:0:0:0:0:
448,192,208728,128,0,209182:0:0:0:0:
320,192,208728,128,0,209182:0:0:0:0:
192,192,209182,128,0,209296:0:0:0:0:
64,192,209182,1,0,0:0:0:0:
64,192,209296,128,0,209410:0:0:0:0:
320,192,209410,1,0,0:0:0:0:
448,192,209410,128,0,209523:0:0:0:0:
320,192,209523,128,0,209637:0:0:0:0:
448,192,209637,1,0,0:0:0:0:
64,192,209637,128,0,209751:0:0:0:0:
192,192,209637,1,0,0:0:0:0:
448,192,209751,128,0,209864:0:0:0:0:
192,192,209864,1,0,0:0:0:0:
320,192,209864,128,0,209978:0:0:0:0:
192,192,209978,128,0,210092:0:0:0:0:
64,192,210092,128,0,210205:0:0:0:0:
448,192,210092,128,0,210205:0:0:0:0:
320,192,210205,128,0,210432:0:0:0:0:
448,192,210319,128,0,210546:0:0:0:0:
64,192,210432,128,0,210546:0:0:0:0:
320,192,210546,128,0,210773:0:0:0:0:
192,192,210546,128,0,210660:0:0:0:0:
448,192,210660,128,0,210887:0:0:0:0:
64,192,210773,128,0,211001:0:0:0:0:
192,192,210887,128,0,211001:0:0:0:0:
448,192,211001,128,0,211228:0:0:0:0:
320,192,211001,128,0,211114:0:0:0:0:
320,192,211228,1,0,0:0:0:0:
64,192,211228,1,0,0:0:0:0:
320,192,211455,128,0,211796:0:0:0:0:
448,192,211455,128,0,211796:0:0:0:0:
64,192,211455,128,0,211569:0:0:0:0:
192,192,211569,128,0,211796:0:0:0:0:
64,192,211682,128,0,211796:0:0:0:0:
320,192,211910,128,0,212023:0:0:0:0:
64,192,211910,128,0,212023:0:0:0:0:
448,192,211910,128,0,212137:0:0:0:0:
192,192,212023,128,0,212137:0:0:0:0:
320,192,212137,128,0,212251:0:0:0:0:
64,192,212137,128,0,212251:0:0:0:0:
448,192,212251,128,0,212364:0:0:0:0:
320,192,212364,128,0,212478:0:0:0:0:
192,192,212364,128,0,212478:0:0:0:0:
64,192,212364,128,0,212592:0:0:0:0:
448,192,212478,128,0,212592:0:0:0:0:
320,192,212592,128,0,212705:0:0:0:0:
192,192,212592,128,0,212705:0:0:0:0:
64,192,212705,128,0,212819:0:0:0:0:
320,192,212819,128,0,213046:0:0:0:0:
448,192,212819,128,0,213046:0:0:0:0:
192,192,213046,128,0,213273:0:0:0:0:
64,192,213273,128,0,213501:0:0:0:0:
448,192,213273,128,0,213501:0:0:0:0:
320,192,213273,1,0,0:0:0:0:
192,192,213501,1,0,0:0:0:0:
320,192,213557,1,0,0:0:0:0:
64,192,213614,1,0,0:0:0:0:
448,192,213671,1,0,0:0:0:0:
320,192,213728,128,0,213842:0:0:0:0:
192,192,213728,128,0,213955:0:0:0:0:
448,192,213842,128,0,213955:0:0:0:0:
320,192,213955,128,0,214069:0:0:0:0:
192,192,214069,128,0,214182:0:0:0:0:
320,192,214182,128,0,214296:0:0:0:0:
448,192,214182,128,0,214410:0:0:0:0:
64,192,214182,128,0,214296:0:0:0:0:
192,192,214296,128,0,214523:0:0:0:0:
64,192,214410,128,0,214637:0:0:0:0:
320,192,214523,128,0,214637:0:0:0:0:
192,192,214637,1,0,0:0:0:0:
448,192,214637,128,0,214864:0:0:0:0:
320,192,214751,128,0,214864:0:0:0:0:
64,192,214864,128,0,215432:0:0:0:0:
192,192,214978,128,0,215319:0:0:0:0:
320,192,215092,128,0,215205:0:0:0:0:
448,192,215205,128,0,215319:0:0:0:0:
320,192,215319,128,0,215432:0:0:0:0:
192,192,215432,128,0,215546:0:0:0:0:
64,192,215546,1,0,0:0:0:0:
448,192,215546,128,0,215773:0:0:0:0:
320,192,215660,128,0,215773:0:0:0:0:
64,192,215773,128,0,216342:0:0:0:0:
192,192,215887,128,0,216228:0:0:0:0:
320,192,216001,128,0,216114:0:0:0:0:
448,192,216114,128,0,216228:0:0:0:0:
320,192,216228,128,0,216342:0:0:0:0:
192,192,216342,128,0,216455:0:0:0:0:
448,192,216455,128,0,216910:0:0:0:0:
64,192,216455,128,0,216796:0:0:0:0:
192,192,216910,128,0,217364:0:0:0:0:
448,192,217364,1,0,0:0:0:0:
448,192,217478,1,0,0:0:0:0:
64,192,217592,1,0,0:0:0:0:
192,192,217705,1,0,0:0:0:0:
320,192,217743,1,0,0:0:0:0:
448,192,217781,1,0,0:0:0:0:
64,192,217819,1,0,0:0:0:0:
320,192,217932,1,0,0:0:0:0:
192,192,217970,1,0,0:0:0:0:
64,192,218008,1,0,0:0:0:0:
448,192,218046,1,0,0:0:0:0:
192,192,218160,1,0,0:0:0:0:
448,192,218273,1,0,0:0:0:0:
64,192,218273,128,0,218728:0:0:0:0:
320,192,218273,128,0,218501:0:0:0:0:
448,192,218728,128,0,218842:0:0:0:0:
320,192,218842,128,0,218955:0:0:0:0:
64,192,218955,128,0,219069:0:0:0:0:
448,192,219069,128,0,219182:0:0:0:0:
192,192,219182,128,0,219296:0:0:0:0:
64,192,219410,128,0,219523:0:0:0:0:
320,192,219523,128,0,219637:0:0:0:0:
192,192,219637,128,0,219751:0:0:0:0:
320,192,219864,128,0,219978:0:0:0:0:
64,192,220092,128,0,220205:0:0:0:0:
320,192,220319,128,0,220432:0:0:0:0:
192,192,220546,128,0,220660:0:0:0:0:
64,192,220660,128,0,220773:0:0:0:0:
448,192,220887,128,0,221001:0:0:0:0:
320,192,221001,128,0,221114:0:0:0:0:
192,192,221228,128,0,221342:0:0:0:0:
320,192,221342,128,0,221455:0:0:0:0:
64,192,221455,128,0,221569:0:0:0:0:
320,192,221682,1,0,0:0:0:0:
192,192,221682,1,0,0:0:0:0:
64,192,221682,1,0,0:0:0:0:
64,192,221910,1,0,0:0:0:0:
192,192,221910,1,0,0:0:0:0:
320,192,221910,1,0,0:0:0:0:
192,192,222364,128,0,222478:0:0:0:0:
64,192,222478,128,0,222592:0:0:0:0:
448,192,222592,128,0,222705:0:0:0:0:
320,192,222705,128,0,222819:0:0:0:0:
192,192,222819,128,0,222932:0:0:0:0:
64,192,222819,128,0,222895:0:0:0:0:
64,192,223046,128,0,223160:0:0:0:0:
192,192,223160,128,0,223273:0:0:0:0:
320,192,223273,128,0,223387:0:0:0:0:
448,192,223273,128,0,223349:0:0:0:0:
64,192,223501,128,0,223614:0:0:0:0:
320,192,223728,128,0,223842:0:0:0:0:
192,192,223728,128,0,223804:0:0:0:0:
192,192,223955,128,0,224069:0:0:0:0:
448,192,224182,128,0,224296:0:0:0:0:
64,192,224182,128,0,224258:0:0:0:0:
320,192,224296,128,0,224410:0:0:0:0:
192,192,224523,128,0,224637:0:0:0:0:
320,192,224637,128,0,224751:0:0:0:0:
448,192,224637,128,0,224713:0:0:0:0:
64,192,224864,128,0,224978:0:0:0:0:
192,192,224978,128,0,225092:0:0:0:0:
448,192,225092,128,0,225205:0:0:0:0:
320,192,225092,128,0,225167:0:0:0:0:
320,192,225319,128,0,225432:0:0:0:0:
448,192,225432,128,0,225546:0:0:0:0:
192,192,225546,1,0,0:0:0:0:
64,192,225546,1,0,0:0:0:0:
448,192,226001,1,0,0:0:0:0:
320,192,226001,128,0,226114:0:0:0:0:
192,192,226114,128,0,226228:0:0:0:0:
64,192,226228,128,0,226342:0:0:0:0:
320,192,226342,128,0,226455:0:0:0:0:
64,192,226455,1,0,0:0:0:0:
192,192,226455,128,0,226569:0:0:0:0:
320,192,226682,128,0,226796:0:0:0:0:
64,192,226796,128,0,226910:0:0:0:0:
192,192,226910,1,0,0:0:0:0:
448,192,226910,128,0,227023:0:0:0:0:
64,192,227137,128,0,227251:0:0:0:0:
192,192,227364,1,0,0:0:0:0:
448,192,227364,1,0,0:0:0:0:
320,192,227592,128,0,227705:0:0:0:0:
320,192,227819,1,0,0:0:0:0:
192,192,227819,128,0,227932:0:0:0:0:
64,192,227932,128,0,228046:0:0:0:0:
320,192,228160,128,0,228273:0:0:0:0:
448,192,228273,1,0,0:0:0:0:
64,192,228273,1,0,0:0:0:0:
320,192,228501,128,0,228614:0:0:0:0:
448,192,228614,128,0,228728:0:0:0:0:
320,192,228728,1,0,0:0:0:0:
192,192,228728,128,0,228842:0:0:0:0:
192,192,228955,1,0,0:0:0:0:
320,192,228955,1,0,0:0:0:0:
64,192,228955,1,0,0:0:0:0:
192,192,229182,1,0,0:0:0:0:
64,192,229182,1,0,0:0:0:0:
320,192,229182,1,0,0:0:0:0:
64,192,229637,1,0,0:0:0:0:
192,192,229637,128,0,229751:0:0:0:0:
320,192,229751,128,0,229864:0:0:0:0:
448,192,229864,128,0,229978:0:0:0:0:
192,192,229978,128,0,230092:0:0:0:0:
64,192,230092,1,0,0:0:0:0:
320,192,230092,128,0,230205:0:0:0:0:
192,192,230319,128,0,230432:0:0:0:0:
64,192,230432,128,0,230546:0:0:0:0:
192,192,230546,1,0,0:0:0:0:
448,192,230546,128,0,230660:0:0:0:0:
320,192,230773,128,0,230887:0:0:0:0:
64,192,231001,1,0,0:0:0:0:
192,192,231001,1,0,0:0:0:0:
64,192,231114,1,0,0:0:0:0:
448,192,231228,1,0,0:0:0:0:
448,192,231342,1,0,0:0:0:0:
192,192,231455,1,0,0:0:0:0:
64,192,231455,1,0,0:0:0:0:
192,192,231569,1,0,0:0:0:0:
448,192,231682,1,0,0:0:0:0:
320,192,231720,1,0,0:0:0:0:
192,192,231758,1,0,0:0:0:0:
64,192,231796,1,0,0:0:0:0:
448,192,231834,1,0,0:0:0:0:
320,192,231872,1,0,0:0:0:0:
64,192,231910,1,0,0:0:0:0:
192,192,231910,1,0,0:0:0:0:
192,192,232023,1,0,0:0:0:0:
320,192,232137,1,0,0:0:0:0:
320,192,232251,1,0,0:0:0:0:
448,192,232364,1,0,0:0:0:0:
64,192,232364,1,0,0:0:0:0:
192,192,232421,1,0,0:0:0:0:
320,192,232478,1,0,0:0:0:0:
448,192,232535,1,0,0:0:0:0:
192,192,232592,1,0,0:0:0:0:
64,192,232592,1,0,0:0:0:0:
320,192,232648,1,0,0:0:0:0:
448,192,232705,1,0,0:0:0:0:
64,192,232762,1,0,0:0:0:0:
320,192,232819,1,0,0:0:0:0:
192,192,232819,128,0,233160:0:0:0:0:
448,192,232932,1,0,0:0:0:0:
64,192,233046,1,0,0:0:0:0:
320,192,233160,128,0,233501:0:0:0:0:
64,192,233273,1,0,0:0:0:0:
192,192,233273,1,0,0:0:0:0:
448,192,233387,1,0,0:0:0:0:
192,192,233501,128,0,233728:0:0:0:0:
64,192,233614,1,0,0:0:0:0:
448,192,233728,128,0,234182:0:0:0:0:
320,192,233728,1,0,0:0:0:0:
192,192,233842,1,0,0:0:0:0:
320,192,233955,1,0,0:0:0:0:
64,192,234069,1,0,0:0:0:0:
192,192,234182,128,0,234410:0:0:0:0:
320,192,234182,1,0,0:0:0:0:
64,192,234296,1,0,0:0:0:0:
448,192,234410,128,0,234637:0:0:0:0:
64,192,234523,1,0,0:0:0:0:
320,192,234637,128,0,234978:0:0:0:0:
192,192,234637,1,0,0:0:0:0:
64,192,234751,1,0,0:0:0:0:
192,192,234864,1,0,0:0:0:0:
64,192,234978,128,0,235546:0:0:0:0:
448,192,235092,1,0,0:0:0:0:
320,192,235092,1,0,0:0:0:0:
192,192,235205,1,0,0:0:0:0:
320,192,235319,1,0,0:0:0:0:
192,192,235432,1,0,0:0:0:0:
448,192,235546,1,0,0:0:0:0:
320,192,235546,1,0,0:0:0:0:
192,192,235660,1,0,0:0:0:0:
448,192,235773,128,0,236001:0:0:0:0:
320,192,235887,128,0,236114:0:0:0:0:
192,192,236001,128,0,236228:0:0:0:0:
64,192,236001,128,0,236342:0:0:0:0:
448,192,236114,128,0,236228:0:0:0:0:
320,192,236228,128,0,236342:0:0:0:0:
192,192,236342,128,0,236455:0:0:0:0:
320,192,236455,128,0,236796:0:0:0:0:
448,192,236455,1,0,0:0:0:0:
64,192,236569,1,0,0:0:0:0:
192,192,236682,1,0,0:0:0:0:
448,192,236796,128,0,237137:0:0:0:0:
64,192,236910,1,0,0:0:0:0:
320,192,236910,1,0,0:0:0:0:
192,192,237023,1,0,0:0:0:0:
320,192,237137,128,0,237364:0:0:0:0:
448,192,237251,1,0,0:0:0:0:
192,192,237364,128,0,237705:0:0:0:0:
64,192,237364,1,0,0:0:0:0:
448,192,237478,1,0,0:0:0:0:
320,192,237592,1,0,0:0:0:0:
64,192,237705,128,0,238046:0:0:0:0:
448,192,237819,1,0,0:0:0:0:
320,192,237819,1,0,0:0:0:0:
192,192,237932,1,0,0:0:0:0:
320,192,238046,128,0,238273:0:0:0:0:
448,192,238160,1,0,0:0:0:0:
192,192,238273,128,0,238501:0:0:0:0:
64,192,238273,1,0,0:0:0:0:
320,192,238387,1,0,0:0:0:0:
448,192,238501,128,0,238614:0:0:0:0:
64,192,238614,128,0,239182:0:0:0:0:
320,192,238728,1,0,0:0:0:0:
192,192,238728,1,0,0:0:0:0:
448,192,238842,1,0,0:0:0:0:
320,192,238955,1,0,0:0:0:0:
448,192,239069,1,0,0:0:0:0:
320,192,239182,1,0,0:0:0:0:
192,192,239182,1,0,0:0:0:0:
448,192,239296,128,0,239523:0:0:0:0:
320,192,239410,128,0,239637:0:0:0:0:
192,192,239523,128,0,239751:0:0:0:0:
64,192,239637,128,0,239864:0:0:0:0:
448,192,239637,128,0,239751:0:0:0:0:
320,192,239751,128,0,239864:0:0:0:0:
192,192,239864,128,0,239978:0:0:0:0:
448,192,239921,1,0,0:0:0:0:
64,192,239978,128,0,240092:0:0:0:0:
320,192,240035,1,0,0:0:0:0:
448,192,240092,128,0,240432:0:0:0:0:
192,192,240092,1,0,0:0:0:0:
320,192,240205,1,0,0:0:0:0:
64,192,240319,1,0,0:0:0:0:
192,192,240319,1,0,0:0:0:0:
320,192,240432,128,0,240773:0:0:0:0:
192,192,240546,1,0,0:0:0:0:
448,192,240546,1,0,0:0:0:0:
64,192,240660,1,0,0:0:0:0:
192,192,240773,128,0,241001:0:0:0:0:
448,192,240773,1,0,0:0:0:0:
64,192,240887,1,0,0:0:0:0:
448,192,241001,128,0,241455:0:0:0:0:
320,192,241001,1,0,0:0:0:0:
64,192,241114,1,0,0:0:0:0:
192,192,241228,1,0,0:0:0:0:
320,192,241228,1,0,0:0:0:0:
64,192,241342,1,0,0:0:0:0:
192,192,241455,128,0,241682:0:0:0:0:
320,192,241455,1,0,0:0:0:0:
448,192,241569,1,0,0:0:0:0:
64,192,241682,128,0,241910:0:0:0:0:
320,192,241682,1,0,0:0:0:0:
448,192,241796,1,0,0:0:0:0:
320,192,241910,128,0,242251:0:0:0:0:
192,192,241910,1,0,0:0:0:0:
448,192,242023,1,0,0:0:0:0:
192,192,242137,1,0,0:0:0:0:
64,192,242137,1,0,0:0:0:0:
448,192,242251,128,0,243046:0:0:0:0:
192,192,242364,1,0,0:0:0:0:
320,192,242364,1,0,0:0:0:0:
64,192,242478,1,0,0:0:0:0:
192,192,242592,1,0,0:0:0:0:
320,192,242592,1,0,0:0:0:0:
64,192,242705,1,0,0:0:0:0:
192,192,242819,1,0,0:0:0:0:
320,192,242876,1,0,0:0:0:0:
64,192,242932,1,0,0:0:0:0:
192,192,242989,1,0,0:0:0:0:
320,192,243046,128,0,243160:0:0:0:0:
448,192,243103,1,0,0:0:0:0:
64,192,243160,128,0,243273:0:0:0:0:
192,192,243217,1,0,0:0:0:0:
320,192,243273,128,0,243387:0:0:0:0:
448,192,243330,1,0,0:0:0:0:
192,192,243387,128,0,243501:0:0:0:0:
64,192,243444,1,0,0:0:0:0:
448,192,243501,128,0,243614:0:0:0:0:
320,192,243557,1,0,0:0:0:0:
192,192,243614,128,0,243728:0:0:0:0:
64,192,243671,1,0,0:0:0:0:
448,192,243728,128,0,244069:0:0:0:0:
320,192,243728,128,0,244069:0:0:0:0:
192,192,244069,128,0,244182:0:0:0:0:
320,192,244182,128,0,244410:0:0:0:0:
64,192,244182,128,0,244637:0:0:0:0:
448,192,244410,1,0,0:0:0:0:
320,192,244467,1,0,0:0:0:0:
192,192,244523,1,0,0:0:0:0:
448,192,244580,1,0,0:0:0:0:
192,192,244637,1,0,0:0:0:0:
320,192,244637,128,0,244978:0:0:0:0:
64,192,244864,1,0,0:0:0:0:
192,192,244864,1,0,0:0:0:0:
448,192,244978,128,0,245319:0:0:0:0:
64,192,245092,1,0,0:0:0:0:
192,192,245092,1,0,0:0:0:0:
64,192,245243,1,0,0:0:0:0:
192,192,245243,1,0,0:0:0:0:
320,192,245319,128,0,245546:0:0:0:0:
192,192,245395,1,0,0:0:0:0:
64,192,245395,1,0,0:0:0:0:
192,192,245546,128,0,245660:0:0:0:0:
64,192,245546,128,0,245660:0:0:0:0:
320,192,245660,128,0,245773:0:0:0:0:
64,192,245773,128,0,245887:0:0:0:0:
192,192,245773,128,0,245887:0:0:0:0:
320,192,245887,128,0,246001:0:0:0:0:
64,192,246001,128,0,246114:0:0:0:0:
448,192,246001,128,0,246114:0:0:0:0:
320,192,246114,128,0,246228:0:0:0:0:
64,192,246228,1,0,0:0:0:0:
192,192,246285,1,0,0:0:0:0:
448,192,246342,1,0,0:0:0:0:
320,192,246398,1,0,0:0:0:0:
192,192,246455,1,0,0:0:0:0:
64,192,246455,1,0,0:0:0:0:
192,192,246569,1,0,0:0:0:0:
448,192,246569,1,0,0:0:0:0:
320,192,246682,1,0,0:0:0:0:
448,192,246682,1,0,0:0:0:0:
320,192,246796,1,0,0:0:0:0:
64,192,246796,1,0,0:0:0:0:
64,192,246910,1,0,0:0:0:0:
192,192,246910,1,0,0:0:0:0:
192,192,247023,1,0,0:0:0:0:
448,192,247023,1,0,0:0:0:0:
448,192,247137,1,0,0:0:0:0:
320,192,247175,1,0,0:0:0:0:
192,192,247213,1,0,0:0:0:0:
64,192,247251,1,0,0:0:0:0:
448,192,247288,1,0,0:0:0:0:
320,192,247326,1,0,0:0:0:0:
64,192,247364,128,0,247705:0:0:0:0:
192,192,247364,128,0,247592:0:0:0:0:
448,192,247705,128,0,247819:0:0:0:0:
64,192,247819,1,0,0:0:0:0:
320,192,247819,128,0,248046:0:0:0:0:
192,192,247819,128,0,248273:0:0:0:0:
448,192,248046,128,0,248273:0:0:0:0:
320,192,248273,1,0,0:0:0:0:
64,192,248273,1,0,0:0:0:0:
192,192,248387,128,0,248444:0:0:0:0:
64,192,248387,128,0,248444:0:0:0:0:
192,192,248501,128,0,248557:0:0:0:0:
64,192,248501,128,0,248557:0:0:0:0:
320,192,248614,128,0,248671:0:0:0:0:
448,192,248614,128,0,248671:0:0:0:0:
448,192,248728,128,0,248955:0:0:0:0:
320,192,248728,128,0,248955:0:0:0:0:
64,192,248728,128,0,248955:0:0:0:0:
192,192,248955,128,0,249182:0:0:0:0:
320,192,249182,128,0,249410:0:0:0:0:
64,192,249182,128,0,249410:0:0:0:0:
448,192,249410,128,0,249523:0:0:0:0:
64,192,249523,128,0,249807:0:0:0:0:
320,192,249637,1,0,0:0:0:0:
448,192,249637,1,0,0:0:0:0:
192,192,249751,128,0,249864:0:0:0:0:
320,192,249807,128,0,249921:0:0:0:0:
448,192,249864,128,0,249978:0:0:0:0:
64,192,249921,128,0,250035:0:0:0:0:
192,192,249978,128,0,250092:0:0:0:0:
320,192,250035,128,0,250092:0:0:0:0:
448,192,250092,128,0,250319:0:0:0:0:
64,192,250319,128,0,250432:0:0:0:0:
320,192,250319,1,0,0:0:0:0:
320,192,250432,128,0,250546:0:0:0:0:
64,192,250546,1,0,0:0:0:0:
448,192,250546,1,0,0:0:0:0:
192,192,250546,128,0,250660:0:0:0:0:
448,192,250660,128,0,250773:0:0:0:0:
320,192,250773,1,0,0:0:0:0:
64,192,250773,128,0,250887:0:0:0:0:
320,192,250887,128,0,251001:0:0:0:0:
192,192,251001,1,0,0:0:0:0:
64,192,251001,128,0,251114:0:0:0:0:
448,192,251114,1,0,0:0:0:0:
448,192,251228,128,0,251342:0:0:0:0:
192,192,251228,1,0,0:0:0:0:
192,192,251342,128,0,251455:0:0:0:0:
320,192,251455,128,0,251682:0:0:0:0:
64,192,251455,1,0,0:0:0:0:
448,192,251455,1,0,0:0:0:0:
64,192,251569,128,0,251682:0:0:0:0:
192,192,251682,128,0,251796:0:0:0:0:
448,192,251682,1,0,0:0:0:0:
320,192,251796,1,0,0:0:0:0:
320,192,251910,128,0,252023:0:0:0:0:
448,192,251910,1,0,0:0:0:0:
64,192,252023,1,0,0:0:0:0:
64,192,252137,128,0,252251:0:0:0:0:
320,192,252137,1,0,0:0:0:0:
320,192,252251,128,0,252364:0:0:0:0:
192,192,252364,1,0,0:0:0:0:
64,192,252364,1,0,0:0:0:0:
448,192,252364,128,0,252592:0:0:0:0:
192,192,252478,128,0,252592:0:0:0:0:
320,192,252592,128,0,252705:0:0:0:0:
64,192,252592,1,0,0:0:0:0:
192,192,252705,1,0,0:0:0:0:
64,192,252819,1,0,0:0:0:0:
320,192,252819,128,0,253046:0:0:0:0:
64,192,252932,1,0,0:0:0:0:
192,192,253046,128,0,253160:0:0:0:0:
448,192,253046,1,0,0:0:0:0:
448,192,253160,128,0,253728:0:0:0:0:
64,192,253273,1,0,0:0:0:0:
192,192,253273,1,0,0:0:0:0:
192,192,253387,1,0,0:0:0:0:
64,192,253501,1,0,0:0:0:0:
320,192,253501,1,0,0:0:0:0:
320,192,253614,1,0,0:0:0:0:
192,192,253728,128,0,253842:0:0:0:0:
64,192,253728,128,0,253842:0:0:0:0:
320,192,253842,128,0,254069:0:0:0:0:
448,192,253955,128,0,254182:0:0:0:0:
192,192,254069,128,0,254182:0:0:0:0:
320,192,254182,128,0,254410:0:0:0:0:
64,192,254182,128,0,254296:0:0:0:0:
192,192,254296,128,0,254523:0:0:0:0:
64,192,254410,128,0,254637:0:0:0:0:
448,192,254523,128,0,254637:0:0:0:0:
192,192,254637,128,0,254978:0:0:0:0:
320,192,254637,128,0,254864:0:0:0:0:
320,192,254978,128,0,255092:0:0:0:0:
448,192,255092,1,0,0:0:0:0:
64,192,255092,1,0,0:0:0:0:
192,192,255092,128,0,255546:0:0:0:0:
320,192,255319,128,0,255546:0:0:0:0:
64,192,255546,1,0,0:0:0:0:
448,192,255546,1,0,0:0:0:0:
320,192,255660,128,0,255717:0:0:0:0:
448,192,255660,128,0,255717:0:0:0:0:
320,192,255773,128,0,255830:0:0:0:0:
448,192,255773,128,0,255830:0:0:0:0:
192,192,255887,128,0,255944:0:0:0:0:
64,192,255887,128,0,255944:0:0:0:0:
64,192,256001,128,0,256228:0:0:0:0:
192,192,256001,128,0,256228:0:0:0:0:
448,192,256001,128,0,256228:0:0:0:0:
320,192,256228,128,0,256455:0:0:0:0:
192,192,256455,128,0,256682:0:0:0:0:
448,192,256455,128,0,256682:0:0:0:0:
64,192,256682,128,0,256796:0:0:0:0:
448,192,256796,128,0,257080:0:0:0:0:
192,192,256910,1,0,0:0:0:0:
64,192,256910,1,0,0:0:0:0:
320,192,257023,128,0,257137:0:0:0:0:
192,192,257080,128,0,257194:0:0:0:0:
64,192,257137,128,0,257251:0:0:0:0:
448,192,257194,128,0,257307:0:0:0:0:
320,192,257251,128,0,257364:0:0:0:0:
192,192,257307,128,0,257364:0:0:0:0:
64,192,257364,128,0,257592:0:0:0:0:
448,192,257592,128,0,257705:0:0:0:0:
192,192,257592,1,0,0:0:0:0:
192,192,257705,128,0,257819:0:0:0:0:
448,192,257819,1,0,0:0:0:0:
64,192,257819,1,0,0:0:0:0:
320,192,257819,128,0,257932:0:0:0:0:
64,192,257932,128,0,258046:0:0:0:0:
192,192,258046,1,0,0:0:0:0:
448,192,258046,128,0,258160:0:0:0:0:
192,192,258160,128,0,258273:0:0:0:0:
320,192,258273,1,0,0:0:0:0:
448,192,258273,128,0,258387:0:0:0:0:
64,192,258387,1,0,0:0:0:0:
64,192,258501,128,0,258614:0:0:0:0:
320,192,258501,1,0,0:0:0:0:
320,192,258614,128,0,258728:0:0:0:0:
192,192,258728,128,0,258955:0:0:0:0:
448,192,258728,1,0,0:0:0:0:
64,192,258728,1,0,0:0:0:0:
448,192,258842,128,0,258955:0:0:0:0:
320,192,258955,128,0,259069:0:0:0:0:
64,192,258955,1,0,0:0:0:0:
192,192,259069,1,0,0:0:0:0:
192,192,259182,128,0,259296:0:0:0:0:
448,192,259182,1,0,0:0:0:0:
320,192,259296,1,0,0:0:0:0:
320,192,259410,128,0,259523:0:0:0:0:
64,192,259410,1,0,0:0:0:0:
64,192,259523,128,0,259637:0:0:0:0:
320,192,259637,1,0,0:0:0:0:
448,192,259637,1,0,0:0:0:0:
192,192,259637,128,0,259864:0:0:0:0:
320,192,259751,128,0,259864:0:0:0:0:
64,192,259864,128,0,260092:0:0:0:0:
448,192,259978,1,0,0:0:0:0:
320,192,260092,128,0,260319:0:0:0:0:
192,192,260092,128,0,260205:0:0:0:0:
448,192,260092,128,0,260205:0:0:0:0:
192,192,260319,128,0,260432:0:0:0:0:
320,192,260432,128,0,260546:0:0:0:0:
64,192,260546,128,0,260660:0:0:0:0:
192,192,260546,128,0,260773:0:0:0:0:
448,192,260546,128,0,260660:0:0:0:0:
320,192,260773,128,0,260887:0:0:0:0:
192,192,260887,128,0,261001:0:0:0:0:
64,192,261001,128,0,261228:0:0:0:0:
320,192,261001,128,0,261228:0:0:0:0:
448,192,261001,128,0,261114:0:0:0:0:
192,192,261228,128,0,261342:0:0:0:0:
320,192,261342,128,0,261455:0:0:0:0:
448,192,261455,128,0,261796:0:0:0:0:
192,192,261455,128,0,261682:0:0:0:0:
64,192,261455,128,0,261569:0:0:0:0:
64,192,261682,128,0,261796:0:0:0:0:
320,192,261796,128,0,261910:0:0:0:0:
192,192,261910,128,0,262137:0:0:0:0:
64,192,261910,128,0,262137:0:0:0:0:
448,192,261910,128,0,262137:0:0:0:0:
448,192,262364,128,0,262819:0:0:0:0:
192,192,262364,128,0,262592:0:0:0:0:
64,192,262364,128,0,262592:0:0:0:0:
320,192,262592,128,0,262705:0:0:0:0:
64,192,262819,1,0,0:0:0:0:
320,192,262819,1,0,0:0:0:0:
192,192,262932,128,0,262989:0:0:0:0:
448,192,262932,128,0,262989:0:0:0:0:
192,192,263046,128,0,263103:0:0:0:0:
448,192,263046,128,0,263103:0:0:0:0:
320,192,263160,128,0,263217:0:0:0:0:
64,192,263160,128,0,263217:0:0:0:0:
64,192,263273,128,0,263501:0:0:0:0:
320,192,263273,128,0,263387:0:0:0:0:
448,192,263273,128,0,263501:0:0:0:0:
192,192,263387,128,0,263614:0:0:0:0:
320,192,263501,128,0,263728:0:0:0:0:
448,192,263614,128,0,263728:0:0:0:0:
192,192,263728,1,0,0:0:0:0:
64,192,263728,128,0,263955:0:0:0:0:
448,192,263955,1,0,0:0:0:0:
320,192,263993,1,0,0:0:0:0:
192,192,264031,1,0,0:0:0:0:
64,192,264069,1,0,0:0:0:0:
320,192,264107,1,0,0:0:0:0:
448,192,264145,1,0,0:0:0:0:
64,192,264182,128,0,264410:0:0:0:0:
192,192,264182,128,0,264410:0:0:0:0:
448,192,264410,128,0,264485:0:0:0:0:
320,192,264485,128,0,264561:0:0:0:0:
192,192,264561,128,0,264637:0:0:0:0:
448,192,264637,128,0,264864:0:0:0:0:
320,192,264637,128,0,264751:0:0:0:0:
64,192,264751,128,0,264864:0:0:0:0:
192,192,264864,128,0,264978:0:0:0:0:
320,192,264864,128,0,264978:0:0:0:0:
64,192,264978,128,0,265092:0:0:0:0:
448,192,264978,128,0,265092:0:0:0:0:
320,192,265092,128,0,265319:0:0:0:0:
192,192,265092,128,0,265205:0:0:0:0:
448,192,265205,128,0,265319:0:0:0:0:
64,192,265319,128,0,265432:0:0:0:0:
192,192,265319,128,0,265432:0:0:0:0:
448,192,265432,128,0,265546:0:0:0:0:
320,192,265432,128,0,265546:0:0:0:0:
64,192,265546,128,0,265660:0:0:0:0:
192,192,265546,128,0,265660:0:0:0:0:
448,192,265660,1,0,0:0:0:0:
448,192,265773,128,0,265887:0:0:0:0:
192,192,265773,1,0,0:0:0:0:
192,192,265887,128,0,266001:0:0:0:0:
64,192,266001,128,0,266228:0:0:0:0:
320,192,266001,1,0,0:0:0:0:
448,192,266001,1,0,0:0:0:0:
320,192,266114,128,0,266228:0:0:0:0:
192,192,266228,128,0,266342:0:0:0:0:
448,192,266228,128,0,266342:0:0:0:0:
320,192,266342,1,0,0:0:0:0:
320,192,266455,128,0,266569:0:0:0:0:
64,192,266455,128,0,266569:0:0:0:0:
192,192,266569,1,0,0:0:0:0:
192,192,266682,128,0,266796:0:0:0:0:
448,192,266796,128,0,266910:0:0:0:0:
64,192,266796,1,0,0:0:0:0:
320,192,266910,1,0,0:0:0:0:
192,192,266910,128,0,267137:0:0:0:0:
64,192,266910,1,0,0:0:0:0:
320,192,267023,128,0,267137:0:0:0:0:
448,192,267137,128,0,267364:0:0:0:0:
64,192,267137,128,0,267251:0:0:0:0:
192,192,267251,1,0,0:0:0:0:
320,192,267364,1,0,0:0:0:0:
64,192,267364,128,0,267592:0:0:0:0:
320,192,267478,1,0,0:0:0:0:
192,192,267592,128,0,267705:0:0:0:0:
448,192,267592,1,0,0:0:0:0:
448,192,267705,128,0,268273:0:0:0:0:
64,192,267819,1,0,0:0:0:0:
192,192,267819,1,0,0:0:0:0:
192,192,267932,1,0,0:0:0:0:
320,192,268046,1,0,0:0:0:0:
64,192,268046,1,0,0:0:0:0:
64,192,268160,1,0,0:0:0:0:
192,192,268273,128,0,268387:0:0:0:0:
320,192,268273,128,0,268387:0:0:0:0:
64,192,268387,128,0,268614:0:0:0:0:
448,192,268501,128,0,268728:0:0:0:0:
192,192,268614,128,0,268728:0:0:0:0:
320,192,268728,128,0,268955:0:0:0:0:
64,192,268728,128,0,268842:0:0:0:0:
448,192,268842,128,0,269069:0:0:0:0:
64,192,268955,128,0,269182:0:0:0:0:
192,192,269069,128,0,269182:0:0:0:0:
448,192,269182,128,0,269523:0:0:0:0:
320,192,269182,128,0,269410:0:0:0:0:
64,192,269410,128,0,269523:0:0:0:0:
320,192,269523,128,0,269637:0:0:0:0:
448,192,269637,128,0,270092:0:0:0:0:
192,192,269637,128,0,269864:0:0:0:0:
64,192,269637,128,0,269864:0:0:0:0:
320,192,269864,128,0,269978:0:0:0:0:
320,192,270092,1,0,0:0:0:0:
64,192,270092,1,0,0:0:0:0:
192,192,270205,128,0,270262:0:0:0:0:
448,192,270205,128,0,270262:0:0:0:0:
192,192,270319,128,0,270376:0:0:0:0:
448,192,270319,128,0,270376:0:0:0:0:
320,192,270432,128,0,270489:0:0:0:0:
64,192,270432,128,0,270489:0:0:0:0:
64,192,270546,128,0,270773:0:0:0:0:
320,192,270546,128,0,270660:0:0:0:0:
448,192,270546,128,0,270773:0:0:0:0:
192,192,270660,128,0,270887:0:0:0:0:
320,192,270773,128,0,271001:0:0:0:0:
448,192,270887,128,0,271001:0:0:0:0:
192,192,271001,1,0,0:0:0:0:
64,192,271001,128,0,271228:0:0:0:0:
448,192,271228,1,0,0:0:0:0:
320,192,271266,1,0,0:0:0:0:
192,192,271304,1,0,0:0:0:0:
64,192,271342,1,0,0:0:0:0:
320,192,271379,1,0,0:0:0:0:
448,192,271417,1,0,0:0:0:0:
64,192,271455,128,0,271682:0:0:0:0:
192,192,271455,128,0,271682:0:0:0:0:
448,192,271682,128,0,271758:0:0:0:0:
320,192,271758,128,0,271834:0:0:0:0:
192,192,271834,128,0,271910:0:0:0:0:
448,192,271910,128,0,272137:0:0:0:0:
320,192,271910,128,0,272023:0:0:0:0:
64,192,272023,128,0,272137:0:0:0:0:
192,192,272137,128,0,272251:0:0:0:0:
320,192,272137,128,0,272251:0:0:0:0:
64,192,272251,128,0,272364:0:0:0:0:
448,192,272251,128,0,272364:0:0:0:0:
320,192,272364,128,0,272592:0:0:0:0:
192,192,272364,128,0,272478:0:0:0:0:
448,192,272478,128,0,272592:0:0:0:0:
64,192,272592,128,0,272705:0:0:0:0:
192,192,272592,128,0,272705:0:0:0:0:
448,192,272705,128,0,272819:0:0:0:0:
64,192,272819,1,0,0:0:0:0:
320,192,272819,1,0,0:0:0:0:
192,192,272819,128,0,273046:0:0:0:0:
320,192,273046,128,0,273160:0:0:0:0:
192,192,273160,128,0,273273:0:0:0:0:
448,192,273387,128,0,273501:0:0:0:0:
64,192,273501,128,0,273614:0:0:0:0:
64,192,273728,1,0,0:0:0:0:
448,192,273728,1,0,0:0:0:0:
320,192,273728,128,0,273955:0:0:0:0:
64,192,273955,128,0,274069:0:0:0:0:
320,192,274069,128,0,274182:0:0:0:0:
192,192,274296,128,0,274410:0:0:0:0:
448,192,274410,128,0,274523:0:0:0:0:
192,192,274637,1,0,0:0:0:0:
320,192,274637,1,0,0:0:0:0:
64,192,274637,128,0,275546:0:0:0:0:
192,192,275092,128,0,275546:0:0:0:0:
448,192,275546,1,0,0:0:0:0:
448,192,275660,1,0,0:0:0:0:
64,192,275773,1,0,0:0:0:0:
320,192,275887,1,0,0:0:0:0:
192,192,275925,1,0,0:0:0:0:
64,192,275963,1,0,0:0:0:0:
448,192,276001,1,0,0:0:0:0:
192,192,276114,1,0,0:0:0:0:
320,192,276152,1,0,0:0:0:0:
448,192,276190,1,0,0:0:0:0:
64,192,276228,1,0,0:0:0:0:
320,192,276342,1,0,0:0:0:0:
448,192,276455,128,0,276531:0:0:0:0:
64,192,276455,128,0,276569:0:0:0:0:
192,192,276569,1,0,0:0:0:0:
448,192,276682,1,0,0:0:0:0:
192,192,276796,128,0,276910:0:0:0:0:
320,192,276796,128,0,276910:0:0:0:0:
64,192,276910,128,0,277023:0:0:0:0:
448,192,276910,128,0,276985:0:0:0:0:
192,192,277023,1,0,0:0:0:0:
320,192,277137,128,0,277251:0:0:0:0:
64,192,277137,128,0,277251:0:0:0:0:
192,192,277251,1,0,0:0:0:0:
448,192,277364,128,0,277478:0:0:0:0:
320,192,277364,128,0,277478:0:0:0:0:
64,192,277478,1,0,0:0:0:0:
320,192,277592,1,0,0:0:0:0:
64,192,277705,1,0,0:0:0:0:
448,192,277819,128,0,278046:0:0:0:0:
192,192,277819,1,0,0:0:0:0:
320,192,277819,128,0,277895:0:0:0:0:
64,192,278046,1,0,0:0:0:0:
192,192,278084,1,0,0:0:0:0:
320,192,278122,1,0,0:0:0:0:
448,192,278160,1,0,0:0:0:0:
64,192,278198,1,0,0:0:0:0:
192,192,278235,1,0,0:0:0:0:
448,192,278273,128,0,278387:0:0:0:0:
320,192,278273,128,0,278349:0:0:0:0:
64,192,278387,1,0,0:0:0:0:
320,192,278501,1,0,0:0:0:0:
64,192,278614,128,0,278728:0:0:0:0:
192,192,278614,128,0,278728:0:0:0:0:
448,192,278728,128,0,278842:0:0:0:0:
320,192,278728,128,0,278804:0:0:0:0:
64,192,278842,1,0,0:0:0:0:
192,192,278955,128,0,279069:0:0:0:0:
448,192,278955,128,0,279069:0:0:0:0:
320,192,279069,1,0,0:0:0:0:
448,192,279182,128,0,279296:0:0:0:0:
64,192,279182,128,0,279258:0:0:0:0:
192,192,279296,1,0,0:0:0:0:
448,192,279410,1,0,0:0:0:0:
448,192,279523,1,0,0:0:0:0:
64,192,279637,1,0,0:0:0:0:
320,192,279637,128,0,279751:0:0:0:0:
192,192,279637,128,0,279713:0:0:0:0:
448,192,279751,128,0,279978:0:0:0:0:
192,192,279864,128,0,279978:0:0:0:0:
320,192,279978,128,0,280092:0:0:0:0:
64,192,280092,128,0,280205:0:0:0:0:
192,192,280092,128,0,280167:0:0:0:0:
448,192,280205,1,0,0:0:0:0:
192,192,280319,1,0,0:0:0:0:
320,192,280432,128,0,280546:0:0:0:0:
448,192,280432,128,0,280546:0:0:0:0:
64,192,280546,128,0,280660:0:0:0:0:
192,192,280546,128,0,280622:0:0:0:0:
320,192,280660,1,0,0:0:0:0:
448,192,280773,128,0,280887:0:0:0:0:
192,192,280773,128,0,280887:0:0:0:0:
64,192,280887,1,0,0:0:0:0:
320,192,281001,128,0,281076:0:0:0:0:
448,192,281001,128,0,281114:0:0:0:0:
192,192,281114,1,0,0:0:0:0:
64,192,281228,1,0,0:0:0:0:
192,192,281342,1,0,0:0:0:0:
320,192,281455,1,0,0:0:0:0:
448,192,281455,1,0,0:0:0:0:
64,192,281455,1,0,0:0:0:0:
192,192,281569,1,0,0:0:0:0:
64,192,281569,1,0,0:0:0:0:
320,192,281682,128,0,281910:0:0:0:0:
64,192,281796,1,0,0:0:0:0:
448,192,281910,128,0,282023:0:0:0:0:
192,192,281910,128,0,281985:0:0:0:0:
64,192,282023,1,0,0:0:0:0:
448,192,282137,1,0,0:0:0:0:
320,192,282251,128,0,282364:0:0:0:0:
64,192,282251,128,0,282364:0:0:0:0:
192,192,282364,128,0,282478:0:0:0:0:
448,192,282364,128,0,282440:0:0:0:0:
320,192,282478,1,0,0:0:0:0:
448,192,282592,128,0,282705:0:0:0:0:
64,192,282592,128,0,282705:0:0:0:0:
192,192,282705,1,0,0:0:0:0:
64,192,282819,128,0,282932:0:0:0:0:
320,192,282819,128,0,282895:0:0:0:0:
448,192,282932,1,0,0:0:0:0:
192,192,283046,1,0,0:0:0:0:
192,192,283160,1,0,0:0:0:0:
64,192,283273,1,0,0:0:0:0:
448,192,283273,128,0,283387:0:0:0:0:
320,192,283273,128,0,283349:0:0:0:0:
192,192,283387,128,0,283501:0:0:0:0:
448,192,283501,1,0,0:0:0:0:
320,192,283557,1,0,0:0:0:0:
192,192,283614,1,0,0:0:0:0:
64,192,283671,1,0,0:0:0:0:
448,192,283728,128,0,283842:0:0:0:0:
320,192,283728,128,0,283804:0:0:0:0:
192,192,283728,1,0,0:0:0:0:
64,192,283842,1,0,0:0:0:0:
192,192,283955,1,0,0:0:0:0:
448,192,284069,128,0,284182:0:0:0:0:
192,192,284182,128,0,284296:0:0:0:0:
64,192,284182,128,0,284296:0:0:0:0:
320,192,284182,128,0,284258:0:0:0:0:
448,192,284296,1,0,0:0:0:0:
192,192,284410,128,0,284523:0:0:0:0:
448,192,284410,128,0,284523:0:0:0:0:
64,192,284523,1,0,0:0:0:0:
320,192,284637,128,0,284751:0:0:0:0:
448,192,284637,128,0,284751:0:0:0:0:
64,192,284637,128,0,284713:0:0:0:0:
192,192,284751,1,0,0:0:0:0:
320,192,284864,1,0,0:0:0:0:
192,192,284978,1,0,0:0:0:0:
448,192,285092,128,0,285319:0:0:0:0:
64,192,285092,128,0,285167:0:0:0:0:
320,192,285092,128,0,285205:0:0:0:0:
192,192,285319,1,0,0:0:0:0:
64,192,285357,1,0,0:0:0:0:
320,192,285395,1,0,0:0:0:0:
448,192,285432,1,0,0:0:0:0:
192,192,285470,1,0,0:0:0:0:
64,192,285508,1,0,0:0:0:0:
448,192,285546,128,0,285660:0:0:0:0:
320,192,285546,128,0,285660:0:0:0:0:
64,192,285660,1,0,0:0:0:0:
320,192,285773,1,0,0:0:0:0:
64,192,285887,128,0,286001:0:0:0:0:
448,192,286001,128,0,286114:0:0:0:0:
320,192,286001,128,0,286114:0:0:0:0:
192,192,286001,128,0,286076:0:0:0:0:
64,192,286114,1,0,0:0:0:0:
320,192,286228,128,0,286342:0:0:0:0:
192,192,286228,128,0,286342:0:0:0:0:
448,192,286342,1,0,0:0:0:0:
192,192,286455,128,0,286569:0:0:0:0:
64,192,286455,128,0,286569:0:0:0:0:
320,192,286455,128,0,286531:0:0:0:0:
448,192,286569,1,0,0:0:0:0:
320,192,286682,1,0,0:0:0:0:
320,192,286796,1,0,0:0:0:0:
192,192,286910,128,0,287023:0:0:0:0:
64,192,286910,128,0,286985:0:0:0:0:
448,192,286910,128,0,287023:0:0:0:0:
320,192,287023,128,0,287251:0:0:0:0:
192,192,287137,128,0,287251:0:0:0:0:
448,192,287251,128,0,287364:0:0:0:0:
64,192,287364,128,0,287478:0:0:0:0:
192,192,287364,128,0,287478:0:0:0:0:
320,192,287364,128,0,287440:0:0:0:0:
448,192,287478,1,0,0:0:0:0:
192,192,287592,128,0,287667:0:0:0:0:
64,192,287592,128,0,287667:0:0:0:0:
448,192,287705,128,0,287819:0:0:0:0:
64,192,287819,128,0,287932:0:0:0:0:
192,192,287819,128,0,287932:0:0:0:0:
320,192,287819,128,0,287895:0:0:0:0:
448,192,287932,1,0,0:0:0:0:
192,192,288046,128,0,288160:0:0:0:0:
320,192,288046,128,0,288160:0:0:0:0:
64,192,288160,1,0,0:0:0:0:
320,192,288273,128,0,288387:0:0:0:0:
448,192,288273,128,0,288387:0:0:0:0:
192,192,288273,128,0,288349:0:0:0:0:
64,192,288387,1,0,0:0:0:0:
320,192,288501,128,0,288576:0:0:0:0:
192,192,288501,128,0,288576:0:0:0:0:
448,192,288614,1,0,0:0:0:0:
64,192,288728,128,0,288842:0:0:0:0:
192,192,288728,128,0,288842:0:0:0:0:
320,192,288728,128,0,288804:0:0:0:0:
448,192,288842,1,0,0:0:0:0:
320,192,288955,1,0,0:0:0:0:
192,192,289031,1,0,0:0:0:0:
64,192,289107,1,0,0:0:0:0:
448,192,289182,1,0,0:0:0:0:
320,192,289182,1,0,0:0:0:0:
192,192,289239,1,0,0:0:0:0:
64,192,289296,1,0,0:0:0:0:
320,192,289353,1,0,0:0:0:0:
448,192,289410,1,0,0:0:0:0:
64,192,289467,1,0,0:0:0:0:
192,192,289523,1,0,0:0:0:0:
320,192,289523,1,0,0:0:0:0:
448,192,289580,1,0,0:0:0:0:
64,192,289637,1,0,0:0:0:0:
192,192,289694,1,0,0:0:0:0:
448,192,289751,1,0,0:0:0:0:
320,192,289807,1,0,0:0:0:0:
64,192,289864,1,0,0:0:0:0:
192,192,289864,1,0,0:0:0:0:
448,192,289921,1,0,0:0:0:0:
320,192,289978,1,0,0:0:0:0:
192,192,290035,1,0,0:0:0:0:
64,192,290092,1,0,0:0:0:0:
448,192,290092,1,0,0:0:0:0:
320,192,290167,1,0,0:0:0:0:
64,192,290243,1,0,0:0:0:0:
192,192,290319,1,0,0:0:0:0:
448,192,290319,1,0,0:0:0:0:
320,192,290432,1,0,0:0:0:0:
64,192,290546,128,0,290773:0:0:0:0:
192,192,290546,128,0,291001:0:0:0:0:
320,192,290773,1,0,0:0:0:0:
64,192,291001,128,0,291114:0:0:0:0:
448,192,291001,128,0,291114:0:0:0:0:
320,192,291114,128,0,291228:0:0:0:0:
64,192,291228,1,0,0:0:0:0:
192,192,291342,128,0,291455:0:0:0:0:
64,192,291455,128,0,291569:0:0:0:0:
320,192,291455,128,0,291682:0:0:0:0:
448,192,291455,1,0,0:0:0:0:
192,192,291569,128,0,291682:0:0:0:0:
448,192,291682,128,0,291796:0:0:0:0:
64,192,291682,128,0,291910:0:0:0:0:
320,192,291796,128,0,291910:0:0:0:0:
448,192,291910,128,0,292137:0:0:0:0:
192,192,291910,128,0,292023:0:0:0:0:
320,192,292023,128,0,292137:0:0:0:0:
64,192,292137,128,0,292251:0:0:0:0:
192,192,292251,128,0,292364:0:0:0:0:
448,192,292364,128,0,292592:0:0:0:0:
64,192,292364,128,0,292440:0:0:0:0:
320,192,292364,128,0,292478:0:0:0:0:
64,192,292592,1,0,0:0:0:0:
192,192,292629,1,0,0:0:0:0:
320,192,292667,1,0,0:0:0:0:
448,192,292705,1,0,0:0:0:0:
64,192,292743,1,0,0:0:0:0:
192,192,292781,1,0,0:0:0:0:
448,192,292819,128,0,292932:0:0:0:0:
320,192,292819,128,0,293046:0:0:0:0:
192,192,292932,128,0,293046:0:0:0:0:
64,192,293046,128,0,293160:0:0:0:0:
192,192,293160,128,0,293273:0:0:0:0:
448,192,293273,128,0,293387:0:0:0:0:
320,192,293273,128,0,293501:0:0:0:0:
64,192,293273,1,0,0:0:0:0:
64,192,293387,128,0,293501:0:0:0:0:
192,192,293501,128,0,293614:0:0:0:0:
448,192,293501,128,0,293728:0:0:0:0:
320,192,293614,128,0,293728:0:0:0:0:
192,192,293728,128,0,293842:0:0:0:0:
64,192,293728,128,0,293955:0:0:0:0:
320,192,293842,128,0,293955:0:0:0:0:
448,192,293955,1,0,0:0:0:0:
448,192,294069,1,0,0:0:0:0:
64,192,294182,1,0,0:0:0:0:
320,192,294182,128,0,294296:0:0:0:0:
192,192,294182,128,0,294258:0:0:0:0:
448,192,294296,128,0,294523:0:0:0:0:
192,192,294410,128,0,294523:0:0:0:0:
320,192,294523,128,0,294637:0:0:0:0:
64,192,294637,128,0,294864:0:0:0:0:
448,192,294637,128,0,294751:0:0:0:0:
192,192,294751,128,0,294864:0:0:0:0:
448,192,294864,128,0,294978:0:0:0:0:
320,192,294978,128,0,295092:0:0:0:0:
64,192,295092,128,0,295205:0:0:0:0:
192,192,295092,128,0,295319:0:0:0:0:
448,192,295092,1,0,0:0:0:0:
320,192,295205,128,0,295319:0:0:0:0:
448,192,295319,128,0,295432:0:0:0:0:
64,192,295319,128,0,295546:0:0:0:0:
320,192,295432,128,0,295546:0:0:0:0:
192,192,295546,128,0,295660:0:0:0:0:
448,192,295546,128,0,295773:0:0:0:0:
320,192,295660,128,0,295773:0:0:0:0:
64,192,295773,128,0,295887:0:0:0:0:
192,192,295887,128,0,296001:0:0:0:0:
320,192,296001,1,0,0:0:0:0:
64,192,296001,1,0,0:0:0:0:
448,192,296001,1,0,0:0:0:0:
192,192,296114,1,0,0:0:0:0:
448,192,296114,1,0,0:0:0:0:
320,192,296228,128,0,296455:0:0:0:0:
64,192,296342,128,0,296455:0:0:0:0:
448,192,296455,128,0,296682:0:0:0:0:
192,192,296455,128,0,296569:0:0:0:0:
64,192,296569,128,0,296682:0:0:0:0:
320,192,296682,128,0,296796:0:0:0:0:
192,192,296796,128,0,296910:0:0:0:0:
320,192,296910,128,0,297137:0:0:0:0:
448,192,296910,128,0,297023:0:0:0:0:
64,192,296910,1,0,0:0:0:0:
192,192,297023,128,0,297137:0:0:0:0:
448,192,297137,128,0,297364:0:0:0:0:
64,192,297137,128,0,297251:0:0:0:0:
192,192,297251,128,0,297364:0:0:0:0:
64,192,297364,128,0,297592:0:0:0:0:
320,192,297364,128,0,297478:0:0:0:0:
448,192,297478,1,0,0:0:0:0:
192,192,297592,1,0,0:0:0:0:
192,192,297705,1,0,0:0:0:0:
320,192,297819,1,0,0:0:0:0:
64,192,297819,1,0,0:0:0:0:
448,192,297819,128,0,297932:0:0:0:0:
192,192,297932,128,0,298046:0:0:0:0:
448,192,298046,1,0,0:0:0:0:
320,192,298084,1,0,0:0:0:0:
64,192,298122,1,0,0:0:0:0:
192,192,298160,1,0,0:0:0:0:
448,192,298198,1,0,0:0:0:0:
320,192,298235,1,0,0:0:0:0:
64,192,298273,128,0,298501:0:0:0:0:
192,192,298273,128,0,298387:0:0:0:0:
448,192,298387,128,0,298501:0:0:0:0:
320,192,298501,128,0,298614:0:0:0:0:
448,192,298614,128,0,298728:0:0:0:0:
192,192,298728,128,0,298842:0:0:0:0:
64,192,298728,128,0,298955:0:0:0:0:
320,192,298728,1,0,0:0:0:0:
448,192,298842,128,0,298955:0:0:0:0:
192,192,298955,128,0,299182:0:0:0:0:
320,192,298955,128,0,299069:0:0:0:0:
64,192,299069,128,0,299182:0:0:0:0:
320,192,299182,128,0,299296:0:0:0:0:
448,192,299182,128,0,299410:0:0:0:0:
64,192,299296,128,0,299410:0:0:0:0:
192,192,299410,128,0,299523:0:0:0:0:
320,192,299523,128,0,299637:0:0:0:0:
192,192,299637,128,0,299751:0:0:0:0:
64,192,299637,128,0,299713:0:0:0:0:
448,192,299637,128,0,299864:0:0:0:0:
64,192,299864,1,0,0:0:0:0:
192,192,299902,1,0,0:0:0:0:
448,192,299940,1,0,0:0:0:0:
320,192,299978,1,0,0:0:0:0:
64,192,300016,1,0,0:0:0:0:
192,192,300054,1,0,0:0:0:0:
448,192,300092,128,0,300319:0:0:0:0:
320,192,300092,128,0,300205:0:0:0:0:
64,192,300205,128,0,300319:0:0:0:0:
192,192,300319,128,0,300432:0:0:0:0:
320,192,300432,128,0,300546:0:0:0:0:
448,192,300546,128,0,300773:0:0:0:0:
192,192,300546,128,0,300660:0:0:0:0:
64,192,300546,1,0,0:0:0:0:
320,192,300660,128,0,300773:0:0:0:0:
192,192,300773,128,0,300887:0:0:0:0:
64,192,300773,128,0,301001:0:0:0:0:
448,192,300887,128,0,301001:0:0:0:0:
192,192,301001,128,0,301228:0:0:0:0:
320,192,301001,128,0,301114:0:0:0:0:
64,192,301114,1,0,0:0:0:0:
448,192,301228,1,0,0:0:0:0:
448,192,301342,1,0,0:0:0:0:
64,192,301455,1,0,0:0:0:0:
320,192,301455,128,0,301569:0:0:0:0:
192,192,301455,128,0,301531:0:0:0:0:
448,192,301569,128,0,301796:0:0:0:0:
192,192,301682,128,0,301796:0:0:0:0:
320,192,301796,128,0,301910:0:0:0:0:
64,192,301910,128,0,302137:0:0:0:0:
192,192,301910,128,0,302023:0:0:0:0:
448,192,302023,128,0,302137:0:0:0:0:
320,192,302137,128,0,302251:0:0:0:0:
448,192,302251,128,0,302364:0:0:0:0:
64,192,302364,128,0,302592:0:0:0:0:
192,192,302364,128,0,302478:0:0:0:0:
320,192,302364,1,0,0:0:0:0:
448,192,302478,128,0,302592:0:0:0:0:
320,192,302592,128,0,302819:0:0:0:0:
192,192,302592,128,0,302705:0:0:0:0:
64,192,302705,128,0,302819:0:0:0:0:
448,192,302819,128,0,303046:0:0:0:0:
192,192,302819,128,0,302932:0:0:0:0:
320,192,302932,128,0,303046:0:0:0:0:
64,192,303046,128,0,303160:0:0:0:0:
448,192,303160,128,0,303273:0:0:0:0:
320,192,303273,1,0,0:0:0:0:
192,192,303273,1,0,0:0:0:0:
64,192,303273,1,0,0:0:0:0:
320,192,303387,1,0,0:0:0:0:
448,192,303387,1,0,0:0:0:0:
64,192,303501,128,0,303728:0:0:0:0:
320,192,303614,128,0,303728:0:0:0:0:
448,192,303728,128,0,304182:0:0:0:0:
192,192,303728,128,0,303842:0:0:0:0:
192,192,304069,128,0,304182:0:0:0:0:
320,192,304182,128,0,304637:0:0:0:0:
192,192,304410,128,0,304523:0:0:0:0:
192,192,304637,128,0,304751:0:0:0:0:
64,192,304637,128,0,304751:0:0:0:0:
448,192,304751,128,0,304864:0:0:0:0:
192,192,304864,128,0,304978:0:0:0:0:
64,192,304864,128,0,304978:0:0:0:0:
448,192,304978,1,0,0:0:0:0:
320,192,305016,1,0,0:0:0:0:
192,192,305054,1,0,0:0:0:0:
64,192,305092,128,0,305205:0:0:0:0:
448,192,305205,1,0,0:0:0:0:
320,192,305243,1,0,0:0:0:0:
192,192,305281,1,0,0:0:0:0:
448,192,305319,128,0,305432:0:0:0:0:
64,192,305319,1,0,0:0:0:0:
320,192,305432,1,0,0:0:0:0:
192,192,305546,128,0,305660:0:0:0:0:
64,192,305546,128,0,305660:0:0:0:0:
320,192,305660,1,0,0:0:0:0:
448,192,305773,1,0,0:0:0:0:
320,192,305887,128,0,306001:0:0:0:0:
64,192,306001,128,0,306114:0:0:0:0:
448,192,306001,128,0,306228:0:0:0:0:
192,192,306001,1,0,0:0:0:0:
320,192,306114,128,0,306228:0:0:0:0:
192,192,306228,128,0,306342:0:0:0:0:
64,192,306228,128,0,306455:0:0:0:0:
320,192,306342,128,0,306455:0:0:0:0:
448,192,306455,128,0,306682:0:0:0:0:
192,192,306455,128,0,306569:0:0:0:0:
64,192,306569,128,0,306682:0:0:0:0:
192,192,306682,128,0,306796:0:0:0:0:
320,192,306796,128,0,306910:0:0:0:0:
448,192,306910,128,0,307137:0:0:0:0:
64,192,306910,128,0,306985:0:0:0:0:
192,192,306910,128,0,307023:0:0:0:0:
64,192,307137,1,0,0:0:0:0:
192,192,307175,1,0,0:0:0:0:
448,192,307213,1,0,0:0:0:0:
320,192,307251,1,0,0:0:0:0:
64,192,307288,1,0,0:0:0:0:
192,192,307326,1,0,0:0:0:0:
448,192,307364,128,0,307478:0:0:0:0:
320,192,307364,128,0,307592:0:0:0:0:
64,192,307478,128,0,307592:0:0:0:0:
448,192,307592,128,0,307705:0:0:0:0:
192,192,307705,128,0,307819:0:0:0:0:
448,192,307819,128,0,307932:0:0:0:0:
320,192,307819,128,0,308046:0:0:0:0:
64,192,307819,1,0,0:0:0:0:
192,192,307932,128,0,308046:0:0:0:0:
64,192,308046,128,0,308160:0:0:0:0:
448,192,308046,128,0,308273:0:0:0:0:
320,192,308160,128,0,308273:0:0:0:0:
192,192,308273,128,0,308387:0:0:0:0:
64,192,308273,128,0,308501:0:0:0:0:
320,192,308387,128,0,308501:0:0:0:0:
448,192,308501,1,0,0:0:0:0:
448,192,308614,1,0,0:0:0:0:
192,192,308728,1,0,0:0:0:0:
320,192,308728,128,0,308842:0:0:0:0:
64,192,308728,128,0,308804:0:0:0:0:
448,192,308842,128,0,309069:0:0:0:0:
192,192,308955,128,0,309069:0:0:0:0:
320,192,309069,128,0,309182:0:0:0:0:
64,192,309182,128,0,309410:0:0:0:0:
192,192,309182,128,0,309296:0:0:0:0:
448,192,309296,128,0,309410:0:0:0:0:
320,192,309410,128,0,309523:0:0:0:0:
192,192,309523,128,0,309637:0:0:0:0:
320,192,309637,128,0,309751:0:0:0:0:
64,192,309637,128,0,309864:0:0:0:0:
448,192,309637,1,0,0:0:0:0:
448,192,309751,128,0,309864:0:0:0:0:
320,192,309864,128,0,309978:0:0:0:0:
192,192,309864,128,0,310092:0:0:0:0:
64,192,309978,128,0,310092:0:0:0:0:
320,192,310092,128,0,310205:0:0:0:0:
448,192,310092,128,0,310319:0:0:0:0:
192,192,310205,128,0,310319:0:0:0:0:
64,192,310319,128,0,310432:0:0:0:0:
192,192,310432,128,0,310546:0:0:0:0:
320,192,310546,1,0,0:0:0:0:
64,192,310546,1,0,0:0:0:0:
448,192,310546,1,0,0:0:0:0:
192,192,310660,1,0,0:0:0:0:
64,192,310660,1,0,0:0:0:0:
320,192,310773,128,0,311001:0:0:0:0:
64,192,310887,128,0,311001:0:0:0:0:
448,192,311001,128,0,311228:0:0:0:0:
192,192,311001,128,0,311114:0:0:0:0:
64,192,311114,128,0,311228:0:0:0:0:
320,192,311228,128,0,311342:0:0:0:0:
192,192,311342,128,0,311455:0:0:0:0:
320,192,311455,128,0,311682:0:0:0:0:
448,192,311455,128,0,311569:0:0:0:0:
64,192,311455,1,0,0:0:0:0:
192,192,311569,128,0,311682:0:0:0:0:
448,192,311682,128,0,311910:0:0:0:0:
64,192,311682,128,0,311796:0:0:0:0:
192,192,311796,128,0,311910:0:0:0:0:
64,192,311910,128,0,312137:0:0:0:0:
320,192,311910,128,0,312023:0:0:0:0:
448,192,312023,1,0,0:0:0:0:
192,192,312137,1,0,0:0:0:0:
192,192,312251,1,0,0:0:0:0:
64,192,312364,1,0,0:0:0:0:
448,192,312364,128,0,312478:0:0:0:0:
320,192,312364,128,0,312440:0:0:0:0:
192,192,312478,128,0,312592:0:0:0:0:
448,192,312592,1,0,0:0:0:0:
320,192,312629,1,0,0:0:0:0:
64,192,312667,1,0,0:0:0:0:
192,192,312705,1,0,0:0:0:0:
448,192,312743,1,0,0:0:0:0:
320,192,312781,1,0,0:0:0:0:
64,192,312819,128,0,313046:0:0:0:0:
192,192,312819,128,0,312932:0:0:0:0:
448,192,312932,128,0,313046:0:0:0:0:
320,192,313046,128,0,313160:0:0:0:0:
192,192,313160,128,0,313273:0:0:0:0:
448,192,313273,128,0,313387:0:0:0:0:
64,192,313273,128,0,313501:0:0:0:0:
320,192,313273,1,0,0:0:0:0:
320,192,313387,128,0,313501:0:0:0:0:
192,192,313501,128,0,313728:0:0:0:0:
448,192,313501,128,0,313614:0:0:0:0:
64,192,313614,128,0,313728:0:0:0:0:
320,192,313728,128,0,313842:0:0:0:0:
448,192,313728,128,0,313955:0:0:0:0:
64,192,313842,128,0,313955:0:0:0:0:
192,192,313955,128,0,314069:0:0:0:0:
320,192,314069,128,0,314182:0:0:0:0:
448,192,314182,128,0,314410:0:0:0:0:
192,192,314182,128,0,314296:0:0:0:0:
64,192,314182,128,0,314258:0:0:0:0:
64,192,314410,1,0,0:0:0:0:
192,192,314448,1,0,0:0:0:0:
448,192,314485,1,0,0:0:0:0:
320,192,314523,1,0,0:0:0:0:
64,192,314561,1,0,0:0:0:0:
192,192,314599,1,0,0:0:0:0:
448,192,314637,128,0,314864:0:0:0:0:
320,192,314637,128,0,314751:0:0:0:0:
64,192,314751,128,0,314864:0:0:0:0:
320,192,314978,128,0,315092:0:0:0:0:
448,192,315092,128,0,315319:0:0:0:0:
192,192,315092,128,0,315205:0:0:0:0:
64,192,315092,1,0,0:0:0:0:
320,192,315205,128,0,315319:0:0:0:0:
192,192,315319,128,0,315432:0:0:0:0:
64,192,315319,128,0,315546:0:0:0:0:
448,192,315432,128,0,315546:0:0:0:0:
192,192,315546,128,0,315773:0:0:0:0:
320,192,315546,128,0,315660:0:0:0:0:
64,192,315660,1,0,0:0:0:0:
448,192,315773,1,0,0:0:0:0:
448,192,315887,1,0,0:0:0:0:
64,192,316001,1,0,0:0:0:0:
320,192,316001,128,0,316114:0:0:0:0:
192,192,316001,128,0,316076:0:0:0:0:
448,192,316114,128,0,316342:0:0:0:0:
192,192,316228,128,0,316342:0:0:0:0:
320,192,316342,128,0,316455:0:0:0:0:
64,192,316455,128,0,316682:0:0:0:0:
448,192,316455,128,0,316569:0:0:0:0:
192,192,316569,128,0,316682:0:0:0:0:
448,192,316796,128,0,316910:0:0:0:0:
64,192,316910,128,0,317137:0:0:0:0:
192,192,316910,128,0,317023:0:0:0:0:
320,192,316910,1,0,0:0:0:0:
448,192,317023,128,0,317137:0:0:0:0:
320,192,317137,128,0,317364:0:0:0:0:
192,192,317137,128,0,317251:0:0:0:0:
448,192,317364,128,0,317592:0:0:0:0:
64,192,317364,128,0,317478:0:0:0:0:
320,192,317592,128,0,317819:0:0:0:0:
448,192,317819,1,0,0:0:0:0:
192,192,317819,1,0,0:0:0:0:
64,192,317819,1,0,0:0:0:0:
320,192,317932,1,0,0:0:0:0:
448,192,317932,1,0,0:0:0:0:
64,192,318046,128,0,318273:0:0:0:0:
320,192,318160,128,0,318273:0:0:0:0:
448,192,318273,128,0,318501:0:0:0:0:
192,192,318273,128,0,318387:0:0:0:0:
64,192,318387,128,0,318501:0:0:0:0:
192,192,318614,128,0,318728:0:0:0:0:
320,192,318728,128,0,318955:0:0:0:0:
448,192,318728,128,0,318842:0:0:0:0:
64,192,318728,128,0,318804:0:0:0:0:
448,192,318955,128,0,319182:0:0:0:0:
64,192,318955,128,0,319069:0:0:0:0:
320,192,319182,1,0,0:0:0:0:
64,192,319182,1,0,0:0:0:0:
64,192,319410,1,0,0:0:0:0:
448,192,319410,1,0,0:0:0:0:
64,192,319637,128,0,320092:0:0:0:0:
320,192,319637,128,0,319864:0:0:0:0:
192,192,319637,128,0,319864:0:0:0:0:
448,192,319864,128,0,319978:0:0:0:0:
448,192,320092,128,0,320205:0:0:0:0:
320,192,320092,128,0,320205:0:0:0:0:
192,192,320205,1,0,0:0:0:0:
64,192,320319,1,0,0:0:0:0:
192,192,320432,128,0,320546:0:0:0:0:
320,192,320432,128,0,320546:0:0:0:0:
64,192,320546,128,0,320660:0:0:0:0:
448,192,320546,128,0,320622:0:0:0:0:
192,192,320660,1,0,0:0:0:0:
320,192,320773,128,0,320887:0:0:0:0:
64,192,320773,128,0,320887:0:0:0:0:
192,192,320887,1,0,0:0:0:0:
448,192,321001,128,0,321114:0:0:0:0:
320,192,321001,128,0,321114:0:0:0:0:
64,192,321114,1,0,0:0:0:0:
320,192,321228,1,0,0:0:0:0:
192,192,321342,1,0,0:0:0:0:
448,192,321455,128,0,321682:0:0:0:0:
320,192,321455,128,0,321531:0:0:0:0:
64,192,321455,128,0,321569:0:0:0:0:
64,192,321682,1,0,0:0:0:0:
192,192,321720,1,0,0:0:0:0:
448,192,321758,1,0,0:0:0:0:
320,192,321796,1,0,0:0:0:0:
64,192,321834,1,0,0:0:0:0:
192,192,321872,1,0,0:0:0:0:
448,192,321910,128,0,322023:0:0:0:0:
320,192,321910,128,0,322023:0:0:0:0:
64,192,322023,1,0,0:0:0:0:
320,192,322137,1,0,0:0:0:0:
64,192,322251,128,0,322364:0:0:0:0:
192,192,322251,128,0,322364:0:0:0:0:
448,192,322364,128,0,322478:0:0:0:0:
320,192,322364,128,0,322440:0:0:0:0:
64,192,322478,1,0,0:0:0:0:
192,192,322592,128,0,322705:0:0:0:0:
448,192,322592,128,0,322705:0:0:0:0:
320,192,322705,1,0,0:0:0:0:
192,192,322819,128,0,322932:0:0:0:0:
64,192,322819,128,0,322932:0:0:0:0:
320,192,322932,1,0,0:0:0:0:
448,192,323046,1,0,0:0:0:0:
448,192,323160,1,0,0:0:0:0:
64,192,323273,1,0,0:0:0:0:
320,192,323273,128,0,323387:0:0:0:0:
192,192,323273,128,0,323349:0:0:0:0:
448,192,323387,128,0,323614:0:0:0:0:
192,192,323501,128,0,323614:0:0:0:0:
320,192,323614,128,0,323728:0:0:0:0:
64,192,323728,128,0,323842:0:0:0:0:
192,192,323728,128,0,323842:0:0:0:0:
448,192,323842,1,0,0:0:0:0:
192,192,323955,1,0,0:0:0:0:
320,192,324069,128,0,324182:0:0:0:0:
448,192,324069,128,0,324182:0:0:0:0:
64,192,324182,128,0,324296:0:0:0:0:
192,192,324182,128,0,324258:0:0:0:0:
320,192,324296,1,0,0:0:0:0:
448,192,324410,128,0,324523:0:0:0:0:
64,192,324410,128,0,324523:0:0:0:0:
192,192,324523,1,0,0:0:0:0:
320,192,324637,128,0,324751:0:0:0:0:
448,192,324637,128,0,324751:0:0:0:0:
192,192,324751,1,0,0:0:0:0:
64,192,324864,1,0,0:0:0:0:
192,192,324978,1,0,0:0:0:0:
320,192,325092,1,0,0:0:0:0:
64,192,325092,1,0,0:0:0:0:
448,192,325092,1,0,0:0:0:0:
192,192,325205,1,0,0:0:0:0:
64,192,325205,1,0,0:0:0:0:
320,192,325319,128,0,325546:0:0:0:0:
64,192,325432,1,0,0:0:0:0:
448,192,325546,128,0,325660:0:0:0:0:
192,192,325546,128,0,325660:0:0:0:0:
64,192,325660,1,0,0:0:0:0:
448,192,325773,1,0,0:0:0:0:
320,192,325887,128,0,326001:0:0:0:0:
192,192,325887,128,0,326001:0:0:0:0:
64,192,326001,128,0,326076:0:0:0:0:
448,192,326001,128,0,326114:0:0:0:0:
320,192,326114,1,0,0:0:0:0:
448,192,326228,128,0,326342:0:0:0:0:
64,192,326228,128,0,326342:0:0:0:0:
192,192,326342,1,0,0:0:0:0:
64,192,326455,128,0,326569:0:0:0:0:
320,192,326455,128,0,326569:0:0:0:0:
448,192,326569,1,0,0:0:0:0:
192,192,326682,1,0,0:0:0:0:
192,192,326796,1,0,0:0:0:0:
320,192,326910,1,0,0:0:0:0:
448,192,326910,128,0,327023:0:0:0:0:
64,192,326910,128,0,326985:0:0:0:0:
192,192,327023,128,0,327137:0:0:0:0:
320,192,327137,1,0,0:0:0:0:
448,192,327175,1,0,0:0:0:0:
192,192,327213,1,0,0:0:0:0:
64,192,327251,1,0,0:0:0:0:
320,192,327288,1,0,0:0:0:0:
448,192,327326,1,0,0:0:0:0:
64,192,327364,128,0,327478:0:0:0:0:
192,192,327364,128,0,327478:0:0:0:0:
320,192,327478,1,0,0:0:0:0:
192,192,327592,1,0,0:0:0:0:
320,192,327705,128,0,327819:0:0:0:0:
448,192,327705,128,0,327819:0:0:0:0:
192,192,327819,128,0,327895:0:0:0:0:
64,192,327819,128,0,327932:0:0:0:0:
320,192,327932,1,0,0:0:0:0:
192,192,328046,128,0,328160:0:0:0:0:
448,192,328046,128,0,328160:0:0:0:0:
64,192,328160,1,0,0:0:0:0:
320,192,328273,128,0,328387:0:0:0:0:
448,192,328273,128,0,328387:0:0:0:0:
192,192,328387,1,0,0:0:0:0:
64,192,328501,1,0,0:0:0:0:
192,192,328614,1,0,0:0:0:0:
448,192,328728,128,0,328955:0:0:0:0:
320,192,328728,128,0,328804:0:0:0:0:
64,192,328728,128,0,328842:0:0:0:0:
192,192,328955,1,0,0:0:0:0:
64,192,328993,1,0,0:0:0:0:
320,192,329031,1,0,0:0:0:0:
448,192,329069,1,0,0:0:0:0:
192,192,329107,1,0,0:0:0:0:
64,192,329145,1,0,0:0:0:0:
448,192,329182,128,0,329296:0:0:0:0:
320,192,329182,128,0,329296:0:0:0:0:
64,192,329296,1,0,0:0:0:0:
320,192,329410,1,0,0:0:0:0:
64,192,329523,128,0,329637:0:0:0:0:
192,192,329523,128,0,329637:0:0:0:0:
448,192,329637,128,0,329751:0:0:0:0:
320,192,329637,128,0,329713:0:0:0:0:
192,192,329751,1,0,0:0:0:0:
320,192,329864,128,0,329978:0:0:0:0:
64,192,329864,128,0,329978:0:0:0:0:
448,192,329978,1,0,0:0:0:0:
192,192,330092,128,0,330205:0:0:0:0:
64,192,330092,128,0,330205:0:0:0:0:
320,192,330205,1,0,0:0:0:0:
448,192,330319,1,0,0:0:0:0:
448,192,330432,1,0,0:0:0:0:
192,192,330546,1,0,0:0:0:0:
320,192,330546,128,0,330660:0:0:0:0:
64,192,330546,128,0,330622:0:0:0:0:
448,192,330660,128,0,330887:0:0:0:0:
192,192,330773,128,0,330887:0:0:0:0:
320,192,330887,128,0,331001:0:0:0:0:
64,192,331001,128,0,331114:0:0:0:0:
192,192,331001,128,0,331114:0:0:0:0:
448,192,331114,1,0,0:0:0:0:
192,192,331228,1,0,0:0:0:0:
448,192,331342,128,0,331455:0:0:0:0:
320,192,331342,128,0,331455:0:0:0:0:
64,192,331455,128,0,331531:0:0:0:0:
192,192,331455,128,0,331569:0:0:0:0:
448,192,331569,1,0,0:0:0:0:
192,192,331682,128,0,331796:0:0:0:0:
320,192,331682,128,0,331796:0:0:0:0:
64,192,331796,1,0,0:0:0:0:
320,192,331910,128,0,332023:0:0:0:0:
448,192,331910,128,0,332023:0:0:0:0:
192,192,332023,1,0,0:0:0:0:
64,192,332137,1,0,0:0:0:0:
448,192,332251,1,0,0:0:0:0:
320,192,332364,1,0,0:0:0:0:
192,192,332364,1,0,0:0:0:0:
64,192,332364,1,0,0:0:0:0:
320,192,332478,1,0,0:0:0:0:
448,192,332478,1,0,0:0:0:0:
64,192,332592,128,0,332819:0:0:0:0:
192,192,332705,1,0,0:0:0:0:
320,192,332819,128,0,333273:0:0:0:0:
448,192,333273,128,0,333728:0:0:0:0:
64,192,333273,1,0,0:0:0:0:
192,192,333387,1,0,0:0:0:0:
64,192,333614,1,0,0:0:0:0:
192,192,333671,1,0,0:0:0:0:
320,192,333728,128,0,333842:0:0:0:0:
64,192,333728,128,0,333842:0:0:0:0:
192,192,333842,128,0,333955:0:0:0:0:
64,192,333955,128,0,334069:0:0:0:0:
448,192,333955,128,0,334069:0:0:0:0:
192,192,334069,1,0,0:0:0:0:
320,192,334107,1,0,0:0:0:0:
448,192,334145,1,0,0:0:0:0:
64,192,334182,128,0,334296:0:0:0:0:
448,192,334296,1,0,0:0:0:0:
320,192,334334,1,0,0:0:0:0:
192,192,334372,1,0,0:0:0:0:
64,192,334410,1,0,0:0:0:0:
448,192,334410,128,0,334523:0:0:0:0:
320,192,334523,1,0,0:0:0:0:
64,192,334637,1,0,0:0:0:0:
448,192,334637,1,0,0:0:0:0:
192,192,334637,128,0,334751:0:0:0:0:
320,192,334864,1,0,0:0:0:0:
192,192,334978,128,0,335092:0:0:0:0:
64,192,335092,1,0,0:0:0:0:
320,192,335092,1,0,0:0:0:0:
448,192,335092,1,0,0:0:0:0:
192,192,335319,128,0,335432:0:0:0:0:
320,192,335546,1,0,0:0:0:0:
448,192,335546,1,0,0:0:0:0:
192,192,335660,128,0,335773:0:0:0:0:
64,192,335773,1,0,0:0:0:0:
192,192,336001,128,0,336114:0:0:0:0:
64,192,336001,1,0,0:0:0:0:
448,192,336001,1,0,0:0:0:0:
448,192,336228,1,0,0:0:0:0:
320,192,336342,128,0,336455:0:0:0:0:
448,192,336455,128,0,336569:0:0:0:0:
64,192,336455,1,0,0:0:0:0:
192,192,336682,1,0,0:0:0:0:
448,192,336796,128,0,336910:0:0:0:0:
320,192,336910,1,0,0:0:0:0:
192,192,336910,1,0,0:0:0:0:
64,192,336910,1,0,0:0:0:0:
448,192,337137,128,0,337251:0:0:0:0:
64,192,337137,1,0,0:0:0:0:
192,192,337364,1,0,0:0:0:0:
320,192,337364,1,0,0:0:0:0:
448,192,337478,128,0,337592:0:0:0:0:
192,192,337592,1,0,0:0:0:0:
192,192,337705,1,0,0:0:0:0:
448,192,337819,128,0,337932:0:0:0:0:
320,192,337819,1,0,0:0:0:0:
64,192,337819,1,0,0:0:0:0:
192,192,337932,1,0,0:0:0:0:
320,192,338046,1,0,0:0:0:0:
320,192,338160,128,0,338273:0:0:0:0:
64,192,338273,128,0,338387:0:0:0:0:
448,192,338273,1,0,0:0:0:0:
320,192,338501,1,0,0:0:0:0:
64,192,338614,128,0,338728:0:0:0:0:
192,192,338728,1,0,0:0:0:0:
320,192,338728,1,0,0:0:0:0:
448,192,338728,1,0,0:0:0:0:
64,192,338955,128,0,339069:0:0:0:0:
320,192,339182,1,0,0:0:0:0:
448,192,339182,1,0,0:0:0:0:
64,192,339296,128,0,339410:0:0:0:0:
192,192,339410,1,0,0:0:0:0:
64,192,339637,128,0,339751:0:0:0:0:
192,192,339637,1,0,0:0:0:0:
448,192,339637,1,0,0:0:0:0:
448,192,339864,1,0,0:0:0:0:
192,192,339978,128,0,340092:0:0:0:0:
320,192,340092,128,0,340205:0:0:0:0:
64,192,340092,1,0,0:0:0:0:
192,192,340319,1,0,0:0:0:0:
320,192,340432,128,0,340546:0:0:0:0:
64,192,340546,1,0,0:0:0:0:
448,192,340546,1,0,0:0:0:0:
192,192,340546,1,0,0:0:0:0:
320,192,340773,128,0,340887:0:0:0:0:
64,192,341001,1,0,0:0:0:0:
448,192,341001,1,0,0:0:0:0:
320,192,341114,128,0,341228:0:0:0:0:
192,192,341228,1,0,0:0:0:0:
192,192,341342,1,0,0:0:0:0:
320,192,341455,1,0,0:0:0:0:
64,192,341455,1,0,0:0:0:0:
448,192,341455,1,0,0:0:0:0:
192,192,341569,128,0,341682:0:0:0:0:
320,192,341682,1,0,0:0:0:0:
192,192,341796,128,0,341910:0:0:0:0:
64,192,341910,128,0,342023:0:0:0:0:
448,192,341910,1,0,0:0:0:0:
320,192,342137,1,0,0:0:0:0:
64,192,342251,128,0,342364:0:0:0:0:
192,192,342364,1,0,0:0:0:0:
320,192,342364,1,0,0:0:0:0:
448,192,342364,1,0,0:0:0:0:
64,192,342592,128,0,342705:0:0:0:0:
448,192,342819,1,0,0:0:0:0:
192,192,342819,1,0,0:0:0:0:
64,192,342932,128,0,343046:0:0:0:0:
320,192,343046,1,0,0:0:0:0:
64,192,343273,128,0,343387:0:0:0:0:
192,192,343273,1,0,0:0:0:0:
320,192,343273,1,0,0:0:0:0:
448,192,343501,1,0,0:0:0:0:
320,192,343614,128,0,343728:0:0:0:0:
448,192,343728,128,0,343842:0:0:0:0:
192,192,343728,1,0,0:0:0:0:
64,192,343955,1,0,0:0:0:0:
448,192,344069,128,0,344182:0:0:0:0:
64,192,344182,1,0,0:0:0:0:
192,192,344182,1,0,0:0:0:0:
320,192,344182,1,0,0:0:0:0:
448,192,344410,128,0,344523:0:0:0:0:
320,192,344637,1,0,0:0:0:0:
64,192,344637,1,0,0:0:0:0:
448,192,344751,128,0,344864:0:0:0:0:
192,192,344864,1,0,0:0:0:0:
192,192,344978,1,0,0:0:0:0:
448,192,345092,128,0,345205:0:0:0:0:
64,192,345092,1,0,0:0:0:0:
320,192,345092,1,0,0:0:0:0:
192,192,345205,1,0,0:0:0:0:
64,192,345319,1,0,0:0:0:0:
64,192,345432,128,0,345546:0:0:0:0:
320,192,345546,128,0,345660:0:0:0:0:
448,192,345546,1,0,0:0:0:0:
64,192,345773,1,0,0:0:0:0:
320,192,345887,128,0,346001:0:0:0:0:
192,192,346001,1,0,0:0:0:0:
64,192,346001,1,0,0:0:0:0:
448,192,346001,1,0,0:0:0:0:
320,192,346228,128,0,346342:0:0:0:0:
192,192,346455,1,0,0:0:0:0:
448,192,346455,1,0,0:0:0:0:
320,192,346569,128,0,346682:0:0:0:0:
64,192,346682,1,0,0:0:0:0:
320,192,346910,128,0,347023:0:0:0:0:
64,192,346910,1,0,0:0:0:0:
192,192,346910,1,0,0:0:0:0:
448,192,347137,1,0,0:0:0:0:
64,192,347251,128,0,347364:0:0:0:0:
192,192,347364,128,0,347478:0:0:0:0:
320,192,347364,1,0,0:0:0:0:
448,192,347592,1,0,0:0:0:0:
192,192,347705,128,0,347819:0:0:0:0:
64,192,347819,1,0,0:0:0:0:
320,192,347819,1,0,0:0:0:0:
448,192,347819,1,0,0:0:0:0:
192,192,348046,128,0,348160:0:0:0:0:
448,192,348273,1,0,0:0:0:0:
320,192,348273,1,0,0:0:0:0:
448,192,348501,1,0,0:0:0:0:
192,192,348501,1,0,0:0:0:0:
320,192,348728,128,0,349069:0:0:0:0:
448,192,348728,128,0,349182:0:0:0:0:
64,192,348728,128,0,349182:0:0:0:0:
192,192,348728,128,0,349069:0:0:0:0:
192,192,349182,1,0,0:0:0:0:
320,192,349182,128,0,349296:0:0:0:0:
64,192,349410,1,0,0:0:0:0:
320,192,349523,128,0,349637:0:0:0:0:
192,192,349637,1,0,0:0:0:0:
448,192,349637,1,0,0:0:0:0:
64,192,349637,1,0,0:0:0:0:
320,192,349864,128,0,349978:0:0:0:0:
64,192,350092,1,0,0:0:0:0:
448,192,350092,1,0,0:0:0:0:
320,192,350205,128,0,350319:0:0:0:0:
192,192,350319,1,0,0:0:0:0:
320,192,350546,128,0,350660:0:0:0:0:
192,192,350546,1,0,0:0:0:0:
64,192,350546,1,0,0:0:0:0:
448,192,350773,1,0,0:0:0:0:
192,192,350887,128,0,351001:0:0:0:0:
64,192,351001,128,0,351114:0:0:0:0:
320,192,351001,1,0,0:0:0:0:
448,192,351228,1,0,0:0:0:0:
64,192,351342,128,0,351455:0:0:0:0:
192,192,351455,1,0,0:0:0:0:
320,192,351455,1,0,0:0:0:0:
448,192,351455,1,0,0:0:0:0:
64,192,351682,128,0,351796:0:0:0:0:
320,192,351910,1,0,0:0:0:0:
448,192,351910,1,0,0:0:0:0:
64,192,352023,128,0,352137:0:0:0:0:
192,192,352137,1,0,0:0:0:0:
192,192,352251,1,0,0:0:0:0:
64,192,352364,128,0,352478:0:0:0:0:
448,192,352364,1,0,0:0:0:0:
320,192,352364,1,0,0:0:0:0:
192,192,352478,1,0,0:0:0:0:
448,192,352592,1,0,0:0:0:0:
448,192,352705,128,0,352819:0:0:0:0:
320,192,352819,128,0,352932:0:0:0:0:
64,192,352819,1,0,0:0:0:0:
192,192,353046,1,0,0:0:0:0:
320,192,353160,128,0,353273:0:0:0:0:
192,192,353273,1,0,0:0:0:0:
64,192,353273,1,0,0:0:0:0:
448,192,353273,1,0,0:0:0:0:
320,192,353501,128,0,353614:0:0:0:0:
192,192,353728,1,0,0:0:0:0:
448,192,353728,1,0,0:0:0:0:
320,192,353842,128,0,353955:0:0:0:0:
64,192,353955,1,0,0:0:0:0:
320,192,354182,128,0,354296:0:0:0:0:
64,192,354182,1,0,0:0:0:0:
192,192,354182,1,0,0:0:0:0:
448,192,354410,1,0,0:0:0:0:
64,192,354523,128,0,354637:0:0:0:0:
192,192,354637,128,0,354751:0:0:0:0:
320,192,354637,1,0,0:0:0:0:
448,192,354864,1,0,0:0:0:0:
192,192,354978,128,0,355092:0:0:0:0:
64,192,355092,1,0,0:0:0:0:
320,192,355092,1,0,0:0:0:0:
448,192,355092,1,0,0:0:0:0:
192,192,355319,128,0,355432:0:0:0:0:
320,192,355546,1,0,0:0:0:0:
448,192,355546,1,0,0:0:0:0:
192,192,355660,128,0,355773:0:0:0:0:
448,192,355773,1,0,0:0:0:0:
448,192,355887,128,0,356001:0:0:0:0:
192,192,356001,1,0,0:0:0:0:
320,192,356001,1,0,0:0:0:0:
64,192,356001,128,0,356114:0:0:0:0:
448,192,356228,1,0,0:0:0:0:
320,192,356285,1,0,0:0:0:0:
192,192,356342,1,0,0:0:0:0:
448,192,356398,1,0,0:0:0:0:
320,192,356455,1,0,0:0:0:0:
64,192,356455,128,0,356569:0:0:0:0:
448,192,356682,1,0,0:0:0:0:
64,192,356796,128,0,356910:0:0:0:0:
192,192,356910,1,0,0:0:0:0:
320,192,356910,1,0,0:0:0:0:
448,192,356910,1,0,0:0:0:0:
64,192,357137,128,0,357251:0:0:0:0:
320,192,357364,1,0,0:0:0:0:
448,192,357364,1,0,0:0:0:0:
64,192,357478,128,0,357592:0:0:0:0:
192,192,357592,1,0,0:0:0:0:
64,192,357819,128,0,357932:0:0:0:0:
192,192,357819,1,0,0:0:0:0:
448,192,357819,1,0,0:0:0:0:
320,192,358046,1,0,0:0:0:0:
192,192,358160,128,0,358273:0:0:0:0:
448,192,358273,128,0,358387:0:0:0:0:
64,192,358273,1,0,0:0:0:0:
192,192,358501,1,0,0:0:0:0:
448,192,358614,128,0,358728:0:0:0:0:
64,192,358728,1,0,0:0:0:0:
192,192,358728,1,0,0:0:0:0:
320,192,358728,1,0,0:0:0:0:
448,192,358955,128,0,359069:0:0:0:0:
64,192,359182,1,0,0:0:0:0:
320,192,359182,1,0,0:0:0:0:
448,192,359296,128,0,359410:0:0:0:0:
192,192,359410,1,0,0:0:0:0:
448,192,359637,128,0,359751:0:0:0:0:
320,192,359637,1,0,0:0:0:0:
192,192,359637,1,0,0:0:0:0:
64,192,359864,1,0,0:0:0:0:
192,192,359978,128,0,360092:0:0:0:0:
320,192,360092,128,0,360205:0:0:0:0:
448,192,360092,1,0,0:0:0:0:
64,192,360205,1,0,0:0:0:0:
192,192,360319,1,0,0:0:0:0:
320,192,360432,1,0,0:0:0:0:
192,192,360546,1,0,0:0:0:0:
448,192,360546,1,0,0:0:0:0:
64,192,360660,1,0,0:0:0:0:
320,192,360773,1,0,0:0:0:0:
192,192,360830,1,0,0:0:0:0:
320,192,360887,1,0,0:0:0:0:
192,192,360944,1,0,0:0:0:0:
448,192,361001,1,0,0:0:0:0:
64,192,361001,1,0,0:0:0:0:
320,192,361114,1,0,0:0:0:0:
64,192,361228,1,0,0:0:0:0:
192,192,361342,1,0,0:0:0:0:
448,192,361455,1,0,0:0:0:0:
320,192,361512,1,0,0:0:0:0:
192,192,361569,1,0,0:0:0:0:
64,192,361626,1,0,0:0:0:0:
448,192,361682,1,0,0:0:0:0:
320,192,361739,1,0,0:0:0:0:
192,192,361796,1,0,0:0:0:0:
64,192,361853,1,0,0:0:0:0:
320,192,361910,1,0,0:0:0:0:
448,192,361910,1,0,0:0:0:0:
192,192,361967,1,0,0:0:0:0:
64,192,362023,1,0,0:0:0:0:
320,192,362080,1,0,0:0:0:0:
448,192,362137,1,0,0:0:0:0:
64,192,362194,1,0,0:0:0:0:
320,192,362251,1,0,0:0:0:0:
192,192,362251,1,0,0:0:0:0:
448,192,362307,1,0,0:0:0:0:
64,192,362364,1,0,0:0:0:0:
192,192,362421,1,0,0:0:0:0:
320,192,362478,1,0,0:0:0:0:
448,192,362535,1,0,0:0:0:0:
64,192,362592,1,0,0:0:0:0:
192,192,362592,1,0,0:0:0:0:
320,192,362648,1,0,0:0:0:0:
448,192,362705,1,0,0:0:0:0:
192,192,362762,1,0,0:0:0:0:
64,192,362819,1,0,0:0:0:0:
448,192,362876,1,0,0:0:0:0:
192,192,362932,1,0,0:0:0:0:
320,192,362932,1,0,0:0:0:0:
64,192,362989,1,0,0:0:0:0:
448,192,363046,1,0,0:0:0:0:
320,192,363103,1,0,0:0:0:0:
192,192,363160,1,0,0:0:0:0:
64,192,363217,1,0,0:0:0:0:
320,192,363273,1,0,0:0:0:0:
448,192,363273,1,0,0:0:0:0:
192,192,363330,1,0,0:0:0:0:
64,192,363387,1,0,0:0:0:0:
320,192,363444,1,0,0:0:0:0:
448,192,363501,1,0,0:0:0:0:
64,192,363557,1,0,0:0:0:0:
192,192,363614,1,0,0:0:0:0:
320,192,363671,1,0,0:0:0:0:
448,192,363728,1,0,0:0:0:0:
64,192,363728,1,0,0:0:0:0:
