osu file format v14

[General]
AudioFilename: audio.mp3
AudioLeadIn: 0
PreviewTime: 89998
Countdown: 1
SampleSet: Normal
StackLeniency: 0.7
Mode: 0
LetterboxInBreaks: 0
WidescreenStoryboard: 1

[Editor]
Bookmarks: 25321,36107,77905,87343,90040,111613,122062,133186,138579,179029,181725,203298,207343,224871,246444,268017,289591
DistanceSpacing: 1.5
BeatDivisor: 4
GridSize: 4
TimelineZoom: 2.7

[Metadata]
Title:Do You Feel The Same (Blacklolita Re[construct]mix)
TitleUnicode:Do You Feel The Same (Blacklolita Re[construct]mix)
Artist:Nhato
ArtistUnicode:Nhato
Creator:Alonevpk
Version:Ambivalent AR10
Source:
Tags:C87 Diverse System LimitedRemixes Drum & and Bass Trance Drumstep
BeatmapID:1273118
BeatmapSetID:602734

[Difficulty]
HPDrainRate:5.5
CircleSize:4
OverallDifficulty:8.2
ApproachRate:10
SliderMultiplier:2.56
SliderTickRate:1

[Events]
//Background and Video events
0,0,"1486644884171.png",0,0
//Break Periods
2,133386,138084
//Storyboard Layer 0 (Background)
//Storyboard Layer 1 (Fail)
//Storyboard Layer 2 (Pass)
//Storyboard Layer 3 (Foreground)
//Storyboard Sound Samples

[TimingPoints]
2400,337.078651685393,4,1,0,100,1,0
3748,-200,4,1,0,50,0,0
14534,-181.818181818182,4,1,0,50,0,0
23973,-500,4,1,0,65,0,0
24310,-83.3333333333333,4,1,0,30,0,0
24647,-133.333333333333,4,1,0,50,0,0
25321,-111.111111111111,4,1,0,50,0,0
35770,-83.3333333333333,4,1,0,50,0,0
35939,-83.3333333333333,4,1,0,5,0,0
36107,-83.3333333333333,4,1,0,50,0,0
37456,-153.846153846153,4,1,0,30,0,0
42849,-142.857142857143,4,1,0,30,0,0
43860,-111.111111111111,4,1,0,30,0,0
44703,-100,4,1,0,30,0,0
45546,-90.9090909090909,4,1,0,30,0,0
46051,-55.5555555555556,4,1,0,30,0,0
46894,-83.3333333333333,4,1,0,50,0,0
48916,-66.6666666666667,4,1,0,50,0,0
49253,-100,4,1,0,50,0,0
49591,-66.6666666666667,4,1,0,50,0,0
49759,-83.3333333333333,4,1,0,50,0,0
49928,-90.9090909090909,4,1,0,50,0,0
50096,-100,4,1,0,50,0,0
50602,-76.9230769230769,4,1,0,50,0,0
52287,-83.3333333333333,4,1,0,50,0,0
54310,-66.6666666666667,4,1,0,50,0,0
54647,-83.3333333333333,4,1,0,50,0,0
56332,-208.333333333333,4,1,0,50,0,0
57680,-133.333333333333,4,1,0,50,0,0
58017,-100,4,1,0,50,0,0
59703,-66.6666666666667,4,1,0,50,0,0
60040,-83.3333333333333,4,1,0,50,0,0
60377,-66.6666666666667,4,1,0,50,0,0
60546,-83.3333333333333,4,1,0,50,0,0
60714,-90.9090909090909,4,1,0,50,0,0
60883,-100,4,1,0,50,0,0
61725,-76.9230769230769,4,1,0,50,0,0
63074,-83.3333333333333,4,1,0,50,0,0
65096,-62.5,4,1,0,50,0,0
65433,-90.9090909090909,4,1,0,50,0,0
65770,-62.5,4,1,0,50,0,0
65939,-71.4285714285714,4,1,0,50,0,0
66107,-83.3333333333333,4,1,0,50,0,0
66276,-100,4,1,0,50,0,0
67119,-62.5,4,1,0,50,0,0
67456,-76.9230769230769,4,1,0,50,0,0
67624,-62.5,4,1,0,50,0,0
67961,-76.9230769230769,4,1,0,50,0,0
68130,-62.5,4,1,0,50,0,0
68467,-90.9090909090909,4,1,0,50,0,0
70489,-62.5,4,1,0,50,0,0
70826,-90.9090909090909,4,1,0,50,0,0
71164,-66.6666666666667,4,1,0,50,0,0
71332,-80,4,1,0,50,0,0
71501,-90.9090909090909,4,1,0,50,0,0
72512,-76.9230769230769,4,1,0,50,0,0
75883,-62.5,4,1,0,50,0,0
76220,-90.9090909090909,4,1,0,50,0,0
76557,-66.6666666666667,4,1,0,50,0,0
76725,-80,4,1,0,50,0,0
76894,-90.9090909090909,4,1,0,50,0,0
77062,-100,4,1,0,50,0,0
79253,-90.9090909090909,4,1,0,50,0,0
79759,-83.3333333333333,4,1,0,50,0,0
81276,-62.5,4,1,0,50,0,0
81613,-90.9090909090909,4,1,0,50,0,0
81950,-66.6666666666667,4,1,0,50,0,0
82119,-80,4,1,0,50,0,0
82287,-90.9090909090909,4,1,0,50,0,0
82456,-100,4,1,0,50,0,0
83298,-76.9230769230769,4,1,0,50,0,0
84647,-83.3333333333333,4,1,0,50,0,0
87343,-142.857142857143,4,1,0,50,0,0
90208,-142.857142857143,4,1,0,25,0,0
110265,-200,4,1,0,50,0,0
110602,-133.333333333333,4,1,0,30,0,0
111613,-125,4,1,0,40,0,0
122062,-100,4,1,0,50,0,0
122399,-76.9230769230769,4,1,0,50,0,0
123411,-200,4,1,0,50,0,0
123748,-71.4285714285714,4,1,0,50,0,0
124759,-200,4,1,0,50,0,0
125096,-71.4285714285714,4,1,0,50,0,0
126107,-200,4,1,0,50,0,0
126444,-71.4285714285714,4,1,0,50,0,0
127456,-200,4,1,0,50,0,0
132849,-100,4,1,0,50,0,0
139253,-111.111111111111,4,1,0,50,0,0
141950,-76.9230769230769,4,1,0,50,0,0
143298,-100,4,1,0,50,0,0
143973,-200,4,1,0,50,0,0
144647,-111.111111111111,4,1,0,50,0,0
145658,-142.857142857143,4,1,0,50,0,0
145995,-90.9090909090909,4,1,0,50,0,0
146332,-125,4,1,0,50,0,0
146669,-100,4,1,0,50,0,0
148523,-83.3333333333333,4,1,0,50,0,0
149029,-71.4285714285714,4,1,0,50,0,0
150040,-100,4,1,0,50,0,0
153411,-74.0740740740741,4,1,0,50,0,0
154085,-100,4,1,0,50,0,0
154759,-200,4,1,0,50,0,0
156444,-133.333333333333,4,1,0,50,0,0
156782,-71.4285714285714,4,1,0,50,0,0
157119,-90.9090909090909,4,1,0,50,0,0
157456,-142.857142857143,4,1,0,50,0,0
158130,-66.6666666666667,4,1,0,50,0,0
158467,-90.9090909090909,4,1,0,50,0,0
159478,-125,4,1,0,50,0,0
159647,-90.9090909090909,4,1,0,50,0,0
159815,-125,4,1,0,50,0,0
159984,-90.9090909090909,4,1,0,50,0,0
160152,-125,4,1,0,50,0,0
160489,-100,4,1,0,50,0,0
162175,-83.3333333333333,4,1,0,50,0,0
162849,-100,4,1,0,50,0,0
163523,-71.4285714285714,4,1,0,50,0,0
163860,-90.9090909090909,4,1,0,50,0,0
164197,-71.4285714285714,4,1,0,50,0,0
165546,-200,4,1,0,50,0,0
166220,-111.111111111111,4,1,0,50,0,0
167231,-133.333333333333,4,1,0,50,0,0
167568,-66.6666666666667,4,1,0,50,0,0
167905,-111.111111111111,4,1,0,50,0,0
168242,-100,4,1,0,50,0,0
168916,-71.4285714285714,4,1,0,50,0,0
170770,-166.666666666667,4,1,0,50,0,0
170939,-83.3333333333333,4,1,0,50,0,0
171613,-90.9090909090909,4,1,0,50,0,0
172624,-200,4,1,0,50,0,0
172961,-83.3333333333333,4,1,0,50,0,0
173973,-100,4,1,0,50,0,0
174984,-66.6666666666667,4,1,0,50,0,0
175658,-111.111111111111,4,1,0,50,0,0
176332,-200,4,1,0,50,0,0
177006,-111.111111111111,4,1,0,50,0,0
178017,-200,4,1,0,50,0,0
178355,-83.3333333333333,4,1,0,50,0,0
178692,-111.111111111111,4,1,0,50,0,0
179029,-142.857142857143,4,1,0,30,0,0
181051,-142.857142857143,4,1,0,35,0,0
181725,-142.857142857143,4,1,0,25,0,0
189815,-166.666666666667,4,1,0,30,0,0
191164,-200,4,1,0,30,0,0
192175,-66.6666666666667,4,1,0,30,0,0
192512,-142.857142857143,4,1,0,50,0,0
193860,-142.857142857143,4,1,0,25,0,0
196557,-133.333333333333,4,1,0,27,0,0
197905,-125,4,1,0,33,0,0
199253,-111.111111111111,4,1,0,36,0,0
201950,-100,4,1,0,40,0,0
202119,-86.9565217391304,4,1,0,40,0,0
202624,-83.3333333333333,4,1,0,40,0,0
202961,-66.6666666666667,4,1,0,45,0,0
203298,-71.4285714285714,4,1,0,50,0,0
203467,-76.9230769230769,4,1,0,50,0,0
203635,-83.3333333333333,4,1,0,50,0,0
203804,-71.4285714285714,4,1,0,50,0,0
204310,-76.9230769230769,4,1,0,50,0,0
204478,-83.3333333333333,4,1,0,50,0,0
204815,-76.9230769230769,4,1,0,50,0,0
205152,-71.4285714285714,4,1,0,50,0,0
205489,-58.8235294117647,4,1,0,50,0,0
205658,-62.5,4,1,0,50,0,0
205995,-71.4285714285714,4,1,0,50,0,0
206164,-76.9230769230769,4,1,0,50,0,0
206332,-83.3333333333333,4,1,0,50,0,0
206501,-71.4285714285714,4,1,0,50,0,0
207006,-83.3333333333333,4,1,0,50,0,0
207343,-66.6666666666667,4,1,0,50,0,0
207849,-71.4285714285714,4,1,0,50,0,0
209534,-90.9090909090909,4,1,0,50,0,0
209703,-76.9230769230769,4,1,0,50,0,0
209871,-66.6666666666667,4,1,0,50,0,0
210040,-71.4285714285714,4,1,0,50,0,0
210714,-62.5,4,1,0,50,0,0
212062,-76.9230769230769,4,1,0,50,0,0
212231,-66.6666666666667,4,1,0,50,0,0
212399,-76.9230769230769,4,1,0,50,0,0
212568,-66.6666666666667,4,1,0,50,0,0
212737,-90.9090909090909,4,1,0,50,0,0
214591,-71.4285714285714,4,1,0,50,0,0
220321,-90.9090909090909,4,1,0,50,0,0
220489,-76.9230769230769,4,1,0,50,0,0
220658,-66.6666666666667,4,1,0,50,0,0
220826,-71.4285714285714,4,1,0,50,0,0
221501,-62.5,4,1,0,50,0,0
222849,-76.9230769230769,4,1,0,50,0,0
223017,-62.5,4,1,0,50,0,0
223186,-76.9230769230769,4,1,0,50,0,0
223355,-62.5,4,1,0,50,0,0
227568,-62.5,4,1,0,50,0,0
227737,-71.4285714285714,4,1,0,50,0,0
227905,-83.3333333333333,4,1,0,50,0,0
228916,-66.6666666666667,4,1,0,50,0,0
231107,-90.9090909090909,4,1,0,50,0,0
231276,-71.4285714285714,4,1,0,50,0,0
231444,-58.8235294117647,4,1,0,50,0,0
231613,-71.4285714285714,4,1,0,50,0,0
232287,-62.5,4,1,0,50,0,0
234310,-100,4,1,0,50,0,0
235995,-83.3333333333333,4,1,0,50,0,0
236164,-62.5,4,1,0,50,0,0
237849,-66.6666666666667,4,1,0,50,0,0
238017,-58.8235294117647,4,1,0,50,0,0
238355,-62.5,4,1,0,50,0,0
238523,-71.4285714285714,4,1,0,50,0,0
238692,-83.3333333333333,4,1,0,50,0,0
238860,-66.6666666666667,4,1,0,50,0,0
239366,-76.9230769230769,4,1,0,50,0,0
239703,-66.6666666666667,4,1,0,50,0,0
242231,-83.3333333333333,4,1,0,50,0,0
242737,-100,4,1,0,50,0,0
243579,-125,4,1,0,50,0,0
243748,-200,4,1,0,50,0,0
246950,-100,4,1,0,50,0,0
251501,-111.111111111111,4,1,0,50,0,0
251669,-66.6666666666667,4,1,0,50,0,0
251838,-100,4,1,0,50,0,0
256894,-111.111111111111,4,1,0,50,0,0
257062,-66.6666666666667,4,1,0,50,0,0
257231,-100,4,1,0,50,0,0
267849,-76.9230769230769,4,1,0,50,0,0
268017,-111.111111111111,4,1,0,50,0,0
284197,-125,4,1,0,40,0,0
286894,-142.857142857143,4,1,0,35,0,0

[Colours]
Combo1 : 255,255,255
Combo2 : 0,128,192
Combo3 : 128,255,255
Combo4 : 128,128,192
Combo5 : 192,128,255
SliderTrackOverride : 50,40,80
SliderBorder : 178,102,255

[HitObjects]
328,336,3748,6,0,L|472:348,1,128
320,240,4253,1,0,0:0:0:0:
232,360,4422,2,0,P|184:356|152:328,1,64
304,264,4759,1,0,0:0:0:0:
80,356,5096,6,0,L|72:208,1,128
68,124,5602,1,0,0:0:0:0:
156,248,5770,2,0,L|160:337,1,64
159,311,6107,1,0,0:0:0:0:
32,80,6444,6,0,P|80:92|144:48,1,128
142,51,6950,1,0,0:0:0:0:
196,136,7119,2,0,P|192:172|212:224,1,64
280,96,7456,1,0,0:0:0:0:
476,32,7793,6,0,L|332:44,1,128
428,128,8298,1,0,0:0:0:0:
264,52,8467,2,0,P|236:84|228:124,1,64
348,42,8804,1,0,0:0:0:0:
52,116,9141,22,0,P|104:113|161:176,1,128
16,196,9647,1,0,0:0:0:0:
92,32,9815,2,0,P|136:40|176:64,1,64
52,116,10152,1,0,0:0:0:0:
128,224,10489,6,0,P|100:280|116:356,1,128
224,204,10995,1,0,0:0:0:0:
196,296,11164,2,0,P|216:320|272:340,1,64
340,300,11501,1,0,0:0:0:0:
300,80,11838,6,0,P|352:40|424:48,1,128
484,116,12343,1,0,0:0:0:0:
385,191,12512,2,0,L|380:128,1,64
500,212,12849,1,0,0:0:0:0:
128,152,13186,6,0,L|272:136,1,128
356,124,13692,1,0,0:0:0:0:
252,52,13860,2,0,P|228:32|208:-24,1,64
368,32,14197,1,0,0:0:0:0:
256,304,14534,22,0,P|296:356|376:352,1,140.800004296875
444,288,15040,1,0,0:0:0:0:
284,220,15208,2,0,P|268:164|280:128,1,70.4000021484376
324,60,15546,1,0,0:0:0:0:
456,336,15883,6,0,P|398:313|307:328,1,140.800004296875
240,268,16388,1,0,0:0:0:0:
116,368,16557,2,0,P|68:360|36:324,1,70.4000021484376
176,316,16894,1,0,0:0:0:0:
32,136,17231,6,0,P|68:133|139:221,1,140.800004296875
52,224,17737,1,0,0:0:0:0:
208,128,17905,2,0,P|228:156|240:216,1,70.4000021484376
200,288,18242,1,0,0:0:0:0:
107,65,18579,6,0,P|159:75|257:15,1,140.800004296875
328,16,19085,1,0,0:0:0:0:
288,168,19253,2,0,P|284:204|304:248,1,70.4000021484376
368,108,19591,1,0,0:0:0:0:
472,224,19928,22,0,P|452:280|464:364,1,140.800004296875
384,196,20433,1,0,0:0:0:0:
348,360,20602,2,0,P|360:321|356:282,1,70.4000021484376
296,160,20939,1,0,0:0:0:0:
140,324,21276,6,0,P|180:340|272:300,1,140.800004296875
104,244,21782,1,0,0:0:0:0:
232,172,21950,2,0,P|198:162|164:168,1,70.4000021484376
312,224,22287,1,0,0:0:0:0:
64,160,22624,6,0,L|68:16,1,140.800004296875
163,168,23130,1,0,0:0:0:0:
231,88,23298,2,0,P|265:76|300:78,1,70.4000021484376
392,132,23635,1,0,0:0:0:0:
208,304,23973,6,0,L|170:297,1,38.4
76,280,24310,6,0,L|24:270,6,38.399998828125
176,212,24647,6,0,L|232:220,3,48.0000018310548
48,116,24984,6,0,L|183:135,1,96.0000036621095
240,128,25237,1,0,0:0:0:0:
256,112,25321,2,0,P|280:80|276:-12,1,115.199996484375
168,28,25658,1,0,0:0:0:0:
380,68,25826,1,0,0:0:0:0:
408,104,25911,1,0,0:0:0:0:
428,144,25995,1,0,0:0:0:0:
428,188,26079,1,0,0:0:0:0:
412,232,26164,2,0,P|380:236|336:208,1,57.5999982421876
216,212,26332,2,0,P|280:216|312:272,1,115.199996484375
264,336,26585,1,0,0:0:0:0:
264,336,26669,6,0,P|200:332|168:276,1,115.199996484375
356,156,27006,1,0,0:0:0:0:
184,206,27175,1,0,0:0:0:0:
148,184,27259,1,0,0:0:0:0:
126,148,27343,1,0,0:0:0:0:
122,105,27428,1,0,0:0:0:0:
133,66,27512,2,0,P|152:56|224:60,1,57.5999982421876
260,168,27680,2,0,L|244:304,1,115.199996484375
164,356,27933,1,0,0:0:0:0:
164,356,28017,6,0,P|128:356|76:284,1,115.199996484375
172,144,28355,1,0,0:0:0:0:
284,280,28523,1,0,0:0:0:0:
312,276,28607,1,0,0:0:0:0:
341,273,28692,1,0,0:0:0:0:
369,269,28776,1,0,0:0:0:0:
398,266,28860,2,0,L|472:256,1,57.5999982421876
348,148,29029,2,0,P|399:176|492:146,1,115.199996484375,0|0,0:2|0:2,0:2:0:0:
422,68,29282,1,0,0:0:0:0:
422,68,29366,22,0,P|371:98|351:193,1,115.199996484375,0|0,0:2|0:2,0:2:0:0:
455,258,29703,1,0,0:0:0:0:
272,204,29871,1,0,0:0:0:0:
269,232,29956,1,0,0:0:0:0:
267,261,30040,1,0,0:0:0:0:
264,290,30124,1,0,0:0:0:0:
262,318,30208,2,0,L|256:388,1,57.5999982421876
160,296,30377,2,0,P|120:320|12:284,1,115.199996484375
12,220,30630,1,0,0:0:0:0:
12,220,30714,6,0,L|32:84,1,115.199996484375
100,28,31051,1,0,0:0:0:0:
184,104,31220,1,0,0:0:0:0:
220,120,31304,1,0,0:0:0:0:
260,120,31388,1,0,0:0:0:0:
296,100,31473,1,0,0:0:0:0:
320,68,31557,2,0,P|324:44|312:0,1,57.5999982421876
176,8,31725,2,0,L|188:164,1,115.199996484375
272,208,31978,1,0,0:0:0:0:
272,208,32062,6,0,P|328:198|368:160,1,115.199996484375
424,68,32399,1,0,0:0:0:0:
264,20,32568,1,0,0:0:0:0:
224,35,32652,1,0,0:0:0:0:
194,67,32737,1,0,0:0:0:0:
181,107,32821,1,0,0:0:0:0:
186,150,32905,2,0,P|200:176|240:204,1,57.5999982421876
428,176,33074,2,0,L|280:192,1,115.199996484375
240,284,33326,1,0,0:0:0:0:
240,284,33411,6,0,P|176:300|116:240,1,115.199996484375
84,164,33748,1,0,0:0:0:0:
204,44,33916,1,0,0:0:0:0:
240,60,34001,1,0,0:0:0:0:
268,88,34085,1,0,0:0:0:0:
276,128,34169,1,0,0:0:0:0:
276,168,34253,2,0,P|264:196|220:228,1,57.5999982421876
125,53,34422,2,0,L|257:61,1,115.199996484375
332,64,34675,1,0,0:0:0:0:
332,64,34759,22,0,L|420:68,1,57.5999982421876
216,148,34928,2,0,L|158:145,1,57.5999982421876
336,212,35096,6,0,L|384:214,14,28.7999991210938
285,315,35770,6,0,P|354:334|358:210,1,230.39999296875
204,252,36107,5,0,0:0:0:0:
285,315,37456,21,0,0:0:0:0:
360,244,37624,2,0,L|352:172,2,41.5999980957032
444,332,37961,2,0,P|460:264|464:164,1,166.399992382813
440,84,38467,1,0,0:0:0:0:
324,160,38804,5,0,0:0:0:0:
240,88,38973,2,0,L|164:80,2,41.5999980957032
116,164,39310,2,0,P|68:156|20:44,1,166.399992382813
112,68,39815,1,0,0:0:0:0:
36,244,40152,5,0,0:0:0:0:
136,256,40321,2,0,P|160:268|188:300,2,41.5999980957032
54,354,40658,2,0,P|110:358|166:250,1,166.399992382813
70,129,41164,2,0,P|64:169|80:208,1,83.1999961914064
240,224,41501,5,0,0:0:0:0:
192,120,41669,2,0,P|160:124|124:148,2,41.5999980957032
328,232,42006,2,0,P|344:272|276:368,1,166.399992382813
252,280,42512,2,0,P|304:276|372:344,1,124.79999428711
282,366,42849,21,0,0:0:0:0:
164,256,43017,2,0,P|180:224|220:192,2,44.7999986328125
360,340,43355,2,0,L|528:324,1,134.399995898438
493,327,43692,1,0,0:0:0:0:
356,132,43860,2,0,P|366:216|447:241,1,172.799994726563
432,164,44197,5,0,0:0:0:0:
296,72,44366,2,0,P|264:77|224:104,1,57.5999982421876
200,188,44534,2,0,L|188:224,2,28.7999991210938
284,228,44703,2,0,B|298:198|298:198|298:154,1,64
136,84,44871,2,0,B|121:113|121:113|121:157,1,64
184,244,45040,1,0,0:0:0:0:
276,48,45208,2,0,P|256:96|348:176,1,192
440,160,45546,6,0,L|328:180,1,70.4000021484376
220,220,45714,2,0,P|264:252|328:256,1,70.4000021484376
164,108,45883,2,0,P|169:53|141:-3,1,70.4000021484376
32,216,46051,2,0,B|16:236|16:236|136:204,1,115.199996484375
344,48,46220,1,0,0:0:0:0:
300,40,46304,1,0,0:0:0:0:
256,32,46388,5,0,0:0:0:0:
282,186,46557,1,0,0:0:0:0:
310,340,46725,1,0,0:0:0:0:
464,172,46894,22,0,P|436:164|390:204,1,76.7999976562501
310,340,47062,2,0,P|330:319|318:260,1,76.7999976562501
200,204,47231,1,0,0:0:0:0:
172,368,47399,1,0,0:0:0:0:
172,368,47484,1,0,0:0:0:0:
172,368,47568,2,0,L|184:272,1,76.7999976562501
88,140,47737,2,0,L|76:236,1,76.7999976562501
272,272,47905,1,0,0:0:0:0:
402,95,48074,1,0,0:0:0:0:
359,101,48158,1,0,0:0:0:0:
323,126,48242,6,0,P|311:167|347:235,1,76.7999976562501
452,256,48411,2,0,P|463:214|427:146,1,76.7999976562501
224,216,48579,1,0,0:0:0:0:
384,360,48748,1,0,0:0:0:0:
384,360,48832,1,0,0:0:0:0:
384,360,48916,6,0,B|435:367|435:367|454:348|454:348|411:340,1,96.0000036621095
256,195,49085,6,0,B|204:188|204:188|186:207|186:207|229:215,1,96.0000036621095
460,168,49253,22,0,B|484:124|471:60|418:32|418:32|392:98,1,192
456,264,49591,6,0,B|463:297|463:297|460:312|460:312|469:323|469:323|476:354,1,96.0000036621095
336,208,49759,2,0,L|364:328,1,76.7999976562501
260,356,49928,2,0,P|216:360|172:324,1,70.4000021484376
72,240,50096,6,0,B|101:178|168:151|223:162|223:162|173:192|167:258,1,256
248,308,50517,1,0,0:0:0:0:
248,308,50602,2,0,P|280:310|330:267,1,83.1999961914064
320,116,50770,2,0,P|317:148|360:198,1,83.1999961914064
512,144,50939,6,0,P|524:80|424:140,1,249.599988574219
448,240,51276,1,0,0:0:0:0:
261,99,51444,22,0,B|245:36|245:36|317:83|288:215,1,249.599988574219
280,292,51782,1,0,0:0:0:0:
108,148,51950,6,0,P|88:228|172:156,1,249.599988574219
144,68,52287,6,0,P|112:60|48:84,1,76.7999976562501
276,124,52456,2,0,P|284:92|260:28,1,76.7999976562501
108,148,52624,1,0,0:0:0:0:
188,308,52793,1,0,0:0:0:0:
188,308,52877,1,0,0:0:0:0:
188,308,52961,2,0,P|216:332|280:340,1,76.7999976562501
264,200,53130,2,0,P|292:176|356:168,1,76.7999976562501
444,264,53298,1,0,0:0:0:0:
376,356,53467,1,0,0:0:0:0:
376,356,53551,1,0,0:0:0:0:
376,356,53635,6,0,L|364:268,1,76.7999976562501
352,184,53804,2,0,L|340:96,1,76.7999976562501
328,20,53973,1,0,0:0:0:0:
160,124,54141,1,0,0:0:0:0:
168,196,54225,1,0,0:0:0:0:
216,252,54310,22,0,P|236:224|228:152,1,96.0000036621095
108,68,54478,6,0,P|88:96|96:168,1,96.0000036621095
192,336,54647,6,0,B|276:348|312:260|312:260|312:308|356:352,1,230.39999296875
440,320,54984,6,0,P|418:302|428:236,1,76.7999976562501
240,108,55152,2,0,P|261:125|251:191,1,76.7999976562501
336,329,55321,1,0,0:0:0:0:
389,174,55489,22,0,B|396:128|344:112|344:112|376:224|296:216|336:329,1,307.199990625
464,308,55911,1,0,0:0:0:0:
496,284,55995,2,0,L|392:276,1,76.7999976562501
264,192,56164,2,0,L|340:197,1,76.7999976562501
480,84,56332,54,0,B|471:135|432:177|383:210|287:227|183:89|279:-57|446:-34|454:63|392:102|372:95,1,460.80001125
382,94,57680,5,0,0:0:0:0:
293,147,57849,6,0,P|273:143|241:115,1,48.0000018310548
383,32,58017,2,0,P|389:51|381:93,1,64
164,152,58186,5,0,0:0:0:0:
132,148,58270,1,0,0:0:0:0:
100,144,58355,1,0,0:0:0:0:
68,140,58439,1,0,0:0:0:0:
36,136,58523,1,0,0:0:0:0:
196,24,58692,1,0,0:0:0:0:
128,232,58860,2,0,L|116:156,1,64
100,48,59029,5,0,0:0:0:0:
260,132,59197,2,0,P|240:160|224:216,1,64
156,312,59366,2,0,P|147:281|131:253,1,64
32,144,59534,1,0,0:0:0:0:
32,144,59619,1,0,0:0:0:0:
32,144,59703,22,0,P|56:156|124:140,1,96.0000036621095
252,24,59871,6,0,P|220:23|160:72,1,96.0000036621095
216,240,60040,6,0,P|276:272|316:136,1,230.39999296875
376,76,60377,6,0,B|356:67|356:67|320:64|280:96,1,96.0000036621095
276,200,60546,2,0,P|292:252|340:276,1,76.7999976562501
444,188,60714,2,0,L|451:117,1,70.4000021484376
440,304,60883,22,0,B|376:296|340:232|340:232|300:284|229:287,1,256
148,232,61304,1,0,0:0:0:0:
148,232,61388,2,0,L|156:140,1,64
68,292,61557,2,0,L|62:355,1,64
244,196,61725,6,0,P|248:100|160:168,1,249.599988574219
148,254,62062,2,0,L|156:172,1,83.1999961914064
24,56,62231,2,0,B|80:28|128:40|128:40|152:72|152:72|200:92|253:70,1,249.599988574219
340,32,62568,2,0,P|298:45|274:128,1,83.1999961914064
340,260,62737,2,0,B|416:268|464:170|438:113|341:110|337:164|340:180,1,249.599988574219
292,340,63074,6,0,P|324:356|380:344,1,76.7999976562501
252,236,63242,2,0,P|211:229|174:246,1,76.7999976562501
104,352,63411,1,0,0:0:0:0:
8,200,63579,1,0,0:0:0:0:
44,132,63664,1,0,0:0:0:0:
120,116,63748,2,0,P|160:128|200:172,1,76.7999976562501
124,340,63916,2,0,P|84:328|44:284,1,76.7999976562501
268,236,64085,2,0,P|328:236|400:324,1,153.5999953125
440,372,64338,1,0,0:0:0:0:
440,372,64422,6,0,P|432:340|440:280,1,76.7999976562501
468,200,64591,2,0,P|471:161|462:124,1,76.7999976562501
432,28,64759,1,0,0:0:0:0:
320,244,64928,1,0,0:0:0:0:
320,244,65012,1,0,0:0:0:0:
320,244,65096,22,0,B|360:256|360:256|388:236|388:236|320:216,1,102.4
264,88,65265,6,0,B|224:76|224:76|196:96|196:96|264:116,1,102.4
508,96,65433,6,0,B|454:81|410:99|420:136|369:167|315:148,1,211.200006445313
480,257,65770,6,0,B|496:264|496:264|504:216|479:179,1,102.4
341,63,65939,2,0,P|292:60|236:112,1,89.5999972656251
360,300,66107,2,0,P|387:259|370:184,1,76.7999976562501
172,120,66276,22,0,P|144:196|292:172,1,256
224,88,66697,1,0,0:0:0:0:
192,76,66782,2,0,P|160:80|112:124,1,64
80,196,66950,2,0,P|84:228|128:276,1,64
244,344,67119,6,0,B|316:304|384:352|384:352|396:336|384:316|384:316|448:328|488:268,1,307.2
337,148,67456,2,0,P|307:189|308:240,1,83.1999961914064
424,340,67624,2,0,B|504:332|532:248|500:192|500:192|452:228|452:228|376:212,1,307.2
336,324,67961,2,0,L|254:307,1,83.1999961914064
128,216,68130,2,0,B|84:200|52:252|84:312|132:312|212:288|220:240|212:164|144:144,1,307.2
60,144,68467,6,0,P|36:160|4:208,1,70.4000021484376
276,212,68635,2,0,P|274:183|248:131,1,70.4000021484376
40,288,68804,1,0,0:0:0:0:
220,352,68973,1,0,0:0:0:0:
220,352,69057,1,0,0:0:0:0:
220,352,69141,2,0,L|328:368,1,70.4000021484376
384,248,69310,2,0,L|368:356,1,70.4000021484376
136,332,69478,1,0,0:0:0:0:
484,200,69647,1,0,0:0:0:0:
480,272,69731,1,0,0:0:0:0:
476,344,69815,6,0,P|440:332|412:292,1,70.4000021484376
300,244,69984,2,0,P|328:218|377:214,1,70.4000021484376
512,120,70152,1,0,0:0:0:0:
260,156,70321,1,0,0:0:0:0:
260,156,70405,1,0,0:0:0:0:
260,156,70489,22,0,B|256:136|256:136|268:120|268:120|264:96|264:96|272:40,1,102.4
428,200,70658,6,0,B|432:220|432:220|420:236|420:236|424:260|424:260|416:316,1,102.4
192,360,70826,6,0,B|196:352|184:344|184:344|200:340|200:340|128:308|120:232|164:176,1,211.200006445313
252,164,71164,6,0,B|216:148|216:148|152:160,1,96.0000036621095
32,256,71332,2,0,L|120:276,1,80
260,344,71501,2,0,L|172:364,1,70.4000021484376
80,96,71669,22,0,B|100:60|164:40|212:80|224:120|224:120|252:92|252:92|276:112|276:112|305:103,1,281.60000859375
424,128,72091,1,0,0:0:0:0:
424,128,72175,2,0,P|448:100|452:40,1,70.4000021484376
307,36,72343,2,0,P|297:70|320:127,1,70.4000021484376
464,312,72512,22,0,P|456:240|308:256,1,249.599988574219
304,280,72849,1,0,0:0:0:0:
120,192,73017,2,0,B|52:148|52:148|228:172,1,249.599988574219
304,184,73355,1,0,0:0:0:0:
248,340,73523,2,0,B|180:372|128:340|128:340|68:300|0:336,1,249.599988574219
40,360,73860,6,0,P|60:328|48:252,1,83.1999961914064
72,96,74029,2,0,P|50:131|49:172,1,83.1999961914064
184,260,74197,1,0,0:0:0:0:
272,48,74366,1,0,0:0:0:0:
272,48,74450,1,0,0:0:0:0:
272,48,74534,2,0,P|225:60|179:127,1,83.1999961914064
136,204,74703,2,0,P|134:252|183:316,1,83.1999961914064
212,368,74871,1,0,0:0:0:0:
360,232,75040,1,0,0:0:0:0:
360,232,75124,1,0,0:0:0:0:
360,232,75208,22,0,L|260:224,1,83.1999961914064
440,120,75377,2,0,L|340:112,1,83.1999961914064
440,336,75546,1,0,0:0:0:0:
216,132,75714,1,0,0:0:0:0:
216,132,75798,1,0,0:0:0:0:
216,132,75883,6,0,B|228:104|228:104|172:88|172:88|176:104,1,102.4
224,292,76051,6,0,B|242:316|242:316|284:275|284:275|268:271,1,102.4
80,168,76220,6,0,B|0:160|0:160|32:216|32:216|144:228,1,211.200006445313
184,132,76557,22,0,B|208:92|208:92|199:43,1,96.0000036621095
48,4,76725,2,0,B|24:44|24:44|32:92,1,80
116,64,76894,1,0,0:0:0:0:
284,296,77062,6,0,B|248:356|248:356|208:280|248:164,1,256
304,92,77484,1,0,0:0:0:0:
336,76,77568,2,0,P|368:80|420:128,1,64
412,216,77737,2,0,P|431:241|434:312,1,64
424,368,77905,5,0,0:0:0:0:
264,64,78242,6,0,L|272:12,6,32
184,120,78579,2,0,P|200:144|200:200,1,64
128,244,78748,1,0,0:0:0:0:
101,266,78832,1,0,0:0:0:0:
67,273,78916,1,0,0:0:0:0:
180,360,79085,1,0,0:0:0:0:
40,172,79253,22,0,P|72:159|95:132,1,70.4000021484376
216,20,79422,2,0,P|211:54|223:87,1,70.4000021484376
360,124,79591,2,0,P|391:139|426:138,1,70.4000021484376
476,60,79759,1,0,0:0:0:0:
470,112,79843,1,0,0:0:0:0:
464,164,79928,1,0,0:0:0:0:
459,217,80012,1,0,0:0:0:0:
453,269,80096,2,0,L|445:362,1,76.7999976562501
272,168,80265,2,0,P|308:168|356:292,1,153.5999953125
320,344,80517,1,0,0:0:0:0:
320,344,80602,6,0,P|288:360|244:356,1,76.7999976562501
200,240,80770,2,0,P|168:224|124:228,1,76.7999976562501
36,348,80939,2,0,P|68:364|112:360,1,76.7999976562501
292,228,81107,1,0,0:0:0:0:
252,160,81192,1,0,0:0:0:0:
178,124,81276,6,0,B|144:136|144:136|128:164|143:199,1,102.4
292,312,81444,6,0,B|312:316|336:308|336:308|356:316|356:316|420:308,1,102.4
512,200,81613,22,0,B|452:168|452:168|364:224|364:224|304:204,1,211.200006445313
264,116,81950,6,0,B|272:36|272:36|304:76,1,96.0000036621095
460,272,82119,6,0,L|451:353,1,80
428,84,82287,6,0,P|460:84|512:112,1,70.4000021484376
320,348,82456,22,0,B|257:346|211:291|228:217|228:217|183:242|124:217,1,256
56,148,82877,1,0,0:0:0:0:
56,148,82961,2,0,P|85:135|117:137,1,64
104,304,83130,2,0,P|72:305|42:293,1,64
320,252,83298,6,0,B|336:232|336:232|368:248|368:248|384:204|384:204|428:280|512:256,1,249.599988574219
472,168,83635,1,0,0:0:0:0:
260,140,83804,6,0,P|222:45|319:92,1,249.599988574219
312,212,84141,1,0,0:0:0:0:
36,67,84310,6,0,B|100:47|145:101|145:101|192:155|260:139,1,249.599988574219
344,100,84647,22,0,B|360:64|360:64|339:25,1,76.7999976562501
176,60,84815,2,0,B|160:96|160:96|180:134,1,76.7999976562501
428,124,84984,1,0,0:0:0:0:
236,284,85152,6,0,B|164:276|136:204|136:204|132:312|24:348,1,307.199990625
46,339,85574,1,0,0:0:0:0:
46,339,85658,2,0,L|156:352,1,76.7999976562501
232,364,85826,2,0,L|341:376,1,76.7999976562501
416,364,85995,5,0,0:0:0:0:
320,176,86164,2,0,B|336:148|336:148|376:196|352:276,1,153.5999953125
126,256,86501,6,0,L|134:92,1,153.5999953125
122,348,86838,1,0,0:0:0:0:
76,88,87006,22,0,B|117:42|117:42|109:214,1,230.39999296875
51,333,87343,54,0,B|91:345|131:337|155:293|155:293|175:305|175:305|199:261|199:261|219:281|219:281|243:241|243:241|263:265|263:265|283:225|283:225|315:281|407:281|447:233|451:125|369:113|369:113|351:185|351:185|311:149|311:149|239:89|116:132|88:212|112:384|244:372|300:348|300:348|344:328|408:324|452:368,1,1388.79995761719
431,351,90040,5,0,0:0:0:0:
340,368,90208,1,0,0:0:0:0:
280,296,90377,1,0,0:0:0:0:
316,212,90546,1,0,0:0:0:0:
372,280,90714,1,0,0:0:0:0:
412,200,90883,1,0,0:0:0:0:
468,268,91051,1,0,0:0:0:0:
431,351,91220,1,0,0:0:0:0:
256,272,91557,5,0,0:0:0:0:
352,284,91725,1,0,0:0:0:0:
424,216,91894,1,0,0:0:0:0:
400,360,92062,1,0,0:0:0:0:
332,188,92231,1,0,0:0:0:0:
476,300,92399,1,0,0:0:0:0:
480,124,92568,1,0,0:0:0:0:
388,236,92905,5,0,0:0:0:0:
292,260,93074,1,0,0:0:0:0:
320,168,93242,1,0,0:0:0:0:
388,236,93411,1,0,0:0:0:0:
412,140,93579,1,0,0:0:0:0:
484,208,93748,1,0,0:0:0:0:
512,48,93916,1,0,0:0:0:0:
508,80,94253,5,0,0:0:0:0:
420,144,94422,1,0,0:0:0:0:
316,116,94591,1,0,0:0:0:0:
288,12,94759,1,0,0:0:0:0:
388,56,94928,21,0,0:0:0:0:
420,144,95096,1,0,0:0:0:0:
404,236,95265,1,0,0:0:0:0:
296,160,95433,5,0,0:0:0:0:
272,276,95602,1,0,0:0:0:0:
156,252,95770,1,0,0:0:0:0:
180,136,95939,1,0,0:0:0:0:
228,208,96107,1,0,0:0:0:0:
264,68,96276,1,0,0:0:0:0:
124,32,96444,1,0,0:0:0:0:
88,172,96613,1,0,0:0:0:0:
100,204,96950,5,0,0:0:0:0:
196,180,97119,1,0,0:0:0:0:
236,88,97287,1,0,0:0:0:0:
332,112,97456,1,0,0:0:0:0:
408,48,97624,1,0,0:0:0:0:
432,144,97793,1,0,0:0:0:0:
500,20,97961,1,0,0:0:0:0:
468,272,98298,5,0,0:0:0:0:
380,228,98467,1,0,0:0:0:0:
432,144,98635,1,0,0:0:0:0:
468,272,98804,1,0,0:0:0:0:
340,148,98973,1,0,0:0:0:0:
504,192,99141,1,0,0:0:0:0:
448,40,99310,1,0,0:0:0:0:
444,76,99647,21,0,0:0:0:0:
344,136,99815,1,0,0:0:0:0:
232,108,99984,1,0,0:0:0:0:
172,8,100152,1,0,0:0:0:0:
272,40,100321,5,0,0:0:0:0:
216,144,100489,1,0,0:0:0:0:
100,168,100658,1,0,0:0:0:0:
12,92,100826,5,0,0:0:0:0:
28,208,100995,1,0,0:0:0:0:
120,136,101164,1,0,0:0:0:0:
104,20,101332,1,0,0:0:0:0:
12,92,101501,1,0,0:0:0:0:
176,68,101669,1,0,0:0:0:0:
200,232,101838,1,0,0:0:0:0:
36,256,102006,1,0,0:0:0:0:
68,288,102343,5,0,0:0:0:0:
192,268,102512,1,0,0:0:0:0:
172,144,102680,1,0,0:0:0:0:
268,308,102849,1,0,0:0:0:0:
231,80,103017,1,0,0:0:0:0:
168,368,103186,1,0,0:0:0:0:
119,69,103355,1,0,0:0:0:0:
268,160,103692,21,0,0:0:0:0:
388,120,103860,1,0,0:0:0:0:
296,32,104029,1,0,0:0:0:0:
332,224,104197,1,0,0:0:0:0:
452,184,104366,1,0,0:0:0:0:
420,268,104534,1,0,0:0:0:0:
380,72,104703,1,0,0:0:0:0:
404,108,105040,5,0,0:0:0:0:
476,52,105208,1,0,0:0:0:0:
392,18,105377,1,0,0:0:0:0:
320,74,105546,1,0,0:0:0:0:
188,8,105714,5,0,0:0:0:0:
168,132,105883,1,0,0:0:0:0:
148,256,106051,1,0,0:0:0:0:
266,212,106220,5,0,0:0:0:0:
324,292,106388,1,0,0:0:0:0:
224,304,106557,1,0,0:0:0:0:
256,156,106725,1,0,0:0:0:0:
224,304,106894,1,0,0:0:0:0:
364,180,107062,1,0,0:0:0:0:
292,244,107231,1,0,0:0:0:0:
332,332,107399,1,0,0:0:0:0:
340,356,107737,21,0,0:0:0:0:
416,296,107905,1,0,0:0:0:0:
504,344,108074,1,0,0:0:0:0:
416,296,108242,1,0,0:0:0:0:
408,196,108411,1,0,0:0:0:0:
496,240,108579,1,0,0:0:0:0:
484,96,108748,1,0,0:0:0:0:
488,124,109085,5,0,0:0:0:0:
408,196,109253,1,0,0:0:0:0:
316,144,109422,1,0,0:0:0:0:
396,72,109591,1,0,0:0:0:0:
304,16,109759,1,0,0:0:0:0:
228,92,109928,1,0,0:0:0:0:
136,36,110096,1,0,0:0:0:0:
52,176,110265,6,0,L|56:240,1,64
104,80,110602,6,0,L|102:56,6,24.0000009155274
140,176,110939,2,0,P|148:196|188:232,1,48.0000018310548
244,280,111107,2,0,P|280:276|324:224,1,96.0000036621095
364,88,111444,1,0,0:0:0:0:
364,88,111529,1,0,0:0:0:0:
364,88,111613,21,0,0:0:0:0:
436,236,111950,1,0,0:0:0:0:
360,184,112119,1,0,0:0:0:0:
360,184,112203,1,0,0:0:0:0:
360,184,112287,2,0,P|312:188|276:240,1,102.4
296,320,112624,1,0,0:0:0:0:
88,288,112961,5,0,0:0:0:0:
160,232,113130,1,0,0:0:0:0:
52,204,113298,1,0,0:0:0:0:
124,144,113467,1,0,0:0:0:0:
124,144,113551,1,0,0:0:0:0:
124,144,113635,2,0,P|140:116|120:36,1,102.4
44,88,113973,1,0,0:0:0:0:
208,184,114310,5,0,0:0:0:0:
256,96,114478,1,0,0:0:0:0:
296,192,114647,2,0,P|352:200|408:160,1,102.4
408,164,114899,1,0,0:0:0:0:
420,148,114984,2,0,L|428:264,1,102.4
512,188,115321,1,0,0:0:0:0:
300,352,115658,5,0,0:0:0:0:
288,252,115826,1,0,0:0:0:0:
380,296,115995,2,0,L|232:308,1,102.4
252,308,116248,1,0,0:0:0:0:
228,308,116332,2,0,P|192:288|188:204,1,102.4
216,144,116669,1,0,0:0:0:0:
276,216,116838,1,0,0:0:0:0:
128,352,117006,21,0,0:0:0:0:
112,252,117175,1,0,0:0:0:0:
32,316,117343,1,0,0:0:0:0:
132,240,117512,1,0,0:0:0:0:
132,240,117596,1,0,0:0:0:0:
132,240,117680,2,0,P|152:208|144:120,1,102.4
96,60,118017,1,0,0:0:0:0:
284,24,118355,5,0,0:0:0:0:
244,120,118523,1,0,0:0:0:0:
204,216,118692,1,0,0:0:0:0:
328,160,118860,1,0,0:0:0:0:
328,160,118944,1,0,0:0:0:0:
328,160,119029,2,0,L|436:176,1,102.4
292,244,119366,1,0,0:0:0:0:
417,75,119703,5,0,0:0:0:0:
429,175,119871,1,0,0:0:0:0:
417,75,120040,1,0,0:0:0:0:
440,276,120208,1,0,0:0:0:0:
440,276,120293,1,0,0:0:0:0:
440,276,120377,2,0,P|404:300|344:296,1,102.4
372,200,120714,1,0,0:0:0:0:
96,300,121051,5,0,0:0:0:0:
196,320,121220,1,0,0:0:0:0:
164,224,121388,1,0,0:0:0:0:
132,372,121557,1,0,0:0:0:0:
132,372,121641,1,0,0:0:0:0:
132,372,121725,1,0,0:0:0:0:
68,228,121894,1,0,0:0:0:0:
260,352,122062,6,0,B|340:368|384:300|384:300|320:332,1,192
376,364,122399,6,0,P|408:316|416:192,1,166.399992382813
420,204,122652,2,0,P|408:147|328:48,1,166.399992382813
320,68,122905,2,0,P|420:96|552:68,1,166.399992382813
488,7,123158,2,0,P|423:29|438:161,1,166.399992382813
360,236,123411,54,0,L|368:336,1,96
456,344,123748,22,0,L|248:316,1,179.19999453125
208,360,124001,2,0,P|240:252|192:168,1,179.19999453125
144,164,124253,2,0,P|252:196|336:148,1,179.19999453125
388,200,124506,2,0,P|361:90|278:41,1,179.19999453125
168,44,124759,38,0,B|155:45|155:45|164:88|210:112,1,96
284,136,125096,38,0,P|284:188|176:248,1,179.19999453125
104,240,125349,2,0,P|149:214|254:277,1,179.19999453125
154,381,125602,2,0,P|108:354|111:231,1,179.19999453125
200,184,125855,2,0,B|332:204|332:204|284:228,1,179.19999453125
132,76,126107,22,0,L|252:92,1,96
345,56,126444,54,0,P|385:100|329:236,1,179.19999453125
289,232,126697,2,0,P|238:199|257:53,1,179.19999453125
301,124,126950,2,0,B|313:212|249:208|272:296,1,179.19999453125
333,360,127203,2,0,P|381:352|337:260,1,179.19999453125
169,288,127456,6,0,B|201:316|201:316|233:296|233:296|273:304,1,96
288,320,127793,5,0,0:0:0:0:
312,316,128130,1,0,0:0:0:0:
332,300,128467,1,0,0:0:0:0:
344,276,128804,54,0,P|372:260|444:272,1,96
472,336,129141,5,0,0:0:0:0:
473,284,129310,1,0,0:0:0:0:
474,233,129478,1,0,0:0:0:0:
476,182,129647,1,0,0:0:0:0:
478,131,129815,1,0,0:0:0:0:
480,80,129984,1,0,0:0:0:0:
384,232,130152,54,0,P|352:236|296:196,1,96
248,132,130489,5,0,0:0:0:0:
282,133,130574,1,0,0:0:0:0:
314,145,130658,1,0,0:0:0:0:
341,166,130742,1,0,0:0:0:0:
360,195,130826,1,0,0:0:0:0:
369,228,130911,1,0,0:0:0:0:
367,263,130995,1,0,0:0:0:0:
354,295,131079,1,0,0:0:0:0:
332,321,131164,1,0,0:0:0:0:
302,339,131248,1,0,0:0:0:0:
269,347,131332,1,0,0:0:0:0:
234,343,131416,1,0,0:0:0:0:
203,330,131501,54,0,L|196:212,1,96
144,192,131838,5,0,0:0:0:0:
171,216,131922,1,0,0:0:0:0:
213,233,132006,1,0,0:0:0:0:
254,231,132091,1,0,0:0:0:0:
293,213,132175,1,0,0:0:0:0:
323,182,132259,1,0,0:0:0:0:
337,142,132343,1,0,0:0:0:0:
335,101,132428,1,0,0:0:0:0:
316,61,132512,1,0,0:0:0:0:
285,32,132596,1,0,0:0:0:0:
246,18,132680,1,0,0:0:0:0:
203,20,132765,1,0,0:0:0:0:
164,48,132849,54,0,B|132:152|216:124|185:231,1,192
172,252,133186,5,0,0:0:0:0:
72,328,138579,5,0,0:0:0:0:
72,328,138664,1,0,0:0:0:0:
72,328,138748,2,0,L|64:376,10,32
80,296,139253,6,0,L|96:200,1,76.7999976562501
104,136,139478,1,0,0:0:0:0:
168,284,139591,6,0,P|180:228|200:168,1,76.7999976562501
224,136,139815,1,0,0:0:0:0:
256,304,139928,22,0,P|280:276|352:236,1,76.7999976562501
396,248,140152,1,0,0:0:0:0:
168,308,140265,6,0,L|336:340,1,153.5999953125
400,352,140602,6,0,P|432:272|424:156,1,172.799994726563
400,104,140939,2,0,P|400:189|432:269,1,172.799994726563
476,64,141276,5,0,0:0:0:0:
432,24,141360,1,0,0:0:0:0:
376,20,141444,1,0,0:0:0:0:
328,52,141529,1,0,0:0:0:0:
308,104,141613,2,0,L|312:212,1,76.7999976562501
452,144,141838,1,0,0:0:0:0:
264,284,141950,22,0,B|228:292|228:292|212:256|212:256|176:272|176:272|140:240|68:236|32:308,1,249.599988574219
116,336,142287,5,0,0:0:0:0:
176,184,142399,1,0,0:0:0:0:
28,200,142512,1,0,0:0:0:0:
276,212,142624,6,0,B|296:176|292:144|292:144|280:144|280:144|284:100|252:80|252:80|244:88|244:88|216:64|181:61|181:61|184:72|192:80,1,249.599988574219
192,84,142961,1,0,0:0:0:0:
304,76,143298,6,0,P|336:96|384:92,1,64
428,32,143467,2,0,P|451:65|450:106,1,64
408,252,143635,22,0,L|420:168,2,85.3333333333333
400,336,143973,54,0,P|368:328|324:272,1,85.3333333333333
268,218,144310,22,0,P|241:256|240:304,1,85.3333333333333
176,364,144647,6,0,L|144:272,1,76.7999976562501
124,212,144871,1,0,0:0:0:0:
192,64,144984,6,0,P|165:91|156:128,1,76.7999976562501
216,196,145208,1,0,0:0:0:0:
344,68,145321,21,0,0:0:0:0:
269,23,145433,1,0,0:0:0:0:
266,112,145546,1,0,0:0:0:0:
400,172,145658,6,0,L|400:24,1,119.466663020833
308,184,145995,6,0,P|344:248|484:208,1,211.200006445313
488,152,146332,6,0,L|488:56,2,68.2666666666667
444,336,146669,21,0,0:0:0:0:
328,236,146838,1,0,0:0:0:0:
328,236,146922,1,0,0:0:0:0:
328,236,147006,2,0,P|296:228|240:240,1,64
188,280,147175,2,0,P|170:307|164:364,1,64
259,342,147343,5,0,0:0:0:0:
211,340,147428,1,0,0:0:0:0:
163,337,147512,1,0,0:0:0:0:
115,335,147596,1,0,0:0:0:0:
67,332,147680,2,0,L|76:252,1,64
24,128,147849,2,0,L|16:191,1,64
168,240,148017,22,0,P|232:220|244:72,1,192
188,64,148355,2,0,P|168:56|84:80,1,64
124,256,148523,54,0,P|207:264|286:132,1,230.39999296875
116,64,148860,2,0,P|100:84|84:164,1,76.7999976562501
176,296,149029,6,0,B|204:292|232:308|232:308|256:272|256:272|284:312|284:312|336:264|448:300,1,268.799991796875
488,332,149366,21,0,0:0:0:0:
488,332,149450,1,0,0:0:0:0:
488,332,149534,2,0,L|484:376,10,44.7999986328125
424,276,150040,6,0,P|412:244|428:160,1,85.3333333333333
496,148,150265,1,0,0:0:0:0:
316,224,150377,21,0,0:0:0:0:
356,104,150489,1,0,0:0:0:0:
413,193,150602,1,0,0:0:0:0:
296,324,150714,21,0,0:0:0:0:
128,288,150826,1,0,0:0:0:0:
212,308,150939,1,0,0:0:0:0:
44,272,151051,6,0,P|24:236|60:80,1,170.666666666667
144,56,151388,6,0,B|249:32|221:112|325:88,1,192
416,116,151725,2,0,P|324:108|300:216,1,192
436,212,152062,5,0,0:0:0:0:
460,160,152147,1,0,0:0:0:0:
456,104,152231,1,0,0:0:0:0:
420,60,152315,1,0,0:0:0:0:
367,35,152399,2,0,P|332:40|288:72,1,85.3333333333333
288,188,152624,1,0,0:0:0:0:
112,96,152737,22,0,P|147:100|191:132,2,85.3333333333333
96,296,153074,1,0,0:0:0:0:
119,192,153186,1,0,0:0:0:0:
16,221,153298,1,0,0:0:0:0:
184,272,153411,6,0,B|252:292|300:248|300:248|312:284|312:284|376:268|416:304|416:304|372:308|336:360,1,345.600001318359
353,337,154085,6,0,L|340:224,2,85.3333333333333
432,200,154422,37,0,0:0:0:0:
442,277,154534,1,0,0:0:0:0:
452,355,154647,1,0,0:0:0:0:
384,128,154759,54,0,P|452:116|492:144,1,85.3333333333333
397,208,155096,22,0,P|379:162|388:115,1,85.3333333333333
336,16,155433,5,0,0:0:0:0:
304,104,155546,1,0,0:0:0:0:
224,128,155658,1,0,0:0:0:0:
156,60,155770,5,0,0:0:0:0:
228,160,155883,1,0,0:0:0:0:
100,188,155995,1,0,0:0:0:0:
80,96,156107,21,0,0:0:0:0:
208,220,156220,1,0,0:0:0:0:
36,268,156332,1,0,0:0:0:0:
80,12,156444,6,0,P|132:28|168:92,1,128.000004882813
104,164,156782,6,0,B|128:200|128:200|196:144|296:144|312:224,1,238.933326041667
220,336,157119,6,0,P|209:291|232:251,2,93.8666695312501
392,168,157456,22,0,L|508:184,1,89.5999972656251
488,208,157793,6,0,L|496:268,1,44.7999986328125
404,84,157961,2,0,L|398:39,1,44.7999986328125
248,224,158130,6,0,B|184:264|184:264|132:232|144:152,1,192.000007324219
228,100,158383,1,0,0:0:0:0:
228,100,158467,2,0,P|272:100|320:136,1,70.4000021484376
204,348,158635,2,0,P|160:348|112:312,1,70.4000021484376
56,232,158804,5,0,0:0:0:0:
56,232,158973,1,0,0:0:0:0:
240,260,159141,2,0,L|300:268,4,35.2000010742188
96,136,159478,22,0,P|51:136|11:169,1,51.2
200,84,159647,2,0,P|233:50|290:44,1,70.4000021484376
172,208,159815,2,0,P|180:248|208:288,1,51.2
299,132,159984,2,0,P|334:123|368:127,1,70.4000021484376
320,300,160152,5,0,0:0:0:0:
348,316,160321,6,0,L|356:244,1,51.2
376,328,160489,6,0,P|424:352|496:236,1,192
428,180,160826,38,0,L|312:168,1,85.3333333333333
432,276,161051,1,0,0:0:0:0:
171,292,161164,6,0,L|256:284,1,85.3333333333333
360,216,161388,1,0,0:0:0:0:
212,192,161501,6,0,L|127:183,1,85.3333333333333
320,232,161725,1,0,0:0:0:0:
48,277,161838,38,0,B|24:309|24:309|164:277,1,170.666666666667
396,200,162175,22,0,B|363:165|355:109|355:109|319:149|268:164,1,204.79999375
244,264,162512,2,0,B|276:298|284:354|284:354|320:314|371:299,1,204.79999375
380,144,162849,21,0,0:0:0:0:
359,84,162933,1,0,0:0:0:0:
308,46,163017,1,0,0:0:0:0:
245,44,163101,1,0,0:0:0:0:
196,76,163186,2,0,P|238:79|290:127,1,85.3333333333333
84,156,163411,1,0,0:0:0:0:
236,244,163523,6,0,B|252:320|204:352|156:380|104:356|68:304|104:244|192:272,1,268.799991796875
304,332,163860,2,0,P|332:356|400:356,1,93.8666695312501
328,180,164085,1,0,0:0:0:0:
512,288,164197,22,0,B|472:344|472:344|416:292|424:200|492:164,1,268.799991796875
481,170,164534,1,0,0:0:0:0:
504,168,164871,22,0,P|483:202|411:218,1,89.5999972656251
384,288,165040,2,0,P|345:278|307:215,1,89.5999972656251
404,22,165208,6,0,P|431:74|420:132,2,119.466663020833
250,81,165546,38,0,L|336:88,1,85.3333333333333
440,164,165883,22,0,L|354:170,1,85.3333333333333
156,88,166220,6,0,P|168:40|212:8,1,76.7999976562501
256,172,166444,1,0,0:0:0:0:
196,284,166558,6,0,P|148:297|98:275,1,76.7999976562501
148,160,166782,1,0,0:0:0:0:
248,340,166894,21,0,0:0:0:0:
80,360,167006,1,0,0:0:0:0:
152,208,167119,1,0,0:0:0:0:
316,284,167231,6,0,P|378:274|420:228,1,128.000004882813
328,184,167568,6,0,B|282:141|264:52|313:-18|386:-11|448:80|380:116|342:105,1,288.000010986329
224,148,167905,6,0,P|186:142|154:120,2,76.7999976562501
408,108,168242,21,0,0:0:0:0:
232,20,168411,1,0,0:0:0:0:
232,20,168495,1,0,0:0:0:0:
232,20,168579,2,0,L|220:112,1,64
276,200,168748,2,0,L|264:292,1,64
44,248,168916,6,0,B|144:216|144:216|192:296|128:372,1,268.799991796875
44,248,169253,2,0,P|36:208|72:136,1,89.5999972656251
200,256,169422,2,0,P|208:296|172:368,1,89.5999972656251
68,76,169591,6,0,B|164:54|164:54|204:124|204:124|256:92|320:132,1,268.799991796875
340,232,169928,2,0,P|276:224|236:176,1,89.5999972656251
396,56,170096,6,0,B|480:20|480:20|436:232,1,268.799991796875
236,80,170433,2,0,P|284:80|328:124,1,89.5999972656251
400,328,170602,1,0,0:0:0:0:
196,228,170770,2,0,L|200:172,1,38.399998828125
296,328,170939,21,0,0:0:0:0:
296,328,171023,1,0,0:0:0:0:
296,328,171107,2,0,L|288:392,10,38.399998828125
176,316,171613,6,0,L|112:308,4,46.933334765625
344,264,171950,6,0,L|436:248,2,93.8666695312501
188,184,172287,5,0,0:0:0:0:
328,136,172399,1,0,0:0:0:0:
228,60,172512,1,0,0:0:0:0:
164,272,172624,6,0,P|182:293|249:312,1,85.3333333333333
272,192,172961,6,0,P|230:277|325:268,1,230.39999296875
388,160,173298,22,0,B|269:132|303:234|173:209,1,230.39999296875
104,144,173635,5,0,0:0:0:0:
93,105,173719,1,0,0:0:0:0:
99,68,173803,1,0,0:0:0:0:
120,35,173887,1,0,0:0:0:0:
152,16,173973,2,0,P|196:20|233:42,2,85.3333333333333
32,124,174310,22,0,P|24:160|56:228,1,85.3333333333333
120,100,174534,1,0,0:0:0:0:
144,280,174647,2,0,P|175:298|250:289,1,85.3333333333333
176,172,174871,1,0,0:0:0:0:
424,352,174984,6,0,B|444:268|444:268|440:224|440:224|464:148|464:148|344:184|344:184|364:240,1,384.000014648438
360,229,175658,6,0,L|371:304,2,76.7999976562501
272,180,175995,2,0,L|283:104,2,76.7999976562501
192,240,176332,22,0,P|156:240|104:204,1,85.3333333333333
96,196,176669,22,0,P|114:227|108:290,1,85.3333333333333
56,340,177006,6,0,L|12:332,4,38.399998828125
172,344,177343,6,0,L|279:363,2,76.7999976562501
256,264,177680,21,0,0:0:0:0:
356,268,177793,1,0,0:0:0:0:
396,360,177905,1,0,0:0:0:0:
348,288,178017,54,0,P|344:248|376:200,1,85.3333333333333
452,184,178355,6,0,B|340:212|360:140|252:165,1,204.79999375
164,128,178692,6,0,P|148:101|156:44,2,76.7999976562501
188,240,179029,6,0,P|184:284|128:336,1,89.5999972656251
68,272,179366,2,0,L|24:260,1,44.7999986328125
124,160,179619,2,0,L|192:176,2,44.7999986328125
60,100,179871,1,0,0:0:0:0:
44,104,179956,1,0,0:0:0:0:
28,108,180040,2,0,P|16:132|16:152,1,44.7999986328125
136,40,180208,2,0,P|112:28|92:28,1,44.7999986328125
192,124,180377,5,0,0:0:0:0:
280,36,180546,1,0,0:0:0:0:
316,156,180714,2,0,L|312:188,6,22.3999993164063
353,125,181051,21,0,0:0:0:0:
408,127,181135,1,0,0:0:0:0:
420,183,181220,1,0,0:0:0:0:
374,213,181304,1,0,0:0:0:0:
331,179,181388,2,0,L|460:184,1,89.5999972656251
468,332,181725,5,0,0:0:0:0:
392,284,181894,1,0,0:0:0:0:
328,376,182062,1,0,0:0:0:0:
256,324,182231,1,0,0:0:0:0:
176,360,182399,1,0,0:0:0:0:
184,272,182568,1,0,0:0:0:0:
104,308,182737,1,0,0:0:0:0:
24,344,182905,1,0,0:0:0:0:
40,360,183242,5,0,0:0:0:0:
104,312,183411,1,0,0:0:0:0:
112,232,183579,1,0,0:0:0:0:
80,160,183748,1,0,0:0:0:0:
12,120,183916,1,0,0:0:0:0:
72,180,184085,1,0,0:0:0:0:
148,80,184253,1,0,0:0:0:0:
124,88,184591,5,0,0:0:0:0:
112,168,184759,1,0,0:0:0:0:
156,236,184928,1,0,0:0:0:0:
228,268,185096,1,0,0:0:0:0:
304,240,185265,1,0,0:0:0:0:
240,188,185433,1,0,0:0:0:0:
352,136,185602,1,0,0:0:0:0:
376,124,185939,21,0,0:0:0:0:
288,116,186107,1,0,0:0:0:0:
296,28,186276,1,0,0:0:0:0:
384,36,186444,1,0,0:0:0:0:
464,168,186613,5,0,0:0:0:0:
424,260,186782,1,0,0:0:0:0:
332,296,186950,1,0,0:0:0:0:
236,276,187119,6,0,L|216:248,1,22.3999993164063
184,192,187287,2,0,L|212:236,1,44.7999986328125
144,316,187456,2,0,L|132:356,6,22.3999993164063
68,280,187793,1,0,0:0:0:0:
52,288,187877,1,0,0:0:0:0:
36,300,187961,1,0,0:0:0:0:
56,196,188130,1,0,0:0:0:0:
80,92,188298,1,0,0:0:0:0:
96,104,188382,1,0,0:0:0:0:
112,112,188467,6,0,P|140:116|176:108,1,44.7999986328125
212,56,188635,2,0,P|194:78|183:113,1,44.7999986328125
200,212,188804,2,0,L|204:248,6,22.3999993164063
192,264,189141,2,0,L|201:345,2,44.7999986328125
132,368,189478,2,0,L|122:278,1,89.5999972656251
80,160,189815,22,0,P|44:168|4:212,1,76.7999976562501
88,288,190152,2,0,B|112:296|112:296|136:280|136:280|264:300,1,153.5999953125
234,295,190574,1,0,0:0:0:0:
234,295,190658,1,0,0:0:0:0:
308,352,190826,1,0,0:0:0:0:
384,316,190995,1,0,0:0:0:0:
280,216,191164,54,0,P|268:240|268:284,1,64
340,352,191501,2,0,P|400:348|436:220,1,192
336,192,192175,6,0,B|368:240|368:240|392:80,1,192.000007324219
400,40,192428,1,0,0:0:0:0:
400,40,192512,1,0,0:0:0:0:
464,328,193860,5,0,0:0:0:0:
392,272,194029,2,0,P|348:264|312:268,2,44.7999986328125
292,328,194366,2,0,P|244:344|148:264,1,179.19999453125
164,184,194871,1,0,0:0:0:0:
44,320,195208,5,0,0:0:0:0:
68,232,195377,2,0,L|64:180,2,44.7999986328125
16,104,195714,2,0,P|84:104|156:20,1,179.19999453125
240,48,196220,1,0,0:0:0:0:
472,104,196557,5,0,0:0:0:0:
368,92,196725,2,0,P|336:92|284:116,2,48.0000018310548
244,44,197062,2,0,P|232:80|88:88,1,192.000007324219
60,28,197568,1,0,0:0:0:0:
124,88,197737,1,0,0:0:0:0:
40,208,197905,21,0,0:0:0:0:
136,216,198074,2,0,P|160:220|204:256,2,51.2
144,320,198411,2,0,P|196:328|276:212,1,204.8
220,144,198916,1,0,0:0:0:0:
352,320,199253,5,0,0:0:0:0:
427,252,199422,2,0,P|452:245|484:248,2,57.5999982421876
328,220,199759,2,0,P|295:210|254:40,1,230.39999296875
456,36,200265,2,0,P|404:59|347:52,1,115.199996484375
164,16,200602,5,0,0:0:0:0:
244,104,200770,2,0,L|164:120,1,57.5999982421876
88,140,200939,2,0,L|40:152,6,28.7999991210938
52,234,201276,2,0,L|80:228,6,28.7999991210938
76,320,201613,1,0,0:0:0:0:
76,344,201950,6,0,L|144:348,1,64
204,272,202119,2,0,L|277:264,1,73.6000014038086
340,352,202287,2,0,L|408:356,2,36.8000007019043
432,255,202456,2,0,P|468:256|501:271,1,73.6000014038086
340,228,202624,1,0,0:0:0:0:
340,228,202708,1,0,0:0:0:0:
340,228,202793,2,0,P|324:204|328:144,1,76.7999976562501
420,64,202961,22,0,B|500:115|500:115|427:192|306:152,1,288.000010986329
248,24,203298,6,0,B|227:46|227:46|221:76|241:108,1,89.5999972656251
224,272,203467,2,0,B|247:234|247:234|235:190,1,83.1999961914064
132,128,203635,2,0,L|36:140,1,76.7999976562501
240,364,203804,6,0,B|320:356|380:272|328:196|328:196|320:264|392:284|432:252,1,358.3999890625
432,244,204225,1,0,0:0:0:0:
432,244,204310,2,0,P|444:196|416:132,1,83.1999961914064
308,80,204478,2,0,P|296:128|324:192,1,76.7999976562501
408,360,204647,5,0,0:0:0:0:
160,196,204815,22,0,B|112:224|112:224|248:244,1,166.399992382813
455,66,205152,6,0,B|312:32|344:152|202:112,1,268.799991796875
68,60,205489,2,0,B|61:26|61:26|106:37|104:79,1,108.800002075195
176,300,205658,6,0,P|76:352|136:228,1,307.2
236,212,205995,6,0,L|348:220,1,89.5999972656251
412,276,206164,2,0,P|428:312|420:372,1,83.1999961914064
252,305,206332,2,0,L|175:299,1,76.7999976562501
372,136,206501,22,0,B|416:172|420:220|356:316|236:280|300:140|168:188|104:240,1,358.3999890625
80,280,206922,1,0,0:0:0:0:
80,280,207006,2,0,P|64:328|84:384,1,76.7999976562501
92,136,207175,2,0,P|41:135|-5:171,1,76.7999976562501
288,184,207343,6,0,B|316:72|208:36|208:36|168:104|228:152,1,288.000010986329
284,200,207680,1,0,0:0:0:0:
444,184,207849,2,0,P|498:221|382:225,1,268.799991796875
424,92,208186,1,0,0:0:0:0:
304,344,208355,2,0,B|260:375|196:372|147:339|180:294|103:258|27:294,1,268.799991796875
35,208,208692,6,0,P|57:203|80:204,2,44.7999986328125
113,95,208860,6,0,P|124:114|132:136,2,44.7999986328125
244,128,209029,22,0,P|229:145|212:160,2,44.7999986328125
136,268,209197,6,0,P|129:289|127:311,6,44.7999986328125
216,304,209534,6,0,P|240:320|304:316,1,70.4000021484376
372,280,209703,6,0,P|394:262|410:200,1,83.1999961914064
408,104,209871,22,0,P|397:76|343:42,1,96.0000036621095
219,123,210040,6,0,P|241:131|263:132,2,44.7999986328125
324,208,210208,6,0,P|337:190|345:169,2,44.7999986328125
436,135,210377,6,0,P|423:116|405:102,2,44.7999986328125
401,5,210546,22,0,P|379:11|361:23,2,44.7999986328125
281,100,210714,6,0,B|260:136|260:136|256:164|276:196,1,102.4
428,256,210883,6,0,B|449:220|449:220|453:192|433:160,1,102.4
292,324,211051,6,0,B|239:318|200:344|200:344|116:272|116:272|76:304|21:296,1,307.2
43,204,211388,22,0,P|61:185|70:161,2,51.2
136,168,211557,22,0,P|123:145|103:129,2,51.2
130,69,211725,6,0,P|105:74|83:87,2,51.2
33,44,211894,22,0,P|30:69|36:93,2,51.2
136,168,212062,6,0,P|184:168|244:108,1,83.1999961914064
356,28,212231,2,0,P|308:28|248:88,1,96.0000036621095
264,232,212399,2,0,L|276:360,1,83.1999961914064
416,200,212568,2,0,B|424:152|424:152|395:106,1,96.0000036621095
348,276,212737,38,0,B|360:380|360:380|412:368|428:336|428:336|448:344|448:344|416:288|416:216|475:160|475:160|400:120|416:24|488:16|524:48|504:136|476:168|388:168|352:160|300:108|300:108|240:48|172:52|120:84|92:132|88:196|136:244,1,1126.400034375
117,219,214591,5,0,0:0:0:0:
160,192,214675,1,0,0:0:0:0:
188,152,214759,1,0,0:0:0:0:
196,104,214843,1,0,0:0:0:0:
184,56,214928,1,0,0:0:0:0:
56,136,215096,6,0,L|68:240,1,89.5999972656251
184,232,215265,2,0,L|172:336,1,89.5999972656251
84,372,215433,5,0,0:0:0:0:
272,248,215602,2,0,P|320:232|312:336,1,179.19999453125
92,144,215939,2,0,B|264:128|264:128|156:56,1,268.799991796875
96,60,216276,6,0,P|80:101|92:144,1,89.5999972656251
268,256,216444,2,0,B|322:274|386:239|378:155|378:155|396:174|396:174|385:106|440:64,1,268.799991796875
419,87,216782,21,0,0:0:0:0:
456,248,216950,1,0,0:0:0:0:
256,352,217119,1,0,0:0:0:0:
100,160,217287,6,0,B|300:188|300:188|152:336,1,358.3999890625
76,280,217708,1,0,0:0:0:0:
76,280,217793,6,0,L|56:180,1,89.5999972656251
152,136,217961,2,0,L|132:36,1,89.5999972656251
304,296,218130,6,0,P|224:344|220:200,1,268.799991796875
304,280,218467,1,0,0:0:0:0:
412,80,218635,22,0,P|332:32|328:176,1,268.799991796875
412,96,218972,1,0,0:0:0:0:
388,304,219141,6,0,P|476:332|448:191,1,268.799991796875
408,136,219478,6,0,L|424:52,2,44.7999986328125
312,148,219647,6,0,L|276:70,2,44.7999986328125
240,212,219815,22,0,L|166:168,2,44.7999986328125
217,305,219984,6,0,L|131:311,6,44.7999986328125
187,367,220321,6,0,P|208:337|216:276,1,70.4000021484376
279,219,220489,6,0,P|258:189|201:163,1,83.1999961914064
168,80,220658,22,0,P|133:90|91:136,1,96.0000036621095
28,52,220826,6,0,P|12:76|0:120,2,44.7999986328125
56,176,220995,6,0,P|61:204|84:243,2,44.7999986328125
163,243,221164,6,0,P|186:259|231:271,2,44.7999986328125
286,214,221332,22,0,P|314:208|353:185,2,44.7999986328125
328,104,221501,6,0,B|344:60|316:28|316:28|312:88,1,102.4
192,196,221669,6,0,B|176:240|204:272|204:272|208:212,1,102.4
176,72,221838,6,0,B|104:0|-8:52|-8:52|72:80|72:168,1,307.2
24,208,222175,22,0,L|36:280,2,51.2
120,292,222343,2,0,L|132:364,2,51.2
216,220,222512,22,0,L|207:169,2,51.2
295,329,222680,2,0,L|286:278,2,51.2
336,184,222849,6,0,P|356:156|428:140,1,83.1999961914064
392,324,223017,2,0,P|412:352|484:368,1,102.4
387,52,223186,22,0,P|429:54|464:76,1,83.1999961914064
415,227,223355,2,0,P|464:248|512:232,1,102.4
504,148,223523,5,0,0:0:0:0:
392,324,223692,1,0,0:0:0:0:
316,136,223860,22,0,L|300:56,12,51.2
312,108,224871,21,0,0:0:0:0:
292,116,224956,1,0,0:0:0:0:
272,116,225040,1,0,0:0:0:0:
252,108,225124,1,0,0:0:0:0:
236,92,225208,1,0,0:0:0:0:
136,276,225377,6,0,B|96:316|96:316|144:256|128:196|128:196|72:148|100:64,1,307.2
196,116,225714,1,0,0:0:0:0:
196,116,225798,1,0,0:0:0:0:
196,116,225883,2,0,P|144:124|88:72,1,102.4
256,28,226051,2,0,P|308:20|364:72,1,102.4
292,200,226220,5,0,0:0:0:0:
146,59,226388,38,0,B|237:49|237:49|262:56|262:56|348:43,1,204.8
136,344,226725,2,0,B|48:336|20:232|80:176|80:176|104:224|176:228,1,307.2
224,280,227062,6,0,B|216:320|216:320|224:344|224:344|214:381,1,102.4
440,128,227231,2,0,B|428:104|428:104|396:108|396:108|352:68|352:68|292:92|252:156|284:236|356:272,1,307.2
380,284,227568,6,0,B|412:280|412:280|430:287|430:287|444:276|444:276|476:272,1,102.4
456,160,227737,2,0,B|416:147|416:147|372:167,1,89.5999972656251
400,368,227905,2,0,L|496:360,1,76.7999976562501
304,100,228074,6,0,B|257:102|241:139|241:139|267:151|267:151|247:229|321:302|412:279,1,307.199990625
446,177,228495,1,0,0:0:0:0:
446,177,228579,2,0,P|410:164|350:175,1,76.7999976562501
292,268,228748,2,0,P|256:280|196:269,1,76.7999976562501
104,172,228916,22,0,P|158:80|166:203,1,288.000010986329
132,252,229253,1,0,0:0:0:0:
28,72,229422,6,0,B|44:36|44:36|124:8|200:36|104:116|368:80,1,288.000010986329
352,56,229759,1,0,0:0:0:0:
280,320,229928,2,0,P|236:292|360:220,1,288.000010986329
380,308,230265,6,0,P|402:315|426:315,2,48.0000018310548
468,228,230433,6,0,P|475:205|475:181,2,48.0000018310548
315,176,230602,22,0,P|339:176|362:169,2,48.0000018310548
428,76,230770,22,0,P|435:53|435:29,6,48.0000018310548
352,128,231107,6,0,P|317:132|284:122,1,70.4000021484376
240,32,231276,2,0,B|196:20|196:20|160:52,1,89.5999972656251
168,203,231444,2,0,P|115:211|70:181,1,108.800002075195
60,52,231613,22,0,P|76:88|80:128,2,44.7999986328125
152,136,231782,6,0,P|147:175|131:211,2,44.7999986328125
32,240,231950,22,0,P|33:279|47:317,2,44.7999986328125
116,328,232119,22,0,P|136:361|167:387,2,44.7999986328125
208,288,232287,6,0,L|216:176,1,102.4
324,104,232456,6,0,L|316:206,1,102.4
412,356,232624,2,0,B|472:328|480:228|404:184|404:184|472:160|456:52,1,307.2
420,20,232961,6,0,P|392:8|328:20,2,51.2
292,84,233130,22,0,P|295:114|338:163,2,51.2
412,163,233298,6,0,P|436:144|458:83,2,51.2
420,20,233467,22,0,P|391:8|327:20,2,51.2
312,160,233635,22,0,P|348:184|416:180,1,102.4
436,48,233804,2,0,P|400:24|332:28,1,102.4
216,172,233973,2,0,P|212:204|256:272,1,102.4
463,139,234141,2,0,P|467:107|423:39,1,102.4
336,288,234310,5,0,0:0:0:0:
268,76,234647,6,0,L|272:16,6,32
216,144,234984,2,0,P|188:148|144:136,1,64
104,68,235152,1,0,0:0:0:0:
99,52,235236,1,0,0:0:0:0:
101,37,235320,1,0,0:0:0:0:
216,144,235489,2,0,L|204:216,1,64
128,280,235658,5,0,0:0:0:0:
116,164,235826,1,0,0:0:0:0:
280,232,235995,2,0,L|268:308,1,76.7999976562501
120,364,236164,21,0,0:0:0:0:
71,351,236248,1,0,0:0:0:0:
35,315,236332,1,0,0:0:0:0:
25,265,236416,1,0,0:0:0:0:
42,218,236501,1,0,0:0:0:0:
172,96,236669,6,0,B|152:144|152:144|156:207,1,102.4
308,157,236838,2,0,B|289:201|289:201|238:245,1,102.4
164,296,237006,5,0,0:0:0:0:
100,44,237175,2,0,B|216:20|176:104|316:80,1,204.8
440,220,237512,2,0,P|492:180|360:156,1,307.2
324,276,237849,6,0,B|308:316|336:336|336:336|352:304,1,96.0000036621095
496,288,238017,2,0,B|475:305|444:302|444:302|428:337|428:337|367:253|259:287|239:351,1,326.400006225586
144,380,238355,22,0,P|160:352|176:276,1,102.4
104,236,238523,22,0,P|108:200|96:136,1,89.5999972656251
32,96,238692,6,0,P|28:64|12:16,1,76.7999976562501
216,152,238860,22,0,B|260:196|396:240|468:152|456:72|392:32|316:88|340:176,1,384.000014648438
408,264,239282,1,0,0:0:0:0:
408,264,239366,2,0,P|445:246|472:215,1,83.1999961914064
317,15,239534,2,0,P|284:40|264:76,1,83.1999961914064
300,312,239703,6,0,B|312:344|340:352|340:352|352:320|244:212|96:284,1,288.000010986329
84,296,240040,1,0,0:0:0:0:
312,252,240208,2,0,P|392:184|392:8,1,288.000010986329
376,36,240546,1,0,0:0:0:0:
248,236,240714,2,0,P|276:288|492:356,1,288.000010986329
484,264,241051,22,0,P|452:268|412:292,2,48.0000018310548
340,328,241220,22,0,P|333:359|344:405,2,48.0000018310548
276,198,241388,6,0,P|254:221|240:266,2,48.0000018310548
160,280,241557,1,0,0:0:0:0:
144,320,241641,1,0,0:0:0:0:
140,360,241725,2,0,P|124:308|152:228,1,96.0000036621095
308,208,241894,2,0,L|76:192,1,192.000007324219
116,194,242231,22,0,P|103:152|125:88,1,76.7999976562501
344,96,242400,2,0,L|162:83,1,153.5999953125
107,120,242737,22,0,P|94:78|116:14,1,64
348,24,242906,2,0,L|185:12,1,128
80,32,243242,6,0,P|96:72|104:124,1,64
120,196,243411,1,0,0:0:0:0:
204,104,243579,2,0,P|212:132|212:184,1,51.2
140,328,243748,38,0,B|112:348|52:352|16:308|12:244|28:188|128:148|156:180|216:260|208:276|200:296|224:336|252:320|292:324|348:332|456:400|552:244|484:144|448:40|216:56|188:352|304:376|392:452|456:412|528:296|612:172|420:96|348:128|300:180,1,1024
318,163,246950,5,0,0:0:0:0:
369,184,247034,1,0,0:0:0:0:
422,169,247118,1,0,0:0:0:0:
455,125,247202,1,0,0:0:0:0:
454,70,247287,1,0,0:0:0:0:
276,120,247456,2,0,L|292:264,1,128
300,284,247708,1,0,0:0:0:0:
300,284,247793,1,0,0:0:0:0:
404,212,247961,1,0,0:0:0:0:
188,140,248130,1,0,0:0:0:0:
352,52,248298,1,0,0:0:0:0:
352,52,248383,1,0,0:0:0:0:
352,52,248467,2,0,L|360:124,2,64
212,152,248804,1,0,0:0:0:0:
444,212,248973,2,0,L|436:284,1,64
384,352,249141,5,0,0:0:0:0:
332,220,249310,1,0,0:0:0:0:
484,248,249478,1,0,0:0:0:0:
384,352,249647,1,0,0:0:0:0:
384,352,249731,1,0,0:0:0:0:
384,352,249815,2,0,L|368:272,1,64
348,176,249984,1,0,0:0:0:0:
252,340,250152,2,0,P|220:320|112:324,1,128
116,336,250405,1,0,0:0:0:0:
100,356,250489,5,0,0:0:0:0:
76,220,250658,1,0,0:0:0:0:
256,248,250826,1,0,0:0:0:0:
100,356,250995,1,0,0:0:0:0:
208,148,251164,2,0,L|284:164,1,64
356,184,251332,1,0,0:0:0:0:
171,221,251501,6,0,B|148:232|148:232|120:216,1,57.5999982421876
272,80,251669,22,0,B|312:72|312:72|364:136,1,96.0000036621095
88,136,251838,6,0,L|72:4,1,128
176,80,252175,1,0,0:0:0:0:
8,192,252343,2,0,B|64:220|92:292|68:368|68:368|48:300,1,256
128,264,252765,1,0,0:0:0:0:
128,264,252849,2,0,L|276:284,1,128
388,304,253186,5,0,0:0:0:0:
336,208,253355,1,0,0:0:0:0:
336,208,253439,1,0,0:0:0:0:
336,208,253523,1,0,0:0:0:0:
308,364,253692,1,0,0:0:0:0:
464,248,253860,1,0,0:0:0:0:
464,248,253944,1,0,0:0:0:0:
464,248,254029,1,0,0:0:0:0:
380,172,254197,2,0,P|372:128|380:24,1,128
456,88,254450,1,0,0:0:0:0:
456,88,254534,6,0,L|296:100,1,128
224,52,254871,1,0,0:0:0:0:
144,184,255040,1,0,0:0:0:0:
138,221,255124,1,0,0:0:0:0:
144,257,255208,1,0,0:0:0:0:
166,287,255293,1,0,0:0:0:0:
199,303,255377,2,0,L|208:236,1,64
180,116,255546,2,0,P|132:120|88:208,1,128
108,212,255798,1,0,0:0:0:0:
136,236,255883,22,0,L|152:108,1,128
124,340,256220,1,0,0:0:0:0:
40,228,256388,2,0,L|136:268,1,64
216,304,256557,1,0,0:0:0:0:
216,304,256641,1,0,0:0:0:0:
216,304,256725,1,0,0:0:0:0:
136,160,256894,6,0,P|116:188|112:232,1,57.5999982421876
248,196,257062,6,0,B|264:180|264:180|280:132|232:76,1,96.0000036621095
44,52,257231,6,0,L|208:84,1,128
260,100,257568,1,0,0:0:0:0:
308,304,257737,2,0,P|260:320|220:160,1,256
348,264,258242,2,0,P|376:300|364:380,1,128
288,336,258495,1,0,0:0:0:0:
304,328,258579,21,0,0:0:0:0:
184,264,258748,1,0,0:0:0:0:
412,208,258916,1,0,0:0:0:0:
365,377,259085,1,0,0:0:0:0:
340,136,259253,1,0,0:0:0:0:
364,352,259422,1,0,0:0:0:0:
344,68,259591,2,0,P|384:68|428:200,1,192
324,164,259928,6,0,L|488:152,1,128
400,264,260265,1,0,0:0:0:0:
256,96,260433,1,0,0:0:0:0:
380,164,260602,1,0,0:0:0:0:
380,164,260686,1,0,0:0:0:0:
380,164,260770,1,0,0:0:0:0:
252,240,260939,2,0,L|120:228,1,128
48,256,261192,1,0,0:0:0:0:
48,256,261276,6,0,P|28:292|48:392,1,128
184,156,261613,1,0,0:0:0:0:
120,320,261782,1,0,0:0:0:0:
116,208,261950,1,0,0:0:0:0:
208,320,262119,1,0,0:0:0:0:
48,268,262287,1,0,0:0:0:0:
184,156,262456,1,0,0:0:0:0:
36,184,262624,6,0,P|20:96|72:24,1,128
108,16,262961,1,0,0:0:0:0:
212,184,263130,2,0,B|364:228|312:100|496:160,1,256
468,128,263551,1,0,0:0:0:0:
484,108,263635,2,0,P|440:92|336:156,1,128
412,244,263973,21,0,0:0:0:0:
500,188,264141,1,0,0:0:0:0:
444,352,264310,1,0,0:0:0:0:
340,296,264478,1,0,0:0:0:0:
309,285,264562,1,0,0:0:0:0:
277,283,264646,1,0,0:0:0:0:
246,290,264730,1,0,0:0:0:0:
218,304,264815,1,0,0:0:0:0:
194,326,264899,1,0,0:0:0:0:
177,353,264984,6,0,P|192:308|180:212,1,128
96,192,265321,6,0,P|164:216|276:92,1,256
176,24,265826,1,0,0:0:0:0:
160,48,265911,1,0,0:0:0:0:
144,72,265995,5,0,0:0:0:0:
132,100,266079,1,0,0:0:0:0:
180,120,266164,1,0,0:0:0:0:
228,108,266248,1,0,0:0:0:0:
268,68,266332,1,0,0:0:0:0:
324,36,266416,1,0,0:0:0:0:
392,52,266501,1,0,0:0:0:0:
436,108,266585,1,0,0:0:0:0:
440,180,266669,22,0,L|420:320,1,128
421,306,267006,1,0,0:0:0:0:
352,136,267175,2,0,P|336:184|272:240,1,128
280,236,267512,1,0,0:0:0:0:
240,120,267680,6,0,P|208:136|152:132,1,64
100,88,267849,6,0,P|85:49|90:8,1,83.1999961914064
184,40,268017,5,0,0:0:0:0:
164,156,268186,1,0,0:0:0:0:
144,272,268355,1,0,0:0:0:0:
53,196,268523,1,0,0:0:0:0:
164,156,268692,1,0,0:0:0:0:
255,232,268860,1,0,0:0:0:0:
235,348,269029,1,0,0:0:0:0:
144,272,269197,1,0,0:0:0:0:
144,272,269282,1,0,0:0:0:0:
144,272,269366,22,0,L|172:120,1,115.199996484375
274,163,269703,2,0,P|219:175|164:158,1,115.199996484375
54,153,270040,2,0,P|109:140|163:157,1,115.199996484375
196,268,270377,1,0,0:0:0:0:
72,352,270714,5,0,0:0:0:0:
56,236,270883,1,0,0:0:0:0:
40,120,271051,1,0,0:0:0:0:
168,280,271220,1,0,0:0:0:0:
208,180,271388,1,0,0:0:0:0:
40,120,271557,1,0,0:0:0:0:
232,188,271725,1,0,0:0:0:0:
120,220,271894,1,0,0:0:0:0:
120,220,271978,1,0,0:0:0:0:
120,220,272062,22,0,P|92:260|104:352,1,115.199996484375
196,300,272399,1,0,0:0:0:0:
148,128,272568,2,0,L|12:144,1,115.199996484375
33,141,272905,1,0,0:0:0:0:
256,112,273074,1,0,0:0:0:0:
256,112,273411,22,0,P|324:124|432:0,1,230.39999296875
308,40,273916,2,0,P|263:92|316:248,1,230.39999296875
421,57,274422,2,0,L|293:37,1,115.199996484375
192,60,274759,5,0,0:0:0:0:
84,24,274928,1,0,0:0:0:0:
232,72,275096,1,0,0:0:0:0:
131,128,275265,2,0,P|99:174|98:231,1,115.199996484375
132,128,275602,1,0,0:0:0:0:
144,304,275770,1,0,0:0:0:0:
144,304,276107,6,0,P|190:336|247:337,1,115.199996484375
360,252,276444,1,0,0:0:0:0:
224,248,276613,2,0,P|279:237|321:198,1,115.199996484375
320,60,276950,1,0,0:0:0:0:
236,152,277119,1,0,0:0:0:0:
408,240,277287,1,0,0:0:0:0:
408,240,277371,1,0,0:0:0:0:
408,240,277456,5,0,0:0:0:0:
432,128,277624,1,0,0:0:0:0:
456,16,277793,1,0,0:0:0:0:
324,160,277961,1,0,0:0:0:0:
408,240,278130,1,0,0:0:0:0:
492,320,278298,1,0,0:0:0:0:
299,355,278467,1,0,0:0:0:0:
299,355,278804,22,0,P|328:316|496:324,1,230.39999296875
299,355,279310,2,0,P|260:326|268:158,1,230.39999296875
299,355,279815,2,0,L|140:376,1,115.199996484375
84,384,280152,5,0,0:0:0:0:
176,288,280321,1,0,0:0:0:0:
20,308,280489,1,0,0:0:0:0:
184,370,280658,1,0,0:0:0:0:
164,196,280826,1,0,0:0:0:0:
180,348,280995,1,0,0:0:0:0:
72,224,281164,1,0,0:0:0:0:
72,224,281501,6,0,P|116:192|140:24,1,230.39999296875
52,132,282006,1,0,0:0:0:0:
220,176,282175,2,0,P|252:156|296:76,1,115.199996484375
392,32,282512,2,0,P|344:56|316:252,2,230.39999296875
464,104,283355,1,0,0:0:0:0:
348,164,283692,1,0,0:0:0:0:
480,204,283861,1,0,0:0:0:0:
480,204,284197,6,0,P|427:204|355:49,1,204.8
444,48,284703,2,0,L|424:291,1,204.8
420,368,285208,1,0,0:0:0:0:
420,368,285546,22,0,L|300:356,1,102.4
244,300,285883,1,0,0:0:0:0:
332,248,286051,2,0,P|276:284|144:192,1,204.8
208,156,286557,2,0,P|216:136|200:44,1,102.4
116,68,286894,6,0,P|220:96|292:44,1,179.19999453125
277,63,287399,1,0,0:0:0:0:
352,116,287568,2,0,P|336:160|344:216,1,89.5999972656251
380,280,287905,1,0,0:0:0:0:
380,280,288242,6,0,L|388:160,1,89.5999972656251
288,284,288579,1,0,0:0:0:0:
376,368,288748,1,0,0:0:0:0:
376,368,288916,5,0,0:0:0:0:
398,366,289000,1,0,0:0:0:0:
419,360,289084,1,0,0:0:0:0:
438,348,289168,1,0,0:0:0:0:
452,332,289253,21,0,0:0:0:0:
448,268,289338,1,0,0:0:0:0:
444,204,289422,1,0,0:0:0:0:
440,140,289506,1,0,0:0:0:0:
432,64,289591,1,0,0:0:0:0:
