osu file format v14

[General]
AudioFilename: audio.mp3
AudioLeadIn: 0
PreviewTime: 251602
Countdown: 0
SampleSet: None
StackLeniency: 0.4
Mode: 0
LetterboxInBreaks: 0
WidescreenStoryboard: 0

[Editor]
Bookmarks: 7830,9202,10573,11944,13316,14687,62859,68430,70659,113430,134002,146344,152516,167344,178316,185859,186116,189287,195716,197087,200259,201373,227087,229830,231202,232573,233944,235316,236687,238059,242173,243544,244916,246287,248944,260002,281944,309373,312116,313487,336802
DistanceSpacing: 0.9
BeatDivisor: 4
GridSize: 8
TimelineZoom: 1.6

[Metadata]
Title:Delay Order
TitleUnicode:Delay Order
Artist:Nhato
ArtistUnicode:Nhato
Creator:Troponoop
Version:Freehand
Source:東方Project
Tags:Tags: ZUN White Clear Syrufit Comiket 82 Izayoi Sakuya 十六夜咲夜 Touhou project フラワリングナイト Flowering Night
BeatmapID:1239519
BeatmapSetID:585236

[Difficulty]
HPDrainRate:1
CircleSize:4
OverallDifficulty:8
ApproachRate:9.1
SliderMultiplier:1.69
SliderTickRate:1

[Events]
//Background and Video events
0,0,"sak flipped.png",0,0
//Break Periods
2,152755,159043
//Storyboard Layer 0 (Background)
//Storyboard Layer 1 (Fail)
//Storyboard Layer 2 (Pass)
//Storyboard Layer 3 (Foreground)
//Storyboard Sound Samples

[TimingPoints]
-358,342.857142857143,4,1,0,100,1,0
973,-100,4,3,0,10,0,0
1073,-100,4,3,0,10,0,0
1659,-100,4,3,0,31,0,0
2344,-100,4,3,1,31,0,0
3030,-100,4,3,1,51,0,0
3759,-166.666666666667,4,2,1,51,0,0
14645,-133.333333333333,4,2,1,65,0,0
25702,-100,4,2,1,75,0,0
46187,-100,4,3,1,65,0,0
47559,-66.6666666666667,4,3,1,65,0,0
50302,-83.3333333333333,4,2,1,65,0,0
51673,-66.6666666666667,4,2,1,65,0,0
52016,-83.3333333333333,4,2,1,65,0,0
57159,-66.6666666666667,4,2,1,65,0,0
57502,-83.3333333333333,4,2,1,65,0,0
58016,-66.6666666666667,4,2,1,65,0,0
58530,-83.3333333333333,4,2,1,81,0,0
62645,-66.6666666666667,4,2,1,81,0,0
62987,-83.3333333333333,4,2,1,81,0,0
68130,-66.6666666666667,4,2,1,81,0,0
68473,-83.3333333333333,4,2,1,81,0,0
73616,-66.6666666666667,4,2,1,81,0,0
73959,-83.3333333333333,4,2,1,81,0,0
79102,-66.6666666666667,4,2,1,81,0,0
79445,-83.3333333333333,4,2,1,81,0,0
79959,-66.6666666666667,4,2,1,81,0,0
80473,-133.333333333333,4,2,1,81,0,0
91445,-200,4,2,1,65,0,0
102416,-200,4,3,1,65,0,0
113387,-200,4,3,1,18,0,0
133959,-100,4,2,1,50,0,0
146302,-200,4,3,1,35,0,0
146473,-200,4,3,1,5,0,0
148016,-200,4,3,1,5,0,0
160359,-200,4,3,1,5,0,0
161213,-50,4,2,1,65,0,1
162245,-66.6666666666667,4,2,1,65,0,1
163273,-66.6666666666667,4,2,1,65,0,1
169099,-133.333333333333,4,2,1,65,0,1
169445,-66.6666666666667,4,2,1,65,0,1
172187,-50,4,2,1,65,0,1
172873,-66.6666666666667,4,2,1,65,0,1
179987,-133.333333333333,4,2,1,65,0,1
180416,-66.6666666666667,4,2,1,65,0,1
190959,-133.333333333333,4,2,1,65,0,1
191559,-200,4,2,1,65,0,1
194045,-200,4,2,1,65,0,1
195845,-100,4,2,1,65,0,1
196873,-66.6666666666667,4,2,1,65,0,1
201930,-133.333333333333,4,2,1,65,0,1
202359,-66.6666666666667,4,2,1,65,0,1
205184,-66.6666666666667,4,2,1,65,0,1
205784,-100,4,3,1,65,0,0
227045,-200,4,3,1,65,0,0
248945,-66.6666666666667,4,3,1,65,0,0
251730,-83.3333333333333,4,2,1,65,0,0
253102,-66.6666666666667,4,2,1,65,0,0
253445,-83.3333333333333,4,2,1,65,0,0
258587,-66.6666666666667,4,2,1,65,0,0
258930,-83.3333333333333,4,2,1,65,0,0
259445,-66.6666666666667,4,2,1,65,0,0
259959,-83.3333333333333,4,2,1,65,0,0
264073,-66.6666666666667,4,2,1,65,0,0
264416,-83.3333333333333,4,2,1,65,0,0
269559,-66.6666666666667,4,2,1,65,0,0
269902,-83.3333333333333,4,2,1,65,0,0
275045,-66.6666666666667,4,2,1,65,0,0
275387,-83.3333333333333,4,2,1,65,0,0
280530,-66.6666666666667,4,2,1,65,0,0
280873,-83.3333333333333,4,2,1,65,0,0
281559,-66.6666666666667,4,2,1,65,0,0
281902,-133.333333333333,4,2,1,65,0,0
292959,-200,4,2,1,65,0,0
303930,-200,4,3,1,65,0,0
309413,-200,4,3,1,69,0,0
310784,-200,4,3,1,73,0,0
312156,-200,4,3,1,77,0,0
313527,-200,4,3,1,85,0,0
314816,-83.3333333333333,4,2,1,65,0,0
319013,-66.6666666666667,4,3,1,65,0,0
319359,-83.3333333333333,4,2,1,65,0,0
324499,-66.6666666666667,4,3,1,65,0,0
324845,-83.3333333333333,4,2,1,65,0,0
336245,-66.6666666666667,4,3,1,65,0,0

[Colours]
Combo1 : 73,73,148
Combo2 : 164,123,0
Combo3 : 174,0,87
Combo4 : 128,128,128

[HitObjects]
256,192,1099,12,0,3584,0:0:0:0:
336,323,3756,5,0,3:0:0:0:
353,305,3927,1,0,3:0:0:0:
340,195,4099,1,0,3:0:0:0:
323,213,4270,1,0,3:0:0:0:
319,305,4442,1,0,3:0:0:0:
336,323,4613,1,0,3:0:0:0:
357,213,4784,1,0,3:0:0:0:
340,195,4956,1,0,3:0:0:0:
255,103,5127,6,0,P|233:93|207:89,1,50.6999984527588,0|0,1:0|2:0,0:0:0:0:
175,227,5470,2,0,P|174:252|181:278,1,50.6999984527588,0|0,1:0|2:0,0:0:0:0:
323,277,5813,2,0,P|347:272|370:262,1,50.6999984527588,0|0,1:0|2:0,0:0:0:0:
338,125,6156,2,0,P|313:129|290:139,1,50.6999984527588,0|0,1:0|2:0,0:0:0:0:
247,258,6499,5,0,3:0:0:0:
226,184,6670,1,0,3:0:0:0:
172,239,6842,1,0,3:0:0:0:
151,166,7013,1,0,3:0:0:0:
96,220,7184,1,0,3:0:0:0:
77,146,7356,1,0,3:0:0:0:
22,200,7527,1,0,3:0:0:0:
2,125,7699,1,0,3:0:0:0:
59,71,7870,6,0,P|84:71|109:76,1,50.6999984527588,0|0,1:0|0:0,0:0:0:0:
181,99,8213,2,0,P|167:121|150:139,1,50.6999984527588,0|0,1:0|0:0,0:0:0:0:
31,167,8556,2,0,P|54:158|76:145,1,50.6999984527588,0|0,1:0|0:0,0:0:0:0:
167,212,8899,2,0,P|141:211|116:207,1,50.6999984527588,0|0,1:0|0:0,0:0:0:0:
167,22,9242,5,0,3:0:0:0:
249,47,9413,1,0,3:0:0:0:
181,99,9584,1,0,3:0:0:0:
268,32,9756,1,0,3:0:0:0:
256,124,9927,1,0,3:0:0:0:
327,88,10099,1,0,3:0:0:0:
324,167,10270,1,0,3:0:0:0:
337,68,10442,1,0,3:0:0:0:
405,29,10613,6,0,P|413:54|414:79,1,50.6999984527588,0|0,1:0|0:0,0:0:0:0:
324,166,10956,2,0,P|348:159|373:157,1,50.6999984527588,0|0,1:0|0:0,0:0:0:0:
512,161,11299,2,0,P|487:153|462:152,1,50.6999984527588,0|0,1:0|0:0,0:0:0:0:
362,231,11642,2,0,P|360:256|352:280,1,50.6999984527588,0|0,1:0|0:0,0:0:0:0:
280,236,11984,5,0,3:0:0:0:
280,236,12156,1,0,3:0:0:0:
196,212,12327,1,0,3:0:0:0:
196,212,12499,1,0,3:0:0:0:
144,280,12670,1,0,3:0:0:0:
144,280,12842,1,0,3:0:0:0:
72,232,13013,1,0,3:0:0:0:
72,232,13184,1,0,3:0:0:0:
220,324,13356,6,0,L|256:272,1,50.6999984527588,0|0,1:0|0:0,0:0:0:0:
349,229,13699,2,0,P|324:230|299:228,1,50.6999984527588,0|0,1:0|0:0,0:0:0:0:
254,119,14042,2,0,B|273:134|273:134|298:140,1,50.6999984527588,0|0,1:0|0:0,0:0:0:0:
300,228,14384,2,0,B|280:213|280:213|256:207,1,50.6999984527588,0|0,1:0|0:0,0:0:0:0:
140,216,14727,5,0,3:0:0:0:
140,216,14813,2,0,P|125:187|122:156,1,63.3750024175645,0|0,3:0|0:0,0:0:0:0:
119,84,15070,2,0,B|99:80|99:80|65:106,1,63.3750024175645,0|0,3:0|0:0,0:0:0:0:
47,124,15327,1,0,3:0:0:0:
29,141,15413,1,0,3:0:0:0:
39,236,15584,1,0,0:0:0:0:
199,164,15756,1,0,0:0:0:0:
20,248,15927,1,0,0:0:0:0:
233,234,16099,6,0,P|240:195|185:166,1,95.0625036263467,0|0,3:0|0:0,0:0:0:0:
204,91,16442,2,0,P|235:98|264:112,1,63.3750024175645,0|0,3:0|0:0,0:0:0:0:
263,111,16699,1,0,3:0:0:0:
263,111,16784,1,0,3:0:0:0:
233,234,16956,1,0,0:0:0:0:
352,152,17127,1,0,3:0:0:0:
352,128,17213,1,0,3:0:0:0:
359,102,17299,1,0,3:0:0:0:
374,81,17384,1,0,0:0:0:0:
398,71,17470,6,0,P|438:93|462:134,1,95.0625036263467,0|0,3:0|0:0,0:0:0:0:
508,193,17813,2,0,P|479:205|448:207,1,63.3750024175645,0|0,3:0|0:0,0:0:0:0:
448,207,18070,1,0,3:0:0:0:
448,207,18156,1,0,3:0:0:0:
317,155,18327,2,0,L|309:185,1,31.6875012087822,0|0,3:0|0:0,0:0:0:0:
284,258,18499,1,0,3:0:0:0:
245,141,18670,1,0,0:0:0:0:
388,166,18842,6,0,B|373:225|373:225|382:250|401:275,1,95.0625036263467,0|0,3:0|0:0,0:0:0:0:
353,347,19184,2,0,L|290:335,1,63.3750024175645,0|0,3:0|0:0,0:0:0:0:
286,314,19442,1,0,3:0:0:0:
285,293,19527,1,0,3:0:0:0:
286,134,19699,1,0,0:0:0:0:
445,240,19870,1,0,3:0:0:0:
419,235,19956,1,0,0:0:0:0:
395,227,20042,1,0,0:0:0:0:
371,219,20127,1,0,0:0:0:0:
346,215,20213,6,0,P|341:267|349:319,1,95.0625036263467,0|0,3:0|0:0,0:0:0:0:
405,365,20556,2,0,B|421:348|421:348|425:308,1,63.3750024175645,0|0,3:0|0:0,0:0:0:0:
425,283,20813,1,0,3:0:0:0:
425,259,20899,1,0,3:0:0:0:
308,149,21070,1,0,0:0:0:0:
232,280,21242,1,0,0:0:0:0:
398,176,21413,1,0,0:0:0:0:
372,100,21584,6,0,P|332:75|282:74,1,95.0625036263467,0|0,3:0|0:0,0:0:0:0:
210,83,21927,2,0,P|214:52|226:23,1,63.3750024175645,0|0,3:0|0:0,0:0:0:0:
226,23,22184,1,0,3:0:0:0:
226,23,22270,1,0,3:0:0:0:
308,149,22442,1,0,0:0:0:0:
130,118,22613,1,0,3:0:0:0:
146,142,22699,1,0,3:0:0:0:
170,158,22784,1,0,3:0:0:0:
390,139,22956,6,0,P|369:96|331:68,1,95.0625036263467,0|0,3:0|0:0,0:0:0:0:
429,44,23299,2,0,B|464:37|464:37|496:43,1,63.3750024175645,0|0,3:0|0:0,0:0:0:0:
491,42,23556,1,0,3:0:0:0:
491,42,23642,1,0,3:0:0:0:
464,138,23813,1,0,0:0:0:0:
308,149,23984,1,0,0:0:0:0:
488,136,24156,1,0,0:0:0:0:
314,241,24327,6,0,P|305:195|307:148,1,95.0625036263467,0|0,3:0|0:0,0:0:0:0:
175,128,24670,2,0,P|197:161|228:176,1,63.3750024175645,0|0,3:0|0:0,0:0:0:0:
243,182,24927,1,0,3:0:0:0:
267,182,25013,1,0,3:0:0:0:
399,163,25184,1,0,0:0:0:0:
271,96,25356,5,0,3:0:0:0:
247,104,25442,1,0,3:0:0:0:
223,112,25527,1,0,3:0:0:0:
199,120,25613,1,0,3:0:0:0:
175,128,25699,6,0,B|128:141|99:194,1,84.5,2|0,0:0|0:0,0:0:0:0:
97,355,26042,2,0,B|81:338|73:315,1,42.25,0|0,1:0|0:0,0:0:0:0:
44,251,26213,2,0,B|85:239|117:256|117:256|157:232|157:232|173:253|191:263,1,169,0|0,0:0|0:0,0:0:0:0:
300,274,26727,2,0,B|363:267|363:267|341:248,1,84.5,2|0,0:0|0:0,0:0:0:0:
229,198,27070,2,0,P|264:249|250:309,1,126.75
183,343,27413,2,0,P|176:302|191:262,1,84.5,2|0,0:0|0:0,0:0:0:0:
213,222,27670,1,0,3:0:0:0:
229,198,27756,1,0,3:0:0:0:
332,74,27927,5,0,0:0:0:0:
325,155,28099,1,2,0:0:0:0:
297,149,28184,1,0,3:0:0:0:
273,133,28270,1,0,3:0:0:0:
254,106,28356,1,0,3:0:0:0:
249,73,28442,2,0,B|296:64|296:64|335:75,1,84.5
461,89,28784,2,0,P|439:95|422:103,1,42.25,2|0,0:0|0:0,0:0:0:0:
325,155,28956,2,0,B|376:154|423:102|423:102|432:128|430:155,1,169
396,273,29470,6,0,B|361:249|361:249|370:232|389:215,1,84.5,2|0,0:0|0:0,0:0:0:0:
461,222,29813,2,0,B|507:249|507:249|510:290|464:324,1,126.75
458,331,30156,2,0,P|421:350|357:354,1,84.5,2|0,0:0|0:0,0:0:0:0:
344,352,30413,1,0,3:0:0:0:
312,336,30499,1,0,3:0:0:0:
166,226,30670,1,0,0:0:0:0:
203,311,30842,5,2,0:0:0:0:
228,289,30927,1,0,0:0:0:0:
253,267,31013,1,0,3:0:0:0:
278,245,31099,1,0,3:0:0:0:
303,223,31184,1,0,0:0:0:0:
413,287,31356,1,0,0:0:0:0:
332,125,31527,6,0,L|375:118,1,42.25,2|0,0:0|0:0,0:0:0:0:
492,150,31699,2,0,B|436:145|436:145|388:116|388:116|302:131,1,169,0|0,0:0|0:0,0:0:0:0:
220,138,32213,2,0,B|281:160|252:194|356:210,1,126.75,2|0,0:0|0:0,0:0:0:0:
417,229,32556,2,0,P|359:225|352:282,1,126.75,0|0,0:0|0:0,0:0:0:0:
300,333,32899,2,0,P|287:315|277:297,1,42.25,2|0,0:0|0:0,0:0:0:0:
204,279,33070,2,0,B|214:255|228:239|228:239|202:202|202:202|224:160|224:128,1,169,0|0,0:0|0:0,0:0:0:0:
103,48,33584,5,2,0:0:0:0:
87,79,33670,1,0,0:0:0:0:
95,110,33756,1,0,0:0:0:0:
110,134,33842,1,0,0:0:0:0:
143,143,33927,1,0,0:0:0:0:
292,192,34099,1,0,0:0:0:0:
132,245,34270,1,2,0:0:0:0:
217,77,34442,6,0,B|247:83|247:83|269:117|269:117|323:108|359:149,1,169
253,277,34956,2,0,B|267:236|292:192|292:192|289:224,1,126.75,2|0,0:0|0:0,0:0:0:0:
355,283,35299,2,0,B|337:305|308:315|308:315|282:281|251:276,1,126.75,0|0,0:0|0:0,0:0:0:0:
172,302,35642,2,0,P|180:246|196:206,1,84.5,2|0,0:0|0:0,0:0:0:0:
224,97,35984,1,0,0:0:0:0:
280,184,36156,1,0,0:0:0:0:
103,239,36327,1,2,0:0:0:0:
96,208,36413,1,0,3:0:0:0:
96,176,36499,1,0,3:0:0:0:
104,144,36584,1,0,3:0:0:0:
120,120,36670,5,0,0:0:0:0:
304,98,36842,5,0,0:0:0:0:
176,184,37013,1,2,0:0:0:0:
271,188,37184,1,0,0:0:0:0:
105,253,37356,1,0,0:0:0:0:
226,120,37527,1,0,0:0:0:0:
252,266,37699,6,0,P|293:260|331:242,1,84.5,2|0,0:0|0:0,0:0:0:0:
436,148,38042,2,0,P|458:181|468:228,1,84.5
472,328,38384,1,2,0:0:0:0:
424,120,38556,1,0,0:0:0:0:
400,281,38727,1,0,0:0:0:0:
276,169,38899,1,0,0:0:0:0:
339,111,39070,1,2,0:0:0:0:
309,94,39156,1,0,3:0:0:0:
274,86,39242,1,0,3:0:0:0:
243,95,39327,1,0,3:0:0:0:
214,111,39413,5,0,0:0:0:0:
120,256,39584,5,0,0:0:0:0:
276,169,39756,1,2,0:0:0:0:
362,325,39927,1,0,0:0:0:0:
208,232,40099,1,0,0:0:0:0:
360,224,40270,1,0,0:0:0:0:
192,112,40442,6,0,B|147:121|107:113,1,84.5,2|0,0:0|0:0,0:0:0:0:
256,28,40784,2,0,B|288:60|288:60|303:97,1,84.5
280,280,41127,1,2,0:0:0:0:
149,198,41299,1,0,0:0:0:0:
304,296,41470,1,0,0:0:0:0:
259,168,41642,1,0,0:0:0:0:
144,288,41813,1,2,0:0:0:0:
112,272,41899,1,0,3:0:0:0:
88,248,41984,1,0,3:0:0:0:
72,216,42070,1,0,3:0:0:0:
64,184,42156,6,0,P|62:130|72:88,1,84.5
178,145,42499,2,0,B|202:145|202:145|234:137,1,42.25,2|0,0:0|0:0,0:0:0:0:
275,73,42670,2,0,B|241:65|241:65|281:209,1,169,0|0,0:0|0:0,0:0:0:0:
337,270,43184,2,0,B|337:238|337:238|355:206|348:151,1,84.5,2|0,0:0|0:0,0:0:0:0:
423,106,43527,2,0,B|378:119|378:119|356:112|331:116,1,84.5,0|0,0:0|0:0,0:0:0:0:
178,145,43870,1,2,0:0:0:0:
349,187,44042,1,0,0:0:0:0:
162,237,44213,1,0,3:0:0:0:
168,206,44299,1,0,3:0:0:0:
173,174,44384,1,0,3:0:0:0:
86,53,44556,5,2,0:0:0:0:
109,76,44642,1,0,3:0:0:0:
132,99,44727,1,0,3:0:0:0:
155,122,44813,1,0,3:0:0:0:
178,145,44899,1,0,0:0:0:0:
332,187,45070,1,0,0:0:0:0:
224,213,45242,6,0,P|249:179|259:139,1,84.5,2|0,0:0|0:0,0:0:0:0:
185,39,45584,1,0,0:0:0:0:
73,158,45756,1,0,0:0:0:0:
216,40,45927,2,0,B|264:40|264:40|312:48,1,84.5,2|0,0:0|0:0,0:0:0:0:
330,224,46270,5,0,0:0:0:0:
256,119,46442,1,0,0:0:0:0:
381,140,46613,1,2,2:0:0:0:
359,264,46784,1,0,0:0:0:0:
286,159,46956,1,0,0:0:0:0:
410,180,47127,1,0,0:0:0:0:
388,304,47299,5,2,2:0:0:0:
375,313,47384,1,0,0:0:0:0:
362,323,47470,1,0,0:0:0:0:
349,332,47556,1,0,0:0:0:0:
336,341,47642,6,0,B|280:304|280:304|256:249,2,126.750004835129,2|0|0,2:0|0:0|0:0,0:0:0:0:
260,162,48156,2,0,B|316:199|316:199|339:253,2,126.750004835129,2|0|0,2:0|0:0|0:0,0:0:0:0:
172,38,48670,6,0,P|233:31|278:73,1,126.750004835129,0|0,1:0|0:0,0:0:0:0:
183,160,49013,2,0,P|171:53|273:88,1,253.500009670258,0|0,1:0|0:0,0:0:0:0:
259,161,49527,2,0,P|291:242|212:276,1,190.125007252693,0|0,1:0|0:0,0:0:0:0:
186,276,49870,5,0,0:0:0:0:
168,258,49956,1,0,0:0:0:0:
144,274,50042,1,0,0:0:0:0:
126,256,50127,1,0,0:0:0:0:
97,256,50213,1,0,0:0:0:0:
85,229,50299,1,0,0:0:0:0:
80,208,50384,6,0,B|60:145|60:145|106:129|120:80,1,152.099995358276,2|0,0:0|0:0,0:0:0:0:
17,27,50727,2,0,P|28:49|49:75,1,50.6999984527588,0|0,1:0|0:0,0:0:0:0:
154,178,50899,1,0,0:0:0:0:
154,178,51070,1,0,0:0:0:0:
244,95,51242,2,0,L|228:143,1,50.6999984527588,0|0,1:0|0:0,0:0:0:0:
226,219,51413,2,0,L|330:227,1,101.399996905518
422,345,51756,6,0,B|394:317|390:273|390:273|350:303|350:303|278:297,1,190.125007252693,2|0,0:0|0:0,0:0:0:0:
230,341,52099,2,0,P|218:319|214:293,1,50.6999984527588,0|0,1:0|0:0,0:0:0:0:
257,228,52270,1,0,0:0:0:0:
389,272,52442,1,0,0:0:0:0:
229,219,52613,1,0,0:0:0:0:
344,205,52784,1,0,3:0:0:0:
372,192,52870,1,0,3:0:0:0:
408,195,52956,1,0,3:0:0:0:
443,199,53042,1,0,3:0:0:0:
474,188,53127,6,0,B|419:177|385:140,1,101.399996905518,2|0,0:0|0:0,0:0:0:0:
248,80,53470,1,0,0:0:0:0:
256,208,53642,1,0,0:0:0:0:
333,72,53813,1,0,0:0:0:0:
389,272,53984,1,0,0:0:0:0:
184,248,54156,2,0,B|176:208|176:208|192:144,1,101.399996905518,0|0,0:0|0:0,0:0:0:0:
404,34,54499,6,0,B|412:74|412:74|396:138,1,101.399996905518
256,208,54842,1,0,0:0:0:0:
297,106,55013,1,0,3:0:0:0:
315,89,55099,1,0,3:0:0:0:
333,72,55184,1,0,3:0:0:0:
409,264,55356,1,0,0:0:0:0:
209,218,55527,6,0,B|185:234|185:234|179:255,3,50.6999984527588
148,324,55870,2,0,B|121:311|109:278|109:278|64:257|64:257|45:220,1,152.099995358276,2|0,0:0|0:0,0:0:0:0:
88,158,56213,2,0,L|147:172,1,50.6999984527588,0|0,1:0|0:0,0:0:0:0:
289,194,56384,1,0,0:0:0:0:
289,194,56556,1,0,0:0:0:0:
232,133,56727,2,0,P|219:155|212:180,1,50.6999984527588,0|0,1:0|0:0,0:0:0:0:
271,292,56899,2,0,P|287:244|289:194,1,101.399996905518,0|0,0:0|0:0,0:0:0:0:
186,62,57242,6,0,B|284:47|284:86|375:63,1,190.125007252693,2|0,0:0|0:0,0:0:0:0:
431,115,57584,2,0,P|409:128|385:138,1,50.6999984527588,0|0,1:0|0:0,0:0:0:0:
302,147,57756,1,0,0:0:0:0:
335,350,57927,1,0,0:0:0:0:
415,323,58099,6,0,B|379:282|379:282|342:267|303:278|303:278|247:246|231:179|231:179|245:205|271:220,1,316.875012087822,8|0,0:0|0:0,0:0:0:0:
358,203,58613,6,0,B|402:210|422:223|422:223|445:247,1,101.399996905518,0|0,0:0|0:0,0:0:0:0:
250,339,58956,1,0,0:0:0:0:
264,144,59127,1,0,0:0:0:0:
328,344,59299,1,0,0:0:0:0:
341,118,59470,2,0,P|344:144|343:169,1,50.6999984527588,0|0,1:0|0:0,0:0:0:0:
180,198,59642,2,0,P|228:158|268:142,1,101.399996905518,0|0,0:0|0:0,0:0:0:0:
425,64,59984,2,0,P|377:104|337:120,1,101.399996905518
172,94,60327,1,0,0:0:0:0:
301,27,60499,5,0,3:0:0:0:
327,34,60584,1,0,3:0:0:0:
347,50,60670,1,0,3:0:0:0:
360,70,60756,1,0,3:0:0:0:
373,90,60842,1,0,3:0:0:0:
387,111,60927,1,0,3:0:0:0:
400,132,61013,2,0,B|392:160|392:160|392:192,3,50.6999984527588,0|0|0|0,0:0|0:0|0:0|0:0,0:0:0:0:
463,198,61356,6,0,P|412:251|341:234,1,152.099995358276,0|0,0:0|0:0,0:0:0:0:
310,148,61699,2,0,L|262:180,1,50.6999984527588,0|0,1:0|0:0,0:0:0:0:
185,224,61870,1,0,0:0:0:0:
248,96,62042,1,0,0:0:0:0:
169,95,62213,2,0,P|175:122|187:144,1,50.6999984527588,0|0,1:0|0:0,0:0:0:0:
257,255,62384,2,0,P|268:277|168:304,1,152.099995358276,0|0,0:0|0:0,0:0:0:0:
45,304,62727,6,0,B|107:282|107:282|159:305|159:305|187:343|237:343,1,190.125007252693,2|0,0:0|0:0,0:0:0:0:
308,372,63070,2,0,P|323:351|334:329,1,50.6999984527588,0|0,0:0|0:0,0:0:0:0:
345,303,63242,1,0,3:0:0:0:
353,279,63327,1,0,3:0:0:0:
345,255,63413,1,0,3:0:0:0:
327,237,63499,1,0,3:0:0:0:
319,213,63584,1,0,3:0:0:0:
327,189,63670,1,0,3:0:0:0:
344,171,63756,2,0,B|361:153|386:144,3,50.6999984527588,0|0|0|0,0:0|0:0|0:0|0:0,0:0:0:0:
407,214,64099,6,0,P|457:162|438:92,1,152.099995358276,2|0,0:0|0:0,0:0:0:0:
343,60,64442,2,0,B|318:53|318:53|292:55,1,50.6999984527588,0|0,1:0|0:0,0:0:0:0:
216,104,64613,1,0,0:0:0:0:
216,104,64784,1,0,0:0:0:0:
292,152,64956,2,0,B|317:159|317:159|343:157,1,50.6999984527588,0|0,1:0|0:0,0:0:0:0:
444,141,65127,2,0,B|448:112|448:112|416:88|370:96,1,101.399996905518,0|0,0:0|0:0,0:0:0:0:
363,226,65470,2,0,B|385:219|401:201|401:201|427:215|454:215,1,101.399996905518
438,25,65813,1,0,0:0:0:0:
296,64,65984,5,0,3:0:0:0:
280,88,66070,1,0,3:0:0:0:
272,112,66156,1,0,3:0:0:0:
272,136,66242,1,0,3:0:0:0:
272,160,66327,1,0,3:0:0:0:
272,184,66413,1,0,3:0:0:0:
272,208,66499,2,0,B|248:200|200:208,3,50.6999984527588
160,167,66842,6,0,P|159:240|221:277,1,152.099995358276,2|0,0:0|0:0,0:0:0:0:
302,284,67184,2,0,B|329:270|329:270|350:240,1,50.6999984527588,0|0,1:0|0:0,0:0:0:0:
380,161,67356,1,0,0:0:0:0:
380,161,67527,1,0,0:0:0:0:
458,283,67699,2,0,B|431:269|419:242,1,50.6999984527588,0|0,1:0|0:0,0:0:0:0:
454,139,67870,2,0,B|462:166|447:198|447:198|468:247|468:247|458:284,1,152.099995358276,0|0,0:0|0:0,0:0:0:0:
432,360,68213,6,0,B|391:333|345:347|345:347|290:363|250:331,1,190.125007252693,2|0,0:0|0:0,0:0:0:0:
230,260,68556,2,0,P|255:258|280:263,1,50.6999984527588,0|0,1:0|0:0,0:0:0:0:
304,264,68727,1,0,3:0:0:0:
328,256,68813,1,0,3:0:0:0:
352,240,68899,1,0,3:0:0:0:
259,172,69070,1,0,0:0:0:0:
167,322,69242,2,0,P|136:320|112:312,3,50.6999984527588,0|0|0|0,0:0|0:0|0:0|0:0,0:0:0:0:
52,341,69584,6,0,P|61:270|129:244,1,152.099995358276,2|0,0:0|0:0,0:0:0:0:
128,244,69927,2,0,P|81:228|58:185,1,101.399996905518,0|0,1:0|0:0,0:0:0:0:
20,85,70270,1,0,0:0:0:0:
125,97,70442,2,0,P|148:105|173:109,1,50.6999984527588,0|0,1:0|0:0,0:0:0:0:
173,109,70613,2,0,P|219:96|231:49,1,101.399996905518,0|0,0:0|0:0,0:0:0:0:
77,25,70956,5,0,0:0:0:0:
127,173,71127,1,0,0:0:0:0:
283,150,71299,1,0,0:0:0:0:
70,233,71470,1,0,3:0:0:0:
53,209,71556,1,0,3:0:0:0:
47,180,71642,1,0,3:0:0:0:
158,28,71813,1,0,0:0:0:0:
283,150,71984,1,0,3:0:0:0:
283,160,72070,1,0,3:0:0:0:
283,170,72156,1,0,3:0:0:0:
283,180,72242,1,0,3:0:0:0:
283,190,72327,6,0,P|316:254|389:258,1,152.099995358276,2|0,0:0|0:0,0:0:0:0:
375,145,72670,2,0,P|363:167|355:191,1,50.6999984527588,0|0,1:0|0:0,0:0:0:0:
305,336,72842,1,0,0:0:0:0:
433,200,73013,1,0,0:0:0:0:
200,202,73184,2,0,P|176:196|151:196,1,50.6999984527588,0|0,1:0|0:0,0:0:0:0:
84,235,73356,2,0,B|82:275|98:306|98:306|141:297|165:269,1,152.099995358276,0|0,0:0|0:0,0:0:0:0:
244,265,73699,6,0,B|288:231|273:176|273:176|283:227|325:244,1,190.125007252693,2|0,0:0|0:0,0:0:0:0:
377,303,74042,2,0,P|392:282|401:259,1,50.6999984527588,0|0,0:0|0:0,0:0:0:0:
408,240,74213,1,0,3:0:0:0:
412,220,74299,1,0,3:0:0:0:
412,199,74384,1,0,3:0:0:0:
408,176,74470,1,0,3:0:0:0:
400,160,74556,1,0,3:0:0:0:
384,144,74642,1,0,3:0:0:0:
368,136,74727,2,0,P|336:136|304:128,3,50.6999984527588,0|0|0|0,0:0|0:0|0:0|0:0,0:0:0:0:
317,61,75070,6,0,P|255:98|257:171,1,152.099995358276,2|0,0:0|0:0,0:0:0:0:
311,225,75413,2,0,B|296:238|296:238|266:246,1,50.6999984527588,0|0,1:0|0:0,0:0:0:0:
152,315,75584,1,0,0:0:0:0:
152,315,75756,1,0,0:0:0:0:
145,224,75927,2,0,B|159:237|159:237|189:245,1,50.6999984527588,0|0,1:0|0:0,0:0:0:0:
287,315,76099,2,0,B|332:303|332:303|373:267,1,101.399996905518,0|0,0:0|0:0,0:0:0:0:
290,70,76442,5,0,0:0:0:0:
458,109,76613,1,0,0:0:0:0:
267,62,76784,1,0,0:0:0:0:
359,261,76956,1,0,3:0:0:0:
365,238,77042,1,0,3:0:0:0:
365,214,77127,1,0,3:0:0:0:
372,75,77299,5,0,3:0:0:0:
366,103,77384,1,0,3:0:0:0:
350,131,77470,1,0,3:0:0:0:
322,149,77556,1,0,3:0:0:0:
300,172,77642,1,0,3:0:0:0:
289,195,77727,1,0,3:0:0:0:
288,229,77813,6,0,P|286:281|315:326,1,101.399996905518,0|0,0:0|0:0,0:0:0:0:
443,248,78156,1,0,1:0:0:0:
443,248,78327,1,0,0:0:0:0:
289,75,78499,1,0,0:0:0:0:
262,149,78670,2,0,P|287:151|312:151,1,50.6999984527588,0|0,1:0|0:0,0:0:0:0:
409,127,78842,2,0,B|361:129|331:149|331:149|299:154|261:148,1,152.099995358276,0|0,0:0|0:0,0:0:0:0:
150,138,79184,6,0,P|235:151|217:234,1,190.125007252693,2|0,0:0|0:0,0:0:0:0:
142,214,79527,2,0,P|118:208|97:195,1,50.6999984527588,0|0,1:0|0:0,0:0:0:0:
75,120,79699,1,0,0:0:0:0:
150,47,79870,1,0,0:0:0:0:
251,59,80042,1,0,3:0:0:0:
281,69,80127,1,0,3:0:0:0:
306,87,80213,6,0,B|327:127|327:127|369:110|428:108|474:149,1,190.125007252693,8|0,0:0|0:0,0:0:0:0:
439,234,80556,6,0,B|384:258|362:200|362:200|403:172|419:125,1,190.125007252693,2|0,0:0|0:0,0:0:0:0:
394,42,81242,2,0,P|378:41|363:42,1,31.6875012087822,2|0,0:0|0:0,0:0:0:0:
331,119,81499,1,0,3:0:0:0:
283,56,81756,1,0,3:0:0:0:
282,55,81927,2,0,P|192:71|144:152,1,190.125007252693,2|0,0:0|0:0,0:0:0:0:
224,188,82613,2,0,P|224:140|295:159,1,126.750004835129,2|0,1:0|0:0,0:0:0:0:
427,342,83299,6,0,B|384:328|384:328|336:344|336:344|288:328|288:328|246:339,1,190.125007252693,2|0,0:0|0:0,0:0:0:0:
230,269,83984,2,0,L|260:260,1,31.6875012087822,2|0,0:0|0:0,0:0:0:0:
443,265,84242,1,0,3:0:0:0:
338,254,84499,1,0,3:0:0:0:
230,269,84670,2,0,B|133:248|133:248|73:179,1,190.125007252693,2|0,0:0|0:0,0:0:0:0:
135,142,85356,2,0,B|172:183|172:183|241:197,1,126.750004835129,2|0,1:0|0:0,0:0:0:0:
359,36,86042,6,0,B|375:84|375:84|407:108|415:148|415:148|432:113|412:81,1,190.125007252693,2|0,0:0|0:0,0:0:0:0:
335,151,86727,2,0,P|340:166|337:182,1,31.6875012087822,2|0,0:0|0:0,0:0:0:0:
313,269,86984,1,0,3:0:0:0:
336,152,87242,1,0,3:0:0:0:
357,36,87413,2,0,B|256:56|270:4|171:40,1,190.125007252693,2|0,0:0|0:0,0:0:0:0:
93,87,88099,2,0,P|145:51|213:28,1,126.750004835129,2|0,1:0|0:0,0:0:0:0:
446,174,88784,6,0,B|502:174|502:174|349:139,1,190.125007252693,2|0,0:0|0:0,0:0:0:0:
388,73,89470,2,0,L|418:80,1,31.6875012087822,2|0,0:0|0:0,0:0:0:0:
500,96,89727,1,0,3:0:0:0:
500,96,89984,1,0,3:0:0:0:
393,222,90156,2,0,B|247:186|247:186|296:168,1,190.125007252693,2|0,0:0|0:0,0:0:0:0:
466,185,90842,2,0,B|472:233|472:233|453:277,1,95.0625036263467,2|0,1:0|0:0,0:0:0:0:
384,303,91184,2,0,P|368:260|392:221,1,95.0625036263467,2|0,0:0|0:0,0:0:0:0:
466,185,91527,6,0,L|458:97,1,84.5,2|0,2:0|0:0,0:0:0:0:
370,13,92042,2,0,L|362:97,1,84.5,2|0,2:0|0:0,0:0:0:0:
275,184,92556,2,0,L|268:120,1,63.375,2|0,2:0|0:0,0:0:0:0:
268,120,92899,2,0,L|259:35,1,84.5,2|0,2:0|0:0,0:0:0:0:
136,49,93413,2,0,P|195:29|258:35,1,126.75,2|0,2:0|0:0,0:0:0:0:
448,192,94270,6,0,L|360:200,1,84.5,2|0,0:0|0:0,0:0:0:0:
276,286,94784,2,0,L|364:278,1,84.5,2|0,0:0|0:0,0:0:0:0:
447,365,95299,2,0,L|367:357,1,63.375,2|0,0:0|0:0,0:0:0:0:
383,358,95642,2,0,B|358:359|336:353|336:353|310:360|287:357,1,84.5,2|0,0:0|0:0,0:0:0:0:
226,363,96156,2,0,P|248:306|306:285,1,126.75,2|0,0:0|0:0,0:0:0:0:
64,224,97013,6,0,B|105:237|105:237|164:232,1,84.5,2|0,0:0|0:0,0:0:0:0:
146,110,97527,2,0,B|172:141|172:141|210:161,1,84.5,2|0,0:0|0:0,0:0:0:0:
298,74,98042,2,0,B|294:115|294:115|307:153,1,63.375,2|0,0:0|0:0,0:0:0:0:
301,136,98384,2,0,B|314:177|314:177|310:218,1,84.5,2|0,0:0|0:0,0:0:0:0:
435,217,98899,2,0,B|362:227|362:227|297:215,1,126.75,2|0,0:0|0:0,0:0:0:0:
149,296,99756,6,0,P|140:254|144:212,1,84.5,2|0,0:0|0:0,0:0:0:0:
231,125,100270,2,0,P|239:166|235:208,1,84.5,2|0,0:0|0:0,0:0:0:0:
144,212,100784,2,0,P|135:170|140:130,1,63.375,2|0,0:0|0:0,0:0:0:0:
136,149,101127,2,0,P|140:107|131:65,1,84.5,2|0,0:0|0:0,0:0:0:0:
67,111,101642,2,0,L|203:111,1,126.75,2|0,0:0|0:0,0:0:0:0:
310,249,102499,5,0,0:0:0:0:
284,330,103442,2,0,L|296:289,1,42.25
334,169,103699,1,0,0:0:0:0:
334,169,103870,2,0,L|282:338,1,169,0|2,0:0|2:0,0:0:0:0:
169,168,105242,5,0,0:0:0:0:
87,144,106184,2,0,L|137:158,1,42.25
250,192,106442,1,0,0:0:0:0:
250,192,106613,2,0,L|77:141,1,169,0|2,0:0|2:0,0:0:0:0:
114,268,107984,5,0,0:0:0:0:
250,307,108927,2,0,L|198:322,1,42.25
88,355,109184,1,0,0:0:0:0:
88,355,109356,2,0,L|261:304,1,169,0|2,0:0|2:0,0:0:0:0:
256,192,110213,12,0,113299,0:0:0:0:
233,244,113470,5,0,0:0:0:0:
273,236,113642,1,0,0:0:0:0:
313,252,113813,1,0,0:0:0:0:
337,292,113984,1,0,0:0:0:0:
379,292,114156,1,0,0:0:0:0:
419,268,114327,1,0,0:0:0:0:
435,228,114499,1,0,0:0:0:0:
427,188,114670,1,0,0:0:0:0:
397,158,114842,5,0,1:0:0:0:
345,99,115013,1,0,0:0:0:0:
397,158,115184,1,0,1:0:0:0:
395,82,115356,1,0,0:0:0:0:
397,158,115527,1,0,1:0:0:0:
445,98,115699,1,0,0:0:0:0:
397,158,115870,1,0,1:0:0:0:
472,141,116042,1,0,0:0:0:0:
397,158,116213,5,0,0:0:0:0:
357,166,116384,1,0,0:0:0:0:
317,150,116556,1,0,0:0:0:0:
293,110,116727,1,0,0:0:0:0:
251,110,116899,1,0,0:0:0:0:
211,134,117070,1,0,0:0:0:0:
195,174,117242,1,0,0:0:0:0:
203,214,117413,1,0,0:0:0:0:
233,236,117584,5,0,1:0:0:0:
291,185,117756,1,0,0:0:0:0:
233,236,117927,1,0,1:0:0:0:
309,234,118099,1,0,0:0:0:0:
233,236,118270,1,0,1:0:0:0:
293,284,118442,1,0,0:0:0:0:
233,236,118613,1,0,1:0:0:0:
249,311,118784,1,0,0:0:0:0:
233,236,118956,5,0,0:0:0:0:
225,196,119127,1,0,0:0:0:0:
241,156,119299,1,0,0:0:0:0:
281,132,119470,1,0,0:0:0:0:
281,90,119642,1,0,0:0:0:0:
257,50,119813,1,0,0:0:0:0:
217,34,119984,1,0,0:0:0:0:
177,42,120156,1,0,0:0:0:0:
153,79,120327,5,0,1:0:0:0:
96,28,120499,1,0,0:0:0:0:
153,79,120670,1,0,1:0:0:0:
76,77,120842,1,0,0:0:0:0:
153,79,121013,1,0,1:0:0:0:
93,128,121184,1,0,0:0:0:0:
153,79,121356,1,0,1:0:0:0:
138,155,121527,1,0,0:0:0:0:
153,79,121699,5,0,0:0:0:0:
193,87,121870,1,0,0:0:0:0:
233,71,122042,1,0,0:0:0:0:
257,31,122213,1,0,0:0:0:0:
299,31,122384,1,0,0:0:0:0:
339,55,122556,1,0,0:0:0:0:
355,95,122727,1,0,0:0:0:0:
347,135,122899,1,0,0:0:0:0:
313,159,123070,5,0,1:0:0:0:
257,211,123242,1,0,0:0:0:0:
313,159,123413,1,0,1:0:0:0:
236,162,123584,1,0,0:0:0:0:
313,159,123756,1,0,1:0:0:0:
252,111,123927,1,0,0:0:0:0:
313,159,124099,1,0,1:0:0:0:
297,84,124270,1,0,0:0:0:0:
313,159,124442,5,0,0:0:0:0:
335,192,124613,1,0,0:0:0:0:
375,209,124784,1,0,0:0:0:0:
420,198,124956,1,0,0:0:0:0:
450,228,125127,1,0,0:0:0:0:
461,273,125299,1,0,0:0:0:0:
444,313,125470,1,0,0:0:0:0:
410,335,125642,1,0,0:0:0:0:
369,319,125813,5,0,1:0:0:0:
293,316,125984,1,0,0:0:0:0:
369,319,126156,1,0,1:0:0:0:
313,267,126327,1,0,0:0:0:0:
369,319,126499,1,0,1:0:0:0:
360,244,126670,1,0,0:0:0:0:
369,319,126842,1,0,1:0:0:0:
410,254,127013,1,0,0:0:0:0:
369,319,127184,5,0,0:0:0:0:
329,319,127356,1,0,0:0:0:0:
292,296,127527,1,0,0:0:0:0:
274,252,127699,1,0,0:0:0:0:
234,245,127870,1,0,0:0:0:0:
190,262,128042,1,0,0:0:0:0:
167,299,128213,1,0,0:0:0:0:
168,339,128384,1,0,0:0:0:0:
200,360,128556,5,0,1:0:0:0:
277,354,128727,1,0,0:0:0:0:
200,360,128899,1,0,1:0:0:0:
254,306,129070,1,0,0:0:0:0:
200,360,129242,1,0,1:0:0:0:
206,284,129413,1,0,0:0:0:0:
200,360,129584,1,0,1:0:0:0:
155,297,129756,1,0,0:0:0:0:
256,192,129927,12,0,133870,0:0:0:0:
369,342,134042,6,0,L|377:246,1,84.5,8|0,0:0|0:0,0:0:0:0:
386,124,134384,1,0,1:0:0:0:
368,368,134556,1,0,1:0:0:0:
320,184,134727,1,0,1:0:0:0:
208,320,134899,1,0,1:0:0:0:
179,223,135070,1,0,3:0:0:0:
201,190,135156,1,0,3:0:0:0:
235,167,135242,1,0,3:0:0:0:
280,167,135327,1,0,3:0:0:0:
319,183,135413,2,0,P|355:205|396:215,1,84.5,8|0,0:0|0:0,0:0:0:0:
384,132,135756,5,0,0:0:0:0:
327,280,135927,1,0,0:0:0:0:
464,244,136099,2,0,P|468:223|468:202,1,42.25,0|0,1:0|0:0,0:0:0:0:
459,125,136270,1,0,0:0:0:0:
258,225,136442,1,0,3:0:0:0:
243,194,136527,1,0,3:0:0:0:
247,161,136613,1,0,3:0:0:0:
265,134,136699,1,0,3:0:0:0:
293,127,136784,1,0,0:0:0:0:
464,244,136956,5,0,0:0:0:0:
373,109,137127,1,0,0:0:0:0:
328,267,137299,1,0,0:0:0:0:
464,244,137470,2,0,L|426:225,1,42.25,0|0,1:0|0:0,0:0:0:0:
345,187,137642,1,0,0:0:0:0:
258,219,137813,1,0,3:0:0:0:
225,233,137899,1,0,3:0:0:0:
193,240,137984,1,0,3:0:0:0:
161,231,138070,1,0,3:0:0:0:
130,214,138156,1,0,0:0:0:0:
200,136,138327,5,0,0:0:0:0:
104,96,138499,1,0,0:0:0:0:
224,144,138670,1,0,0:0:0:0:
28,77,138842,2,0,P|28:98|30:119,1,42.25,0|0,1:0|0:0,0:0:0:0:
74,207,139013,1,0,0:0:0:0:
160,160,139184,1,0,3:0:0:0:
192,152,139270,1,0,3:0:0:0:
224,144,139356,1,0,3:0:0:0:
256,136,139442,1,0,3:0:0:0:
288,128,139527,1,0,0:0:0:0:
170,59,139699,5,0,0:0:0:0:
282,227,139870,1,0,0:0:0:0:
288,128,140042,1,0,0:0:0:0:
272,31,140213,2,0,L|246:64,1,42.25,0|0,1:0|0:0,0:0:0:0:
185,163,140384,1,0,0:0:0:0:
282,227,140556,1,0,3:0:0:0:
312,216,140642,1,0,3:0:0:0:
344,216,140727,1,0,3:0:0:0:
376,232,140813,1,0,3:0:0:0:
392,264,140899,1,0,0:0:0:0:
316,324,141070,5,0,0:0:0:0:
187,192,141242,1,0,0:0:0:0:
316,61,141413,1,0,0:0:0:0:
445,192,141584,2,0,L|402:238,1,42.25,0|0,1:0|0:0,0:0:0:0:
316,324,141756,1,0,0:0:0:0:
356,180,141927,1,0,3:0:0:0:
378,154,142013,1,0,3:0:0:0:
401,129,142099,1,0,3:0:0:0:
392,98,142184,1,0,3:0:0:0:
360,91,142270,1,0,0:0:0:0:
218,167,142442,5,0,0:0:0:0:
249,294,142613,1,0,0:0:0:0:
293,133,142784,1,0,0:0:0:0:
152,208,142956,2,0,P|165:224|181:237,1,42.25,0|0,1:0|0:0,0:0:0:0:
274,218,143127,1,0,0:0:0:0:
160,96,143299,1,0,3:0:0:0:
184,80,143384,1,0,3:0:0:0:
217,80,143470,1,0,3:0:0:0:
250,80,143556,1,0,3:0:0:0:
273,103,143642,1,0,0:0:0:0:
383,254,143813,5,0,0:0:0:0:
359,149,143984,1,0,0:0:0:0:
249,294,144156,1,0,0:0:0:0:
191,203,144327,2,0,L|183:244,1,42.25,0|0,1:0|0:0,0:0:0:0:
172,328,144499,1,0,0:0:0:0:
200,176,144670,1,0,3:0:0:0:
168,168,144756,1,0,3:0:0:0:
136,168,144842,1,0,3:0:0:0:
104,160,144927,1,0,3:0:0:0:
72,160,145013,1,0,0:0:0:0:
144,84,145184,5,0,0:0:0:0:
40,24,145356,1,0,0:0:0:0:
160,96,145527,1,0,0:0:0:0:
190,15,145699,2,0,L|223:42,1,42.25,0|0,1:0|0:0,0:0:0:0:
274,131,145870,1,0,0:0:0:0:
184,182,146042,1,0,3:0:0:0:
150,181,146127,1,0,3:0:0:0:
117,180,146213,1,0,3:0:0:0:
84,179,146299,1,0,3:0:0:0:
48,178,146384,6,0,B|100:238|176:223|176:223|240:229|240:229|276:90|439:97|437:269|302:323|236:205|265:108|265:108|206:131|162:97|162:97|234:170|58:228|36:54|124:4|196:35|196:35|225:69|272:13|272:13|300:109|405:102|405:102|435:140|461:181|440:245|410:275,1,1521,10|0,0:0|0:0,0:0:0:0:
184,153,159627,5,0,0:0:0:0:
191,145,159713,1,0,0:0:0:0:
203,145,159799,1,0,0:0:0:0:
213,156,159884,1,0,0:0:0:0:
213,173,159970,1,0,0:0:0:0:
199,187,160056,1,0,0:0:0:0:
177,187,160142,1,0,0:0:0:0:
160,171,160227,1,0,0:0:0:0:
160,146,160313,1,0,0:0:0:0:
197,127,160442,6,0,B|235:117|276:127|276:127|235:68|169:99,1,190.125,8|0,2:0|0:0,0:0:0:0:
241,201,161299,6,0,P|435:269|271:131,1,591.5,0|0,1:0|0:0,0:0:0:0:
348,205,161984,2,0,L|501:309,1,169
274,127,162327,2,0,P|303:114|334:110,1,63.3750024175645
393,169,162499,2,0,P|406:198|410:229,1,63.3750024175645
351,287,162670,2,0,P|322:300|291:304,1,63.3750024175645
231,244,162842,2,0,P|218:215|214:184,1,63.3750024175645
274,127,163013,2,0,P|303:114|334:110,1,63.3750024175645
393,169,163184,2,0,P|406:198|410:229,1,63.3750024175645
351,287,163356,2,0,B|278:275|229:241,1,126.750004835129,0|0,1:0|0:0,0:0:0:0:
326,133,163699,2,0,B|269:95|156:110,1,126.750004835129,0|0,1:0|0:0,0:0:0:0:
35,169,164042,5,0,3:0:0:0:
52,167,164127,1,0,3:0:0:0:
77,165,164213,1,0,3:0:0:0:
108,162,164299,1,0,3:0:0:0:
145,159,164384,1,0,3:0:0:0:
195,154,164470,1,0,3:0:0:0:
252,150,164556,1,0,3:0:0:0:
314,144,164642,1,0,3:0:0:0:
382,144,164727,2,0,P|412:133|444:130,1,63.3750024175645,0|0,1:0|0:0,0:0:0:0:
432,217,164899,6,0,P|434:248|445:278,5,63.3750024175645,0|0|0|0|0|0,1:0|0:0|0:0|0:0|0:0|0:0,0:0:0:0:
380,310,165413,5,2,2:0:0:0:
344,334,165499,1,0,0:0:0:0:
304,335,165584,1,0,0:0:0:0:
228,344,165670,5,2,2:0:0:0:
235,302,165756,1,0,0:0:0:0:
262,272,165842,1,0,0:0:0:0:
318,220,165927,5,2,2:0:0:0:
282,197,166013,1,0,0:0:0:0:
240,199,166099,2,0,B|176:208|176:208|119:182,1,126.750004835129,10|0,2:0|0:0,0:0:0:0:
0,166,166356,2,0,B|64:157|64:157|136:189,1,126.750004835129,8|0,2:0|0:0,0:0:0:0:
184,133,166613,2,0,B|246:124,1,63.3750024175645,8|0,2:0|0:0,0:0:0:0:
361,204,166784,6,0,B|336:164|336:164|296:175|296:175|267:155|247:124|247:124|184:133|184:133|160:184|160:184|121:174|80:192|80:192|102:147|79:115,1,443.625016922951,2|0,2:0|0:0,0:0:0:0:
9,83,167470,2,0,P|55:42|117:47,1,126.750004835129
382,182,167813,6,0,B|405:203|405:203|433:185,7,63.3750024175645,0|0|0|0|0|0|0|0,1:0|0:0|0:0|0:0|0:0|0:0|0:0|0:0,0:0:0:0:
389,98,168499,2,0,B|417:80|417:80|439:100,3,63.3750024175645,0|0|0|0,1:0|0:0|0:0|0:0,0:0:0:0:
315,77,168842,2,0,L|304:208,1,126.750004835129,0|0,1:0|0:0,0:0:0:0:
338,272,169099,2,0,B|273:289|272:256|213:275,1,126.750004835129
144,310,169527,6,0,P|165:333|192:350,7,63.3750024175645,0|0|0|0|0|0|0|0,1:0|0:0|0:0|0:0|0:0|0:0|0:0|0:0,0:0:0:0:
212,274,170213,2,0,P|191:250|164:233,7,63.3750024175645,0|0|0|0|0|0|0|0,1:0|0:0|0:0|0:0|0:0|0:0|0:0|0:0,0:0:0:0:
87,241,170899,6,0,P|107:183|163:157,1,126.750004835129,0|0,1:0|0:0,0:0:0:0:
310,102,171156,2,0,P|290:160|234:186,1,126.750004835129,0|0,1:0|0:0,0:0:0:0:
48,141,171413,2,0,P|70:118|97:102,1,63.3750024175645,0|0,1:0|0:0,0:0:0:0:
323,25,171584,6,0,B|267:33|267:33|247:68|214:77,1,126.750004835129,10|0,0:0|0:0,0:0:0:0:
95,29,171842,2,0,B|126:29|148:50|148:50|161:16|197:6,1,126.750004835129,10|2,0:0|0:0,0:0:0:0:
393,2,172099,2,0,P|396:33|386:63,1,63.3750024175645,10|0,0:0|0:0,0:0:0:0:
499,67,172270,6,0,B|460:83|460:83|436:132|388:139|388:139|337:119|281:172|281:172|360:233|312:316|312:316|213:315|213:201,1,591.5
221,131,172956,2,0,P|272:88|343:61,1,126.750004835129,0|0,0:0|0:0,0:0:0:0:
93,306,173299,6,0,L|93:242,1,63.3750024175645,0|0,0:0|0:0,0:0:0:0:
137,97,173470,2,0,L|137:160,1,63.3750024175645,0|0,0:0|0:0,0:0:0:0:
182,269,173642,2,0,L|182:205,1,63.3750024175645,0|0,0:0|0:0,0:0:0:0:
226,134,173813,2,0,L|226:197,1,63.3750024175645,0|0,0:0|0:0,0:0:0:0:
270,231,173984,2,0,L|270:167,1,63.3750024175645,0|0,0:0|0:0,0:0:0:0:
315,171,174156,2,0,L|315:234,1,63.3750024175645,0|0,0:0|0:0,0:0:0:0:
369,327,174327,2,0,B|335:318|314:296|314:296|314:232,1,126.750004835129,0|0,1:0|0:0,0:0:0:0:
308,95,174670,2,0,P|366:116|392:172,1,126.750004835129,0|0,1:0|0:0,0:0:0:0:
232,296,175013,5,0,3:0:0:0:
216,288,175099,1,0,3:0:0:0:
192,272,175184,1,0,3:0:0:0:
168,248,175270,1,0,3:0:0:0:
152,216,175356,1,0,3:0:0:0:
144,176,175442,1,0,3:0:0:0:
144,128,175527,1,0,3:0:0:0:
164,74,175613,1,0,3:0:0:0:
207,32,175699,6,0,P|238:22|269:20,1,63.3750024175645,0|0,1:0|0:0,0:0:0:0:
315,83,175870,2,0,P|284:92|253:94,5,63.3750024175645,0|0|0|0|0|0,1:0|0:0|0:0|0:0|0:0|0:0,0:0:0:0:
379,39,176384,5,2,0:0:0:0:
392,74,176470,1,0,0:0:0:0:
385,112,176556,1,0,0:0:0:0:
332,169,176642,5,2,0:0:0:0:
319,204,176727,1,0,0:0:0:0:
326,242,176813,1,0,0:0:0:0:
382,295,176899,5,2,0:0:0:0:
395,330,176984,1,0,0:0:0:0:
388,368,177070,2,0,P|320:370|256:344,1,126.750004835129,0|0,1:0|0:0,0:0:0:0:
203,221,177327,2,0,B|271:219|271:219|335:245,1,126.750004835129,0|0,1:0|0:0,0:0:0:0:
381,295,177584,2,0,P|398:268|404:237,1,63.3750024175645,0|0,1:0|0:0,0:0:0:0:
456,179,177756,6,0,B|429:156|388:160|388:160|336:135|334:45|334:45|299:109|264:140|264:140|283:198|325:241,1,443.625016922951,0|0,0:0|0:0,0:0:0:0:
381,294,178442,2,0,P|322:316|265:291,1,126.750004835129,0|0,0:0|0:0,0:0:0:0:
45,163,178784,6,0,P|45:194|55:224,7,63.3750024175645,0|0|0|0|0|0|0|0,1:0|0:0|0:0|0:0|0:0|0:0|0:0|0:0,0:0:0:0:
121,181,179470,2,0,P|151:172|182:171,3,63.3750024175645,0|0|0|0,1:0|0:0|0:0|0:0,0:0:0:0:
215,238,179813,2,0,P|271:266|333:259,1,126.750004835129,0|0,1:0|0:0,0:0:0:0:
316,173,180070,2,0,P|264:183|282:134,1,126.750004835129,0|0,0:0|0:0,0:0:0:0:
254,63,180499,6,0,P|285:60|316:64,7,63.3750024175645,0|0|0|0|0|0|0|0,1:0|0:0|0:0|0:0|0:0|0:0|0:0|0:0,0:0:0:0:
174,63,181184,2,0,P|142:59|111:63,7,63.3750024175645,0|0|0|0|0|0|0|0,1:0|0:0|0:0|0:0|0:0|0:0|0:0|0:0,0:0:0:0:
74,230,181870,6,0,P|125:194|144:135,1,126.750004835129,0|0,1:0|0:0,0:0:0:0:
215,229,182127,2,0,P|163:193|144:134,1,126.750004835129,0|0,1:0|0:0,0:0:0:0:
254,158,182384,2,0,P|278:179|294:207,1,63.3750024175645,0|0,1:0|0:0,0:0:0:0:
385,313,182556,6,0,B|357:251|357:251|373:219|369:177,1,126.750004835129,10|0,0:0|0:0,0:0:0:0:
426,131,182813,2,0,B|454:193|454:193|438:225|442:267,1,126.750004835129,10|0,0:0|0:0,0:0:0:0:
503,303,183070,2,0,P|445:327|384:312,1,126.750004835129,10|0,0:0|0:0,0:0:0:0:
8,200,183584,5,2,0:0:0:0:
389,200,183927,6,0,L|224:216,1,126.750004835129,0|0,0:0|0:0,0:0:0:0:
339,91,184270,2,0,L|465:78,1,126.750004835129
273,136,184613,2,0,P|246:116|222:89,1,63.3750024175645,0|0,1:0|0:0,0:0:0:0:
266,117,184784,2,0,P|239:97|215:70,1,63.3750024175645,0|0,1:0|0:0,0:0:0:0:
259,97,184956,2,0,B|236:80|217:61|217:61|133:61|117:132,1,190.125007252693,0|0,1:0|0:0,0:0:0:0:
27,186,185299,6,0,B|80:234|80:234|166:226|166:226|246:255|246:255|300:224|300:224|338:265|416:264,1,380.250014505387,0|0,0:0|0:0,0:0:0:0:
442,87,185984,5,0,3:0:0:0:
377,96,186070,1,0,3:0:0:0:
316,74,186156,1,0,3:0:0:0:
268,41,186242,1,0,3:0:0:0:
219,41,186327,1,0,3:0:0:0:
179,66,186413,1,0,3:0:0:0:
163,98,186499,1,0,3:0:0:0:
164,130,186584,1,0,3:0:0:0:
179,154,186670,6,0,P|204:182|244:206,1,63.3750024175645,0|0,1:0|0:0,0:0:0:0:
299,168,186842,2,0,P|274:139|234:116,5,63.3750024175645,0|0|0|0|0|0,1:0|0:0|0:0|0:0|0:0|0:0,0:0:0:0:
360,216,187356,5,2,0:0:0:0:
376,181,187442,1,0,0:0:0:0:
372,143,187527,1,0,0:0:0:0:
378,65,187613,5,2,0:0:0:0:
413,78,187699,1,0,0:0:0:0:
439,106,187784,1,0,0:0:0:0:
512,134,187870,5,2,0:0:0:0:
490,164,187956,1,0,0:0:0:0:
456,179,188042,2,0,P|419:226|360:216,1,126.750004835129,0|0,1:0|0:0,0:0:0:0:
282,174,188299,2,0,B|223:160|217:201|158:181,1,126.750004835129,0|0,1:0|0:0,0:0:0:0:
189,113,188556,2,0,P|220:103|251:97,1,63.3750024175645,0|0,1:0|0:0,0:0:0:0:
341,240,188727,6,0,B|322:260|309:284|309:284|269:278|235:294|235:294|205:252|143:263|143:263|163:223|157:182|157:182|218:200|219:163|282:173,1,443.625016922951,0|0,0:0|0:0,0:0:0:0:
395,177,189413,2,0,P|422:232|406:292,1,126.750004835129,0|0,0:0|0:0,0:0:0:0:
22,185,189756,6,0,B|56:192|56:192|80:208,7,63.3750024175645,0|0|0|0|0|0|0|0,1:0|0:0|0:0|0:0|0:0|0:0|0:0|0:0,0:0:0:0:
16,97,190442,2,0,B|40:113|40:113|73:119,3,63.3750024175645,0|0|0|0,1:0|0:0|0:0|0:0,0:0:0:0:
135,160,190784,2,0,P|152:220|118:271,1,126.750004835129,8|0,0:0|0:0,0:0:0:0:
46,297,191042,2,0,B|0:303|0:303|112:352,1,158.437506043911,0|2,0:0|0:0,0:0:0:0:
255,192,192156,6,0,P|322:196|322:263,1,147.875,0|0,3:0|3:0,0:0:0:0:
244,254,192842,6,0,L|258:179,1,63.375,0|0,3:0|3:0,0:0:0:0:
264,112,193184,6,0,P|295:109|326:116,1,63.375,0|0,3:0|3:0,0:0:0:0:
326,115,193527,6,0,P|298:61|262:111,1,147.875,0|0,3:0|3:0,0:0:0:0:
257,183,194213,6,0,B|320:188|320:188|75:234|75:234|160:240,1,380.25,4|0,0:0|0:0,0:0:0:0:
226,279,195842,6,0,L|206:284,2,21.125
299,267,196099,5,0,0:3:0:0:
324,278,196184,1,0,0:3:0:0:
393,314,196270,6,0,L|401:266,1,42.25,8|0,1:0|0:0,0:0:0:0:
457,220,196442,2,0,L|450:178,1,42.25,8|0,1:0|0:0,0:0:0:0:
368,200,196613,2,0,L|374:158,1,42.25,8|0,1:0|0:0,0:0:0:0:
430,104,196784,2,0,L|423:62,1,42.25,8|0,1:0|0:0,0:0:0:0:
368,24,196956,5,0,3:0:0:0:
304,24,197042,1,0,3:0:0:0:
248,40,197127,1,0,3:0:0:0:
208,72,197213,1,0,3:0:0:0:
184,112,197299,1,0,3:0:0:0:
176,152,197384,1,0,3:0:0:0:
176,183,197470,1,0,3:0:0:0:
176,208,197556,1,0,3:0:0:0:
176,227,197642,6,0,P|168:248|136:280,1,63.3750024175645,0|0,1:0|0:0,0:0:0:0:
66,279,197813,2,0,P|73:309|92:334,5,63.3750024175645,0|0|0|0|0|0,1:0|0:0|0:0|0:0|0:0|0:0,0:0:0:0:
23,215,198327,5,2,2:0:0:0:
62,202,198413,1,0,3:0:0:0:
102,210,198499,1,0,3:0:0:0:
160,261,198584,5,2,2:0:0:0:
200,269,198670,1,0,3:0:0:0:
239,256,198756,1,0,3:0:0:0:
298,206,198842,5,2,2:0:0:0:
338,198,198927,1,0,3:0:0:0:
373,212,199013,2,0,P|350:154|293:130,1,126.750004835129,0|0,1:0|0:0,0:0:0:0:
211,49,199270,2,0,P|235:106|293:130,1,126.750004835129,0|0,1:0|0:0,0:0:0:0:
443,188,199527,2,0,P|435:157|421:128,1,63.3750024175645,0|0,1:0|0:0,0:0:0:0:
293,53,199699,6,0,B|212:49|212:49|218:137|325:131|325:131|372:180|372:180|421:129|421:129|438:152|443:191,1,443.625016922951,0|0,0:0|0:0,0:0:0:0:
461,275,200384,2,0,P|397:254|331:261,1,126.750004835129,0|0,0:0|0:0,0:0:0:0:
93,218,200727,6,0,B|72:240|72:240|64:272,7,63.3750024175645,0|0|0|0|0|0|0|0,1:0|0:0|0:0|0:0|0:0|0:0|0:0|0:0,0:0:0:0:
72,345,201413,2,0,P|101:335|126:316,3,63.3750024175645,0|0|0|0,1:0|0:0|0:0|0:0,0:0:0:0:
166,249,201756,2,0,B|186:237|214:233|214:233|250:262|286:257,1,126.750004835129,0|0,1:0|0:0,0:0:0:0:
278,180,202013,2,0,P|224:214|171:189,1,126.750004835129,0|0,0:0|0:0,0:0:0:0:
96,178,202442,6,0,P|108:149|129:125,7,63.3750024175645,0|0|0|0|0|0|0|0,1:0|0:0|0:0|0:0|0:0|0:0|0:0|0:0,0:0:0:0:
53,81,203127,2,0,P|41:110|20:134,7,63.3750024175645,0|0|0|0|0|0|0|0,1:0|0:0|0:0|0:0|0:0|0:0|0:0|0:0,0:0:0:0:
27,209,203813,6,0,P|39:275|16:337,1,126.750004835129,0|0,1:0|0:0,0:0:0:0:
20,330,204070,2,0,P|58:275|118:248,1,126.750004835129,0|0,1:0|0:0,0:0:0:0:
171,199,204327,2,0,P|185:227|188:258,1,63.3750024175645,0|0,1:0|0:0,0:0:0:0:
163,329,204499,6,0,B|198:337|235:317|235:317|260:332|284:335,1,126.750004835129,8|0,2:0|0:0,0:0:0:0:
352,208,204756,2,0,P|322:259|265:246,1,126.750004835129,8|0,2:0|0:0,0:0:0:0:
245,176,205013,2,0,B|235:139|242:112,1,63.3750024175645,8|0,2:0|0:0,0:0:0:0:
316,140,205184,5,0,3:0:0:0:
392,104,205356,1,0,3:0:0:0:
316,140,205527,1,0,3:0:0:0:
392,104,205699,1,0,3:0:0:0:
148,140,205870,6,0,B|240:123|238:167|353:129,1,169,2|0,0:0|0:0,0:0:0:0:
273,68,206384,1,0,0:0:0:0:
240,48,206556,1,0,0:0:0:0:
200,48,206727,1,0,0:0:0:0:
61,130,206899,2,0,P|107:129|157:138,1,84.5,2|0,3:0|0:0,0:0:0:0:
95,225,207242,2,0,B|70:258|70:258|61:130,1,169,0|0,3:0|0:0,0:0:0:0:
61,130,207756,1,0,0:0:0:0:
299,212,207927,5,0,0:0:0:0:
227,242,208099,1,0,0:0:0:0:
268,137,208270,1,0,0:0:0:0:
299,212,208442,1,0,0:0:0:0:
191,308,208613,2,0,P|151:238|198:172,1,169,2|0,3:0|0:0,0:0:0:0:
257,53,209127,1,0,0:0:0:0:
350,148,209299,6,0,B|384:176|384:176|384:216,1,84.5,0|0,1:0|0:0,0:0:0:0:
371,290,209556,2,0,B|415:294|447:260,1,84.5,0|0,1:0|0:0,0:0:0:0:
501,210,209813,2,0,P|484:198|465:189,1,42.25,2|0,1:0|0:0,0:0:0:0:
350,148,209984,1,0,2:0:0:0:
299,253,210156,1,0,0:0:0:0:
291,277,210242,1,0,0:0:0:0:
291,301,210327,1,0,0:0:0:0:
141,164,210499,1,0,0:0:0:0:
225,53,210670,6,0,B|214:94|238:137|238:137|216:179|226:223|226:223|207:257|213:302,1,253.5,2|0,0:0|0:0,0:0:0:0:
307,189,211356,2,0,B|225:165|222:198|141:164,1,169,2|0,0:0|0:0,0:0:0:0:
301,82,211870,1,0,0:0:0:0:
342,90,212042,1,0,0:0:0:0:
378,112,212213,1,0,0:0:0:0:
511,193,212384,2,0,P|469:201|427:201,1,84.5,2|0,0:0|0:0,0:0:0:0:
378,111,212727,2,0,P|451:130|428:202,1,169,0|0,0:0|0:0,0:0:0:0:
428,201,213242,1,0,0:0:0:0:
233,245,213413,5,0,0:0:0:0:
345,301,213584,1,0,0:0:0:0:
257,245,213756,1,0,0:0:0:0:
345,189,213927,1,0,0:0:0:0:
217,165,214099,2,0,B|164:146|164:146|219:126|276:136,1,169,2|0,0:0|0:0,0:0:0:0:
428,201,214613,1,0,0:0:0:0:
492,92,214784,6,0,P|446:79|409:72,1,84.5,0|0,1:0|0:0,0:0:0:0:
393,142,215042,2,0,P|434:150|474:161,1,84.5,0|0,1:0|0:0,0:0:0:0:
438,228,215299,2,0,P|418:220|397:216,1,42.25,0|0,1:0|0:0,0:0:0:0:
316,186,215470,1,0,2:0:0:0:
262,252,215642,1,0,0:0:0:0:
243,236,215727,1,0,0:0:0:0:
235,212,215813,1,0,0:0:0:0:
250,136,215984,1,0,0:0:0:0:
199,77,216156,6,0,B|258:27|343:75|345:146|306:190|306:190|322:188,1,253.5,0|0,0:0|0:0,0:0:0:0:
372,21,216842,2,0,B|322:89|249:135,1,169,2|0,0:0|0:0,0:0:0:0:
126,99,217356,1,0,0:0:0:0:
156,222,217527,1,0,0:0:0:0:
120,80,217699,1,0,0:0:0:0:
72,209,217870,2,0,L|176:225,1,84.5,2|0,0:0|0:0,0:0:0:0:
249,228,218213,2,0,P|178:215|215:154,1,169,0|0,0:0|0:0,0:0:0:0:
215,154,218727,1,0,0:0:0:0:
101,123,218899,5,0,0:0:0:0:
212,46,219070,1,0,0:0:0:0:
335,103,219242,1,0,0:0:0:0:
297,24,219413,1,0,0:0:0:0:
126,40,219584,2,0,B|168:12|212:46|212:46|225:93|281:112,1,169,2|0,0:0|0:0,0:0:0:0:
378,34,220099,1,0,0:0:0:0:
258,102,220270,6,0,P|248:142|255:183,1,84.5,0|0,1:0|0:0,0:0:0:0:
168,249,220527,2,0,P|178:208|171:167,1,84.5,0|0,1:0|0:0,0:0:0:0:
157,58,220784,2,0,L|180:93,1,42.25,0|0,1:0|0:0,0:0:0:0:
255,183,220956,1,0,2:0:0:0:
336,134,221127,1,0,0:0:0:0:
393,208,221299,1,0,0:0:0:0:
365,217,221384,1,0,0:0:0:0:
338,228,221470,1,0,0:0:0:0:
260,102,221642,6,0,B|334:136|334:136|408:112|408:112|456:120|501:112,1,253.5,0|0,0:0|0:0,0:0:0:0:
337,48,222327,2,0,B|288:24|288:24|220:18|186:64,1,169,2|0,0:0|0:0,0:0:0:0:
98,177,222842,1,0,0:0:0:0:
260,102,223013,1,0,0:0:0:0:
111,95,223184,1,0,0:0:0:0:
54,246,223356,2,0,P|95:254|136:248,1,84.5,2|0,0:0|0:0,0:0:0:0:
203,160,223699,2,0,B|187:141|181:121|181:121|144:94|91:133|98:177,1,169,0|0,0:0|0:0,0:0:0:0:
97,176,224213,1,0,0:0:0:0:
194,306,224384,5,0,0:0:0:0:
288,304,224556,1,0,0:0:0:0:
324,218,224727,1,0,0:0:0:0:
260,149,224899,1,0,0:0:0:0:
238,234,225070,2,0,P|215:303|288:304,1,169,2|0,0:0|0:0,0:0:0:0:
324,218,225584,1,0,0:0:0:0:
186,180,225756,6,0,P|155:209|139:248,1,84.5,0|0,1:0|0:0,0:0:0:0:
37,336,226013,2,0,P|79:337|119:321,1,84.5,0|0,1:0|0:0,0:0:0:0:
222,335,226270,2,0,P|193:304|155:291,1,42.25,0|0,1:0|0:0,0:0:0:0:
66,261,226442,1,0,2:0:0:0:
39,140,226613,1,0,0:0:0:0:
63,156,226699,1,0,0:0:0:0:
81,170,226784,1,0,0:0:0:0:
113,73,226956,1,0,0:0:0:0:
198,162,227127,6,0,P|218:169|239:171,7,42.25,2|0|0|0|0|0|0|0,3:0|0:0|0:0|0:0|0:0|0:0|0:0|0:0,0:0:0:0:
314,246,228499,6,0,P|293:253|272:255,7,42.25,2|0|0|0|0|0|0|0,3:0|0:0|0:0|0:0|0:0|0:0|0:0|0:0,0:0:0:0:
197,330,229870,6,0,P|217:337|238:339,7,42.25,2|0|0|0|0|0|0|0,0:0|0:0|0:0|0:0|0:0|0:0|0:0|0:0,0:0:0:0:
355,238,231242,6,0,P|334:241|313:247,7,42.25,2|0|0|0|0|0|0|0,0:0|0:0|0:0|0:0|0:0|0:0|0:0|0:0,0:0:0:0:
156,155,232613,6,0,P|177:157|197:163,7,42.25,2|0|0|0|0|0|0|0,0:0|0:0|0:0|0:0|0:0|0:0|0:0|0:0,0:0:0:0:
355,71,233984,6,0,P|334:74|313:80,7,42.25,2|0|0|0|0|0|0|0,0:0|0:0|0:0|0:0|0:0|0:0|0:0|0:0,0:0:0:0:
114,147,235356,6,0,P|135:150|156:156,7,42.25,2|0|0|0|0|0|0|0,0:0|0:0|0:0|0:0|0:0|0:0|0:0|0:0,0:0:0:0:
396,230,236727,6,0,P|375:233|354:239,7,42.25,2|0|0|0|0|0|0|0,0:0|0:0|0:0|0:0|0:0|0:0|0:0|0:0,0:0:0:0:
155,322,238099,6,0,P|175:325|192:328,15,21.125,2|0|0|0|0|0|0|0|2|0|0|0|0|0|0|0,0:0|0:0|0:0|0:0|0:0|0:0|0:0|0:0|0:0|0:0|0:0|0:0|0:0|0:0|0:0|0:0,0:0:0:0:
75,324,239470,5,2,0:0:0:0:
75,307,239556,1,0,0:0:0:0:
79,290,239642,1,0,0:0:0:0:
86,275,239727,1,0,0:0:0:0:
96,261,239813,1,0,0:0:0:0:
110,250,239899,1,0,0:0:0:0:
126,242,239984,1,0,0:0:0:0:
142,237,240070,1,0,0:0:0:0:
160,236,240156,5,2,0:0:0:0:
177,235,240242,1,0,0:0:0:0:
193,230,240327,1,0,0:0:0:0:
209,222,240413,1,0,0:0:0:0:
222,210,240499,1,0,0:0:0:0:
232,197,240584,1,0,0:0:0:0:
239,181,240670,1,0,0:0:0:0:
243,164,240756,1,0,0:0:0:0:
254,85,240842,6,0,L|274:91,15,21.125,2|0|0|0|0|0|0|0|2|0|0|0|0|0|0|0,0:0|0:0|0:0|0:0|0:0|0:0|0:0|0:0|0:0|0:0|0:0|0:0|0:0|0:0|0:0|0:0,0:0:0:0:
326,31,242213,5,2,0:0:0:0:
340,48,242299,1,0,0:0:0:0:
350,66,242384,1,0,0:0:0:0:
355,87,242470,1,0,0:0:0:0:
355,108,242556,1,0,0:0:0:0:
351,128,242642,1,0,0:0:0:0:
342,147,242727,1,0,0:0:0:0:
324,166,242813,1,0,0:0:0:0:
311,149,242899,5,2,0:0:0:0:
295,136,242984,1,0,0:0:0:0:
276,126,243070,1,0,0:0:0:0:
256,121,243156,1,0,0:0:0:0:
235,121,243242,1,0,0:0:0:0:
214,125,243327,1,0,0:0:0:0:
195,134,243413,1,0,0:0:0:0:
178,147,243499,1,0,0:0:0:0:
132,211,243584,6,0,L|116:196,15,21.125,2|0|0|0|0|0|0|0|2|0|0|0|0|0|0|0,0:0|0:0|0:0|0:0|0:0|0:0|0:0|0:0|0:0|0:0|0:0|0:0|0:0|0:0|0:0|0:0,0:0:0:0:
73,263,244956,5,2,0:0:0:0:
87,283,245042,1,0,0:0:0:0:
106,299,245127,1,0,0:0:0:0:
130,309,245213,1,0,0:0:0:0:
155,312,245299,1,0,0:0:0:0:
180,307,245384,1,0,0:0:0:0:
202,295,245470,1,0,0:0:0:0:
220,277,245556,1,0,0:0:0:0:
234,256,245642,5,2,0:0:0:0:
243,232,245727,1,0,0:0:0:0:
261,247,245813,1,0,0:0:0:0:
276,268,245899,1,0,0:0:0:0:
283,292,245984,1,0,0:0:0:0:
283,317,246070,1,0,0:0:0:0:
277,342,246156,1,0,0:0:0:0:
268,365,246242,1,0,0:0:0:0:
190,370,246327,6,0,L|181:341,15,21.125,2|0|0|0|0|0|0|0|2|0|0|0|0|0|0|0,0:0|0:0|0:0|0:0|0:0|0:0|0:0|0:0|0:0|0:0|0:0|0:0|0:0|0:0|0:0|0:0,0:0:0:0:
123,289,247699,6,0,L|127:268,1,21.125,2|0,0:0|0:0,0:0:0:0:
187,208,247870,2,0,L|182:187,1,21.125,2|0,0:0|0:0,0:0:0:0:
121,126,248042,2,0,L|125:105,1,21.125,0|0,1:0|0:0,0:0:0:0:
180,24,248213,2,0,L|185:45,1,21.125,0|0,1:0|0:0,0:0:0:0:
239,124,248384,6,0,L|244:104,1,21.125,2|0,0:0|0:0,0:0:0:0:
299,22,248556,2,0,L|304:43,1,21.125,2|0,0:0|0:0,0:0:0:0:
363,102,248727,2,0,L|358:122,1,21.125,0|0,1:0|0:0,0:0:0:0:
418,20,248899,2,0,L|423:41,1,21.125,0|0,1:0|0:0,0:0:0:0:
486,120,249070,6,0,P|505:191|424:200,2,126.750004835129,2|0|0,2:0|0:0|0:0,0:0:0:0:
301,146,249584,2,0,P|356:174|415:157,2,126.750004835129,2|0|0,2:0|0:0|0:0,0:0:0:0:
212,124,250099,2,0,P|247:171|300:146,1,126.750004835129,0|0,1:0|0:0,0:0:0:0:
363,102,250442,2,0,P|305:56|265:95,2,126.750004835129,0|0|0,1:0|0:0|0:0,0:0:0:0:
198,233,250956,2,0,P|259:245|321:231,2,126.750004835129,0|0|0,1:0|0:0|0:0,0:0:0:0:
160,224,251384,5,0,0:0:0:0:
128,240,251470,1,0,0:0:0:0:
96,224,251556,1,0,0:0:0:0:
64,240,251642,1,0,0:0:0:0:
32,224,251727,1,0,0:0:0:0:
0,239,251813,6,0,P|63:194|87:111,1,152.099995358276,0|0,0:0|0:0,0:0:0:0:
32,74,252156,2,0,P|18:95|11:120,1,50.6999984527588,2|0,0:0|0:0,0:0:0:0:
32,325,252327,1,0,0:0:0:0:
32,325,252499,1,0,0:0:0:0:
107,305,252670,2,0,P|97:282|81:263,1,50.6999984527588,0|0,0:0|0:0,0:0:0:0:
0,240,252842,2,0,P|33:202|78:180,1,101.399996905518,0|0,0:0|0:0,0:0:0:0:
304,251,253184,6,0,P|227:230|243:308,1,190.125007252693,2|0,0:0|0:0,0:0:0:0:
304,251,253527,2,0,P|315:228|323:204,1,50.6999984527588,0|0,0:0|0:0,0:0:0:0:
379,86,253699,1,0,0:0:0:0:
291,282,253870,1,0,0:0:0:0:
229,16,254042,1,0,0:0:0:0:
96,152,254213,5,0,3:0:0:0:
115,128,254299,1,0,3:0:0:0:
139,109,254384,1,0,3:0:0:0:
168,98,254470,1,0,3:0:0:0:
199,93,254556,2,0,P|247:103|288:75,1,101.399996905518,0|0,0:0|0:0,0:0:0:0:
229,16,254899,5,0,0:0:0:0:
190,200,255070,1,0,0:0:0:0:
95,36,255242,1,0,0:0:0:0:
0,260,255413,2,0,B|21:273|47:276,1,50.6999984527588
167,298,255584,2,0,L|191:194,1,101.399996905518,0|0,0:0|0:0,0:0:0:0:
327,222,255927,6,0,P|336:245|343:270,1,50.6999984527588,0|0,0:0|0:0,0:0:0:0:
367,363,256099,1,0,0:0:0:0:
258,267,256270,1,0,0:0:0:0:
327,145,256442,1,0,3:0:0:0:
351,145,256527,1,0,3:0:0:0:
375,161,256613,1,0,3:0:0:0:
474,253,256784,1,0,0:0:0:0:
385,355,256956,5,0,3:0:0:0:
360,351,257042,1,0,3:0:0:0:
337,348,257127,1,0,3:0:0:0:
312,344,257213,1,0,3:0:0:0:
289,341,257299,2,0,B|232:328|232:328|192:296|192:296|128:280,1,152.099995358276,0|0,0:0|0:0,0:0:0:0:
130,209,257642,2,0,L|87:237,1,50.6999984527588,0|0,0:0|0:0,0:0:0:0:
8,328,257813,1,0,0:0:0:0:
60,160,257984,1,0,0:0:0:0:
206,222,258156,2,0,P|204:194|198:170,1,50.6999984527588,0|0,0:0|0:0,0:0:0:0:
142,121,258327,6,0,B|166:97|206:95|206:95|232:50|274:38,1,152.099995358276,0|0,0:0|0:0,0:0:0:0:
319,126,258670,6,0,B|305:117|284:116|284:116|279:185|279:185|232:192|206:222,1,190.125007252693,0|0,0:0|0:0,0:0:0:0:
147,300,259013,2,0,P|176:311|203:316,1,50.6999984527588
239,306,259184,1,0,3:0:0:0:
267,305,259270,1,0,3:0:0:0:
292,308,259356,1,0,3:0:0:0:
433,355,259527,6,0,B|395:300|395:300|409:229|409:229|384:177|384:177|419:115|378:66,1,316.875012087822
319,125,260042,6,0,P|277:154|227:158,1,101.399996905518,0|0,0:0|0:0,0:0:0:0:
38,119,260384,1,0,0:0:0:0:
248,75,260556,1,0,0:0:0:0:
118,212,260727,1,0,0:0:0:0:
173,99,260899,2,0,P|169:75|171:49,1,50.6999984527588,0|0,1:0|0:0,0:0:0:0:
248,75,261070,2,0,B|257:105|245:134|245:134|242:154|249:179,1,101.399996905518,0|0,0:0|0:0,0:0:0:0:
365,303,261413,1,0,0:0:0:0:
321,151,261584,1,0,0:0:0:0:
274,256,261756,6,0,L|329:227,1,50.6999984527588,0|0,1:0|0:0,0:0:0:0:
352,224,261927,1,0,3:0:0:0:
384,216,262013,1,0,3:0:0:0:
416,224,262099,1,0,3:0:0:0:
448,216,262184,1,0,3:0:0:0:
472,200,262270,1,0,3:0:0:0:
480,168,262356,1,0,3:0:0:0:
506,98,262442,6,0,P|482:95|456:96,3,50.6999984527588,0|0|0|0,0:0|0:0|0:0|0:0,0:0:0:0:
433,22,262784,2,0,P|381:72|394:144,1,152.099995358276,2|0,0:0|0:0,0:0:0:0:
448,216,263127,2,0,L|417:256,1,50.6999984527588,0|0,1:0|0:0,0:0:0:0:
359,324,263299,1,0,0:0:0:0:
359,324,263470,1,0,0:0:0:0:
192,144,263642,2,0,P|209:163|223:184,1,50.6999984527588,0|0,1:0|0:0,0:0:0:0:
235,282,263813,2,0,P|308:270|358:323,1,152.099995358276,0|0,0:0|0:0,0:0:0:0:
283,345,264156,6,0,B|236:284|236:284|275:231|275:231|268:197|289:159,1,190.125007252693,2|0,0:0|0:0,0:0:0:0:
350,210,264499,2,0,L|408:200,1,50.6999984527588,0|0,0:0|0:0,0:0:0:0:
424,192,264670,1,0,3:0:0:0:
456,184,264756,1,0,3:0:0:0:
432,168,264842,1,0,3:0:0:0:
408,152,264927,1,0,3:0:0:0:
384,136,265013,1,0,3:0:0:0:
360,120,265099,1,0,3:0:0:0:
290,85,265184,6,0,P|305:65|324:48,3,50.6999984527588,0|0|0|0,0:0|0:0|0:0|0:0,0:0:0:0:
229,35,265527,2,0,P|215:107|267:159,1,152.099995358276,2|0,0:0|0:0,0:0:0:0:
327,205,265870,2,0,P|338:182|343:157,1,50.6999984527588,0|0,1:0|0:0,0:0:0:0:
290,85,266042,1,0,0:0:0:0:
164,197,266213,1,0,0:0:0:0:
239,346,266384,2,0,P|228:324|220:300,1,50.6999984527588,0|0,1:0|0:0,0:0:0:0:
327,205,266556,2,0,B|331:266|331:266|290:304|256:304,1,101.399996905518,0|0,0:0|0:0,0:0:0:0:
44,243,266899,2,0,B|62:259|62:259|101:239|134:234,1,101.399996905518,0|0,0:0|0:0,0:0:0:0:
264,152,267242,1,0,0:0:0:0:
127,314,267413,5,0,3:0:0:0:
159,322,267499,1,0,3:0:0:0:
191,314,267584,1,0,3:0:0:0:
221,297,267670,1,0,3:0:0:0:
253,289,267756,1,0,3:0:0:0:
285,297,267842,1,0,3:0:0:0:
306,371,267927,6,0,P|281:373|257:369,3,50.6999984527588,0|0|0|0,0:0|0:0|0:0|0:0,0:0:0:0:
383,379,268270,6,0,P|356:311|285:296,1,152.099995358276,2|0,0:0|0:0,0:0:0:0:
270,225,268613,2,0,P|295:221|320:220,1,50.6999984527588,0|0,1:0|0:0,0:0:0:0:
420,217,268784,1,0,0:0:0:0:
263,70,268956,1,0,0:0:0:0:
207,277,269127,2,0,B|193:256|189:229,1,50.6999984527588,0|0,1:0|0:0,0:0:0:0:
76,171,269299,2,0,B|156:180|145:141|226:160,1,152.099995358276,0|0,0:0|0:0,0:0:0:0:
375,154,269642,6,0,B|301:166|301:166|293:229|218:243|297:207,1,190.125007252693,2|0,0:0|0:0,0:0:0:0:
405,229,269984,2,0,B|437:214|437:214|448:192,1,50.6999984527588,0|0,0:0|0:0,0:0:0:0:
464,154,270156,1,0,3:0:0:0:
480,122,270242,1,0,3:0:0:0:
496,88,270327,2,0,P|464:97|432:112,1,50.6999984527588,0|0,0:0|0:0,0:0:0:0:
374,154,270499,2,0,P|354:168|330:177,1,50.6999984527588,0|0,0:0|0:0,0:0:0:0:
265,233,270670,2,0,P|233:242|208:264,3,50.6999984527588,0|0|0|0,0:0|0:0|0:0|0:0,0:0:0:0:
318,103,271013,6,0,L|400:280,1,152.099995358276,2|0,0:0|0:0,0:0:0:0:
420,348,271356,2,0,P|365:367|336:320,1,101.399996905518,0|0,1:0|0:0,0:0:0:0:
274,199,271699,1,0,0:0:0:0:
71,198,271870,2,0,P|90:214|113:226,1,50.6999984527588,0|0,1:0|0:0,0:0:0:0:
136,315,272042,2,0,P|180:289|207:247,1,101.399996905518
136,104,272384,1,0,0:0:0:0:
304,160,272556,1,0,0:0:0:0:
136,193,272727,1,0,0:0:0:0:
318,84,272899,5,0,3:0:0:0:
350,92,272984,1,0,3:0:0:0:
374,124,273070,1,0,3:0:0:0:
393,235,273242,2,0,P|361:234|330:229,1,50.6999984527588,0|0,0:0|0:0,0:0:0:0:
267,248,273413,2,0,P|267:224|291:168,3,50.6999984527588,0|0|0|0,0:0|0:0|0:0|0:0,0:0:0:0:
190,233,273756,6,0,P|211:303|280:325,1,152.099995358276,2|0,0:0|0:0,0:0:0:0:
391,290,274099,2,0,L|319:274,1,50.6999984527588,0|0,1:0|0:0,0:0:0:0:
266,247,274270,1,0,0:0:0:0:
469,255,274442,1,0,0:0:0:0:
213,158,274613,2,0,L|261:173,1,50.6999984527588,0|0,1:0|0:0,0:0:0:0:
390,153,274784,2,0,B|339:141|339:141|294:105|294:105|236:88,1,152.099995358276,0|0,0:0|0:0,0:0:0:0:
90,112,275127,6,0,B|141:120|167:160|167:160|210:157|210:157|261:173,1,190.125007252693,2|0,0:0|0:0,0:0:0:0:
313,239,275470,2,0,P|275:250|240:256,1,50.6999984527588,0|0,1:0|0:0,0:0:0:0:
91,192,275642,1,0,0:0:0:0:
126,46,275813,1,0,3:0:0:0:
166,61,275899,1,0,3:0:0:0:
198,86,275984,1,0,3:0:0:0:
236,89,276070,1,0,3:0:0:0:
272,101,276156,2,0,L|317:123,3,50.6999984527588,0|0|0|0,0:0|0:0|0:0|0:0,0:0:0:0:
346,50,276499,6,0,P|393:105|373:176,1,152.099995358276,2|0,0:0|0:0,0:0:0:0:
290,192,276842,2,0,L|208:160,1,50.6999984527588,0|0,1:0|0:0,0:0:0:0:
200,152,277013,1,0,3:0:0:0:
168,136,277099,1,0,3:0:0:0:
136,120,277184,1,0,3:0:0:0:
49,272,277356,2,0,P|76:256|104:248,1,50.6999984527588,0|0,1:0|0:0,0:0:0:0:
190,269,277527,1,0,0:0:0:0:
68,172,277699,1,0,0:0:0:0:
111,326,277870,6,0,P|159:350|208:362,1,101.399996905518,0|0,0:0|0:0,0:0:0:0:
346,234,278213,1,0,3:0:0:0:
307,242,278299,1,0,3:0:0:0:
270,250,278384,1,0,3:0:0:0:
317,123,278556,1,0,0:0:0:0:
223,187,278727,5,0,3:0:0:0:
186,202,278813,1,0,3:0:0:0:
167,232,278899,1,0,3:0:0:0:
171,268,278984,1,0,3:0:0:0:
202,286,279070,1,0,3:0:0:0:
206,322,279156,1,0,3:0:0:0:
241,346,279242,2,0,P|303:343|351:372,1,101.399996905518
469,290,279584,5,0,0:0:0:0:
320,240,279756,1,0,0:0:0:0:
383,165,279927,2,0,P|400:185|412:207,1,50.6999984527588,0|0,1:0|0:0,0:0:0:0:
488,304,280099,1,0,0:0:0:0:
375,317,280270,1,0,0:0:0:0:
477,137,280442,1,0,0:0:0:0:
319,239,280613,6,0,P|292:152|352:79,1,190.125007252693,2|0,0:0|0:0,0:0:0:0:
431,184,280956,2,0,L|383:166,1,50.6999984527588,0|0,1:0|0:0,0:0:0:0:
213,103,281127,1,0,0:0:0:0:
383,166,281299,1,0,0:0:0:0:
196,183,281470,1,0,1:0:0:0:
171,170,281556,1,0,0:0:0:0:
147,157,281642,2,0,B|97:144|97:144|105:113|161:73|213:103,1,190.125007252693,0|0,0:0|0:0,0:0:0:0:
248,79,281984,6,0,B|231:29|231:29|151:7|86:46,1,190.125007252693
24,60,282670,2,0,P|30:75|39:89,1,31.6875012087822,2|0,0:0|0:0,0:0:0:0:
146,111,282927,1,0,0:0:0:0:
247,78,283184,1,0,0:0:0:0:
97,39,283356,2,0,B|163:8|232:30|232:30|248:80,1,190.125007252693,2|0,0:0|0:0,0:0:0:0:
323,92,284042,2,0,P|288:143|225:153,1,126.750004835129,2|0,1:0|0:0,0:0:0:0:
104,229,284727,6,0,B|208:197|192:245|296:221,1,190.125007252693,2|0,0:0|0:0,0:0:0:0:
380,211,285413,2,0,P|381:226|380:242,1,31.6875012087822,2|0,0:0|0:0,0:0:0:0:
320,296,285670,1,0,0:0:0:0:
250,148,285927,1,0,0:0:0:0:
196,311,286099,2,0,B|204:263|204:263|252:231|252:231|237:191|250:148,1,190.125007252693,2|0,0:0|0:0,0:0:0:0:
195,93,286784,2,0,P|252:71|308:96,1,126.750004835129,2|0,1:0|0:0,0:0:0:0:
82,61,287470,6,0,B|50:93|50:93|218:93,1,190.125007252693,2|0,0:0|0:0,0:0:0:0:
280,178,288156,2,0,L|219:178,1,31.6875012087822,2|0,0:0|0:0,0:0:0:0:
162,263,288413,1,0,0:0:0:0:
246,347,288670,1,0,0:0:0:0:
62,369,288842,2,0,B|83:341|75:288|75:288|89:295|89:295|76:253|105:209,1,190.125007252693,2|0,0:0|0:0,0:0:0:0:
86,133,289527,2,0,P|147:143|181:194,1,126.750004835129,2|0,1:0|0:0,0:0:0:0:
304,189,290213,6,0,B|255:223|255:223|233:256|202:268|202:268|239:249|281:256,1,190.125007252693,2|0,0:0|0:0,0:0:0:0:
255,361,290899,2,0,L|247:321,1,31.6875012087822,2|0,0:0|0:0,0:0:0:0:
181,194,291156,1,0,0:0:0:0:
343,262,291413,1,0,0:0:0:0:
202,268,291584,2,0,B|152:288|152:288|72:280|49:211,1,190.125007252693,2|0,0:0|0:0,0:0:0:0:
0,152,292270,2,0,P|56:133|106:158,1,95.0625036263467,2|0,1:0|0:0,0:0:0:0:
158,157,292613,2,0,P|204:167|247:148,1,95.0625036263467,2|0,0:0|0:0,0:0:0:0:
247,147,292956,6,0,P|287:137|329:139,1,84.5,2|0,0:0|0:0,0:0:0:0:
432,208,293470,2,0,P|391:218|349:216,1,84.5,2|0,0:0|0:0,0:0:0:0:
247,148,293984,2,0,P|206:137|168:140,1,63.375,2|0,0:0|0:0,0:0:0:0:
184,137,294327,2,0,P|144:146|102:145,1,84.5,2|0,0:0|0:0,0:0:0:0:
28,172,294842,2,0,P|31:111|78:71,1,126.75,2|0,0:0|0:0,0:0:0:0:
225,187,295699,6,0,B|249:163|249:163|236:113,1,84.5,2|0,0:0|0:0,0:0:0:0:
177,67,296213,2,0,B|153:91|153:91|169:155,1,84.5,2|0,0:0|0:0,0:0:0:0:
250,188,296727,2,0,B|274:164|274:164|264:120,1,63.375,2|0,0:0|0:0,0:0:0:0:
267,135,297070,2,0,B|254:85|254:85|278:61,1,84.5,2|0,0:0|0:0,0:0:0:0:
362,84,297584,2,0,B|338:108|338:108|363:201,1,126.75,2|0,0:0|0:0,0:0:0:0:
415,295,298442,6,0,P|376:311|334:307,1,84.5,2|0,0:0|0:0,0:0:0:0:
226,379,298956,2,0,P|195:350|182:311,1,84.5,2|0,0:0|0:0,0:0:0:0:
73,241,299470,2,0,P|86:201|112:176,1,63.375,2|0,0:0|0:0,0:0:0:0:
100,185,299813,2,0,P|86:145|55:117,1,84.5,2|0,0:0|0:0,0:0:0:0:
10,287,300327,2,0,P|63:318|123:302,1,126.75,2|0,0:0|0:0,0:0:0:0:
317,167,301184,6,0,L|404:173,1,84.5,2|2,0:0|0:0,0:0:0:0:
481,265,301699,2,0,L|396:259,1,84.5,2|0,0:0|0:0,0:0:0:0:
317,167,302213,2,0,L|237:161,1,63.375,2|0,0:0|0:0,0:0:0:0:
252,161,302556,2,0,L|167:155,1,84.5,2|0,0:0|0:0,0:0:0:0:
75,236,303070,2,0,L|204:246,1,126.75,2|2,0:0|0:0,0:0:0:0:
320,280,303927,6,0,L|312:176,1,84.5,2|0,0:0|0:0,0:0:0:0:
313,195,304442,1,0,0:0:0:0:
164,46,304870,1,0,0:0:0:0:
164,46,305127,1,0,0:0:0:0:
122,119,305299,2,0,P|162:128|204:120,1,84.5,2|0,0:0|0:0,0:0:0:0:
204,120,305813,2,0,L|344:136,1,126.75,0|0,0:0|0:0,0:0:0:0:
204,120,306670,6,0,L|212:224,1,84.5,2|0,0:0|0:0,0:0:0:0:
210,204,307184,1,0,0:0:0:0:
360,354,307613,1,0,0:0:0:0:
360,354,307870,1,0,0:0:0:0:
402,281,308042,2,0,P|361:271|319:279,1,84.5,2|0,0:0|0:0,0:0:0:0:
319,279,308556,2,0,P|254:257|184:256,1,126.75,0|0,0:0|0:0,0:0:0:0:
254,85,309413,6,0,L|274:91,15,21.125,2|0|0|0|0|0|0|0|2|0|0|0|0|0|0|0,0:0|0:0|0:0|0:0|0:0|0:0|0:0|0:0|0:0|0:0|0:0|0:0|0:0|0:0|0:0|0:0,0:0:0:0:
241,160,310784,5,2,0:0:0:0:
236,180,310870,1,0,0:0:0:0:
233,201,310956,1,0,0:0:0:0:
233,222,311042,1,0,0:0:0:0:
237,243,311127,1,0,0:0:0:0:
245,262,311213,1,0,0:0:0:0:
256,280,311299,1,0,0:0:0:0:
270,296,311384,1,0,0:0:0:0:
287,309,311470,5,2,0:0:0:0:
301,296,311556,1,0,0:0:0:0:
314,279,311642,1,0,0:0:0:0:
326,261,311727,1,0,0:0:0:0:
335,243,311813,1,0,0:0:0:0:
342,223,311899,1,0,0:0:0:0:
347,202,311984,1,0,0:0:0:0:
350,181,312070,1,0,0:0:0:0:
336,104,312156,6,0,L|316:110,15,21.125,2|0|0|0|0|0|0|0|2|0|0|0|0|0|0|0,0:0|0:0|0:0|0:0|0:0|0:0|0:0|0:0|0:0|0:0|0:0|0:0|0:0|0:0|0:0|0:0,0:0:0:0:
302,35,313527,5,2,0:0:0:0:
276,36,313613,1,0,0:0:0:0:
251,38,313699,1,0,0:0:0:0:
229,48,313784,1,0,0:0:0:0:
208,62,313870,1,0,0:0:0:0:
184,71,313956,1,0,0:0:0:0:
159,75,314042,1,0,0:0:0:0:
134,73,314127,1,0,0:0:0:0:
109,66,314213,5,2,0:0:0:0:
119,74,314299,1,0,0:0:0:0:
139,90,314384,1,0,0:0:0:0:
155,109,314470,1,0,0:0:0:0:
168,131,314556,1,0,0:0:0:0:
175,155,314642,1,0,0:0:0:0:
178,181,314727,1,0,0:0:0:0:
177,206,314813,1,0,0:0:0:0:
208,277,314899,6,0,P|136:272|98:209,1,152.099995358276,2|0,3:0|0:0,0:0:0:0:
56,148,315242,2,0,B|15:127|15:127|28:180,1,101.399996905518,2|0,0:0|0:0,0:0:0:0:
91,343,315584,1,0,0:0:0:0:
283,261,315756,6,0,P|273:237|257:218,1,50.6999984527588,0|0,1:0|0:0,0:0:0:0:
218,154,315927,2,0,B|177:133|177:133|190:186,1,101.399996905518,0|0,0:0|0:0,0:0:0:0:
265,340,316270,1,0,0:0:0:0:
343,191,316442,1,0,0:0:0:0:
238,340,316613,2,0,L|157:333,1,50.6999984527588,0|0,1:0|0:0,0:0:0:0:
152,320,316784,1,0,3:0:0:0:
128,296,316870,1,0,3:0:0:0:
104,272,316956,1,0,3:0:0:0:
155,125,317127,1,0,0:0:0:0:
102,191,317299,6,0,P|126:197|150:207,3,50.6999984527588,0|0|0|0,0:0|0:0|0:0|0:0,0:0:0:0:
37,234,317642,2,0,P|29:161|85:114,1,152.099995358276,2|0,0:0|0:0,0:0:0:0:
149,72,317984,2,0,B|136:53|136:53|214:60,1,101.399996905518,0|0,1:0|0:0,0:0:0:0:
349,295,318327,1,0,0:0:0:0:
102,191,318499,2,0,P|125:180|150:175,1,50.6999984527588,0|0,1:0|0:0,0:0:0:0:
273,173,318670,2,0,P|287:220|272:268,1,101.399996905518,0|0,0:0|0:0,0:0:0:0:
100,336,319013,6,0,B|137:322|180:336|180:336|220:328|220:328|269:352|340:336,1,190.125007252693,2|0,2:0|0:0,0:0:0:0:
411,297,319356,2,0,L|336:289,1,63.3750024175645
270,266,319527,1,0,3:0:0:0:
240,256,319613,1,0,3:0:0:0:
224,232,319699,1,0,3:0:0:0:
216,200,319784,1,0,3:0:0:0:
192,176,319870,1,0,3:0:0:0:
160,168,319956,1,0,3:0:0:0:
81,175,320042,2,0,P|88:199|101:222,3,50.6999984527588,0|0|0|0,0:0|0:0|0:0|0:0,0:0:0:0:
7,199,320384,6,0,P|20:127|87:97,1,152.099995358276,2|0,0:0|0:0,0:0:0:0:
160,168,320727,2,0,P|204:192|253:199,1,101.399996905518,0|0,1:0|0:0,0:0:0:0:
434,178,321070,1,0,0:0:0:0:
277,87,321242,2,0,B|250:96|250:96|233:110,1,50.6999984527588,0|0,1:0|0:0,0:0:0:0:
159,169,321413,2,0,B|152:224|152:224|168:272|166:266,1,101.399996905518,0|0,0:0|0:0,0:0:0:0:
360,241,321756,2,0,L|259:254,1,101.399996905518,0|0,0:0|0:0,0:0:0:0:
76,213,322099,6,0,L|83:162,1,50.6999984527588,0|0,1:0|0:0,0:0:0:0:
88,136,322270,1,0,3:0:0:0:
96,104,322356,1,0,3:0:0:0:
104,72,322442,1,0,3:0:0:0:
214,303,322613,1,0,0:0:0:0:
100,342,322784,2,0,P|93:318|91:293,3,50.6999984527588,0|0|0|0,0:0|0:0|0:0|0:0,0:0:0:0:
30,372,323127,6,0,P|17:297|22:222,1,152.099995358276,2|0,0:0|0:0,0:0:0:0:
4,148,323470,2,0,B|53:149|53:149|91:185,1,101.399996905518,0|0,1:0|0:0,0:0:0:0:
241,219,323813,1,0,0:0:0:0:
106,98,323984,2,0,L|143:133,1,50.6999984527588,0|0,1:0|0:0,0:0:0:0:
312,152,324156,2,0,P|266:133|215:129,1,101.399996905518
65,258,324499,6,0,B|92:254|118:236|118:236|143:236|174:248|174:248|214:223|214:223|268:214,1,190.125007252693,2|0,2:0|0:0,0:0:0:0:
323,234,324842,2,0,P|308:262|288:286,1,63.3750024175645,0|0,1:0|0:0,0:0:0:0:
256,304,325013,1,0,3:0:0:0:
224,320,325099,1,0,3:0:0:0:
142,361,325184,2,0,B|129:332|131:291,1,50.6999984527588,0|0,1:0|0:0,0:0:0:0:
161,169,325356,2,0,B|163:148|151:120,1,50.6999984527588,0|0,1:0|0:0,0:0:0:0:
64,40,325527,1,0,3:0:0:0:
56,48,325613,1,0,3:0:0:0:
48,56,325699,1,0,3:0:0:0:
40,64,325784,1,0,3:0:0:0:
32,72,325870,6,0,B|54:149|6:149|32:224,1,152.099995358276,2|0,0:0|0:0,0:0:0:0:
26,299,326213,2,0,P|51:294|75:286,1,50.6999984527588,0|0,1:0|0:0,0:0:0:0:
190,173,326384,1,0,0:0:0:0:
190,173,326556,1,0,0:0:0:0:
143,247,326727,2,0,P|167:255|191:259,1,50.6999984527588,0|0,1:0|0:0,0:0:0:0:
255,312,326899,2,0,B|239:336|239:336|151:352,1,101.399996905518,0|0,0:0|0:0,0:0:0:0:
190,173,327242,2,0,B|206:149|206:149|294:133,1,101.399996905518
386,280,327584,5,0,0:0:0:0:
363,80,327756,1,0,3:0:0:0:
339,56,327842,1,0,3:0:0:0:
315,40,327927,1,0,3:0:0:0:
130,119,328099,1,0,0:0:0:0:
256,219,328270,5,0,3:0:0:0:
286,211,328356,1,0,3:0:0:0:
317,203,328442,1,0,3:0:0:0:
345,212,328527,1,0,3:0:0:0:
375,207,328613,6,0,P|426:205|474:190,1,101.399996905518,2|0,0:0|0:0,0:0:0:0:
401,76,328956,1,0,1:0:0:0:
316,293,329127,1,0,0:0:0:0:
284,83,329299,1,0,0:0:0:0:
228,224,329470,2,0,P|230:254|236:280,1,50.6999984527588,0|0,1:0|0:0,0:0:0:0:
241,357,329642,2,0,P|284:332|315:292,1,101.399996905518,0|0,0:0|0:0,0:0:0:0:
215,137,329984,2,0,P|172:164|141:203,1,101.399996905518,0|0,0:0|0:0,0:0:0:0:
111,332,330327,5,0,0:0:0:0:
69,181,330499,1,0,3:0:0:0:
80,147,330584,1,0,3:0:0:0:
107,125,330670,1,0,3:0:0:0:
228,224,330842,1,0,0:0:0:0:
145,58,331013,2,0,P|121:51|96:50,3,50.6999984527588,0|0|0|0,0:0|0:0|0:0|0:0,0:0:0:0:
219,35,331356,6,0,B|226:72|210:104|210:104|234:136|234:136|222:175,1,152.099995358276,2|0,0:0|0:0,0:0:0:0:
208,288,331699,2,0,L|184:240,1,50.6999984527588,0|0,1:0|0:0,0:0:0:0:
107,125,331870,1,0,0:0:0:0:
220,318,332042,1,0,0:0:0:0:
11,215,332213,2,0,P|20:238|35:263,1,50.6999984527588,0|0,1:0|0:0,0:0:0:0:
116,369,332384,2,0,P|68:341|6:340,1,101.399996905518
132,183,332727,2,0,P|108:231|116:287,1,101.399996905518,0|0,0:0|0:0,0:0:0:0:
264,346,333070,5,0,0:0:0:0:
249,226,333242,1,0,3:0:0:0:
217,234,333327,1,0,3:0:0:0:
185,242,333413,1,0,3:0:0:0:
186,121,333584,1,0,0:0:0:0:
326,202,333756,2,0,P|327:227|326:252,3,50.6999984527588,0|0|0|0,0:0|0:0|0:0|0:0,0:0:0:0:
401,182,334099,6,0,P|351:128|278:140,1,152.099995358276,2|0,0:0|0:0,0:0:0:0:
185,120,334442,2,0,L|150:85,1,50.6999984527588,0|0,1:0|0:0,0:0:0:0:
81,18,334613,1,0,0:0:0:0:
242,36,334784,1,0,0:0:0:0:
184,120,334956,2,0,L|120:152,1,50.6999984527588,0|0,1:0|0:0,0:0:0:0:
35,245,335127,2,0,B|41:216|72:178|72:178|47:182,1,101.399996905518
116,243,335470,6,0,P|163:262|213:259,2,101.399996905518,8|0|0,0:0|0:0|0:0,0:0:0:0:
280,320,335984,1,0,0:0:0:0:
176,186,336156,1,0,0:0:0:0:
402,105,336327,6,0,B|360:112|330:141|330:141|267:130|267:130|243:174|176:187|176:187|234:132|299:195,1,380.250014505387,4|0,0:0|0:0,0:0:0:0:
