osu file format v14

[General]
AudioFilename: delay.mp3
AudioLeadIn: 0
PreviewTime: 113356
Countdown: 0
SampleSet: Soft
StackLeniency: 0.4
Mode: 0
LetterboxInBreaks: 0
WidescreenStoryboard: 0

[Editor]
Bookmarks: 80442,102384,113356,146270,205095,227038,232524,248981,336752
DistanceSpacing: 0.5
BeatDivisor: 4
GridSize: 32
TimelineZoom: 3.699999

[Metadata]
Title:Delay Order
TitleUnicode:Delay Order
Artist:Nhato
ArtistUnicode:Nhato
Creator:Shizuku-
Version:Time Manipulation
Source:東方花映塚 ~ Phantasmagoria of Flower View.
Tags:Touhou Kaeidzuka Project Sakuya Syrufit White clear Syrup Comfiture Flowering Night フラワリングナイト c82 Drumstep Izayoi Theme Comiket82
BeatmapID:1228509
BeatmapSetID:580214

[Difficulty]
HPDrainRate:5
CircleSize:3.9
OverallDifficulty:8.7
ApproachRate:9.2
SliderMultiplier:1.6
SliderTickRate:1

[Events]
//Background and Video events
0,0,"2a41b10357b12d0720cee502a45a7fdc.jpg",0,0
//Break Periods
2,113556,129243
//Storyboard Layer 0 (Background)
//Storyboard Layer 1 (Fail)
//Storyboard Layer 2 (Pass)
//Storyboard Layer 3 (Foreground)
//Storyboard Sound Samples

[TimingPoints]
3642,342.857142857143,4,2,2,50,1,0
25584,-55.5555555555556,4,2,1,50,0,0
46156,-100,4,1,2,50,0,0
47527,-133.333333333333,4,1,1,50,0,0
49584,-50,4,1,1,50,0,0
50099,-50,4,2,1,5,0,0
50270,-55.5555555555556,4,2,1,50,0,0
80442,-71.4285714285714,4,2,1,50,0,0
91413,-100,4,1,1,50,0,0
102384,-200,4,1,1,50,0,0
113356,-200,4,2,1,5,0,0
133927,-100,4,1,2,35,0,0
135299,-100,4,1,2,35,0,0
146270,368.098159509202,4,2,1,35,1,0
147742,382.165605095541,4,2,1,35,1,0
149270,408.163265306122,4,2,1,35,1,0
150902,413.793103448276,4,2,1,35,1,0
152557,413.793103448276,4,2,1,35,1,0
153384,434.782608695652,4,2,1,35,1,0
154036,377.358490566038,4,2,1,35,1,0
154224,480,4,2,1,35,1,0
154464,419.58041958042,4,2,1,35,1,0
154885,382.165605095541,4,2,1,35,1,0
155458,357.142857142857,4,2,1,35,1,0
156049,342.857142857143,4,2,1,35,1,0
156563,344.827586206897,4,2,1,35,1,0
157252,-66.6666666666667,4,2,1,35,0,0
157378,327.868852459016,4,2,1,35,1,0
157541,-83.3333333333333,4,2,1,35,0,0
158197,312.5,4,2,1,35,1,0
158197,-83.3333333333333,4,2,1,35,0,0
158896,223.048327137546,4,2,1,35,1,0
158979,-100,4,2,1,10,0,0
159509,363.636363636364,4,2,1,5,1,0
159872,319.148936170213,4,2,1,5,1,0
160350,431.654676258993,4,2,1,5,1,0
161210,342.856425253742,4,1,1,80,1,0
161210,-55.5555555555556,4,1,1,80,0,0
183152,-200,4,1,1,50,0,0
183838,-55.5555555555556,4,1,1,50,0,0
192067,-100,4,2,1,50,0,0
192667,-100,4,2,1,5,0,0
192752,-100,4,2,1,50,0,0
193009,-100,4,2,1,5,0,0
193095,-100,4,2,1,50,0,0
193352,-100,4,2,1,5,0,0
193438,-100,4,2,1,50,0,0
194038,-100,4,2,1,5,0,0
194124,-200,4,1,0,50,0,0
195752,-200,4,2,0,5,0,0
195838,-100,4,1,1,50,0,0
196181,-55.5555555555556,4,1,1,50,0,0
196867,-55.5555555555556,4,1,1,50,0,0
205095,-1000,4,1,1,50,0,0
205695,-1000,4,2,1,5,0,0
205781,-83.3333333333333,4,1,1,40,0,0
210581,-1000,4,1,1,40,0,0
211181,-1000,4,2,1,5,0,0
211267,-83.3333333333333,4,1,1,40,0,0
216067,-1000,4,1,1,40,0,0
216667,-1000,4,2,1,5,0,0
216752,-83.3333333333333,4,1,1,40,0,0
221552,-1000,4,1,1,40,0,0
222152,-1000,4,2,1,5,0,0
222238,-83.3333333333333,4,1,1,40,0,0
227038,-200,4,1,1,50,0,0
232524,-200,4,1,1,20,0,0
238009,-133.333333333333,4,1,1,20,0,0
239381,-133.333333333333,4,1,1,25,0,0
240752,-133.333333333333,4,1,1,30,0,0
242124,-133.333333333333,4,1,1,35,0,0
243495,-117.647058823529,4,1,1,40,0,0
244866,-133.333333333333,4,1,1,45,0,0
246238,-100,4,1,1,50,0,0
247609,-100,4,1,1,55,0,0
248981,-133.333333333333,4,1,1,50,0,0
251038,-50,4,1,1,50,0,0
251553,-100,4,2,1,5,0,0
251724,-55.5555555555556,4,2,1,50,0,0
281895,-71.4285714285714,4,2,1,55,0,0
292866,-100,4,1,1,55,0,0
303838,-133.333333333333,4,1,1,50,0,0
314809,-55.5555555555556,4,2,1,50,0,0
335381,-55.5555555555556,4,1,2,50,0,0
336666,-55.5555555555556,4,2,2,5,0,0
336752,-83.3333333333333,4,2,1,55,0,0

[Colours]
Combo1 : 168,64,238
Combo2 : 119,80,235

[HitObjects]
366,59,3641,6,0,P|387:98|385:151,1,80,2|0,0:0|0:0,0:0:0:0:
467,151,3984,2,0,P|443:188|396:213,1,80,0|0,0:0|0:0,0:0:0:0:
437,284,4327,2,0,P|392:282|347:254,1,80,0|0,0:0|0:0,0:0:0:0:
307,325,4670,2,0,P|286:285|287:233,1,80,0|0,0:0|0:0,0:0:0:0:
304,173,5013,6,0,P|247:180|215:218,1,80,2|0,0:0|0:0,0:0:0:0:
172,137,5356,2,0,P|149:189|166:236,1,80,0|0,0:0|0:0,0:0:0:0:
75,233,5699,2,0,P|109:278|158:287,1,80,0|0,0:0|0:0,0:0:0:0:
110,365,6042,2,0,P|167:358|199:320,1,80,0|0,0:0|0:0,0:0:0:0:
225,276,6384,6,0,L|228:191,1,80,2|0,0:0|0:0,0:0:0:0:
77,153,6727,2,0,L|74:238,1,80,0|0,0:0|0:0,0:0:0:0:
322,180,7070,1,0,0:0:0:0:
322,180,7242,1,0,0:0:0:0:
174,57,7413,2,0,L|171:142,1,80,0|0,0:0|0:0,0:0:0:0:
225,276,7756,6,0,P|275:288|324:279,1,80,2|0,0:0|0:0,0:0:0:0:
406,246,8099,2,0,P|441:208|458:161,1,80,0|0,0:0|0:0,0:0:0:0:
436,56,8442,1,0,0:0:0:0:
436,56,8613,1,0,0:0:0:0:
325,193,8784,2,0,L|240:190,1,80,0|0,0:0|0:0,0:0:0:0:
189,33,9127,5,2,0:0:0:0:
135,121,9299,1,0,0:0:0:0:
246,191,9470,2,0,P|240:142|205:88,1,80,0|0,0:0|0:0,0:0:0:0:
104,43,9813,1,0,0:0:0:0:
59,168,9984,1,0,0:0:0:0:
170,208,10156,2,0,P|225:202|258:180,1,80,0|0,0:0|0:0,0:0:0:0:
326,93,10499,6,0,L|333:-2,1,80,2|0,0:0|0:0,0:0:0:0:
221,106,10842,1,0,0:0:0:0:
221,106,11013,1,0,0:0:0:0:
289,249,11184,2,0,L|282:154,1,80,0|0,0:0|0:0,0:0:0:0:
394,262,11527,1,0,0:0:0:0:
394,262,11699,1,0,0:0:0:0:
231,320,11870,5,2,0:0:0:0:
231,320,12042,1,0,0:0:0:0:
157,180,12213,2,0,P|151:232|134:265,1,80,0|0,0:0|0:0,0:0:0:0:
289,249,12556,2,0,P|270:214|263:151,1,80,0|0,0:0|0:0,0:0:0:0:
307,12,12899,2,0,P|285:41|269:98,1,80,0|0,0:0|0:0,0:0:0:0:
262,174,13242,5,2,0:0:0:0:
346,135,13413,1,0,0:0:0:0:
197,116,13584,2,0,P|176:165|187:221,1,80,0|0,0:0|0:0,0:0:0:0:
55,90,13927,2,0,P|107:83|150:46,1,80
258,45,14270,2,0,P|310:52|353:89,1,80,0|0,0:0|0:0,0:0:0:0:
438,163,14613,5,0,1:0:0:0:
438,163,14784,1,0,0:0:0:0:
417,329,14956,1,8,0:0:0:0:
273,369,15127,1,0,0:0:0:0:
259,342,15213,1,0,0:0:0:0:
249,313,15299,1,0,1:0:0:0:
244,284,15384,1,0,0:0:0:0:
244,254,15470,1,0,1:0:0:0:
317,117,15642,2,0,P|325:160|319:215,1,80,8|0,0:0|0:0,0:0:0:0:
249,313,15984,5,0,1:0:0:0:
249,313,16156,1,0,0:0:0:0:
246,147,16327,1,8,0:0:0:0:
363,241,16499,1,0,0:0:0:0:
390,229,16584,1,0,0:0:0:0:
414,211,16670,1,0,0:0:0:0:
434,189,16756,1,0,0:0:0:0:
449,163,16842,1,0,1:0:0:0:
317,117,17013,1,8,1:2:0:0:
290,112,17099,1,0,1:0:0:0:
268,127,17184,1,0,1:0:0:0:
240,127,17270,1,0,1:0:0:0:
215,138,17356,5,0,1:0:0:0:
76,66,17527,1,0,0:0:0:0:
204,17,17699,1,8,0:0:0:0:
129,172,17870,1,0,0:0:0:0:
120,200,17956,1,0,0:0:0:0:
117,230,18042,1,0,1:0:0:0:
119,260,18127,1,0,0:0:0:0:
125,289,18213,1,0,1:0:0:0:
215,380,18384,2,0,L|227:299,1,80,8|0,0:0|0:0,0:0:0:0:
129,172,18727,5,0,1:0:0:0:
246,99,18899,1,0,0:0:0:0:
237,235,19070,1,8,0:0:0:0:
69,309,19242,1,0,0:0:0:0:
95,295,19327,1,0,0:0:0:0:
125,289,19413,1,0,0:0:0:0:
154,290,19499,1,0,0:0:0:0:
183,299,19584,1,0,1:0:0:0:
345,223,19756,1,8,1:2:0:0:
374,232,19842,1,0,1:0:0:0:
401,219,19927,1,0,1:0:0:0:
433,227,20013,1,0,1:0:0:0:
459,213,20099,5,0,1:0:0:0:
322,143,20270,1,0,0:0:0:0:
352,309,20442,1,8,0:0:0:0:
472,126,20613,1,0,0:0:0:0:
468,112,20699,1,0,0:0:0:0:
461,95,20784,2,0,P|438:91|420:94,1,40,0|0,1:0|0:0,0:0:0:0:
345,223,20956,1,0,1:0:0:0:
451,292,21127,2,0,L|460:192,1,80,8|0,0:0|0:0,0:0:0:0:
345,223,21470,5,0,1:0:0:0:
395,381,21642,1,0,0:0:0:0:
459,213,21813,1,8,0:0:0:0:
277,278,21984,1,0,0:0:0:0:
247,275,22070,1,0,0:0:0:0:
217,273,22156,2,0,L|163:268,1,40
53,291,22327,1,0,1:0:0:0:
75,153,22499,1,8,1:2:0:0:
102,163,22584,1,0,1:0:0:0:
131,157,22670,1,0,1:0:0:0:
155,140,22756,1,0,1:0:0:0:
166,113,22842,5,0,1:0:0:0:
256,187,23013,1,0,0:0:0:0:
311,60,23184,1,8,0:0:0:0:
325,296,23356,5,0,0:0:0:0:
295,293,23442,1,0,0:0:0:0:
265,291,23527,1,0,1:0:0:0:
235,288,23613,1,0,0:0:0:0:
205,286,23699,1,0,1:0:0:0:
120,216,23870,2,0,P|89:245|77:296,1,80,8|0,0:0|0:0,0:0:0:0:
182,363,24213,5,0,1:0:0:0:
199,203,24384,1,0,0:0:0:0:
77,279,24556,1,8,0:0:0:0:
275,384,24727,1,0,0:0:0:0:
292,359,24813,1,0,0:0:0:0:
298,330,24899,1,0,0:0:0:0:
293,301,24984,1,0,0:0:0:0:
276,276,25070,1,0,1:0:0:0:
65,159,25242,1,8,1:2:0:0:
47,183,25327,1,0,1:0:0:0:
54,212,25413,1,0,1:0:0:0:
48,242,25499,1,0,1:0:0:0:
77,279,25584,6,0,B|157:277|157:277|189:308|189:308|280:305,1,215.999993408203,0|0,1:0|0:0,0:0:0:0:
362,244,25927,2,0,L|367:149,1,71.9999978027344,8|0,0:0|0:0,0:0:0:0:
255,96,26099,6,0,B|251:174|251:174|283:230|283:230|280:304,1,215.999993408203,0|0,1:0|0:0,0:0:0:0:
153,376,26442,2,0,L|59:378,1,71.9999978027344,0|0,1:0|0:0,0:0:0:0:
13,289,26613,5,8,0:0:0:0:
41,286,26699,1,0,0:0:0:0:
69,283,26784,1,0,0:0:0:0:
97,280,26870,1,0,0:0:0:0:
158,229,26956,6,0,B|197:275|197:275|288:282|288:282|341:236,1,215.999993408203,0|0,1:0|0:0,0:0:0:0:
202,136,27299,2,0,L|246:193,1,71.9999978027344,8|0,0:0|0:0,0:0:0:0:
327,328,27470,6,0,B|288:282|288:282|197:275|197:275|144:321,1,215.999993408203,0|0,1:0|0:0,0:0:0:0:
196,378,27813,2,0,L|287:385,1,71.9999978027344,0|0,1:0|0:0,0:0:0:0:
409,342,27984,5,8,0:0:0:0:
418,314,28070,1,0,1:0:0:0:
366,252,28156,5,0,1:0:0:0:
375,224,28242,1,0,1:0:0:0:
327,158,28327,6,0,B|256:140|256:140|189:167|189:167|103:144,1,215.999993408203,0|0,1:0|0:0,0:0:0:0:
36,117,28670,2,0,L|46:196,1,71.9999978027344,8|0,0:0|0:0,0:0:0:0:
157,229,28842,6,0,B|189:167|189:167|256:140|256:140|327:158,1,215.999993408203,0|0,1:0|0:0,0:0:0:0:
366,252,29184,2,0,L|448:239,1,71.9999978027344,0|0,1:0|0:0,0:0:0:0:
376,353,29356,5,8,0:0:0:0:
347,347,29442,1,0,0:0:0:0:
319,340,29527,1,0,0:0:0:0:
290,333,29613,1,0,0:0:0:0:
214,311,29699,6,0,B|160:280|160:280|133:248|133:248|115:137,1,215.999993408203,0|0,1:0|0:0,0:0:0:0:
204,124,30042,2,0,L|218:211,1,71.9999978027344,8|0,0:0|0:0,0:0:0:0:
44,353,30213,6,0,B|66:308|66:308|121:311|121:311|161:280|161:280|213:310,1,215.999993408203,0|0,1:0|0:0,0:0:0:0:
240,384,30556,2,0,L|324:375,1,71.9999978027344,0|0,1:0|0:0,0:0:0:0:
383,329,30727,5,8,0:0:0:0:
377,300,30813,1,0,1:0:0:0:
334,242,30899,5,0,1:0:0:0:
328,213,30984,1,0,1:0:0:0:
289,150,31070,6,0,B|332:178|332:178|389:169|389:169|425:138|425:138|430:78,1,215.999993408203,0|0,1:0|0:0,0:0:0:0:
360,20,31413,2,0,B|322:22|322:22|293:42,1,71.9999978027344,8|0,0:0|0:0,0:0:0:0:
252,226,31584,6,0,B|305:230|305:230|351:203|351:203|369:153|369:153|352:99,1,215.999993408203,0|0,1:0|0:0,0:0:0:0:
218,64,31927,2,0,B|178:57|178:57|131:72,1,71.9999978027344,0|0,1:0|0:0,0:0:0:0:
24,138,32099,5,8,0:0:0:0:
52,134,32184,1,0,0:0:0:0:
80,140,32270,1,0,0:0:0:0:
106,152,32356,1,0,0:0:0:0:
156,218,32442,6,0,B|144:171|144:171|182:131|182:131|238:158|238:158|235:208,1,215.999993408203,0|0,1:0|0:0,0:0:0:0:
184,301,32784,2,0,B|149:304|149:304|115:294,1,71.9999978027344,8|0,0:0|0:0,0:0:0:0:
54,185,32956,6,0,B|114:146|114:146|188:158|188:158|235:208,1,215.999993408203,0|0,1:0|0:0,0:0:0:0:
254,341,33299,2,0,L|335:334,1,71.9999978027344,0|0,1:0|0:0,0:0:0:0:
423,210,33470,5,8,0:0:0:0:
395,202,33556,1,0,1:0:0:0:
313,222,33642,5,0,1:0:0:0:
285,213,33727,1,0,1:0:0:0:
200,200,33813,6,0,B|200:263|200:263|221:302|221:302|262:330|262:330|323:331,1,215.999993408203,0|0,1:0|0:0,0:0:0:0:
465,328,34156,2,0,B|447:295|447:295|410:305,1,71.9999978027344,8|0,0:0|0:0,0:0:0:0:
321,330,34327,6,0,B|237:330|237:330|197:303|197:303|113:303,1,215.999993408203,0|0,1:0|0:0,0:0:0:0:
32,367,34670,2,0,B|15:337|15:337|12:301,1,71.9999978027344,0|0,1:0|0:0,0:0:0:0:
38,223,34842,5,8,0:0:0:0:
40,193,34927,1,0,0:0:0:0:
45,165,35013,1,0,0:0:0:0:
48,135,35099,1,0,0:0:0:0:
30,52,35184,6,0,B|22:98|22:98|72:127|72:127|121:93|121:93|103:44,1,215.999993408203,0|0,1:0|0:0,0:0:0:0:
27,194,35527,2,0,B|65:208|65:208|114:199,1,71.9999978027344,8|0,0:0|0:0,0:0:0:0:
239,114,35699,6,0,B|195:58|195:58|103:44|103:44|120:93,1,215.999993408203,0|0,1:0|0:0,0:0:0:0:
167,168,36042,2,0,B|175:204|175:204|167:238,1,71.9999978027344,0|0,1:0|0:0,0:0:0:0:
131,351,36213,5,8,0:0:0:0:
159,349,36299,1,0,1:0:0:0:
235,314,36384,5,0,1:0:0:0:
263,312,36470,1,0,1:0:0:0:
332,266,36556,6,0,B|445:258|445:258|360:183,1,215.999993408203,0|0,1:0|0:0,0:0:0:0:
278,120,36899,2,0,B|261:157|261:157|256:190,1,71.9999978027344,8|0,0:0|0:0,0:0:0:0:
238,294,37070,6,0,B|306:290|306:290|331:267|331:267|444:258,1,215.999993408203,0|0,1:0|0:0,0:0:0:0:
460,377,37413,2,0,B|488:354|488:354|496:319,1,71.9999978027344,0|0,1:0|0:0,0:0:0:0:
385,210,37584,5,8,0:0:0:0:
369,242,37670,1,0,0:0:0:0:
363,277,37756,1,0,0:0:0:0:
367,313,37842,1,0,0:0:0:0:
446,380,37927,6,0,B|396:355|396:355|367:317|367:317|332:348|332:348|267:357,1,215.999993408203,0|0,1:0|0:0,0:0:0:0:
119,308,38270,2,0,B|90:288|90:288|77:253,1,71.9999978027344,8|0,0:0|0:0,0:0:0:0:
52,384,38442,6,0,B|96:350|96:350|118:308|118:308|158:332|158:332|224:330,1,215.999993408203,0|0,1:0|0:0,0:0:0:0:
152,168,38784,2,0,B|142:197|142:197|152:260,1,71.9999978027344,0|0,1:0|0:0,0:0:0:0:
283,384,38956,5,8,0:0:0:0:
310,361,39042,1,0,1:0:0:0:
367,313,39127,5,0,1:0:0:0:
394,290,39213,1,0,1:0:0:0:
477,283,39299,6,0,B|451:219|451:219|368:206|368:206|307:259,1,215.999993408203,0|0,1:0|0:0,0:0:0:0:
397,384,39642,2,0,B|432:381|432:381|462:356,1,71.9999978027344,8|0,0:0|0:0,0:0:0:0:
320,247,39813,6,0,B|343:292|343:292|226:301|226:301|241:248,1,215.999993408203,0|0,1:0|0:0,0:0:0:0:
251,177,40156,2,0,B|272:145|272:145|294:171,1,71.9999978027344,0|0,1:0|0:0,0:0:0:0:
225,300,40327,5,8,0:0:0:0:
189,301,40413,1,0,0:0:0:0:
153,303,40499,1,0,0:0:0:0:
117,305,40584,1,0,0:0:0:0:
59,243,40670,6,0,B|33:291|33:291|49:358|49:358|100:386|100:386|186:369,1,215.999993408203,0|0,1:0|0:0,0:0:0:0:
314,285,41013,2,0,B|281:271|281:271|242:273,1,71.9999978027344,8|0,0:0|0:0,0:0:0:0:
119,305,41184,6,0,B|169:298|169:298|206:265|206:265|245:290|245:290|316:285,1,215.999993408203,0|0,1:0|0:0,0:0:0:0:
382,330,41527,2,0,L|471:318,1,71.9999978027344,0|0,1:0|0:0,0:0:0:0:
462,217,41699,5,8,0:0:0:0:
457,189,41785,1,0,1:0:0:0:
367,228,41870,5,0,1:0:0:0:
372,256,41956,1,0,1:0:0:0:
453,320,42042,6,0,B|377:308|377:308|321:333|321:333|245:319,1,215.999993408203,0|0,1:0|0:0,0:0:0:0:
160,221,42384,2,0,P|121:221|90:238,1,71.9999978027344,8|0,0:0|0:0,0:0:0:0:
50,371,42556,6,0,B|118:347|118:347|143:318|143:318|183:334|183:334|244:319,1,215.999993408203,0|0,1:0|0:0,0:0:0:0:
337,250,42899,2,0,B|348:214|348:214|348:174,1,71.9999978027344,0|0,1:0|0:0,0:0:0:0:
271,123,43070,5,8,0:0:0:0:
269,151,43156,1,0,0:0:0:0:
267,179,43242,1,0,0:0:0:0:
265,207,43327,1,0,0:0:0:0:
256,284,43413,6,0,B|282:335|282:335|379:341|379:341|420:286,1,215.999993408203,0|0,1:0|0:0,0:0:0:0:
337,250,43756,2,0,B|330:179,1,71.9999978027344,8|0,0:0|0:0,0:0:0:0:
425,80,43927,6,0,B|440:230|440:230|415:290,1,215.999993408203,0|0,1:0|0:0,0:0:0:0:
493,384,44270,2,0,B|505:351|505:351|500:313,1,71.9999978027344,0|0,1:0|0:0,0:0:0:0:
415,290,44442,5,8,0:0:0:0:
386,295,44527,1,0,1:0:0:0:
303,265,44613,5,0,1:0:0:0:
274,270,44699,1,0,1:0:0:0:
195,225,44784,6,0,B|42:246|42:246|93:206,1,215.999993408203,0|0,1:0|0:0,0:0:0:0:
179,154,45127,2,0,L|196:231,1,71.9999978027344,8|0,0:0|0:0,0:0:0:0:
219,328,45299,6,0,B|176:334|176:334|116:307|116:307|90:258|90:258|90:207,1,215.999993408203,0|0,1:0|0:0,0:0:0:0:
177,69,45642,2,0,P|221:81|254:115,1,71.9999978027344,0|0,1:0|0:0,0:0:0:0:
292,197,45813,5,8,0:0:0:0:
320,204,45899,1,0,0:0:0:0:
347,211,45984,1,0,0:0:0:0:
375,218,46070,1,0,0:0:0:0:
425,276,46156,6,0,B|446:247|446:247|452:178,1,80,2|0,1:0|0:0,0:0:0:0:
377,81,46499,1,8,0:0:0:0:
345,269,46670,2,0,L|432:276,1,80,2|0,0:0|0:0,0:0:0:0:
482,160,47013,1,8,0:0:0:0:
341,94,47184,1,2,0:0:0:0:
348,133,47270,1,2,0:0:0:0:
343,172,47356,1,2,0:0:0:0:
323,207,47442,1,2,0:0:0:0:
251,241,47527,6,0,B|192:222|192:222|97:248,1,120.000004577637,0|0,0:0|0:0,0:0:0:0:
142,348,48042,2,0,B|117:293|117:293|142:216,1,120.000004577637
251,241,48556,2,0,L|251:303,1,60.0000022888184
40,282,48899,6,0,P|47:211|83:160,1,120.000004577637
140,113,49413,1,0,0:0:0:0:
140,113,49756,2,0,B|181:92|223:108|223:108|279:122|300:181|243:220|179:203|175:141|223:108|223:108|265:75|300:80,1,400
343,189,50270,6,0,P|292:253|164:246,1,215.999993408203,4|0,1:0|0:0,0:0:0:0:
46,161,50613,2,0,L|50:90,1,71.9999978027344,8|0,0:0|0:0,0:0:0:0:
146,39,50784,6,0,B|141:114|141:114|170:169|170:169|166:248,1,215.999993408203,0|0,1:0|0:0,0:0:0:0:
54,341,51127,2,0,P|31:315|20:281,1,71.9999978027344,0|0,1:0|0:0,0:0:0:0:
11,167,51299,5,8,0:0:0:0:
39,164,51384,1,0,0:0:0:0:
67,158,51470,1,0,0:0:0:0:
95,153,51556,1,0,0:0:0:0:
175,138,51642,6,0,B|232:163|276:122|276:122|241:63|191:68,1,215.999993408203,0|0,1:0|0:0,0:0:0:0:
114,188,51984,2,0,P|171:220|229:224,1,71.9999978027344,8|0,0:0|0:0,0:0:0:0:
378,124,52156,6,0,B|326:96|276:122|276:122|232:163|175:138,1,215.999993408203,0|0,1:0|0:0,0:0:0:0:
96,78,52499,2,0,L|20:95,1,71.9999978027344,0|0,1:0|0:0,0:0:0:0:
23,200,52670,5,8,0:0:0:0:
51,195,52756,1,0,1:0:0:0:
125,237,52842,5,0,1:0:0:0:
153,232,52927,1,0,1:0:0:0:
224,267,53013,6,0,B|245:219|220:150|140:153|140:153|150:181|141:214,1,215.999993408203,0|0,1:0|0:0,0:0:0:0:
84,373,53356,2,0,P|68:340|64:299,1,71.9999978027344,8|0,0:0|0:0,0:0:0:0:
48,149,53527,6,0,B|123:170|123:170|144:197|144:197|175:183|175:183|257:205,1,215.999993408203,0|0,1:0|0:0,0:0:0:0:
176,354,53870,2,0,B|163:324|163:324|187:264,1,71.9999978027344,0|0,1:0|0:0,0:0:0:0:
242,201,54042,5,8,0:0:0:0:
276,210,54127,1,0,0:0:0:0:
311,220,54213,1,0,0:0:0:0:
346,229,54299,1,0,0:0:0:0:
349,308,54384,6,0,P|420:256|351:149,1,215.999993408203,0|0,1:0|0:0,0:0:0:0:
279,101,54727,2,0,P|265:139|283:203,1,71.9999978027344,8|0,0:0|0:0,0:0:0:0:
349,308,54899,6,0,B|287:298|266:243|266:243|238:293|171:288,1,215.999993408203,0|0,1:0|0:0,0:0:0:0:
71,247,55242,2,0,L|69:203,3,35.9999989013672,0|0|0|0,1:0|1:0|1:0|1:0,0:0:0:0:
27,163,55413,5,8,0:0:0:0:
59,178,55499,1,0,1:0:0:0:
94,181,55584,1,0,1:0:0:0:
128,169,55670,1,0,1:0:0:0:
191,100,55756,6,0,B|197:204|197:204|231:225|231:225|225:153,1,215.999993408203,0|0,1:0|0:0,0:0:0:0:
109,124,56099,2,0,L|113:223,1,71.9999978027344,8|0,0:0|0:0,0:0:0:0:
150,277,56270,6,0,B|207:313|207:313|286:297|286:297|322:239,1,215.999993408203,0|0,1:0|0:0,0:0:0:0:
225,153,56613,2,0,B|230:224,1,71.9999978027344,0|0,1:0|0:0,0:0:0:0:
342,333,56784,6,0,B|285:297|285:297|206:313|206:313|170:371,1,215.999993408203,8|0,0:0|0:0,0:0:0:0:
105,314,57127,6,0,B|153:242|153:242|280:214,1,215.999993408203,0|0,1:0|0:0,0:0:0:0:
262,376,57470,2,0,B|250:305,1,71.9999978027344,8|0,0:0|0:0,0:0:0:0:
100,107,57642,6,0,B|148:209|47:208|109:322,1,215.999993408203,0|0,1:0|0:0,0:0:0:0:
262,376,57984,2,0,B|332:364,1,71.9999978027344,0|0,1:0|0:0,0:0:0:0:
424,323,58156,5,8,0:0:0:0:
464,264,58242,5,8,0:0:0:0:
465,193,58327,5,8,0:0:0:0:
425,134,58413,5,8,0:0:0:0:
360,107,58499,6,0,B|195:125|195:125|246:88,1,215.999993408203,4|0,1:0|0:0,0:0:0:0:
235,95,58842,2,0,P|246:133|238:188,1,71.9999978027344,8|0,0:0|0:0,0:0:0:0:
93,218,59013,6,0,B|195:190|191:284|298:237,1,215.999993408203,0|0,1:0|0:0,0:0:0:0:
360,107,59356,2,0,P|359:70|347:30,1,71.9999978027344,0|0,1:0|0:0,0:0:0:0:
379,228,59527,5,8,0:0:0:0:
414,225,59613,1,0,0:0:0:0:
447,211,59699,1,0,0:0:0:0:
472,185,59784,1,0,0:0:0:0:
485,117,59870,6,0,B|456:198|473:290|473:290|485:260|502:244,1,215.999993408203,0|0,1:0|0:0,0:0:0:0:
490,373,60213,2,0,P|449:368|399:332,1,71.9999978027344,8|0,0:0|0:0,0:0:0:0:
333,199,60384,6,0,B|358:246|428:269|479:241|479:241|469:260|473:289,1,215.999993408203,0|0,1:0|0:0,0:0:0:0:
319,299,60727,2,0,P|285:269|257:219,1,71.9999978027344,0|0,1:0|0:0,0:0:0:0:
247,136,60899,5,8,0:0:0:0:
231,103,60984,1,0,1:0:0:0:
161,129,61070,5,0,1:0:0:0:
145,96,61155,1,0,1:0:0:0:
71,116,61242,6,0,B|113:85|172:78|214:93|214:93|179:99|161:131,1,215.999993408203,0|0,1:0|0:0,0:0:0:0:
146,230,61584,2,0,P|175:207|207:198,1,71.9999978027344,8|0,0:0|0:0,0:0:0:0:
289,196,61756,6,0,B|253:202|237:231|237:231|198:197|187:143|215:91,1,215.999993408203,0|0,1:0|0:0,0:0:0:0:
252,26,62099,2,0,P|278:50|292:85,1,71.9999978027344,0|0,1:0|0:0,0:0:0:0:
288,197,62270,5,8,0:0:0:0:
291,232,62356,1,0,0:0:0:0:
293,267,62442,1,0,0:0:0:0:
298,302,62527,1,0,0:0:0:0:
340,360,62613,6,0,P|232:331|256:244,1,215.999993408203,0|0,1:0|0:0,0:0:0:0:
361,185,62956,2,0,L|353:261,1,71.9999978027344,8|0,0:0|0:0,0:0:0:0:
454,270,63127,6,0,B|399:258|351:287|351:287|248:250,1,215.999993408203,0|0,1:0|0:0,0:0:0:0:
156,222,63470,2,0,P|152:271|177:316,1,71.9999978027344,0|0,1:0|0:0,0:0:0:0:
216,369,63642,5,8,0:0:0:0:
251,363,63727,1,0,1:0:0:0:
302,293,63813,5,0,1:0:0:0:
337,287,63899,1,0,1:0:0:0:
381,217,63984,6,0,B|431:258|414:315|414:315|459:272|513:283,1,215.999993408203,0|0,1:0|0:0,0:0:0:0:
337,287,64327,2,0,P|304:251|297:205,1,71.9999978027344,8|0,0:0|0:0,0:0:0:0:
415,313,64499,6,0,B|360:311|328:363|328:363|260:354|241:295,1,215.999993408203,0|0,1:0|0:0,0:0:0:0:
310,159,64842,2,0,P|308:199|288:243,1,71.9999978027344,0|0,1:0|0:0,0:0:0:0:
243,301,65013,5,8,0:0:0:0:
206,302,65099,1,0,0:0:0:0:
170,304,65184,1,0,0:0:0:0:
134,306,65270,1,0,0:0:0:0:
83,225,65356,6,0,B|155:243|167:168|239:201|239:201|214:196|189:209,1,215.999993408203,0|0,1:0|0:0,0:0:0:0:
204,302,65699,2,0,P|236:318|271:311,1,71.9999978027344,8|0,0:0|0:0,0:0:0:0:
310,234,65870,6,0,B|312:177|267:141|267:141|208:151|189:208,1,215.999993408203,0|0,1:0|0:0,0:0:0:0:
272,312,66213,2,0,P|315:321|358:301,1,71.9999978027344,0|0,1:0|0:0,0:0:0:0:
387,232,66384,5,8,0:0:0:0:
380,195,66470,1,0,1:0:0:0:
270,173,66556,5,0,1:0:0:0:
246,202,66642,1,0,1:0:0:0:
272,312,66727,6,0,B|373:279|372:379|476:337,1,215.999993408203,0|0,1:0|0:0,0:0:0:0:
512,241,67070,2,0,P|518:207|505:173,1,71.9999978027344,8|0,0:0|0:0,0:0:0:0:
352,158,67241,6,0,B|352:188|331:221|331:221|376:224|418:250|418:250|424:224|437:210|437:210|415:189,1,215.999993408203,0|0,1:0|0:0,0:0:0:0:
313,80,67584,2,0,P|271:84|237:111,1,71.9999978027344,0|0,1:0|0:0,0:0:0:0:
192,169,67756,5,8,0:0:0:0:
184,204,67842,1,0,0:0:0:0:
191,238,67927,1,0,0:0:0:0:
207,269,68013,1,0,0:0:0:0:
300,301,68099,6,0,B|249:275|212:298|212:298|202:292|202:292|201:304|201:304|190:296|190:296|144:324|89:291,1,215.999993408203,0|0,1:0|0:0,0:0:0:0:
11,292,68442,2,0,L|17:221,1,71.9999978027344,8|0,0:0|0:0,0:0:0:0:
100,90,68613,6,0,B|93:166|93:166|115:216|115:216|105:322,1,215.999993408203,0|0,1:0|0:0,0:0:0:0:
11,292,68956,2,0,L|17:221,1,71.9999978027344,0|0,1:0|0:0,0:0:0:0:
94,166,69127,5,8,0:0:0:0:
124,169,69213,1,0,1:0:0:0:
192,208,69299,5,0,1:0:0:0:
202,236,69384,1,0,1:0:0:0:
192,320,69470,6,0,B|293:287|296:380|399:329,1,215.999993408203,4|0,1:0|0:0,0:0:0:0:
446,251,69813,2,0,P|450:211|415:168,1,71.9999978027344,8|0,0:0|0:0,0:0:0:0:
310,195,69984,6,0,P|292:267|408:325,1,215.999993408203,0|0,1:0|0:0,0:0:0:0:
482,300,70327,2,0,L|496:227,1,71.9999978027344,0|0,1:0|0:0,0:0:0:0:
460,130,70499,5,8,0:0:0:0:
424,135,70584,1,0,0:0:0:0:
388,140,70670,1,0,0:0:0:0:
352,145,70756,1,0,0:0:0:0:
264,138,70842,6,0,B|264:198|312:223|312:223|263:243|263:317,1,215.999993408203,0|0,1:0|0:0,0:0:0:0:
325,382,71184,2,0,L|409:369,1,71.9999978027344,8|0,0:0|0:0,0:0:0:0:
465,285,71356,6,0,B|390:293|390:293|354:278|354:278|327:300|327:300|262:316,1,215.999993408203,0|0,1:0|0:0,0:0:0:0:
163,266,71699,2,0,L|80:284,1,71.9999978027344,0|0,1:0|0:0,0:0:0:0:
69,370,71870,5,8,0:0:0:0:
100,363,71956,1,0,1:0:0:0:
183,369,72042,5,0,1:0:0:0:
214,362,72127,1,0,1:0:0:0:
239,285,72213,6,0,P|314:253|281:338,1,215.999993408203,0|0,1:0|0:0,0:0:0:0:
184,341,72556,2,0,P|169:318|166:263,1,71.9999978027344,8|0,0:0|0:0,0:0:0:0:
278,129,72727,6,0,B|236:235|322:235|286:337,1,215.999993408203,0|0,1:0|0:0,0:0:0:0:
183,369,73070,2,0,L|86:355,1,71.9999978027344,0|0,1:0|0:0,0:0:0:0:
66,259,73242,5,8,0:0:0:0:
101,265,73327,1,0,0:0:0:0:
136,260,73413,1,0,0:0:0:0:
164,237,73499,1,0,0:0:0:0:
201,163,73584,6,0,B|250:135|304:132|304:132|349:170|361:220,1,215.999993408203,0|0,1:0|0:0,0:0:0:0:
377,319,73927,2,0,P|339:318|297:292,1,71.9999978027344,8|0,0:0|0:0,0:0:0:0:
461,152,74099,6,0,P|452:270|358:320,1,215.999993408203,0|0,1:0|0:0,0:0:0:0:
236,272,74442,2,0,P|197:273|160:292,1,71.9999978027344,0|0,1:0|0:0,0:0:0:0:
119,376,74613,5,8,0:0:0:0:
154,382,74699,1,0,1:0:0:0:
219,344,74784,5,0,1:0:0:0:
254,338,74870,1,0,1:0:0:0:
310,384,74956,6,0,B|364:351|366:293|366:293|417:315|466:286,1,215.999993408203,0|0,1:0|0:0,0:0:0:0:
512,196,75299,2,0,L|516:113,1,71.9999978027344,8|0,0:0|0:0,0:0:0:0:
400,86,75470,6,0,B|431:153|431:153|428:218|428:218|465:286,1,215.999993408203,0|0,1:0|0:0,0:0:0:0:
492,378,75813,2,0,P|452:364|415:368,1,71.9999978027344,0|0,1:0|0:0,0:0:0:0:
332,370,75984,5,8,0:0:0:0:
296,364,76070,1,0,0:0:0:0:
260,357,76156,1,0,0:0:0:0:
224,350,76242,1,0,0:0:0:0:
141,376,76327,6,0,P|196:343|101:323,1,215.999993408203,0|0,1:0|0:0,0:0:0:0:
105,306,76670,2,0,P|162:308|191:299,1,71.9999978027344,8|0,0:0|0:0,0:0:0:0:
261,264,76842,6,0,B|339:256|339:256|388:278|388:278|472:269,1,215.999993408203,0|0,1:0|0:0,0:0:0:0:
404,360,77184,2,0,B|365:360|365:360|322:336,1,71.9999978027344,0|0,1:0|0:0,0:0:0:0:
261,264,77356,5,8,0:0:0:0:
225,266,77442,1,0,1:0:0:0:
155,319,77527,5,0,1:0:0:0:
119,321,77613,1,0,1:0:0:0:
46,358,77699,6,0,B|204:349|204:349|138:308,1,215.999993408203,0|0,1:0|0:0,0:0:0:0:
154,318,78042,2,0,P|148:342|165:390,1,71.9999978027344,8|0,0:0|0:0,0:0:0:0:
299,276,78213,6,0,B|213:257|154:316|154:316|202:299|239:332,1,215.999993408203,0|0,1:0|0:0,0:0:0:0:
307,357,78556,2,0,L|381:349,1,71.9999978027344,0|0,1:0|0:0,0:0:0:0:
454,285,78727,5,8,0:0:0:0:
454,249,78813,1,0,0:0:0:0:
455,213,78899,1,0,0:0:0:0:
456,177,78984,1,0,0:0:0:0:
449,95,79070,6,0,B|399:127|399:127|399:215|399:215|456:176,1,215.999993408203,0|0,1:0|0:0,0:0:0:0:
505,46,79413,2,0,P|466:23|435:23,1,71.9999978027344,8|0,0:0|0:0,0:0:0:0:
360,47,79584,6,0,B|295:90|295:90|266:98|266:98|261:126|261:126|194:191,1,215.999993408203,0|0,1:0|0:0,0:0:0:0:
110,256,79927,2,0,L|104:298,3,35.9999989013672,0|0|0|0,1:0|1:0|1:0|1:0,0:0:0:0:
109,317,80099,5,8,0:0:0:0:
161,365,80184,5,8,0:0:0:0:
230,384,80270,5,8,0:0:0:0:
300,368,80356,5,8,0:0:0:0:
355,329,80442,6,0,P|397:282|396:128,1,223.999993164063,4|0,1:0|0:0,0:0:0:0:
298,59,80956,1,0,1:0:0:0:
225,181,81127,2,0,L|347:189,1,111.999996582031,8|0,0:0|0:0,0:0:0:0:
370,267,81384,2,0,L|248:275,1,111.999996582031,0|0,1:0|0:0,0:0:0:0:
222,353,81642,2,0,L|283:357,1,55.9999982910157,0|0,1:0|0:0,0:0:0:0:
370,267,81813,2,0,B|336:183|401:183|364:104,1,167.999994873047,0|0,1:0|0:0,0:0:0:0:
300,56,82156,1,0,1:0:0:0:
95,55,82327,1,0,1:0:0:0:
300,56,82499,2,0,B|262:70|244:110|253:149|253:149|212:208|132:176|134:101|173:65|229:78,1,335.999989746094,8|0,0:0|0:0,0:0:0:0:
365,252,83184,6,0,B|331:228|324:194|324:194|281:263|197:261,1,223.999993164063,0|0,1:0|0:0,0:0:0:0:
94,214,83699,1,0,1:0:0:0:
315,302,83870,2,0,P|332:255|320:187,1,111.999996582031,8|0,0:0|0:0,0:0:0:0:
323,194,84127,2,0,P|297:210|273:217,1,55.9999982910157,0|0,1:0|0:0,0:0:0:0:
227,371,84384,1,0,1:0:0:0:
227,371,84556,2,0,B|253:318|307:304|307:304|380:308|406:354,1,223.999993164063,0|0,1:0|0:0,0:0:0:0:
426,201,85070,1,0,1:0:0:0:
426,201,85242,2,0,B|387:218|336:208|308:180|308:180|278:152|225:148|196:192|211:253|277:260|294:214,1,335.999989746094,8|0,0:0|0:0,0:0:0:0:
345,48,85927,6,0,P|382:131|430:53,1,223.999993164063,0|0,1:0|0:0,0:0:0:0:
255,78,86442,1,0,1:0:0:0:
309,188,86613,2,0,L|434:178,1,111.999996582031,8|0,0:0|0:0,0:0:0:0:
420,179,86870,2,0,P|392:203|375:242,1,55.9999982910157,0|0,1:0|0:0,0:0:0:0:
348,344,87127,1,0,1:0:0:0:
512,328,87299,6,0,P|499:276|450:252,1,111.999996582031,0|0,1:0|0:0,0:0:0:0:
423,262,87556,1,0,1:0:0:0:
401,279,87642,1,0,0:0:0:0:
256,199,87813,1,0,1:0:0:0:
177,229,87984,2,0,B|191:257|211:271|211:271|206:295|206:295|238:311|256:368|256:368|274:311|306:295|306:295|301:271|301:271|321:257|335:229,1,335.999989746094,8|0,0:0|0:0,0:0:0:0:
255,198,88670,6,0,B|231:145|176:130|131:160|131:160|93:148|93:148|65:165,1,223.999993164063,0|0,1:0|0:0,0:0:0:0:
39,277,89184,1,0,1:0:0:0:
170,368,89356,2,0,L|184:254,1,111.999996582031,8|0,0:0|0:0,0:0:0:0:
272,137,89613,2,0,L|286:251,1,111.999996582031,0|0,1:0|0:0,0:0:0:0:
369,377,89870,2,0,L|376:320,1,55.9999982910157,0|0,1:0|0:0,0:0:0:0:
420,231,90042,2,0,B|357:224|357:224|320:203|320:203|277:215|277:215|204:206,1,223.999993164063,0|0,1:0|0:0,0:0:0:0:
92,192,90556,1,0,1:0:0:0:
265,384,90727,2,0,P|297:353|304:270,1,111.999996582031,8|0,0:0|0:0,0:0:0:0:
160,186,91070,2,0,P|128:217|121:300,1,111.999996582031,0|0,0:0|0:0,0:0:0:0:
265,384,91413,6,0,P|321:357|416:336,1,160,2|0,0:0|0:0,0:0:0:0:
506,313,91927,2,0,P|477:235|483:147,1,160,0|0,0:0|0:0,0:0:0:0:
501,79,92356,1,0,0:0:0:0:
501,79,92442,1,2,0:0:0:0:
380,153,92613,1,2,0:0:0:0:
250,60,92784,2,0,P|336:41|413:81,1,160,2|0,0:0|0:0,0:0:0:0:
240,142,93299,2,0,P|183:108|183:16,1,160,2|0,0:0|0:0,0:0:0:0:
48,32,93813,2,0,P|65:75|60:115,1,80
22,203,94156,6,0,P|95:229|206:217,1,160,2|0,0:0|0:0,0:0:0:0:
284,131,94670,2,0,P|264:192|300:302,1,160,2|0,0:0|0:0,0:0:0:0:
351,342,95099,1,0,0:0:0:0:
351,342,95184,1,2,0:0:0:0:
475,301,95356,1,2,0:0:0:0:
440,124,95527,6,0,P|361:142|268:125,1,160,2|0,0:0|0:0,0:0:0:0:
85,155,96042,2,0,P|165:165|246:212,1,160,2|0,0:0|0:0,0:0:0:0:
355,334,96556,2,0,P|312:336|275:326,1,80
156,248,96899,6,0,P|66:258|25:205,1,160,2|0,0:0|0:0,0:0:0:0:
102,188,97413,2,0,P|74:265|129:330,1,160,2|0,0:0|0:0,0:0:0:0:
133,332,97842,1,0,0:0:0:0:
152,335,97927,1,2,0:0:0:0:
158,244,98099,1,0,0:0:0:0:
158,244,98270,2,0,B|248:223|220:281|318:257,1,160,2|0,0:0|0:0,0:0:0:0:
399,219,98784,2,0,P|417:146|373:53,1,160,2|0,0:0|0:0,0:0:0:0:
399,219,99299,2,0,P|438:236|483:232,1,80,0|0,0:0|0:0,0:0:0:0:
354,138,99642,6,0,B|288:131|288:131|260:138|260:138|176:124,1,160,2|0,0:0|0:0,0:0:0:0:
140,218,100156,2,0,B|206:211|206:211|234:218|234:218|318:204,1,160,2|0,0:0|0:0,0:0:0:0:
357,153,100584,1,0,0:0:0:0:
357,153,100670,1,2,0:0:0:0:
192,135,100842,1,0,0:0:0:0:
200,288,101013,2,0,B|238:296|238:296|377:268,1,160,2|0,0:0|0:0,0:0:0:0:
161,218,101527,2,0,B|135:246|135:246|89:381,1,160,2|0,0:0|0:0,0:0:0:0:
96,361,102384,6,0,P|71:307|19:283,1,120,2|2,0:0|0:0,0:0:0:0:
57,192,103242,1,0,0:0:0:0:
57,192,103327,1,0,0:0:0:0:
57,192,103413,1,2,0:0:0:0:
166,258,103584,1,0,0:0:0:0:
148,54,103756,2,0,P|137:123|141:180,1,120,2|2,0:0|0:0,0:0:0:0:
148,54,105127,6,0,P|137:123|141:180,1,120,2|2,0:0|0:0,0:0:0:0:
164,298,105984,1,0,0:0:0:0:
164,298,106070,1,0,0:0:0:0:
164,298,106156,1,2,0:0:0:0:
353,272,106327,1,0,0:0:0:0:
257,117,106499,2,0,B|240:177|278:232,1,120,2|2,0:0|0:0,0:0:0:0:
257,117,107870,6,0,B|240:177|278:232,1,120,2|2,0:0|0:0,0:0:0:0:
369,304,108727,1,0,0:0:0:0:
369,304,108813,1,0,0:0:0:0:
369,304,108899,1,2,0:0:0:0:
181,348,109070,1,0,0:0:0:0:
80,212,109242,2,0,P|135:204|196:224,1,120,2|2,0:0|0:0,0:0:0:0:
80,212,110613,6,0,P|135:204|196:224,1,120,2|2,0:0|0:0,0:0:0:0:
271,286,111470,1,0,0:0:0:0:
271,286,111556,1,0,0:0:0:0:
271,286,111642,1,2,0:0:0:0:
457,204,111813,1,0,0:0:0:0:
344,81,111984,2,0,P|340:143|345:208,1,120,2|2,0:0|0:0,0:0:0:0:
256,192,112584,12,0,113356,0:0:0:0:
256,192,129813,12,0,133842,0:0:0:0:
211,340,133927,5,2,0:0:0:0:
340,303,134099,1,2,0:0:0:0:
226,203,134270,1,8,0:0:0:0:
299,379,134442,5,2,0:0:0:0:
321,207,134613,1,2,0:0:0:0:
169,264,134784,1,8,0:0:0:0:
252,360,134956,5,0,0:0:0:0:
291,356,135042,1,0,0:0:0:0:
331,353,135127,1,0,0:0:0:0:
371,349,135213,1,0,0:0:0:0:
411,346,135299,5,0,0:0:0:0:
336,266,135470,1,0,0:0:0:0:
394,155,135642,1,8,0:0:0:0:
411,341,135813,5,0,0:0:0:0:
298,319,135984,1,0,0:0:0:0:
243,220,136156,1,8,0:0:0:0:
372,95,136327,5,0,0:0:0:0:
374,134,136413,1,0,0:0:0:0:
373,174,136499,1,0,0:0:0:0:
369,214,136584,1,0,0:0:0:0:
363,254,136670,6,0,L|353:298,1,40,0|0,0:0|0:0,0:0:0:0:
291,354,136842,1,0,0:0:0:0:
161,323,137013,1,8,0:0:0:0:
363,254,137184,5,0,0:0:0:0:
383,147,137356,1,0,0:0:0:0:
345,56,137527,1,8,0:0:0:0:
162,167,137699,5,0,0:0:0:0:
196,187,137784,1,0,0:0:0:0:
235,195,137870,1,0,0:0:0:0:
274,192,137956,1,0,0:0:0:0:
311,177,138042,6,0,L|325:124,1,40,0|0,0:0|0:0,0:0:0:0:
350,269,138213,1,0,0:0:0:0:
241,101,138384,1,8,0:0:0:0:
149,261,138556,5,0,0:0:0:0:
323,230,138727,1,0,0:0:0:0:
262,375,138899,1,8,0:0:0:0:
130,293,139070,5,0,0:0:0:0:
169,295,139156,1,0,0:0:0:0:
209,297,139242,1,0,0:0:0:0:
249,299,139327,1,0,0:0:0:0:
289,301,139413,5,0,0:0:0:0:
332,207,139584,1,0,0:0:0:0:
286,106,139756,1,8,0:0:0:0:
289,301,139927,5,0,0:0:0:0:
392,309,140099,1,0,0:0:0:0:
471,231,140270,1,8,0:0:0:0:
363,57,140442,5,0,0:0:0:0:
354,96,140527,1,0,0:0:0:0:
349,135,140613,1,0,0:0:0:0:
346,175,140699,1,0,0:0:0:0:
348,215,140784,5,0,0:0:0:0:
460,358,140956,1,0,0:0:0:0:
510,198,141127,1,8,0:0:0:0:
348,215,141299,5,0,0:0:0:0:
246,208,141470,1,0,0:0:0:0:
159,150,141642,1,8,0:0:0:0:
51,287,141813,5,0,0:0:0:0:
88,273,141899,1,0,0:0:0:0:
128,268,141984,1,0,0:0:0:0:
167,273,142070,1,0,0:0:0:0:
204,287,142156,6,0,P|233:312|254:343,1,40,0|0,0:0|0:0,0:0:0:0:
99,376,142327,1,0,0:0:0:0:
134,225,142499,1,8,0:0:0:0:
291,353,142670,5,0,0:0:0:0:
409,270,142842,1,0,0:0:0:0:
249,193,143013,1,8,0:0:0:0:
208,343,143184,5,0,0:0:0:0:
246,334,143270,1,0,0:0:0:0:
286,330,143356,1,0,0:0:0:0:
326,331,143442,1,0,0:0:0:0:
366,336,143527,6,0,L|415:353,1,40,0|0,0:0|0:0,0:0:0:0:
489,255,143699,1,0,0:0:0:0:
327,190,143870,1,8,0:0:0:0:
351,338,144042,5,0,0:0:0:0:
227,245,144213,1,0,0:0:0:0:
408,219,144384,1,8,0:0:0:0:
259,339,144556,5,0,0:0:0:0:
219,340,144642,1,0,0:0:0:0:
179,334,144727,1,0,0:0:0:0:
141,322,144813,1,0,0:0:0:0:
106,303,144899,5,0,0:0:0:0:
231,204,145070,1,0,0:0:0:0:
74,144,145242,1,8,0:0:0:0:
183,324,145413,5,0,0:0:0:0:
197,193,145584,1,0,0:0:0:0:
243,86,145756,1,8,0:0:0:0:
422,144,145927,5,0,0:0:0:0:
460,156,146013,1,0,0:0:0:0:
460,196,146099,1,0,0:0:0:0:
421,208,146184,1,0,0:0:0:0:
398,176,146270,6,0,P|366:151|328:145,1,80,4|0,0:0|0:0,0:0:0:0:
335,305,146638,2,0,P|340:264|326:228,1,80
242,213,147006,1,0,0:0:0:0:
247,329,147190,1,0,0:0:0:0:
130,335,147374,1,0,0:0:0:0:
125,218,147558,1,0,0:0:0:0:
308,121,147742,6,0,P|358:123|383:138,1,80,2|0,0:0|0:0,0:0:0:0:
408,218,148124,1,0,0:0:0:0:
408,218,148315,1,0,0:0:0:0:
261,270,148506,2,0,L|266:171,1,80,2|0,0:0|0:0,0:0:0:0:
124,74,148888,2,0,L|129:173,1,80
261,270,149270,6,0,L|256:171,1,80,2|0,0:0|0:0,0:0:0:0:
256,110,149678,1,0,0:0:0:0:
256,110,149882,1,0,0:0:0:0:
465,36,150086,6,0,L|460:135,1,80,2|0,0:0|0:0,0:0:0:0:
460,196,150494,1,0,0:0:0:0:
460,196,150698,1,0,0:0:0:0:
376,309,150902,6,0,P|415:302|454:316,2,80,2|0|2,0:0|0:0|0:0,0:0:0:0:
258,250,151522,1,0,0:0:0:0:
455,235,151729,2,0,L|452:323,1,80,2|0,0:0|0:0,0:0:0:0:
389,128,152143,6,0,L|321:114,1,60,2|0,0:0|0:0,0:0:0:0:
394,116,152350,2,0,L|326:102,1,60,2|0,0:0|0:0,0:0:0:0:
205,168,152557,6,0,P|250:153|275:158,1,60,2|0,0:0|0:0,0:0:0:0:
215,183,152763,2,0,P|260:168|285:173,1,60,0|0,0:0|0:0,0:0:0:0:
288,301,152970,6,0,P|252:269|244:245,1,60,2|0,0:0|0:0,0:0:0:0:
299,292,153177,2,0,P|263:260|255:236,1,60,2|0,0:0|0:0,0:0:0:0:
347,166,153384,6,0,P|337:212|320:231,1,60,2|0,0:0|0:0,0:0:0:0:
362,165,153601,2,0,P|352:211|335:230,1,60,2|0,0:0|0:0,0:0:0:0:
180,244,153818,1,0,0:0:0:0:
271,169,154036,1,0,0:0:0:0:
330,301,154224,5,0,0:0:0:0:
234,338,154464,2,0,L|162:328,1,60,2|0,0:0|0:0,0:0:0:0:
224,353,154673,2,0,L|152:343,1,60,2|0,0:0|0:0,0:0:0:0:
204,254,154885,6,0,L|277:243,1,60,2|0,0:0|0:0,0:0:0:0:
209,244,155076,2,0,L|268:235,1,60,2|0,0:0|0:0,0:0:0:0:
215,233,155267,2,0,L|287:223,1,60,2|0,0:0|0:0,0:0:0:0:
129,265,155458,6,0,P|107:290|97:328,1,60,2|0,0:0|0:0,0:0:0:0:
123,257,155636,2,0,P|101:282|91:320,1,60,2|0,0:0|0:0,0:0:0:0:
119,248,155815,2,0,P|97:273|87:311,1,60,2|0,0:0|0:0,0:0:0:0:
247,363,156049,1,0,0:0:0:0:
320,234,156220,6,0,L|326:172,1,60,2|0,0:0|0:0,0:0:0:0:
336,225,156391,2,0,L|342:163,1,60,2|0,0:0|0:0,0:0:0:0:
351,221,156563,2,0,L|357:159,1,60,2|0,0:0|0:0,0:0:0:0:
246,261,156735,6,0,P|270:296|301:311,1,60
237,272,156907,2,0,P|261:307|292:322,1,60
227,286,157080,2,0,P|251:321|282:336,1,60
218,297,157252,2,0,P|242:332|273:347,1,60
361,333,157378,5,2,0:0:0:0:
320,162,157541,6,0,L|320:243,1,71.9999978027344
332,155,157705,2,0,L|332:236,1,71.9999978027344
344,147,157869,2,0,L|344:228,1,71.9999978027344
355,141,158033,2,0,L|355:222,1,71.9999978027344
180,168,158197,6,0,L|250:127,1,71.9999978027344,2|0,0:0|0:0,0:0:0:0:
171,158,158353,2,0,L|241:117,1,71.9999978027344,2|0,0:0|0:0,0:0:0:0:
163,147,158509,2,0,L|233:106,1,71.9999978027344,2|0,0:0|0:0,0:0:0:0:
156,137,158665,2,0,L|226:96,1,71.9999978027344,2|0,0:0|0:0,0:0:0:0:
268,220,158822,1,2,0:0:0:0:
251,270,158896,1,2,0:0:0:0:
243,296,158951,2,0,L|234:323,19,20
256,192,159509,12,0,160350,0:0:0:0:
105,115,161210,6,0,B|168:89|224:131|224:131|301:198|396:166|426:92|391:21|317:-6|248:37|256:98|292:137,1,503.999984619141,2|0,0:0|2:0,0:0:0:0:
421,188,161895,2,2,P|332:238|205:211,1,215.999993408203,8|0,0:1|2:1,0:1:0:0:
180,139,162238,6,2,P|146:170|129:213,1,71.9999978027344,0|0,0:1|2:1,0:1:0:0:
392,195,162409,2,2,P|405:238|398:284,1,71.9999978027344,0|0,0:1|2:1,0:1:0:0:
188,69,162581,6,2,P|189:114|170:157,1,71.9999978027344,0|0,0:1|2:1,0:1:0:0:
423,132,162752,2,2,P|398:171|393:216,1,71.9999978027344,2|0,0:1|2:1,0:1:0:0:
143,13,162924,6,2,P|176:45|190:78,1,71.9999978027344,2|0,0:1|2:1,0:1:0:0:
489,107,163095,2,2,P|443:118|414:139,1,71.9999978027344,0|0,0:1|2:1,0:1:0:0:
252,297,163267,6,0,L|314:63,1,215.999993408203,8|0,0:0|2:0,0:0:0:0:
206,124,163609,2,0,P|279:191|408:133,1,215.999993408203,0|0,0:0|2:0,0:0:0:0:
468,44,163952,6,0,L|450:149,1,71.9999978027344,2|0,0:0|2:0,0:0:0:0:
467,281,164124,5,0,0:0:0:0:
434,265,164209,1,0,0:0:0:0:
399,258,164295,1,0,0:0:0:0:
363,261,164381,1,0,0:0:0:0:
330,274,164467,1,0,0:0:0:0:
301,295,164552,1,0,0:0:0:0:
250,375,164638,6,0,L|180:363,1,71.9999978027344,8|0,0:0|2:0,0:0:0:0:
301,295,164809,5,0,0:0:0:0:
330,274,164895,1,0,0:0:0:0:
363,261,164981,1,0,0:0:0:0:
399,258,165067,1,0,0:0:0:0:
434,265,165152,1,0,0:0:0:0:
467,281,165238,1,0,0:0:0:0:
424,344,165324,6,0,P|386:359|337:349,1,71.9999978027344,2|0,0:0|2:0,0:0:0:0:
225,335,165495,5,0,0:0:0:0:
205,344,165581,2,0,P|220:293|238:260,1,71.9999978027344,2|0,0:0|2:0,0:0:0:0:
121,275,165752,5,0,0:0:0:0:
99,272,165838,2,0,P|137:236|169:216,1,71.9999978027344,2|0,0:0|2:0,0:0:0:0:
254,179,166009,6,0,L|365:171,1,71.9999978027344,8|0,0:0|2:0,0:0:0:0:
412,274,166181,5,0,0:0:0:0:
425,293,166267,2,0,L|314:285,1,71.9999978027344,8|0,0:0|2:0,0:0:0:0:
205,272,166438,5,0,0:0:0:0:
192,253,166524,2,0,L|303:261,1,71.9999978027344,8|0,0:0|2:0,0:0:0:0:
443,217,166695,6,0,B|317:177|348:241|183:344|127:220|144:85|286:74|349:171|301:241|245:264|175:250,1,503.999984619141,2|0,0:0|2:0,0:0:0:0:
160,341,167381,2,2,B|204:327|204:327|240:340|240:340|277:326|277:326|315:337|315:337|373:318,1,215.999993408203,8|0,0:1|2:1,0:1:0:0:
392,234,167724,5,2,0:3:0:0:
363,236,167809,1,2,0:3:0:0:
310,268,167895,5,2,0:3:0:0:
285,252,167981,1,2,0:3:0:0:
256,196,168067,5,2,0:3:0:0:
228,203,168152,1,2,0:3:0:0:
174,230,168238,5,2,0:3:0:0:
148,216,168324,1,2,0:3:0:0:
129,156,168409,5,10,0:3:0:0:
101,165,168495,1,2,0:3:0:0:
47,214,168581,5,2,0:3:0:0:
18,209,168667,1,2,0:3:0:0:
99,258,168752,6,0,B|247:204|226:354|367:296,1,287.999991210938,8|0,0:0|0:0,0:0:0:0:
367,295,169438,6,0,P|412:267|435:231,1,71.9999978027344,2|0,0:0|2:0,0:0:0:0:
461,150,169609,5,0,0:0:0:0:
428,166,169695,1,0,0:0:0:0:
392,174,169781,1,0,0:0:0:0:
355,174,169867,1,0,0:0:0:0:
320,163,169952,1,0,0:0:0:0:
290,141,170038,1,0,0:0:0:0:
216,85,170124,6,0,P|211:129|197:153,1,71.9999978027344,8|0,0:0|0:0,0:0:0:0:
150,240,170295,5,0,0:0:0:0:
194,215,170381,1,0,0:0:0:0:
243,204,170467,1,0,0:0:0:0:
292,211,170552,1,0,0:0:0:0:
335,236,170638,1,0,0:0:0:0:
364,277,170724,1,0,0:0:0:0:
404,375,170809,6,0,P|394:324|399:275,1,71.9999978027344,2|0,0:0|2:0,0:0:0:0:
357,178,170981,1,0,0:0:0:0:
341,164,171067,2,0,L|334:239,1,71.9999978027344,2|0,0:0|2:0,0:0:0:0:
169,283,171238,1,0,0:0:0:0:
185,297,171324,2,0,L|191:221,1,71.9999978027344,2|0,0:0|2:0,0:0:0:0:
110,107,171495,6,0,P|79:135|64:177,1,71.9999978027344,8|0,0:0|2:0,0:0:0:0:
235,185,171667,5,0,0:0:0:0:
235,171,171752,2,0,P|204:199|189:241,1,71.9999978027344,8|0,0:0|2:0,0:0:0:0:
371,173,171924,5,0,0:0:0:0:
383,166,172009,2,0,P|343:153|299:161,1,71.9999978027344,8|0,0:0|2:0,0:0:0:0:
192,320,172181,6,0,B|237:321|268:283|264:248|264:248|271:328|325:372|325:372|311:328|327:258|433:233|473:316|448:368|396:387|376:324,1,503.999984619141,2|0,0:0|2:0,0:0:0:0:
340,216,172867,2,2,B|397:198|444:221|444:221|430:161|456:114,1,215.999993408203,8|0,0:1|2:1,0:1:0:0:
494,38,173209,6,2,P|440:35|408:48,1,71.9999978027344,0|0,0:1|2:1,0:1:0:0:
213,113,173381,2,2,P|267:110|299:123,1,71.9999978027344,0|0,0:1|2:1,0:1:0:0:
431,289,173552,6,2,L|446:213,1,71.9999978027344,0|0,0:1|2:1,0:1:0:0:
213,113,173724,2,2,L|228:189,1,71.9999978027344,2|0,0:1|2:1,0:1:0:0:
487,119,173895,6,2,P|441:110|401:124,1,71.9999978027344,2|0,0:1|2:1,0:1:0:0:
253,355,174067,2,2,P|299:364|339:350,1,71.9999978027344,0|0,0:1|2:1,0:1:0:0:
335,167,174238,6,0,B|260:168|218:236|218:236|199:159|118:137,1,287.999991210938,8|0,0:0|0:0,0:0:0:0:
121,137,174924,6,0,P|173:150|213:140,1,71.9999978027344,2|0,0:0|2:0,0:0:0:0:
302,119,175095,5,0,0:0:0:0:
281,148,175181,1,0,0:0:0:0:
269,182,175267,1,0,0:0:0:0:
268,218,175352,1,0,0:0:0:0:
277,252,175438,1,0,0:0:0:0:
295,283,175524,1,0,0:0:0:0:
379,298,175609,6,0,P|400:318|376:316,1,71.9999978027344,8|0,0:0|2:0,0:0:0:0:
295,283,175781,5,0,0:0:0:0:
277,252,175867,1,0,0:0:0:0:
268,218,175952,1,0,0:0:0:0:
269,182,176038,1,0,0:0:0:0:
281,148,176124,1,0,0:0:0:0:
302,119,176209,1,0,0:0:0:0:
378,62,176295,6,0,L|372:134,1,71.9999978027344,2|0,0:0|2:0,0:0:0:0:
285,97,176467,5,0,0:0:0:0:
275,76,176552,2,0,L|281:148,1,71.9999978027344,2|0,0:0|2:0,0:0:0:0:
166,88,176724,5,0,0:0:0:0:
176,67,176809,2,0,L|170:139,1,71.9999978027344,2|0,0:0|2:0,0:0:0:0:
74,258,176981,6,0,P|122:248|158:262,1,71.9999978027344,8|0,0:0|2:0,0:0:0:0:
153,384,177152,5,0,0:0:0:0:
153,384,177238,2,0,P|120:347|114:309,1,71.9999978027344,8|0,0:0|2:0,0:0:0:0:
223,257,177409,5,0,0:0:0:0:
223,257,177495,2,0,P|207:303|177:327,1,71.9999978027344,8|0,0:0|2:0,0:0:0:0:
181,176,177667,6,0,B|233:155|289:176|305:235|305:235|314:282|287:324|287:324|287:213|406:206|436:297|376:354|339:336|326:301,1,503.999984619141,2|0,0:0|2:0,0:0:0:0:
370,176,178352,2,2,P|436:215|447:346,1,215.999993408203,8|0,0:1|0:1,0:1:0:0:
375,378,178695,5,2,0:3:0:0:
346,375,178781,1,2,0:3:0:0:
307,332,178867,5,2,0:3:0:0:
280,343,178952,1,2,0:3:0:0:
229,371,179038,5,2,0:3:0:0:
200,365,179124,1,2,0:3:0:0:
170,313,179209,5,2,0:3:0:0:
143,327,179295,1,2,0:3:0:0:
108,384,179381,5,10,0:3:0:0:
77,376,179467,1,2,0:3:0:0:
34,313,179552,5,2,0:3:0:0:
7,323,179638,1,2,0:3:0:0:
77,376,179724,6,0,B|131:320|82:257|82:257|28:188|78:104,1,287.999991210938,8|0,0:0|0:0,0:0:0:0:
74,110,180409,6,0,P|121:91|178:109,1,71.9999978027344,2|0,0:0|2:0,0:0:0:0:
219,141,180581,5,0,0:0:0:0:
254,135,180667,1,0,0:0:0:0:
289,131,180752,1,0,0:0:0:0:
324,127,180838,1,0,0:0:0:0:
359,123,180924,1,0,0:0:0:0:
394,119,181009,1,0,0:0:0:0:
481,199,181095,6,0,B|442:188|442:188|405:195,1,71.9999978027344,8|0,0:0|2:0,0:0:0:0:
347,266,181267,5,0,0:0:0:0:
302,243,181352,1,0,0:0:0:0:
251,239,181438,1,0,0:0:0:0:
202,253,181524,1,0,0:0:0:0:
154,267,181609,1,0,0:0:0:0:
104,256,181695,1,0,0:0:0:0:
42,184,181781,6,0,L|34:103,1,71.9999978027344,2|0,0:0|2:0,0:0:0:0:
161,28,181952,5,0,0:0:0:0:
189,20,182038,2,0,L|181:100,1,71.9999978027344,2|0,0:0|2:0,0:0:0:0:
311,170,182209,5,0,0:0:0:0:
283,178,182295,2,0,L|290:97,1,71.9999978027344,2|0,0:0|2:0,0:0:0:0:
409,53,182467,6,0,P|430:92|434:144,1,71.9999978027344,8|0,0:0|2:0,0:0:0:0:
413,208,182638,5,0,0:0:0:0:
399,233,182724,2,0,L|495:228,1,71.9999978027344,8|0,0:0|2:0,0:0:0:0:
347,338,182895,5,0,0:0:0:0:
333,363,182981,2,0,L|429:358,1,71.9999978027344,8|0,0:0|2:0,0:0:0:0:
224,252,183152,6,0,L|71:262,1,140,2|0,1:0|2:0,2:0:0:0:
84,261,183838,6,2,B|116:195|116:195|177:177|177:177|222:79,1,215.999993408203,8|0,0:1|2:1,0:1:0:0:
96,278,184181,2,2,B|127:211|127:211|188:193|188:193|233:95,1,215.999993408203,8|0,0:1|2:1,0:1:0:0:
128,56,184524,6,0,L|138:139,1,71.9999978027344,0|0,0:0|2:0,0:0:0:0:
182,273,184695,2,0,L|192:356,1,71.9999978027344,2|0,0:0|2:0,0:0:0:0:
221,122,184867,6,2,P|274:205|379:191,1,215.999993408203,2|0,0:1|2:1,0:1:0:0:
153,62,185209,6,2,P|146:158|462:207,1,503.999984619141,8|0,0:1|2:1,0:1:0:0:
477,115,185895,6,0,L|479:36,1,71.9999978027344,2|0,0:0|2:0,0:0:0:0:
320,101,186067,5,0,0:0:0:0:
345,125,186152,1,0,0:0:0:0:
359,157,186238,1,0,0:0:0:0:
361,193,186324,1,0,0:0:0:0:
351,227,186409,1,0,0:0:0:0:
328,255,186495,1,0,0:0:0:0:
230,283,186581,6,0,L|150:276,1,71.9999978027344,8|0,0:0|2:0,0:0:0:0:
328,255,186752,5,0,0:0:0:0:
351,227,186838,1,0,0:0:0:0:
361,193,186924,1,0,0:0:0:0:
359,157,187009,1,0,0:0:0:0:
345,125,187095,1,0,0:0:0:0:
320,101,187181,1,0,0:0:0:0:
224,54,187267,6,0,L|143:63,1,71.9999978027344,2|0,0:0|2:0,0:0:0:0:
129,222,187438,5,0,0:0:0:0:
108,215,187524,2,0,L|199:207,1,71.9999978027344,2|0,0:0|2:0,0:0:0:0:
262,125,187695,5,0,0:0:0:0:
283,132,187781,2,0,L|192:140,1,71.9999978027344,2|0,0:0|2:0,0:0:0:0:
178,307,187952,6,0,P|214:275|256:263,1,71.9999978027344,8|0,0:0|2:0,0:0:0:0:
386,253,188124,5,0,0:0:0:0:
386,253,188209,2,0,P|361:225|347:159,1,71.9999978027344,8|0,0:0|2:0,0:0:0:0:
390,42,188381,5,0,0:0:0:0:
390,42,188467,2,0,P|323:62|285:53,1,71.9999978027344,8|0,0:0|2:0,0:0:0:0:
121,20,188638,6,0,B|79:135|139:226|220:200|272:135|242:37|141:23|83:53|78:191|107:245|184:254,1,503.999984619141,2|0,0:0|2:0,0:0:0:0:
239,277,189324,6,2,P|213:179|113:172,1,215.999993408203,8|0,0:1|2:1,0:1:0:0:
46,222,189667,5,2,0:3:0:0:
58,247,189752,1,2,0:3:0:0:
128,269,189838,5,2,0:3:0:0:
142,244,189924,1,2,0:3:0:0:
210,253,190009,5,2,0:3:0:0:
215,281,190095,1,2,0:3:0:0:
282,297,190181,5,2,0:3:0:0:
298,273,190267,1,2,0:3:0:0:
359,282,190352,5,10,0:3:0:0:
367,309,190438,1,2,0:3:0:0:
436,316,190524,5,2,0:3:0:0:
458,298,190609,1,2,0:3:0:0:
512,328,190695,6,0,B|445:290|424:218|424:218|374:272|294:258,1,287.999991210938,8|0,0:0|0:0,0:0:0:0:
512,328,191381,5,0,0:0:0:0:
512,328,192067,6,0,B|477:259|407:236|407:236|339:267|324:337,1,280,2|0,0:0|2:0,0:0:0:0:
423,355,192752,6,0,L|402:203,1,120,2|0,0:0|2:0,0:0:0:0:
287,82,193095,6,0,P|287:144|238:215,1,120,2|0,0:0|2:0,0:0:0:0:
118,263,193438,6,0,P|190:333|152:241,1,280,2|0,0:0|2:0,0:0:0:0:
162,289,194124,6,0,B|214:316|257:281|257:281|304:253|356:263|395:283|397:339|372:369|320:382|283:353|286:315|302:294,1,380
357,244,195838,2,0,P|376:226|382:217,2,26.6666666666667
408,231,196009,2,0,P|394:212|384:185,1,40,0|0,1:0|2:0,0:0:0:0:
366,134,196181,5,8,0:0:0:0:
302,186,196267,1,8,0:0:0:0:
225,199,196352,1,8,0:0:0:0:
152,172,196438,1,8,0:0:0:0:
108,107,196524,5,8,0:0:0:0:
168,63,196609,1,8,0:0:0:0:
244,50,196695,1,8,0:0:0:0:
318,77,196781,1,8,0:0:0:0:
228,137,196867,6,0,P|212:169|208:205,1,71.9999978027344,2|0,0:0|2:0,0:0:0:0:
111,267,197038,5,0,0:0:0:0:
139,244,197124,1,0,0:0:0:0:
172,232,197209,1,0,0:0:0:0:
208,230,197295,1,0,0:0:0:0:
243,238,197381,1,0,0:0:0:0:
272,258,197467,1,0,0:0:0:0:
324,313,197552,6,0,P|317:348|321:384,1,71.9999978027344,8|0,0:0|0:0,0:0:0:0:
272,258,197724,5,0,0:0:0:0:
243,238,197809,1,0,0:0:0:0:
208,230,197895,1,0,0:0:0:0:
172,232,197981,1,0,0:0:0:0:
139,244,198067,1,0,0:0:0:0:
111,267,198152,1,0,0:0:0:0:
59,337,198238,6,0,P|29:290|40:223,1,71.9999978027344,2|0,0:0|2:0,0:0:0:0:
46,148,198409,5,0,0:0:0:0:
28,153,198495,2,0,P|78:176|133:166,1,71.9999978027344,2|0,0:0|2:0,0:0:0:0:
180,51,198667,5,0,0:0:0:0:
166,37,198752,2,0,P|171:91|207:134,1,71.9999978027344,2|0,0:0|2:0,0:0:0:0:
221,197,198924,6,0,L|326:184,1,71.9999978027344,8|0,0:0|2:0,0:0:0:0:
388,304,199095,5,0,0:0:0:0:
399,279,199181,2,0,L|321:293,1,71.9999978027344,8|0,0:0|2:0,0:0:0:0:
173,349,199352,5,0,0:0:0:0:
162,374,199438,2,0,L|240:360,1,71.9999978027344,8|0,0:0|2:0,0:0:0:0:
354,179,199609,6,0,B|297:166|270:113|270:113|263:233|129:247|33:170|91:23|219:17|236:116|169:143,1,503.999984619141,2|0,0:0|2:0,0:0:0:0:
44,120,200295,6,2,P|95:241|169:272,1,215.999993408203,8|0,0:1|0:1,0:1:0:0:
252,257,200638,5,2,0:3:0:0:
265,231,200724,1,2,0:3:0:0:
304,188,200809,5,2,0:3:0:0:
311,215,200895,1,2,0:3:0:0:
336,262,200981,5,2,0:3:0:0:
348,236,201067,1,2,0:3:0:0:
386,199,201152,5,2,0:3:0:0:
393,226,201238,1,2,0:3:0:0:
410,276,201324,5,10,0:3:0:0:
422,250,201409,1,2,0:3:0:0:
459,212,201495,5,2,0:3:0:0:
467,239,201581,1,2,0:3:0:0:
493,282,201667,6,0,L|177:257,1,287.999991210938,8|0,0:0|0:0,0:0:0:0:
205,259,202352,6,0,L|132:266,1,71.9999978027344,2|0,0:0|0:0,0:0:0:0:
70,349,202524,5,0,0:0:0:0:
103,361,202609,1,0,0:0:0:0:
138,367,202695,1,0,0:0:0:0:
173,360,202781,1,0,0:0:0:0:
203,340,202867,1,0,0:0:0:0:
225,312,202952,1,0,0:0:0:0:
217,225,203038,6,0,L|143:231,1,71.9999978027344,8|0,0:0|0:0,0:0:0:0:
75,326,203209,5,0,0:0:0:0:
125,321,203295,1,0,0:0:0:0:
175,316,203381,1,0,0:0:0:0:
225,312,203467,1,0,0:0:0:0:
274,308,203552,1,0,0:0:0:0:
324,304,203638,1,0,0:0:0:0:
370,213,203724,6,0,L|290:217,1,71.9999978027344,2|0,0:0|2:0,0:0:0:0:
126,213,203895,1,0,0:0:0:0:
145,230,203981,2,0,L|225:226,1,71.9999978027344,2|0,0:0|2:0,0:0:0:0:
157,65,204152,1,0,0:0:0:0:
138,82,204238,2,0,L|58:78,1,71.9999978027344,2|0,0:0|2:0,0:0:0:0:
285,98,204409,6,0,L|375:105,1,71.9999978027344,8|0,0:0|0:0,0:0:0:0:
414,199,204581,5,0,0:0:0:0:
422,220,204667,2,0,P|375:214|346:220,1,71.9999978027344,8|0,0:0|0:0,0:0:0:0:
216,364,204838,5,0,0:0:0:0:
208,343,204924,2,0,P|255:349|284:343,1,71.9999978027344,8|0,0:0|0:0,0:0:0:0:
160,256,205095,6,0,L|133:256,1,28,2|0,0:0|2:0,0:0:0:0:
160,256,205781,6,0,B|108:263|75:221,1,95.9999970703126,8|0,0:0|0:0,0:0:0:0:
36,115,206124,1,0,0:0:0:0:
36,115,206295,1,0,0:0:0:0:
160,80,206467,5,0,0:0:0:0:
160,80,206638,1,0,0:0:0:0:
255,175,206809,2,0,P|204:165|151:184,1,95.9999970703126,2|0,0:0|0:0,0:0:0:0:
35,237,207152,2,0,P|84:253|120:296,1,95.9999970703126,8|0,0:0|0:0,0:0:0:0:
261,379,207495,2,0,L|254:271,1,95.9999970703126,0|0,0:0|0:0,0:0:0:0:
152,210,207838,5,2,0:0:0:0:
152,210,208009,1,0,0:0:0:0:
261,73,208181,1,0,0:0:0:0:
261,73,208352,1,0,0:0:0:0:
101,23,208524,2,0,B|96:70|96:70|115:119,1,95.9999970703126,8|0,0:0|0:0,0:0:0:0:
273,165,208867,2,0,B|278:118|278:118|259:69,1,95.9999970703126,0|0,0:0|0:0,0:0:0:0:
49,187,209209,6,0,P|96:183|144:210,1,95.9999970703126,2|0,0:0|0:0,0:0:0:0:
191,268,209467,1,2,0:0:0:0:
191,268,209552,1,0,0:0:0:0:
84,259,209724,1,2,0:0:0:0:
158,99,209895,2,0,L|278:98,1,95.9999970703126,8|0,0:0|0:0,0:0:0:0:
352,185,210152,1,0,0:0:0:0:
352,185,210238,2,0,L|232:184,1,95.9999970703126,8|0,0:0|0:0,0:0:0:0:
193,222,210495,1,0,0:0:0:0:
191,233,210581,6,0,L|186:260,1,28,2|0,0:0|2:0,0:0:0:0:
191,233,211267,6,0,B|178:290|178:290|198:353,1,95.9999970703126,8|0,0:0|0:0,0:0:0:0:
287,363,211609,1,0,0:0:0:0:
287,363,211781,1,0,0:0:0:0:
248,173,211952,6,0,P|191:152|137:172,1,95.9999970703126,0|0,0:0|0:0,0:0:0:0:
90,220,212295,1,2,0:0:0:0:
90,220,212467,1,0,0:0:0:0:
253,268,212638,2,0,L|247:165,1,95.9999970703126,8|0,0:0|0:0,0:0:0:0:
104,7,212981,2,0,L|98:110,1,95.9999970703126,0|0,0:0|0:0,0:0:0:0:
90,264,213324,5,2,0:0:0:0:
90,264,213495,1,0,0:0:0:0:
174,193,213667,2,0,P|180:157|182:98,1,95.9999970703126,0|0,0:0|0:0,0:0:0:0:
73,221,214009,2,0,P|209:235|270:272,1,191.999994140625,8|0,0:0|0:0,0:0:0:0:
291,369,214524,1,0,0:0:0:0:
121,384,214695,6,0,L|118:276,1,95.9999970703126,2|0,0:0|0:0,0:0:0:0:
73,221,214952,1,2,0:0:0:0:
73,221,215038,1,0,0:0:0:0:
115,74,215209,1,2,0:0:0:0:
199,188,215381,2,0,B|244:201|244:201|293:200,1,95.9999970703126,8|0,0:0|0:0,0:0:0:0:
378,201,215638,1,0,0:0:0:0:
378,201,215724,2,0,B|344:233|344:233|320:276,1,95.9999970703126,8|0,0:0|0:0,0:0:0:0:
292,353,215981,1,0,0:0:0:0:
292,353,216067,6,0,L|264:350,1,28,2|0,0:0|2:0,0:0:0:0:
168,355,216752,6,0,L|270:349,1,95.9999970703126,8|0,0:0|0:0,0:0:0:0:
202,230,217095,2,0,L|107:225,1,95.9999970703126,0|0,0:0|0:0,0:0:0:0:
120,362,217438,5,0,0:0:0:0:
120,362,217609,1,0,0:0:0:0:
280,266,217781,2,0,P|287:221|265:166,1,95.9999970703126,2|0,0:0|0:0,0:0:0:0:
97,133,218124,2,0,P|90:178|112:233,1,95.9999970703126,8|0,0:0|0:0,0:0:0:0:
305,216,218467,2,0,P|296:171|256:127,1,95.9999970703126,0|0,0:0|0:0,0:0:0:0:
106,224,218809,6,0,B|144:207|212:206|179:269|261:261|291:238,1,191.999994140625,2|0,0:0|0:0,0:0:0:0:
369,202,219324,1,0,0:0:0:0:
261,84,219495,2,0,P|240:136|263:208,1,95.9999970703126,8|0,0:0|0:0,0:0:0:0:
408,213,219838,2,0,P|429:161|406:89,1,95.9999970703126,0|0,0:0|0:0,0:0:0:0:
261,84,220181,6,0,L|159:98,1,95.9999970703126,2|0,0:0|0:0,0:0:0:0:
102,164,220438,1,2,0:0:0:0:
102,164,220524,1,0,0:0:0:0:
217,248,220695,1,2,0:0:0:0:
282,69,220867,2,0,L|275:188,1,95.9999970703126,8|0,0:0|0:0,0:0:0:0:
321,238,221124,1,0,0:0:0:0:
321,238,221209,2,0,B|271:248|271:248|214:232,1,95.9999970703126,8|0,0:0|0:0,0:0:0:0:
219,314,221467,1,0,0:0:0:0:
219,314,221552,6,0,L|246:323,1,28,2|0,0:0|2:0,0:0:0:0:
219,314,222238,6,0,B|268:327|268:327|326:320,1,95.9999970703126,8|0,0:0|0:0,0:0:0:0:
329,178,222581,2,0,B|280:165|280:165|222:172,1,95.9999970703126,0|0,0:0|0:0,0:0:0:0:
149,277,222924,1,0,0:0:0:0:
323,258,223095,1,0,0:0:0:0:
124,263,223267,1,2,0:0:0:0:
329,234,223438,1,0,0:0:0:0:
134,339,223609,2,0,B|87:334|87:334|51:298,1,95.9999970703126,8|0,0:0|0:0,0:0:0:0:
77,124,223952,2,0,L|64:226,1,95.9999970703126
151,330,224295,5,2,0:0:0:0:
151,330,224467,1,0,0:0:0:0:
239,236,224638,2,0,P|196:206|125:205,1,95.9999970703126,0|0,0:0|0:0,0:0:0:0:
298,102,224981,2,0,P|293:154|328:216,1,95.9999970703126,8|0,0:0|0:0,0:0:0:0:
152,117,225324,2,0,P|199:95|235:34,1,95.9999970703126
77,151,225667,6,0,P|107:187|153:199,1,95.9999970703126,2|0,0:0|0:0,0:0:0:0:
231,170,225924,1,2,0:0:0:0:
231,170,226009,1,0,0:0:0:0:
105,66,226181,1,2,0:0:0:0:
57,203,226352,2,0,L|175:197,1,95.9999970703126,8|0,0:0|0:0,0:0:0:0:
308,310,226609,1,0,0:0:0:0:
299,327,226695,2,0,L|181:321,1,95.9999970703126,8|0,0:0|0:0,0:0:0:0:
118,313,226952,1,0,1:0:0:0:
118,313,227038,6,0,L|111:264,7,40,2|0|0|0|0|0|0|0,2:0|2:0|2:0|2:0|2:0|2:0|2:0|2:0,2:0:0:0:
51,225,228409,6,0,L|89:194,7,40,2|0|0|0|0|0|0|0,2:0|2:0|2:0|2:0|2:0|2:0|2:0|2:0,2:0:0:0:
96,125,229781,6,0,L|141:143,7,40,2|0|0|0|0|0|0|0,2:0|2:0|2:0|2:0|2:0|2:0|2:0|2:0,2:0:0:0:
205,110,231152,6,0,L|212:159,7,40,2|0|0|0|0|0|0|0,2:0|2:0|2:0|2:0|2:0|2:0|2:0|2:0,2:0:0:0:
272,198,232524,6,0,L|252:213,15,20,2|0|0|0|0|0|0|0|0|0|0|0|0|0|0|0,1:2|2:0|2:0|2:0|2:0|2:0|2:0|2:0|2:0|2:0|2:0|2:0|2:0|2:0|2:0|2:0,2:0:0:0:
306,306,233895,6,0,L|309:281,15,20,2|0|0|0|0|0|0|0|0|0|0|0|0|0|0|0,1:2|2:0|2:0|2:0|2:0|2:0|2:0|2:0|2:0|2:0|2:0|2:0|2:0|2:0|2:0|2:0,2:0:0:0:
415,305,235266,6,0,L|437:314,15,20,2|0|0|0|0|0|0|0|0|0|0|0|0|0|0|0,1:2|2:0|2:0|2:0|2:0|2:0|2:0|2:0|2:0|2:0|2:0|2:0|2:0|2:0|2:0|2:0,2:0:0:0:
490,221,236638,6,0,L|467:230,15,20,2|0|0|0|0|0|0|0|0|0|0|0|0|0|0|0,1:2|2:0|2:0|2:0|2:0|2:0|2:0|2:0|2:0|2:0|2:0|2:0|2:0|2:0|2:0|2:0,2:0:0:0:
451,268,238009,5,2,0:2:0:0:
445,238,238094,1,0,2:0:0:0:
431,212,238180,1,0,2:0:0:0:
410,191,238266,1,0,2:0:0:0:
383,178,238351,1,0,2:0:0:0:
353,175,238437,1,0,2:0:0:0:
324,181,238523,1,0,2:0:0:0:
298,196,238608,1,0,2:0:0:0:
278,218,238694,1,0,2:0:0:0:
266,246,238780,1,0,2:0:0:0:
264,275,238866,1,0,2:0:0:0:
271,304,238951,1,0,2:0:0:0:
287,330,239037,1,0,2:0:0:0:
310,349,239123,1,0,2:0:0:0:
338,360,239208,1,0,2:0:0:0:
367,361,239294,1,0,2:0:0:0:
397,355,239381,6,0,L|429:353,15,30.0000011444092,2|0|0|0|0|0|0|0|0|0|0|0|0|0|0|0,1:2|2:0|2:0|2:0|2:0|2:0|2:0|2:0|2:0|2:0|2:0|2:0|2:0|2:0|2:0|2:0,0:0:0:0:
492,265,240752,5,2,0:2:0:0:
497,235,240838,1,0,2:0:0:0:
493,205,240923,1,0,2:0:0:0:
478,179,241009,1,0,2:0:0:0:
455,161,241095,1,0,2:0:0:0:
426,155,241180,1,0,2:0:0:0:
396,160,241266,1,0,2:0:0:0:
372,177,241352,1,0,2:0:0:0:
356,203,241437,1,0,2:0:0:0:
334,223,241524,1,0,2:0:0:0:
309,240,241610,1,0,2:0:0:0:
280,246,241696,1,0,2:0:0:0:
251,239,241781,1,0,2:0:0:0:
227,221,241867,1,0,2:0:0:0:
212,195,241953,1,0,2:0:0:0:
209,166,242038,1,0,2:0:0:0:
219,137,242124,6,0,L|215:101,15,30.0000011444092,2|0|0|0|0|0|0|0|0|0|0|0|0|0|0|0,1:2|2:0|2:0|2:0|2:0|2:0|2:0|2:0|2:0|2:0|2:0|2:0|2:0|2:0|2:0|2:0,0:0:0:0:
267,207,243495,5,2,1:2:0:0:
239,187,243580,1,0,2:0:0:0:
206,178,243666,1,0,2:0:0:0:
172,179,243752,1,0,2:0:0:0:
141,191,243837,1,0,2:0:0:0:
114,212,243923,1,0,2:0:0:0:
96,240,244009,1,0,2:0:0:0:
87,273,244094,1,0,2:0:0:0:
90,307,244180,1,0,2:0:0:0:
102,338,244266,1,0,2:0:0:0:
124,364,244352,1,0,2:0:0:0:
153,381,244437,1,0,2:0:0:0:
186,389,244523,1,0,2:0:0:0:
220,385,244609,1,0,2:0:0:0:
251,372,244694,1,0,2:0:0:0:
276,349,244780,1,0,2:0:0:0:
296,316,244866,6,0,L|299:279,15,30.0000011444092,2|0|0|0|0|0|0|0|0|0|0|0|0|0|0|0,1:2|2:0|2:0|2:0|2:0|2:0|2:0|2:0|2:0|2:0|2:0|2:0|2:0|2:0|2:0|2:0,0:0:0:0:
308,193,246238,5,2,0:2:0:0:
286,159,246323,1,0,2:0:0:0:
278,120,246409,1,0,2:0:0:0:
283,80,246495,1,0,2:0:0:0:
301,44,246580,1,0,2:0:0:0:
329,16,246666,1,0,2:0:0:0:
365,0,246752,1,0,2:0:0:0:
405,0,246837,1,0,2:0:0:0:
444,4,246923,1,0,2:0:0:0:
477,25,247009,1,0,2:0:0:0:
502,56,247095,1,0,2:0:0:0:
512,94,247180,1,0,2:0:0:0:
512,134,247266,1,0,2:0:0:0:
502,171,247352,1,0,2:0:0:0:
478,203,247437,1,0,2:0:0:0:
444,224,247523,1,0,2:0:0:0:
405,233,247609,5,2,0:2:0:0:
426,199,247694,1,0,2:0:0:0:
422,159,247780,1,0,2:0:0:0:
399,125,247866,1,0,2:0:0:0:
360,113,247951,1,0,2:0:0:0:
320,118,248037,1,0,2:0:0:0:
281,128,248123,1,0,2:0:0:0:
241,125,248208,1,0,2:0:0:0:
207,103,248294,5,0,2:0:0:0:
167,101,248380,1,0,2:0:0:0:
130,116,248466,1,0,2:0:0:0:
103,145,248552,1,0,2:0:0:0:
91,183,248637,1,0,2:0:0:0:
97,222,248723,1,0,2:0:0:0:
118,256,248809,1,0,2:0:0:0:
151,277,248894,1,0,2:0:0:0:
192,282,248981,6,0,L|185:79,2,180.000006866455
235,366,250352,2,0,P|179:309|76:323,1,180.000006866455
85,316,251209,6,0,B|128:295|166:306|166:306|230:307|240:371|197:413|136:399|114:339|166:306|166:306|204:282|251:294,1,400
286,233,251724,6,0,B|446:249|446:249|396:183,1,215.999993408203,4|0,1:0|0:0,0:0:0:0:
412,204,252066,2,0,P|388:242|375:276,1,71.9999978027344,8|0,0:0|0:0,0:0:0:0:
361,375,252238,6,0,P|337:275|412:204,1,215.999993408203,0|0,1:0|0:0,0:0:0:0:
507,181,252581,2,0,L|497:101,1,71.9999978027344,0|0,1:0|0:0,0:0:0:0:
401,44,252752,5,8,0:0:0:0:
365,52,252838,1,0,0:0:0:0:
330,61,252924,1,0,0:0:0:0:
295,70,253009,1,0,0:0:0:0:
239,124,253095,6,0,P|309:167|258:107,1,215.999993408203,0|0,1:0|0:0,0:0:0:0:
157,154,253438,2,0,P|171:202|214:250,1,71.9999978027344,8|0,0:0|0:0,0:0:0:0:
254,318,253609,6,0,L|273:99,1,215.999993408203,0|0,1:0|0:0,0:0:0:0:
177,46,253952,2,0,P|162:85|160:124,1,71.9999978027344,0|0,1:0|0:0,0:0:0:0:
165,242,254124,5,8,0:0:0:0:
198,253,254209,1,0,1:0:0:0:
254,318,254295,5,0,1:0:0:0:
218,322,254381,1,0,1:0:0:0:
150,351,254466,6,0,B|219:374|293:342|293:342|254:318,1,191.999994140625,0|0,1:0|0:0,0:0:0:0:
201,276,254809,2,0,P|179:240|174:211,1,71.9999978027344,8|0,0:0|0:0,0:0:0:0:
272,122,254981,6,0,B|266:205|266:205|289:239|289:239|281:334,1,215.999993408203,0|0,1:0|0:0,0:0:0:0:
129,269,255324,2,0,L|201:275,1,71.9999978027344,0|0,1:0|0:0,0:0:0:0:
383,207,255495,5,8,0:0:0:0:
396,240,255581,1,0,0:0:0:0:
402,275,255666,1,0,0:0:0:0:
397,310,255752,1,0,0:0:0:0:
305,367,255838,6,0,B|243:360|243:360|217:330|217:330|180:353|180:353|104:344,1,215.999993408203,0|0,1:0|0:0,0:0:0:0:
50,258,256181,2,0,L|83:183,1,71.9999978027344,8|0,0:0|0:0,0:0:0:0:
197,200,256352,6,0,B|165:269|165:269|217:330|217:330|255:271,1,215.999993408203,0|0,1:0|0:0,0:0:0:0:
347,264,256695,2,0,L|318:330,1,71.9999978027344,0|0,1:0|1:0,0:0:0:0:
452,367,256866,5,8,0:0:0:0:
456,331,256952,1,0,1:0:0:0:
426,239,257038,5,0,1:0:0:0:
430,203,257124,1,0,1:0:0:0:
460,283,257209,6,0,B|354:266|369:349|255:328,1,215.999993408203,0|0,1:0|0:0,0:0:0:0:
158,270,257552,2,0,L|148:188,1,71.9999978027344,8|0,0:0|0:0,0:0:0:0:
260,117,257724,6,0,B|250:210|250:210|267:244|267:244|253:339,1,215.999993408203,0|0,1:0|0:0,0:0:0:0:
158,270,258066,2,0,L|148:188,1,71.9999978027344,0|0,1:0|0:0,0:0:0:0:
355,216,258238,5,8,0:0:0:0:
390,209,258324,1,0,0:0:0:0:
425,214,258409,1,0,0:0:0:0:
456,232,258495,1,0,0:0:0:0:
393,291,258581,6,0,B|429:123|429:123|381:147,1,215.999993408203,0|0,1:0|0:0,0:0:0:0:
288,192,258924,2,0,L|259:293,1,71.9999978027344,8|0,0:0|0:0,0:0:0:0:
387,351,259095,6,0,B|340:241|440:236|380:125,1,215.999993408203,0|0,1:0|0:0,0:0:0:0:
322,76,259438,2,0,L|237:85,1,71.9999978027344,0|0,1:0|0:0,0:0:0:0:
88,97,259609,5,8,0:0:0:0:
67,165,259695,5,8,0:0:0:0:
84,234,259781,5,8,0:0:0:0:
133,285,259866,5,8,0:0:0:0:
201,305,259952,6,0,B|311:268|301:373|405:326,1,215.999993408203,4|0,1:0|0:0,0:0:0:0:
464,258,260295,2,0,L|469:176,1,71.9999978027344,8|0,0:0|0:0,0:0:0:0:
341,44,260466,6,0,B|298:148|406:139|354:260,1,215.999993408203,0|0,1:0|0:0,0:0:0:0:
270,301,260809,2,0,P|236:310|201:305,1,71.9999978027344,0|0,1:0|0:0,0:0:0:0:
59,311,260981,5,8,0:0:0:0:
50,276,261066,1,0,0:0:0:0:
42,240,261152,1,0,0:0:0:0:
33,205,261238,1,0,0:0:0:0:
76,127,261324,6,0,B|163:124|163:124|201:148|201:148|312:144,1,215.999993408203,0|0,1:0|0:0,0:0:0:0:
197,61,261666,2,0,P|178:88|167:131,1,71.9999978027344,8|0,0:0|0:0,0:0:0:0:
251,259,261838,6,0,B|289:198|355:191|355:191|310:181|284:144,1,215.999993408203,0|0,1:0|0:0,0:0:0:0:
265,73,262181,2,0,P|222:58|161:77,1,71.9999978027344,0|0,1:0|0:0,0:0:0:0:
122,146,262352,5,8,0:0:0:0:
157,143,262438,1,0,1:0:0:0:
228,178,262524,5,0,1:0:0:0:
231,213,262610,1,0,1:0:0:0:
170,270,262695,6,0,B|200:327|200:327|279:338|279:338|330:278,1,215.999993408203,0|0,1:0|0:0,0:0:0:0:
344,191,263038,2,0,L|359:106,1,71.9999978027344,8|0,0:0|0:0,0:0:0:0:
257,54,263209,6,0,B|240:134|240:134|269:176|269:176|245:277,1,215.999993408203,0|0,1:0|0:0,0:0:0:0:
164,250,263552,2,0,L|184:176,1,71.9999978027344,0|0,1:0|0:0,0:0:0:0:
313,104,263724,5,8,0:0:0:0:
348,102,263809,1,0,0:0:0:0:
383,110,263895,1,0,0:0:0:0:
414,127,263981,1,0,0:0:0:0:
344,191,264066,6,0,B|182:181|182:181|242:207,1,215.999993408203,0|0,1:0|0:0,0:0:0:0:
330,260,264409,2,0,P|342:226|343:190,1,71.9999978027344,8|0,0:0|0:0,0:0:0:0:
200,70,264581,6,0,B|178:129|203:161|264:176|233:241|189:232|154:217|192:168,1,215.999993408203,0|0,1:0|0:0,0:0:0:0:
98,228,264924,2,0,P|118:264|145:286,1,71.9999978027344,0|0,1:0|0:0,0:0:0:0:
222,306,265095,5,8,0:0:0:0:
241,275,265181,1,0,1:0:0:0:
331,267,265266,5,0,1:0:0:0:
356,295,265352,1,0,1:0:0:0:
292,328,265438,6,0,B|276:157|276:157|256:202,1,215.999993408203,0|0,1:0|0:0,0:0:0:0:
258,197,265781,2,0,P|291:212|326:214,1,71.9999978027344,8|0,0:0|0:0,0:0:0:0:
430,172,265952,6,0,P|336:131|258:197,1,215.999993408203,0|0,1:0|0:0,0:0:0:0:
234,281,266295,2,0,L|219:357,1,71.9999978027344,0|0,1:0|0:0,0:0:0:0:
370,325,266466,5,8,0:0:0:0:
362,289,266552,1,0,0:0:0:0:
355,253,266638,1,0,0:0:0:0:
349,218,266724,1,0,0:0:0:0:
258,196,266809,6,0,B|166:210|166:210|97:158|97:158|184:143,1,215.999993408203,0|0,1:0|0:0,0:0:0:0:
263,124,267152,2,0,L|257:206,1,71.9999978027344,8|0,0:0|0:0,0:0:0:0:
134,361,267324,6,0,B|121:280|121:280|143:232|143:232|130:136,1,215.999993408203,0|0,1:0|0:0,0:0:0:0:
45,146,267666,2,0,L|56:217,1,71.9999978027344,0|0,1:0|0:0,0:0:0:0:
199,278,267838,5,8,0:0:0:0:
235,280,267924,1,0,1:0:0:0:
263,193,268009,5,0,1:0:0:0:
227,195,268095,1,0,1:0:0:0:
297,271,268181,6,0,P|367:262|289:234,1,215.999993408203,0|0,1:0|0:0,0:0:0:0:
238,321,268524,2,0,P|283:351|321:359,1,71.9999978027344,8|0,0:0|0:0,0:0:0:0:
412,269,268695,6,0,B|370:228|374:170|374:170|350:221|284:229,1,215.999993408203,0|0,1:0|0:0,0:0:0:0:
202,244,269038,6,0,P|159:248|128:242,1,71.9999978027344,0|0,1:0|0:0,0:0:0:0:
49,208,269209,5,8,0:0:0:0:
45,172,269294,1,0,0:0:0:0:
42,136,269380,1,0,0:0:0:0:
39,100,269466,1,0,0:0:0:0:
88,30,269552,6,0,B|192:-4|192:95|293:50,1,215.999993408203,0|0,1:0|0:0,0:0:0:0:
384,32,269895,2,0,L|377:103,1,71.9999978027344,8|0,0:0|0:0,0:0:0:0:
287,264,270066,6,0,B|296:167|296:167|287:135|287:135|294:34,1,215.999993408203,0|0,1:0|0:0,0:0:0:0:
384,32,270409,2,0,L|377:103,1,71.9999978027344,0|0,1:0|0:0,0:0:0:0:
298,173,270581,5,8,0:0:0:0:
263,163,270666,1,0,1:0:0:0:
234,238,270752,5,0,1:0:0:0:
197,241,270837,1,0,1:0:0:0:
164,173,270924,6,0,B|246:193|246:193|267:214|267:214|299:204|299:204|375:217,1,215.999993408203,4|0,1:0|0:0,0:0:0:0:
458,203,271266,2,0,P|473:151|459:112,1,71.9999978027344,8|0,0:0|0:0,0:0:0:0:
363,41,271438,6,0,B|379:93|425:126|425:126|383:158|366:217,1,215.999993408203,0|0,1:0|0:0,0:0:0:0:
357,307,271781,2,0,L|372:380,1,71.9999978027344,0|0,1:0|0:0,0:0:0:0:
415,251,271952,5,8,0:0:0:0:
384,231,272038,1,0,0:0:0:0:
349,226,272124,1,0,0:0:0:0:
315,235,272209,1,0,0:0:0:0:
251,314,272295,6,0,B|356:281|347:380|454:345,1,215.999993408203,0|0,1:0|0:0,0:0:0:0:
497,247,272638,2,0,L|504:155,1,71.9999978027344,8|0,0:0|0:0,0:0:0:0:
391,47,272809,6,0,L|412:269,1,215.999993408203,0|0,1:0|0:0,0:0:0:0:
309,354,273152,2,0,P|272:335|243:302,1,71.9999978027344,0|0,1:0|0:0,0:0:0:0:
212,226,273324,5,8,0:0:0:0:
230,195,273409,1,0,1:0:0:0:
300,210,273495,5,0,1:0:0:0:
303,245,273581,1,0,1:0:0:0:
251,313,273666,6,0,B|177:308|177:308|130:327|130:327|26:324,1,215.999993408203,0|0,1:0|0:0,0:0:0:0:
7,230,274009,2,0,L|87:232,1,71.9999978027344,8|0,0:0|0:0,0:0:0:0:
183,211,274181,6,0,B|225:284|213:360|213:360|228:328|255:310,1,215.999993408203,0|0,1:0|0:0,0:0:0:0:
332,245,274524,2,0,P|333:197|317:150,1,71.9999978027344,0|0,1:0|0:0,0:0:0:0:
230,116,274695,5,8,0:0:0:0:
207,143,274781,1,0,0:0:0:0:
191,176,274866,1,0,0:0:0:0:
183,211,274952,1,0,0:0:0:0:
188,286,275038,6,0,B|242:299|293:272|293:272|329:239|327:174,1,215.999993408203,0|0,1:0|0:0,0:0:0:0:
242,134,275381,2,0,P|236:169|241:205,1,71.9999978027344,8|0,0:0|0:0,0:0:0:0:
293,272,275552,6,0,B|329:239|327:174|327:174|383:186|428:149,1,215.999993408203,0|0,1:0|0:0,0:0:0:0:
356,21,275895,2,0,P|351:63|360:105,1,71.9999978027344,0|0,1:0|0:0,0:0:0:0:
406,240,276066,5,8,0:0:0:0:
441,247,276152,1,0,1:0:0:0:
445,319,276238,5,0,1:0:0:0:
410,326,276324,1,0,1:0:0:0:
336,306,276409,6,0,B|254:291|254:291|209:309|209:309|112:292,1,215.999993408203,0|0,1:0|0:0,0:0:0:0:
135,208,276752,2,0,L|241:235,1,71.9999978027344,8|0,0:0|0:0,0:0:0:0:
259,370,276924,6,0,B|309:339|319:283|287:230|287:230|343:238,1,215.999993408203,0|0,1:0|0:0,0:0:0:0:
431,249,277266,2,0,L|431:173,1,71.9999978027344,0|0,1:0|0:0,0:0:0:0:
306,50,277438,5,8,0:0:0:0:
290,82,277524,1,0,0:0:0:0:
279,116,277609,1,0,0:0:0:0:
274,151,277695,1,0,0:0:0:0:
287,248,277781,6,0,P|206:263|281:299,1,215.999993408203,0|0,1:0|0:0,0:0:0:0:
368,286,278124,2,0,P|375:237|361:202,1,71.9999978027344,8|0,0:0|0:0,0:0:0:0:
308,37,278295,6,0,B|293:124|293:124|306:168|306:168|286:251,1,215.999993408203,0|0,1:0|0:0,0:0:0:0:
203,245,278638,2,0,L|229:156,1,71.9999978027344,0|0,1:0|0:0,0:0:0:0:
177,69,278809,5,8,0:0:0:0:
141,64,278895,1,0,1:0:0:0:
70,79,278981,5,0,1:0:0:0:
43,104,279066,1,0,1:0:0:0:
11,183,279152,6,0,B|94:174|94:174|143:190|143:190|260:169,1,215.999993408203,0|0,1:0|0:0,0:0:0:0:
220,92,279495,2,0,L|136:111,1,71.9999978027344,8|0,0:0|0:0,0:0:0:0:
56,243,279666,6,0,P|117:163|236:188,1,215.999993408203,0|0,1:0|0:0,0:0:0:0:
276,245,280009,2,0,L|266:325,1,71.9999978027344,0|0,1:0|0:0,0:0:0:0:
391,361,280181,5,8,0:0:0:0:
391,325,280266,1,0,0:0:0:0:
388,288,280352,1,0,0:0:0:0:
385,251,280438,1,0,0:0:0:0:
487,293,280524,6,0,B|410:302|410:302|394:295|394:295|379:311|379:311|357:302|357:302|275:310,1,215.999993408203,0|0,1:0|0:0,0:0:0:0:
255,237,280866,2,0,L|330:231,1,71.9999978027344,8|0,0:0|0:0,0:0:0:0:
476,366,281038,6,0,B|398:359|362:302|362:302|282:309,1,215.999993408203,0|0,1:0|0:0,0:0:0:0:
260,384,281381,2,0,L|335:378,1,71.9999978027344,0|0,1:0|0:0,0:0:0:0:
466,252,281552,5,8,0:0:0:0:
490,183,281638,5,8,0:0:0:0:
463,115,281724,5,8,0:0:0:0:
401,78,281809,5,8,0:0:0:0:
332,107,281895,6,0,B|245:146|245:146|116:108,1,223.999993164063,4|0,1:0|0:0,0:0:0:0:
81,36,282409,1,0,1:0:0:0:
241,49,282581,2,0,L|231:171,1,111.999996582031,8|0,0:0|0:0,0:0:0:0:
246,184,282838,2,0,L|236:306,1,111.999996582031,0|0,1:0|0:0,0:0:0:0:
249,320,283095,2,0,L|244:381,1,55.9999982910157,0|0,1:0|0:0,0:0:0:0:
246,184,283266,2,0,B|309:189|349:226|349:226|372:178|434:159,1,223.999993164063,0|0,1:0|0:0,0:0:0:0:
457,279,283781,1,0,1:0:0:0:
309,322,283952,2,0,B|251:254|131:264|215:351|46:356|4:282,1,335.999989746094,8|0,0:0|0:0,0:0:0:0:
86,160,284638,6,0,P|86:243|116:164,1,223.999993164063,0|0,1:0|0:0,0:0:0:0:
53,96,285152,1,0,1:0:0:0:
93,244,285324,2,0,L|225:252,1,111.999996582031,8|0,0:0|0:0,0:0:0:0:
230,245,285581,2,0,L|362:253,1,111.999996582031,0|0,1:0|0:0,0:0:0:0:
368,248,285838,2,0,L|434:252,1,55.9999982910157,0|0,1:0|0:0,0:0:0:0:
264,354,286009,2,0,P|230:250|280:153,1,223.999993164063,0|0,1:0|0:0,0:0:0:0:
397,78,286524,1,0,1:0:0:0:
387,205,286695,2,0,B|346:184|306:195|306:195|265:205|249:247|291:277|342:263|341:219|306:195|306:195|272:171|227:176,1,335.999989746094,8|0,0:0|0:0,0:0:0:0:
158,323,287381,6,0,B|247:314|247:314|289:331|289:331|411:316,1,223.999993164063,0|0,1:0|0:0,0:0:0:0:
455,241,287895,1,0,1:0:0:0:
385,90,288066,2,0,P|333:78|275:90,1,111.999996582031,8|0,0:0|0:0,0:0:0:0:
257,110,288324,2,0,P|202:121|148:109,1,111.999996582031,0|0,1:0|0:0,0:0:0:0:
122,97,288581,2,0,P|94:91|67:97,1,55.9999982910157,0|0,1:0|0:0,0:0:0:0:
19,180,288752,2,0,B|85:224|157:188|157:188|152:231|122:258,1,223.999993164063,0|0,1:0|0:0,0:0:0:0:
34,306,289266,1,0,1:0:0:0:
19,180,289438,2,0,B|49:93|174:78|237:208|157:294|60:245|96:193,1,335.999989746094,8|0,0:0|0:0,0:0:0:0:
212,115,290124,6,0,P|237:176|132:318,1,223.999993164063,0|0,1:0|0:0,0:0:0:0:
46,338,290638,1,0,1:0:0:0:
27,199,290809,2,0,B|81:212|81:212|150:198,1,111.999996582031,8|0,0:0|0:0,0:0:0:0:
126,174,291066,2,0,B|180:187|180:187|249:173,1,111.999996582031,0|0,1:0|0:0,0:0:0:0:
262,167,291324,2,0,L|259:231,1,55.9999982910157,0|0,1:0|0:0,0:0:0:0:
158,329,291495,2,0,B|223:337|261:295|261:295|296:339|371:330,1,223.999993164063,0|0,1:0|0:0,0:0:0:0:
446,296,292009,1,0,1:0:0:0:
393,141,292181,2,0,B|358:182|309:184|309:184|322:231|270:279|218:261|218:261|206:309|156:328,1,335.999989746094,8|0,0:0|0:0,0:0:0:0:
241,193,292866,6,0,B|282:249|282:249|374:252,1,160,2|0,0:0|0:0,0:0:0:0:
324,175,293381,2,0,P|255:112|173:149,1,160,0|0,0:0|0:0,0:0:0:0:
140,178,293809,1,0,0:0:0:0:
140,178,293895,2,0,L|146:267,1,80,2|2,0:0|0:0,0:0:0:0:
212,355,294238,2,0,P|251:308|344:295,1,160,2|0,0:0|0:0,0:0:0:0:
421,319,294752,2,0,L|405:137,1,160,2|0,0:0|0:0,0:0:0:0:
320,192,295266,2,0,L|326:290,1,80,0|0,0:0|0:0,0:0:0:0:
226,353,295609,6,0,L|41:356,1,160,2|0,0:0|0:0,0:0:0:0:
23,198,296124,2,0,L|208:195,1,160,2|0,0:0|0:0,0:0:0:0:
241,264,296552,1,0,0:0:0:0:
241,264,296638,2,0,L|333:262,1,80,2|2,0:0|0:0,0:0:0:0:
202,183,296981,2,0,B|164:220|164:220|158:326,1,160,2|0,0:0|0:0,0:0:0:0:
241,264,297495,2,0,B|278:226|278:226|384:220,1,160,2|0,0:0|0:0,0:0:0:0:
398,294,297923,1,0,0:0:0:0:
398,294,298009,2,0,L|311:299,1,80,0|0,0:0|0:0,0:0:0:0:
180,346,298352,6,0,B|212:303|212:303|318:298,1,160,2|0,0:0|0:0,0:0:0:0:
381,178,298866,2,0,B|349:221|349:221|243:226,1,160,2|0,0:0|0:0,0:0:0:0:
227,147,299295,1,0,0:0:0:0:
227,147,299381,2,0,L|332:144,1,80,2|0,0:0|0:0,0:0:0:0:
399,216,299723,2,0,B|321:197|321:249|243:226,1,160,2|0,0:0|0:0,0:0:0:0:
408,74,300238,2,0,P|372:153|400:217,1,160,2|0,0:0|0:0,0:0:0:0:
458,279,300666,1,0,0:0:0:0:
458,279,300752,2,0,L|453:367,1,80,0|0,0:0|0:0,0:0:0:0:
308,384,301095,6,0,L|318:208,1,160,2|0,0:0|0:0,0:0:0:0:
123,65,301609,2,0,L|133:241,1,160,2|0,0:0|0:0,0:0:0:0:
99,297,302038,1,0,0:0:0:0:
99,297,302123,2,0,P|141:303|195:275,1,80,2|0,0:0|0:0,0:0:0:0:
123,65,302466,6,0,L|133:241,1,160,2|0,0:0|0:0,0:0:0:0:
65,324,302981,2,0,P|141:343|228:300,1,160,2|0,0:0|0:0,0:0:0:0:
255,241,303495,2,0,L|259:162,1,80,0|0,0:0|0:0,0:0:0:0:
152,65,303838,6,0,B|126:160|188:147|161:248,1,180.000006866455,2|2,0:0|0:0,0:0:0:0:
126,346,304695,1,0,0:0:0:0:
126,346,304781,1,0,0:0:0:0:
126,346,304866,2,0,P|160:335|186:334,1,60.0000022888184,2|0,0:0|0:0,0:0:0:0:
278,341,305209,2,0,L|458:322,1,180.000006866455,2|2,0:0|0:0,0:0:0:0:
278,341,306581,6,0,L|458:322,1,180.000006866455,2|2,0:0|0:0,0:0:0:0:
495,228,307438,1,0,0:0:0:0:
495,228,307523,1,0,0:0:0:0:
495,228,307609,2,0,L|489:144,1,60.0000022888184,2|0,0:0|0:0,0:0:0:0:
376,85,307952,2,0,B|406:135|406:135|412:258,1,180.000006866455,2|2,0:0|0:0,0:0:0:0:
376,85,309323,6,0,B|406:135|406:135|412:258,1,180.000006866455,2|2,0:0|0:0,0:0:0:0:
352,354,310181,1,0,0:0:0:0:
352,354,310266,1,0,0:0:0:0:
352,354,310352,2,0,L|277:348,1,60.0000022888184,2|0,0:0|0:0,0:0:0:0:
112,330,310695,2,0,B|169:303|169:303|185:184,1,180.000006866455,2|2,0:0|0:0,0:0:0:0:
112,330,312066,2,0,B|169:303|169:303|185:184,1,180.000006866455,2|2,0:0|0:0,0:0:0:0:
81,184,312923,1,0,0:0:0:0:
81,184,313009,1,0,0:0:0:0:
81,184,313095,2,0,L|92:265,1,60.0000022888184,2|0,0:0|0:0,0:0:0:0:
116,352,313438,5,2,0:0:0:0:
128,324,313523,1,0,0:0:0:0:
148,300,313609,1,0,0:0:0:0:
176,288,313695,1,0,0:0:0:0:
204,284,313781,1,0,0:0:0:0:
232,292,313866,1,0,0:0:0:0:
256,312,313952,1,2,0:0:0:0:
268,340,314038,1,0,0:0:0:0:
198,356,314123,5,0,0:0:0:0:
181,311,314209,1,0,0:0:0:0:
190,265,314295,1,0,0:0:0:0:
222,229,314381,1,0,0:0:0:0:
267,215,314466,1,0,0:0:0:0:
313,226,314552,1,0,0:0:0:0:
348,259,314638,1,0,0:0:0:0:
360,304,314723,1,0,0:0:0:0:
384,384,314809,6,0,L|166:368,1,215.999993408203,4|0,1:0|0:0,0:0:0:0:
111,278,315152,2,0,P|147:265|182:263,1,71.9999978027344,8|0,0:0|0:0,0:0:0:0:
306,275,315323,6,0,B|269:313|276:370|276:370|226:342|168:368,1,215.999993408203,0|0,1:0|0:0,0:0:0:0:
111,278,315666,2,0,L|107:184,1,71.9999978027344,0|0,1:0|0:0,0:0:0:0:
185,156,315838,2,0,B|190:302|190:302|167:368,1,215.999993408203,8|0,0:0|0:0,0:0:0:0:
168,368,316181,6,0,B|246:351|246:351|302:367|302:367|394:346,1,215.999993408203,0|0,1:0|0:0,0:0:0:0:
398,252,316523,2,0,L|316:271,1,71.9999978027344,8|0,0:0|0:0,0:0:0:0:
377,348,316695,6,0,B|453:333|453:333|469:288|469:288|380:307,1,215.999993408203,0|0,1:0|0:0,0:0:0:0:
327,350,317038,2,0,L|245:331,1,71.9999978027344,0|0,1:0|0:0,0:0:0:0:
174,369,317209,5,8,0:0:0:0:
137,363,317295,1,0,1:0:0:0:
141,290,317381,5,0,1:0:0:0:
177,296,317466,1,0,1:0:0:0:
60,316,317552,6,0,B|53:248|53:248|91:201|91:201|79:98,1,215.999993408203,0|0,1:0|0:0,0:0:0:0:
13,195,317895,2,0,P|71:216|84:215,1,71.9999978027344,8|0,0:0|0:0,0:0:0:0:
214,315,318066,6,0,B|124:349|60:316|60:316|111:315|146:290,1,215.999993408203,0|0,1:0|0:0,0:0:0:0:
173,237,318409,2,0,L|181:160,1,71.9999978027344,0|0,1:0|0:0,0:0:0:0:
91,64,318581,2,0,B|63:34|63:34|67:137,1,143.999995605469,8|0,0:0|0:0,0:0:0:0:
70,219,318838,1,0,0:0:0:0:
70,219,318923,6,0,B|139:247|209:226|209:226|173:205|166:169,1,215.999993408203,0|0,1:0|0:0,0:0:0:0:
165,168,319266,2,0,P|154:209|159:243,1,71.9999978027344,8|0,0:0|0:0,0:0:0:0:
230,343,319438,6,0,B|262:295|314:280|314:280|258:263|235:208,1,215.999993408203,0|0,1:0|0:0,0:0:0:0:
333,107,319781,2,0,P|340:150|331:181,1,71.9999978027344,0|0,1:0|0:0,0:0:0:0:
265,276,319952,5,8,0:0:0:0:
229,282,320038,1,0,1:0:0:0:
158,256,320123,5,0,1:0:0:0:
145,221,320209,1,0,1:0:0:0:
153,138,320295,6,0,P|212:79|337:110,1,215.999993408203,0|0,1:0|0:0,0:0:0:0:
399,196,320638,2,0,L|387:273,1,71.9999978027344,8|0,0:0|0:0,0:0:0:0:
292,299,320809,6,0,P|275:195|332:106,1,215.999993408203,0|0,1:0|0:0,0:0:0:0:
419,63,321152,2,0,L|430:146,1,71.9999978027344,0|0,1:0|0:0,0:0:0:0:
431,289,321323,2,0,B|358:276|358:276|292:299,1,143.999995605469,8|0,0:0|0:0,0:0:0:0:
365,357,321581,1,0,0:0:0:0:
365,357,321666,6,0,P|384:278|259:211,1,215.999993408203,0|0,1:0|0:0,0:0:0:0:
215,269,322009,2,0,L|222:343,1,71.9999978027344,8|0,0:0|0:0,0:0:0:0:
365,357,322181,6,0,B|401:308|376:256|376:256|348:204|378:153,1,215.999993408203,0|0,1:0|0:0,0:0:0:0:
483,145,322523,2,0,P|468:187|442:209,1,71.9999978027344,0|0,1:0|0:0,0:0:0:0:
288,234,322695,1,8,0:0:0:0:
240,231,322780,1,0,1:0:0:0:
192,228,322866,1,0,1:0:0:0:
144,226,322952,1,0,1:0:0:0:
78,171,323038,6,0,B|56:237|56:237|95:308|95:308|160:313,1,215.999993408203,0|0,1:0|0:0,0:0:0:0:
251,314,323381,2,0,L|326:315,1,71.9999978027344,8|0,0:0|0:0,0:0:0:0:
253,232,323552,6,0,B|214:195|153:211|153:211|121:270|159:312,1,215.999993408203,0|0,1:0|0:0,0:0:0:0:
239,383,323895,2,0,L|314:384,1,71.9999978027344,0|0,1:0|0:0,0:0:0:0:
395,311,324066,5,8,0:0:0:0:
401,275,324152,1,0,0:0:0:0:
358,212,324238,5,0,0:0:0:0:
364,176,324323,1,0,0:0:0:0:
305,113,324409,6,0,L|231:106,2,71.9999978027344,0|0|0,1:0|0:0|0:0,0:0:0:0:
178,215,324666,5,0,1:0:0:0:
213,210,324752,2,0,L|287:203,2,71.9999978027344,8|0|0,0:0|0:0|0:0,0:0:0:0:
368,255,325009,5,0,1:0:0:0:
368,255,325095,1,0,1:0:0:0:
164,145,325266,1,0,1:0:0:0:
111,363,325438,1,8,0:0:0:0:
134,336,325523,1,0,1:0:0:0:
166,319,325609,1,0,1:0:0:0:
201,314,325695,1,0,1:0:0:0:
272,323,325781,6,0,P|353:313|371:193,1,215.999993408203,4|0,1:0|0:0,0:0:0:0:
201,314,326123,2,0,P|238:314|272:323,1,71.9999978027344,8|0,0:0|0:0,0:0:0:0:
501,261,326295,6,0,P|406:288|373:195,1,215.999993408203,0|0,1:0|0:0,0:0:0:0:
396,106,326638,2,0,L|410:35,1,71.9999978027344,0|0,1:0|0:0,0:0:0:0:
440,223,326809,5,8,0:0:0:0:
404,226,326895,1,0,0:0:0:0:
368,227,326981,1,0,0:0:0:0:
331,228,327066,1,0,0:0:0:0:
276,199,327152,6,0,B|443:204|443:204|389:187,1,215.999993408203,0|0,1:0|0:0,0:0:0:0:
275,117,327495,2,0,P|235:130|207:162,1,71.9999978027344,8|0,0:0|0:0,0:0:0:0:
277,349,327666,6,0,B|305:282|305:282|367:262|367:262|398:188,1,215.999993408203,0|0,1:0|0:0,0:0:0:0:
332,134,328009,2,0,L|301:211,1,71.9999978027344,0|0,1:0|0:0,0:0:0:0:
362,338,328181,5,8,0:0:0:0:
396,329,328266,1,0,1:0:0:0:
456,285,328352,5,0,1:0:0:0:
465,251,328438,1,0,1:0:0:0:
442,173,328523,6,0,B|359:148|311:239|231:201,1,215.999993408203,0|0,1:0|0:0,0:0:0:0:
117,149,328866,2,0,P|92:188|86:242,1,71.9999978027344,8|0,0:0|0:0,0:0:0:0:
236,265,329038,6,0,P|157:237|239:207,1,215.999993408203,0|0,1:0|0:0,0:0:0:0:
207,353,329381,2,0,P|152:344|115:311,1,71.9999978027344,0|0,1:0|0:0,0:0:0:0:
202,234,329552,5,8,0:0:0:0:
237,240,329638,1,0,0:0:0:0:
272,244,329723,1,0,0:0:0:0:
307,248,329809,1,0,0:0:0:0:
361,344,329895,6,0,B|278:351|278:351|231:331|231:331|150:338,1,215.999993408203,0|0,1:0|0:0,0:0:0:0:
50,351,330238,2,0,P|56:301|94:253,1,71.9999978027344,8|0,0:0|0:0,0:0:0:0:
200,284,330409,6,0,P|235:360|149:325,1,215.999993408203,0|0,1:0|0:0,0:0:0:0:
158,220,330752,2,0,L|168:142,1,71.9999978027344,0|0,1:0|0:0,0:0:0:0:
175,53,330923,5,8,0:0:0:0:
211,51,331009,1,0,1:0:0:0:
279,76,331095,5,0,1:0:0:0:
296,107,331181,1,0,1:0:0:0:
309,180,331266,6,0,B|313:233|286:283|228:308|228:308|247:277|239:215,1,215.999993408203,0|0,1:0|0:0,0:0:0:0:
207,168,331609,2,0,P|173:143|131:136,1,71.9999978027344,8|0,0:0|0:0,0:0:0:0:
84,236,331781,6,0,B|151:271|175:220|241:257|241:257|211:257|188:269,1,215.999993408203,0|0,1:0|0:0,0:0:0:0:
112,325,332123,2,0,P|66:315|25:290,1,71.9999978027344,0|0,1:0|0:0,0:0:0:0:
144,158,332295,5,8,0:0:0:0:
177,144,332381,1,0,0:0:0:0:
212,137,332466,1,0,0:0:0:0:
247,133,332552,1,0,0:0:0:0:
292,241,332638,6,0,B|190:193|188:281|82:235,1,215.999993408203,0|0,1:0|0:0,0:0:0:0:
135,88,332981,2,0,P|147:140|138:173,1,71.9999978027344,8|0,0:0|0:0,0:0:0:0:
27,301,333152,6,0,P|129:332|233:308,1,215.999993408203,0|0,1:0|0:0,0:0:0:0:
301,240,333495,2,0,L|372:251,1,71.9999978027344,0|0,1:0|0:0,0:0:0:0:
366,340,333666,5,8,0:0:0:0:
329,337,333752,1,0,1:0:0:0:
255,364,333838,5,0,1:0:0:0:
218,361,333923,1,0,1:0:0:0:
160,290,334009,6,0,B|206:271|206:271|260:224|268:170|223:103,1,215.999993408203,0|0,1:0|0:0,0:0:0:0:
175,54,334352,2,0,P|125:44|86:56,1,71.9999978027344,8|0,0:0|0:0,0:0:0:0:
19,135,334523,6,0,L|234:122,1,215.999993408203,0|0,1:0|0:0,0:0:0:0:
316,199,334866,2,0,P|260:229|226:227,1,71.9999978027344,0|0,1:0|0:0,0:0:0:0:
155,211,335038,5,8,0:0:0:0:
158,246,335123,1,0,0:0:0:0:
161,281,335209,1,0,0:0:0:0:
164,316,335295,1,0,0:0:0:0:
241,364,335381,5,2,1:0:0:0:
92,280,335552,1,0,0:0:0:0:
238,192,335723,1,8,0:0:0:0:
141,365,335895,5,2,0:0:0:0:
140,194,336066,1,0,0:0:0:0:
289,276,336238,2,2,B|293:225|266:174|266:174|300:138|306:69|306:69|300:137|346:200,1,359.999989013672,10|0,0:0|0:0,0:0:0:0:
384,281,336752,6,0,L|279:275,1,95.9999970703126,0|0,1:0|0:0,0:0:0:0:
124,258,337095,1,8,0:0:0:0:
226,83,337266,1,0,1:0:0:0:
226,83,337352,1,0,0:0:0:0:
226,83,337438,2,0,P|231:117|227:153,1,47.9999985351563,0|0,0:0|0:0,0:0:0:0:
211,243,337609,1,0,1:0:0:0:
54,324,337781,2,0,P|32:262|43:217,1,95.9999970703126,8|0,0:0|0:0,0:0:0:0:
62,107,338123,6,0,L|160:116,1,95.9999970703126,0|0,1:0|0:0,0:0:0:0:
230,203,338466,1,8,0:0:0:0:
194,323,338638,2,0,P|256:344|320:304,1,143.999995605469,0|0,1:0|0:0,0:0:0:0:
347,187,338981,2,0,P|351:211|348:235,1,47.9999985351563,0|0,1:0|0:0,0:0:0:0:
194,323,339152,1,8,0:0:0:0:
192,287,339238,1,0,1:0:0:0:
191,251,339323,1,0,1:0:0:0:
189,215,339409,1,0,1:0:0:0:
188,179,339495,6,0,P|249:181|294:147,1,95.9999970703126,0|0,1:0|0:0,0:0:0:0:
328,82,339838,1,8,0:0:0:0:
160,110,340009,1,0,1:0:0:0:
160,110,340095,1,0,0:0:0:0:
160,110,340181,2,0,P|128:134|113:168,1,47.9999985351563,0|0,0:0|0:0,0:0:0:0:
121,268,340352,1,0,1:0:0:0:
276,218,340523,2,0,P|242:184|194:175,1,95.9999970703126,8|0,0:0|0:0,0:0:0:0:
121,268,340866,6,0,B|200:251|186:308|271:288,1,143.999995605469,0|0,1:0|0:0,0:0:0:0:
291,283,341209,1,8,0:0:0:0:
255,122,341381,2,0,P|237:158|238:214,1,95.9999970703126,0|0,1:0|0:0,0:0:0:0:
376,301,341723,2,0,L|424:306,1,47.9999985351563,0|0,1:0|0:0,0:0:0:0:
434,135,341895,1,8,0:0:0:0:
399,126,341981,1,0,1:0:0:0:
363,131,342066,1,0,1:0:0:0:
333,149,342152,1,0,1:0:0:0:
311,177,342238,6,0,L|307:278,1,95.9999970703126,0|0,1:0|0:0,0:0:0:0:
332,357,342581,1,8,0:0:0:0:
439,236,342752,1,0,1:0:0:0:
439,236,342838,1,0,0:0:0:0:
439,236,342923,2,0,P|396:231|377:233,1,47.9999985351563,0|0,0:0|0:0,0:0:0:0:
307,273,343095,1,0,1:0:0:0:
481,384,343266,2,0,L|491:284,1,95.9999970703126,8|0,0:0|0:0,0:0:0:0:
390,238,343609,6,0,P|448:231|486:143,1,143.999995605469,0|0,1:0|0:0,0:0:0:0:
463,85,343952,1,8,0:0:0:0:
325,195,344123,2,0,P|314:225|316:264,1,47.9999985351563,0|0,1:0|0:0,0:0:0:0:
327,325,344295,1,0,0:0:0:0:
437,243,344466,2,0,L|388:237,1,47.9999985351563,0|0,1:0|0:0,0:0:0:0:
249,301,344638,1,8,0:0:0:0:
222,277,344723,1,0,1:0:0:0:
202,247,344809,1,0,1:0:0:0:
192,212,344895,1,0,1:0:0:0:
192,176,344981,6,0,L|198:75,1,95.9999970703126,0|0,1:0|0:0,0:0:0:0:
291,28,345323,1,8,0:0:0:0:
345,140,345495,1,0,1:0:0:0:
345,140,345581,1,0,0:0:0:0:
345,140,345666,2,0,L|288:145,1,47.9999985351563
197,80,345838,1,0,1:0:0:0:
114,186,346009,2,0,P|154:171|217:188,1,95.9999970703126,8|0,0:0|0:0,0:0:0:0:
274,300,346352,5,0,1:0:0:0:
83,301,346523,1,0,0:0:0:0:
83,301,346609,1,0,0:0:0:0:
83,301,346695,2,0,L|80:218,1,47.9999985351563,8|0,0:0|0:0,0:0:0:0:
205,180,346866,1,0,0:0:0:0:
202,203,346952,1,0,0:0:0:0:
200,227,347038,1,0,1:0:0:0:
75,167,347209,1,0,1:0:0:0:
295,91,347381,1,8,0:0:0:0:
292,126,347466,1,0,1:0:0:0:
289,162,347552,1,0,1:0:0:0:
286,198,347638,1,0,1:0:0:0:
283,234,347723,6,0,L|277:341,1,95.9999970703126,0|0,1:0|0:0,0:0:0:0:
178,364,348066,1,8,0:0:0:0:
81,288,348238,1,0,1:0:0:0:
81,288,348323,1,0,0:0:0:0:
81,288,348409,2,0,L|79:219,1,47.9999985351563,0|0,0:0|0:0,0:0:0:0:
173,144,348581,1,0,1:0:0:0:
246,230,348752,2,0,P|205:258|157:259,1,95.9999970703126,8|0,0:0|0:0,0:0:0:0:
77,163,349095,6,0,L|73:25,1,95.9999970703126,0|0,1:0|0:0,0:0:0:0:
186,23,349438,1,8,0:0:0:0:
300,78,349609,2,0,B|266:101|266:101|142:110,1,143.999995605469,0|0,1:0|0:0,0:0:0:0:
141,110,349952,1,0,1:0:0:0:
207,208,350123,1,8,0:0:0:0:
242,204,350209,1,0,1:0:0:0:
278,201,350295,1,0,1:0:0:0:
314,198,350381,1,0,1:0:0:0:
350,195,350466,6,0,L|358:88,1,95.9999970703126,0|0,1:0|0:0,0:0:0:0:
251,38,350809,1,8,0:0:0:0:
142,98,350981,1,0,1:0:0:0:
142,98,351066,1,0,0:0:0:0:
142,98,351152,2,0,L|146:162,1,47.9999985351563,0|0,0:0|0:0,0:0:0:0:
153,248,351323,1,0,1:0:0:0:
238,300,351495,2,0,P|255:256|243:204,1,95.9999970703126,8|0,0:0|0:0,0:0:0:0:
144,145,351838,6,0,L|41:156,1,95.9999970703126,0|0,1:0|0:0,0:0:0:0:
4,260,352181,1,8,0:0:0:0:
60,359,352352,2,0,P|91:307|172:281,1,143.999995605469,0|0,1:0|0:0,0:0:0:0:
238,300,352695,1,0,1:0:0:0:
336,375,352866,1,8,0:0:0:0:
334,339,352952,1,0,1:0:0:0:
332,303,353038,1,0,1:0:0:0:
330,267,353123,1,0,1:0:0:0:
329,231,353209,6,0,P|321:184|283:140,1,95.9999970703126,0|0,1:0|0:0,0:0:0:0:
206,107,353552,1,8,0:0:0:0:
197,221,353723,1,0,1:0:0:0:
197,221,353809,1,0,0:0:0:0:
197,221,353895,2,0,L|282:214,1,47.9999985351563,0|0,0:0|0:0,0:0:0:0:
394,234,354066,1,0,1:0:0:0:
275,296,354238,2,0,L|177:306,1,95.9999970703126,8|0,0:0|0:0,0:0:0:0:
101,211,354581,6,0,L|196:220,1,95.9999970703126,0|0,1:0|0:0,0:0:0:0:
275,296,354923,1,8,0:0:0:0:
110,347,355095,2,0,P|86:269|102:207,1,143.999995605469,0|0,1:0|0:0,0:0:0:0:
151,150,355438,1,0,1:0:0:0:
163,266,355609,1,8,0:0:0:0:
178,298,355695,1,0,1:0:0:0:
204,323,355781,1,0,1:0:0:0:
238,336,355866,1,0,1:0:0:0:
274,336,355952,6,0,L|372:316,1,95.9999970703126,0|0,1:0|0:0,0:0:0:0:
415,226,356295,1,8,0:0:0:0:
288,153,356466,1,0,1:0:0:0:
288,153,356552,1,0,0:0:0:0:
288,153,356638,2,0,L|290:210,1,47.9999985351563,0|0,0:0|0:0,0:0:0:0:
196,280,356809,1,0,1:0:0:0:
120,200,356981,2,0,P|161:173|207:173,1,95.9999970703126,8|0,0:0|0:0,0:0:0:0:
109,282,357323,6,0,P|65:259|42:220,1,95.9999970703126,0|0,1:0|0:0,0:0:0:0:
22,133,357666,1,8,0:0:0:0:
135,56,357838,2,0,L|120:199,1,143.999995605469,0|0,1:0|0:0,0:0:0:0:
137,279,358181,2,0,L|129:350,1,47.9999985351563,0|0,1:0|0:0,0:0:0:0:
200,370,358352,5,8,0:0:0:0:
270,364,358438,5,8,0:0:0:0:
342,359,358523,5,8,0:0:0:0:
414,355,358609,6,0,L|465:352,1,47.9999985351563,8|0,0:0|0:0,0:0:0:0:
