osu file format v14

[General]
AudioFilename: audio.mp3
AudioLeadIn: 0
PreviewTime: 208621
Countdown: 1
SampleSet: None
StackLeniency: 0.7
Mode: 0
LetterboxInBreaks: 0
WidescreenStoryboard: 0

[Editor]
Bookmarks: 156810,167189,177567,187945,198324,208702,229459,250216
DistanceSpacing: 0.9
BeatDivisor: 4
GridSize: 4
TimelineZoom: 2.800005

[Metadata]
Title:CHRONO DIVER -NORNIR- (Nhato Remix)
TitleUnicode:CHRONO DIVER -NORNIR- (Nhato Remix)
Artist:Nhato
ArtistUnicode:Nhato
Creator:dima21
Version:WaRNiNG
Source:
Tags:
BeatmapID:1518065
BeatmapSetID:718780

[Difficulty]
HPDrainRate:4
CircleSize:3.5
OverallDifficulty:8.8
ApproachRate:9.5
SliderMultiplier:2.9
SliderTickRate:1

[Events]
//Background and Video events
0,0,"wrench-watch-dogs-2-video-game-wb-1920x1080.jpg",0,0
//Break Periods
2,146632,156285
//Storyboard Layer 0 (Background)
//Storyboard Layer 1 (Fail)
//Storyboard Layer 2 (Pass)
//Storyboard Layer 3 (Foreground)
//Storyboard Sound Samples

[TimingPoints]
1135,324.324324324324,4,1,0,49,1,0
42648,-166.666666666667,4,1,0,49,0,0
53026,-111.111111111111,4,1,0,49,0,0
73783,-90.9090909090909,4,1,0,49,0,0
74107,-62.5,4,1,0,49,0,0
74270,-90.9090909090909,4,1,0,49,0,0
75405,-62.5,4,1,0,49,0,0
75568,-90.9090909090909,4,1,0,49,0,0
76702,-62.5,4,1,0,49,0,0
76865,-90.9090909090909,4,1,0,49,0,0
77999,-62.5,4,1,0,49,0,0
78162,-90.9090909090909,4,1,0,49,0,0
78972,-83.3333333333333,4,1,0,49,0,0
79297,-71.4285714285714,4,1,0,49,0,0
79621,-62.5,4,1,0,49,0,0
79945,-55.5555555555556,4,1,0,49,0,0
82864,-90.9090909090909,4,1,0,49,0,0
84162,-66.6666666666667,4,1,0,49,0,1
84487,-166.666666666667,4,1,0,49,0,1
84649,-66.6666666666667,4,1,0,49,0,1
86433,-90.9090909090909,4,1,0,49,0,1
86595,-66.6666666666667,4,1,0,49,0,1
86918,-142.857142857143,4,1,0,49,0,1
87243,-90.9090909090909,4,1,0,49,0,1
87405,-66.6666666666667,4,1,0,49,0,1
88053,-99.9999999999999,4,1,0,49,0,1
88216,-66.6666666666667,4,1,0,49,0,1
88378,-200,4,1,0,49,0,1
88703,-76.9230769230769,4,1,0,49,0,1
89351,-66.6666666666667,4,1,0,49,0,1
89676,-133.333333333333,4,1,0,49,0,1
89838,-66.6666666666667,4,1,0,49,0,1
91297,-58.8235294117647,4,1,0,49,0,1
91459,-66.6666666666667,4,1,0,49,0,1
91622,-111.111111111111,4,1,0,49,0,1
91784,-66.6666666666667,4,1,0,49,0,1
92433,-142.857142857143,4,1,0,49,0,1
92595,-66.6666666666667,4,1,0,49,0,1
93568,-1000,4,1,0,49,0,1
93891,-55.5555555555556,4,1,0,49,0,1
94216,-125,4,1,0,49,0,1
94541,-55.5555555555556,4,1,0,49,0,1
95189,-90.9090909090909,4,1,0,49,0,1
95351,-66.6666666666667,4,1,0,49,0,1
96487,-100,4,1,0,49,0,1
96649,-66.6666666666667,4,1,0,49,0,1
96810,-100,4,1,0,49,0,1
96973,-66.6666666666667,4,1,0,49,0,1
97297,-50,4,1,0,49,0,1
97621,-100,4,1,0,49,0,1
97945,-66.6666666666667,4,1,0,49,0,1
98756,-133.333333333333,4,1,0,49,0,1
99081,-90.9090909090909,4,1,0,49,0,1
99243,-66.6666666666667,4,1,0,49,0,1
99406,-90.9090909090909,4,1,0,49,0,1
99730,-125,4,1,0,49,0,1
100054,-55.5555555555556,4,1,0,49,0,1
100379,-125,4,1,0,49,0,1
100702,-55.5555555555556,4,1,0,49,0,1
103621,-111.111111111111,4,1,0,49,0,1
104270,-55.5555555555556,4,1,0,49,0,1
104918,-50,4,1,0,49,0,0
105243,-76.9230769230769,4,1,0,49,0,0
106216,-20,4,1,0,49,0,0
106864,-33.3333333333333,4,1,0,49,0,0
107026,-66.6666666666667,4,1,0,49,0,0
107513,-76.9230769230769,4,1,0,49,0,0
110107,-76.9230769230769,4,1,0,49,0,0
111405,-62.5,4,1,0,49,0,0
112215,-76.9230769230769,4,1,0,49,0,0
120162,-20,4,1,0,49,0,0
120486,-76.9230769230769,4,1,0,49,0,0
124540,-66.6666666666667,4,1,0,49,0,0
124702,-55.5555555555556,4,1,0,49,0,0
124864,-45.4545454545455,4,1,0,49,0,0
125026,-37.037037037037,4,1,0,49,0,0
125189,-30.3030303030303,4,1,0,49,0,0
125675,-166.666666666667,4,1,0,49,0,0
136053,-100,4,1,0,49,0,0
137351,-1000,4,1,0,49,0,0
137999,-100,4,1,0,49,0,0
142540,-1000,4,1,0,49,0,0
143189,-100,4,1,0,49,0,0
156810,-111.111111111111,4,1,0,49,0,0
177567,-90.9090909090909,4,1,0,49,0,0
187945,-58.8235294117647,4,1,0,49,0,1
188270,-142.857142857143,4,1,0,49,0,1
188432,-58.8235294117647,4,1,0,49,0,1
188756,-71.4285714285714,4,1,0,49,0,1
189405,-58.8235294117647,4,1,0,49,0,1
190216,-142.857142857143,4,1,0,49,0,1
190378,-58.8235294117647,4,1,0,49,0,1
191026,-76.9230769230769,4,1,0,49,0,1
191188,-58.8235294117647,4,1,0,49,0,1
192162,-117.647058823529,4,1,0,49,0,1
192486,-66.6666666666667,4,1,0,49,0,1
192810,-100,4,1,0,49,0,1
193134,-58.8235294117647,4,1,0,49,0,1
193459,-142.857142857143,4,1,0,49,0,1
193621,-58.8235294117647,4,1,0,49,0,1
195080,-76.9230769230769,4,1,0,49,0,1
195242,-58.8235294117647,4,1,0,49,0,1
195405,-142.857142857143,4,1,0,49,0,1
195567,-58.8235294117647,4,1,0,49,0,1
196216,-111.111111111111,4,1,0,49,0,1
196378,-58.8235294117647,4,1,0,49,0,1
197351,-200,4,1,0,49,0,1
197675,-50,4,1,0,49,0,1
197999,-153.846153846153,4,1,0,49,0,1
198324,-50,4,1,0,49,0,1
198972,-111.111111111111,4,1,0,49,0,1
199134,-58.8235294117647,4,1,0,49,0,1
200270,-76.9230769230769,4,1,0,49,0,1
200432,-58.8235294117647,4,1,0,49,0,1
200594,-125,4,1,0,49,0,1
200756,-58.8235294117647,4,1,0,49,0,1
201405,-111.111111111111,4,1,0,49,0,1
201567,-58.8235294117647,4,1,0,49,0,1
202540,-117.647058823529,4,1,0,49,0,1
202864,-76.9230769230769,4,1,0,49,0,1
203026,-58.8235294117647,4,1,0,49,0,1
203189,-125,4,1,0,49,0,1
203513,-142.857142857143,4,1,0,49,0,1
203837,-71.4285714285714,4,1,0,49,0,1
204162,-142.857142857143,4,1,0,49,0,1
204486,-71.4285714285714,4,1,0,49,0,1
204810,-62.5,4,1,0,49,0,1
207405,-95.2380952380951,4,1,0,49,0,1
208053,-62.5,4,1,0,49,0,1
208702,-76.9230769230769,4,1,0,49,0,0
209999,-20,4,1,0,49,0,0
210648,-66.6666666666667,4,1,0,49,0,0
210809,-76.9230769230769,4,1,0,49,0,0
213890,-76.9230769230769,4,1,0,49,0,0
215188,-20,4,1,0,49,0,0
215837,-58.8235294117647,4,1,0,49,0,0
215998,-76.9230769230769,4,1,0,49,0,0
223945,-20,4,1,0,49,0,0
224269,-76.9230769230769,4,1,0,49,0,0
228323,-66.6666666666667,4,1,0,49,0,0
228485,-55.5555555555556,4,1,0,49,0,0
228647,-45.4545454545455,4,1,0,49,0,0
228809,-37.037037037037,4,1,0,49,0,0
228972,-30.3030303030303,4,1,0,49,0,0
229459,-142.857142857143,4,1,0,49,0,0

[HitObjects]
256,192,17999,12,0,21486,0:0:0:0:
200,116,21567,6,0,L|204:152,1,36.25
300,264,21891,6,0,L|312:88,1,145
320,16,22216,1,0,0:0:0:0:
292,360,22378,1,0,0:0:0:0:
72,216,22540,2,0,B|82:259|76:288|76:288|108:297|180:332,1,145
124,40,22864,5,0,0:0:0:0:
156,60,22945,1,0,0:0:0:0:
192,76,23026,1,0,0:0:0:0:
236,80,23107,1,0,0:0:0:0:
280,64,23189,2,0,P|368:84|420:136,1,145
400,296,23513,1,0,0:0:0:0:
252,196,23675,1,0,0:0:0:0:
428,144,23837,2,0,B|416:184|432:220|432:220|408:240|404:312,1,145
240,176,24161,5,0,0:0:0:0:
212,160,24242,1,0,0:0:0:0:
180,152,24323,1,0,0:0:0:0:
148,152,24404,1,0,0:0:0:0:
112,164,24486,2,0,B|87:229|104:272|104:272|79:268|72:248,1,145
176,32,24810,1,0,0:0:0:0:
178,230,24972,1,0,0:0:0:0:
340,96,25134,2,0,B|368:124|412:128|412:128|416:168|448:212,1,145
96,68,25459,6,0,L|180:100,3,72.5
196,168,25783,2,0,L|264:208,2,72.5
328,280,26107,1,0,0:0:0:0:
196,264,26270,1,0,0:0:0:0:
356,120,26432,1,0,0:0:0:0:
108,56,26594,5,0,0:0:0:0:
120,96,26675,1,0,0:0:0:0:
116,152,26756,1,0,0:0:0:0:
108,208,26837,1,0,0:0:0:0:
140,260,26918,1,0,0:0:0:0:
196,264,26999,1,0,0:0:0:0:
240,264,27080,6,0,P|328:284|380:336,1,145
288,44,27405,1,0,0:0:0:0:
196,184,27567,1,0,0:0:0:0:
451,201,27729,2,0,B|436:156|460:120|460:120|428:120|400:84,1,145
188,200,28053,5,0,0:0:0:0:
192,240,28134,1,0,0:0:0:0:
224,260,28215,1,0,0:0:0:0:
268,248,28296,1,0,0:0:0:0:
280,216,28378,2,0,B|320:236|368:220|368:220|420:288,1,145
96,160,28702,1,0,0:0:0:0:
328,148,28864,1,0,0:0:0:0:
28,115,29026,2,0,P|20:188|72:240,1,145
304,256,29350,5,0,0:0:0:0:
352,228,29431,1,0,0:0:0:0:
392,184,29512,1,0,0:0:0:0:
408,128,29593,1,0,0:0:0:0:
392,80,29675,2,0,B|348:92|320:64|320:64|306:101|264:135,1,145
192,260,29999,1,0,0:0:0:0:
384,180,30161,1,0,0:0:0:0:
231,1,30323,2,0,P|235:81|339:117,1,145
104,116,30647,5,0,0:0:0:0:
104,116,30728,1,0,0:0:0:0:
104,116,30809,1,0,0:0:0:0:
104,116,30890,1,0,0:0:0:0:
112,132,30972,5,0,0:0:0:0:
104,168,31053,1,0,0:0:0:0:
84,208,31134,1,0,0:0:0:0:
88,256,31216,1,0,0:0:0:0:
96,300,31297,5,0,0:0:0:0:
128,272,31378,1,0,0:0:0:0:
172,264,31459,1,0,0:0:0:0:
216,265,31540,1,0,0:0:0:0:
244,224,31621,5,0,0:0:0:0:
276,196,31702,1,0,0:0:0:0:
321,187,31783,1,0,0:0:0:0:
369,197,31864,1,0,0:0:0:0:
426,193,31945,5,0,0:0:0:0:
411,242,32026,1,0,0:0:0:0:
378,288,32107,1,0,0:0:0:0:
344,319,32189,1,0,0:0:0:0:
289,347,32270,6,0,B|287:286|287:286|300:255|300:255|300:177,1,145
192,220,32595,1,0,0:0:0:0:
384,180,32757,1,0,0:0:0:0:
188,180,32918,5,0,0:0:0:0:
384,148,33080,1,0,0:0:0:0:
140,36,33243,1,0,0:0:0:0:
148,56,33324,1,0,0:0:0:0:
160,76,33405,1,0,0:0:0:0:
176,92,33486,1,0,0:0:0:0:
196,96,33568,6,0,B|256:120|284:116|284:116|301:153|318:171,1,145
324,296,33892,1,0,0:0:0:0:
464,160,34054,1,0,0:0:0:0:
420,348,34216,1,0,0:0:0:0:
312,156,34378,1,0,0:0:0:0:
176,240,34540,5,0,0:0:0:0:
184,220,34621,1,0,0:0:0:0:
188,200,34702,1,0,0:0:0:0:
192,180,34783,1,0,0:0:0:0:
196,160,34865,2,0,B|183:117|183:117|118:144|88:216,1,145
168,344,35189,5,0,0:0:0:0:
12,196,35351,1,0,0:0:0:0:
176,328,35513,1,0,0:0:0:0:
20,168,35675,1,0,0:0:0:0:
273,28,35837,5,0,0:0:0:0:
228,40,35918,1,0,0:0:0:0:
200,72,35999,1,0,0:0:0:0:
196,116,36080,1,0,0:0:0:0:
216,156,36162,1,0,0:0:0:0:
256,172,36243,1,0,0:0:0:0:
300,168,36324,6,0,B|344:184|388:183|388:183|403:218|440:240,1,145
316,324,36649,1,0,0:0:0:0:
273,99,36811,1,0,0:0:0:0:
184,308,36973,5,0,0:0:0:0:
152,280,37054,1,0,0:0:0:0:
140,240,37135,1,0,0:0:0:0:
152,200,37216,1,0,0:0:0:0:
148,156,37297,1,0,0:0:0:0:
128,116,37378,1,0,0:0:0:0:
108,76,37459,2,0,B|160:76|186:44|186:44|184:76|248:148,1,145
228,236,37784,5,0,0:0:0:0:
60,184,37946,1,0,0:0:0:0:
264,40,38108,2,0,B|297:82|276:134|276:134|308:132|372:156,1,145
207,96,38432,5,0,0:0:0:0:
250,100,38513,1,0,0:0:0:0:
293,103,38594,1,0,0:0:0:0:
331,83,38675,1,0,0:0:0:0:
364,54,38757,2,0,B|417:68|451:70|451:70|466:97|504:126,1,145
391,220,39081,1,0,0:0:0:0:
133,244,39243,1,0,0:0:0:0:
296,338,39405,1,0,0:0:0:0:
207,96,39567,1,0,0:0:0:0:
411,107,39729,5,0,0:0:0:0:
370,92,39810,1,0,0:0:0:0:
326,90,39891,1,0,0:0:0:0:
289,114,39972,1,0,0:0:0:0:
266,151,40054,2,0,B|226:180|224:228|224:228|184:200|138:206,1,145
76,103,40378,1,0,0:0:0:0:
116,290,40540,1,0,0:0:0:0:
178,65,40702,1,0,0:0:0:0:
7,281,40864,1,0,0:0:0:0:
165,155,41026,5,0,0:0:0:0:
133,181,41107,1,0,0:0:0:0:
93,199,41188,1,0,0:0:0:0:
43,196,41269,1,0,0:0:0:0:
0,162,41351,1,0,0:0:0:0:
256,192,41432,12,0,42243,0:0:0:0:
200,136,42324,6,0,P|124:162|92:272,1,145
208,288,42648,6,0,P|168:236|232:272,2,173.999994689942
300,77,43459,2,0,B|307:121|330:152|330:152|317:198|352:273,1,173.999994689942
116,116,43945,2,0,B|44:76|44:76|44:160|44:160|140:216,2,260.999992034912
264,96,45243,6,0,B|270:155|317:186|317:186|273:213|264:248,1,173.999994689942
188,124,45729,2,0,P|228:24|300:24,1,173.999994689942
255,323,46216,2,0,P|198:277|167:263,1,86.9999973449708
272,168,46540,6,0,P|352:176|416:96,1,173.999994689942
148,116,47026,2,0,B|134:228|134:228|192:292,1,173.999994689942
312,228,47513,2,0,L|308:112,1,86.9999973449708
382,52,47837,6,0,B|413:77|408:116|408:116|376:136|398:236,2,173.999994689942
220,234,48648,2,0,P|200:196|197:153,2,86.9999973449708
78,206,49134,2,0,B|114:246|92:296|92:296|128:296|178:342,1,173.999994689942
272,64,49621,6,0,B|206:86|206:86|176:56|176:56|104:80,1,173.999994689942
78,206,50107,6,0,B|136:186|136:186|166:216|166:216|232:194,1,173.999994689942
256,192,50513,12,0,51648,0:0:0:0:
256,192,51729,12,0,52621,0:0:0:0:
352,108,52702,6,0,L|348:160,3,43.4999986724854
344,160,53026,6,0,L|328:308,1,130.499996017456
361,22,53351,1,0,0:0:0:0:
143,126,53513,2,0,L|167:278,1,130.499996017456
125,38,53837,1,0,0:0:0:0:
329,289,53999,6,0,L|344:160,1,130.499996017456
323,384,54324,1,0,0:0:0:0:
103,255,54486,2,0,P|195:275|255:323,1,130.499996017456
13,256,54810,1,0,0:0:0:0:
176,28,54972,6,0,P|154:53|120:76,3,65.2499980087281
264,52,55297,2,0,P|297:69|328:108,3,65.2499980087281
168,181,55621,6,0,B|192:240|192:240|184:329,1,130.499996017456
258,157,55946,1,0,0:0:0:0:
360,72,56108,2,0,B|368:128|368:128|336:224,1,130.499996017456
453,51,56432,1,0,0:0:0:0:
258,157,56594,2,0,B|280:112|280:112|271:22,1,130.499996017456
325,286,56918,2,0,B|276:300|248:292|248:292|230:314|173:354,1,130.499996017456
142,238,57243,2,0,B|187:203|224:196|224:196|254:146,1,130.499996017456
420,144,57567,1,0,0:0:0:0:
260,44,57729,5,0,0:0:0:0:
240,40,57811,1,0,0:0:0:0:
212,40,57892,1,0,0:0:0:0:
420,144,58054,1,0,0:0:0:0:
318,304,58216,6,0,L|332:174,1,130.499996017456
240,374,58541,1,0,0:0:0:0:
162,161,58703,2,0,L|186:313,1,130.499996017456
80,94,59027,1,0,0:0:0:0:
293,142,59189,2,0,B|265:112|268:72|268:72|223:57|193:10,1,130.499996017456
58,78,59514,1,0,0:0:0:0:
55,272,59676,2,0,B|103:284|132:284|132:284|207:340,1,130.499996017456
169,165,59999,1,0,0:0:0:0:
300,158,60162,6,0,L|312:230,3,65.2499980087281
352,72,60486,2,0,L|340:0,3,65.2499980087281
441,177,60810,6,0,L|425:325,1,130.499996017456
288,332,61135,1,0,0:0:0:0:
210,134,61297,2,0,L|234:286,1,130.499996017456
192,33,61621,1,0,0:0:0:0:
60,240,61783,2,0,P|76:155|97:106,1,130.499996017456
104,332,62108,1,0,0:0:0:0:
262,315,62270,6,0,L|190:291,3,65.2499980087281
220,194,62594,6,0,L|288:190,3,65.2499980087281
264,52,62918,1,0,0:0:0:0:
315,50,62999,1,0,0:0:0:0:
366,40,63080,1,0,0:0:0:0:
413,24,63161,1,0,0:0:0:0:
399,74,63242,1,0,0:0:0:0:
399,125,63323,1,0,0:0:0:0:
416,154,63405,6,0,P|408:211|432:302,1,130.499996017456
339,360,63730,1,0,0:0:0:0:
202,194,63892,2,0,P|200:276|178:346,1,130.499996017456
114,97,64216,1,0,0:0:0:0:
0,328,64378,2,0,P|30:204|70:164,1,130.499996017456
197,60,64703,1,0,0:0:0:0:
424,84,64865,2,0,P|358:102|264:92,1,130.499996017456
169,269,65189,6,0,P|253:225|281:177,1,130.499996017456
371,175,65432,1,0,0:0:0:0:
324,217,65513,1,0,0:0:0:0:
332,279,65594,1,0,0:0:0:0:
387,308,65675,1,0,0:0:0:0:
443,280,65756,1,0,0:0:0:0:
452,217,65837,1,0,0:0:0:0:
406,175,65918,1,0,0:0:0:0:
371,175,66000,6,0,P|373:106|385:45,1,130.499996017456
270,116,66325,1,0,0:0:0:0:
146,150,66487,2,0,P|172:220|170:302,1,130.499996017456
25,80,66811,1,0,0:0:0:0:
74,313,66973,2,0,P|33:269|34:165,1,130.499996017456
243,133,67297,2,0,P|193:91|130:85,1,130.499996017456
191,337,67621,2,0,P|247:306|278:249,1,130.499996017456
155,213,67946,1,0,0:0:0:0:
252,44,68108,5,0,0:0:0:0:
252,44,68190,1,0,0:0:0:0:
252,44,68271,1,0,0:0:0:0:
119,79,68433,1,0,0:0:0:0:
234,182,68595,2,0,L|250:330,1,130.499996017456
309,118,68920,1,0,0:0:0:0:
416,165,69082,2,0,L|392:317,1,130.499996017456
497,82,69406,1,0,0:0:0:0:
208,191,69568,2,0,B|253:131|260:88|260:88|308:59,1,130.499996017456
268,252,69891,6,0,P|176:272|132:236,1,130.499996017456
404,136,70216,1,0,0:0:0:0:
204,192,70379,2,0,P|297:173|337:200,1,130.499996017456
296,40,70622,5,0,0:0:0:0:
268,68,70703,1,0,0:0:0:0:
236,44,70785,1,0,0:0:0:0:
208,72,70866,1,0,0:0:0:0:
176,52,70947,1,0,0:0:0:0:
148,76,71028,1,0,0:0:0:0:
120,52,71109,1,0,0:0:0:0:
96,84,71189,2,0,P|99:146|112:232,1,130.499996017456
232,288,71514,1,0,0:0:0:0:
360,72,71676,6,0,P|355:139|336:224,1,130.499996017456
236,312,72000,1,0,0:0:0:0:
108,213,72162,2,0,P|99:149|95:84,1,130.499996017456
236,312,72487,1,0,0:0:0:0:
352,212,72649,2,0,L|424:188,3,65.2499980087281
280,144,72973,2,0,L|212:140,3,65.2499980087281
108,224,73297,5,0,0:0:0:0:
108,184,73379,1,0,0:0:0:0:
116,148,73460,1,0,0:0:0:0:
136,116,73541,1,0,0:0:0:0:
164,88,73622,1,0,0:0:0:0:
200,72,73703,1,0,0:0:0:0:
240,48,73783,6,0,B|245:98|276:124|276:124|252:160|252:224,1,159.500004867554
264,192,74107,2,0,B|272:131|341:120|341:120|279:99|251:48,1,232
184,180,74432,5,0,0:0:0:0:
160,12,74594,1,0,0:0:0:0:
168,192,74756,1,0,0:0:0:0:
136,8,74918,1,0,0:0:0:0:
72,352,75080,6,0,B|128:319|128:319|145:285|145:285|208:249,1,159.500004867554
212,208,75405,6,0,B|122:259|122:259|91:321|91:321|-11:381,1,232
96,168,75729,5,0,0:0:0:0:
250,322,75891,1,0,0:0:0:0:
405,163,76053,1,0,0:0:0:0:
246,7,76216,1,0,0:0:0:0:
208,160,76378,6,0,B|186:207|173:281|173:281|161:232,1,159.500004867554
165,248,76702,6,0,B|177:298|177:298|197:192|227:125,1,232
236,40,77026,5,0,0:0:0:0:
252,296,77189,1,0,0:0:0:0:
328,36,77351,1,0,0:0:0:0:
165,248,77513,1,0,0:0:0:0:
300,96,77675,6,0,B|326:178|326:178|312:272,1,159.500004867554
284,321,77999,6,0,B|266:201|266:201|308:67,1,232
192,280,78324,5,0,0:0:0:0:
299,95,78486,1,0,0:0:0:0:
284,321,78648,1,0,0:0:0:0:
212,80,78810,1,0,0:0:0:0:
104,276,78972,6,0,B|121:191|121:191|104:88,1,159.500004867554
112,100,79297,6,0,B|127:192|127:192|105:302,1,202.999993804932
120,312,79621,6,0,B|146:177|146:177|128:64,1,232
164,64,79945,6,0,B|183:184|183:184|155:328,1,260.999992034912
272,128,80270,5,0,0:0:0:0:
488,132,80432,1,0,0:0:0:0:
320,256,80594,1,0,0:0:0:0:
364,44,80756,1,0,0:0:0:0:
456,280,80918,5,0,0:0:0:0:
192,168,81080,1,0,0:0:0:0:
500,84,81243,1,0,0:0:0:0:
332,312,81405,1,0,0:0:0:0:
172,156,81567,5,0,0:0:0:0:
172,156,81648,1,0,0:0:0:0:
172,156,81729,1,0,0:0:0:0:
172,156,81810,1,0,0:0:0:0:
172,156,81891,1,0,0:0:0:0:
172,156,81972,1,0,0:0:0:0:
172,156,82053,1,0,0:0:0:0:
172,156,82134,1,0,0:0:0:0:
176,160,82216,5,0,0:0:0:0:
205,142,82297,1,0,0:0:0:0:
208,104,82378,1,0,0:0:0:0:
180,76,82459,1,0,0:0:0:0:
140,80,82540,1,0,0:0:0:0:
128,104,82621,1,0,0:0:0:0:
128,132,82702,1,0,0:0:0:0:
148,152,82783,1,0,0:0:0:0:
168,160,82864,6,0,P|148:76|172:160,1,239.250007301331
293,148,83189,2,0,P|285:64|225:0,1,159.500004867554
88,220,83513,2,0,P|200:244|252:224,2,159.500004867554
309,161,83999,1,0,0:0:0:0:
269,233,84162,6,0,P|229:165|330:82,1,217.500008296967
432,72,84487,2,0,B|395:98|395:98|398:197|398:197|434:229,1,173.999994689942
309,161,84973,2,0,B|316:145|304:106|304:106|339:168|394:190|394:190|431:227,1,217.500008296967
137,350,85297,2,0,B|150:254|150:254|183:235|183:235|198:119,1,217.500008296967
202,154,85621,6,0,B|192:236|192:236|166:250,1,108.750004148483
128,350,85783,2,0,B|141:254|141:254|174:235|174:235|189:119,1,217.500008296967
176,36,86107,5,0,0:0:0:0:
176,36,86189,1,0,0:0:0:0:
176,36,86270,2,0,B|236:32|236:32|284:48,1,108.750004148483
348,252,86432,5,0,0:0:0:0:
348,252,86514,1,0,0:0:0:0:
348,252,86595,2,0,B|288:256|288:256|240:240,1,108.750004148483
282,47,86757,1,0,0:0:0:0:
130,215,86919,2,0,B|173:178|173:178|228:154,1,101.499996902466
0,292,87243,2,0,B|70:274|70:274|132:214,1,159.500004867554
222,159,87567,2,0,B|173:178|173:178|117:228,1,108.750004148483
164,344,87730,5,0,0:0:0:0:
164,344,87810,1,0,0:0:0:0:
164,344,87892,2,0,P|231:336|274:313,1,108.750004148483
460,256,88054,2,0,P|424:239|389:235,1,72.5
272,328,88216,6,0,P|222:350|168:354,1,108.750004148483
388,224,88378,2,0,P|423:229|456:245,1,72.5
196,216,88703,6,0,P|236:136|244:208,1,188.499991371155
193,51,88945,1,0,0:0:0:0:
193,51,89027,2,0,P|94:132|109:240,1,188.499991371155
287,345,89351,6,0,L|284:128,1,217.500008296967
287,236,89676,2,0,L|284:112,1,108.750004148483
280,20,90000,1,0,0:0:0:0:
389,264,90162,6,0,B|368:199|368:199|365:135,1,108.750004148483
200,136,90324,1,0,0:0:0:0:
200,176,90405,1,0,0:0:0:0:
200,216,90487,2,0,B|200:387|200:387|121:343|121:343|120:236,1,326.25001244545
119,168,90811,2,0,L|122:317,1,108.750004148483
288,380,90973,2,0,L|282:131,1,217.500008296967
119,168,91297,2,0,B|152:88|152:88|251:69|251:69|206:168|206:168|287:159,1,369.750007052422
360,152,91622,6,0,L|440:144,3,65.2499980087281
508,140,91946,1,0,0:0:0:0:
481,291,92108,2,0,B|429:309|386:284|386:284|365:320|365:320|316:300|266:311,1,217.500008296967
384,281,92433,2,0,P|443:297|483:288,1,101.499996902466
294,157,92757,5,0,0:0:0:0:
245,157,92838,1,0,0:0:0:0:
245,206,92919,1,0,0:0:0:0:
294,206,93000,1,0,0:0:0:0:
308,144,93080,1,0,0:0:0:0:
232,144,93162,1,0,0:0:0:0:
224,228,93243,6,0,P|237:310|232:356,1,108.750004148483
312,228,93406,1,0,0:0:0:0:
152,282,93568,2,0,L|152:296,1,14.5
83,232,93891,6,0,P|71:284|71:339,1,108.750004148483
235,335,94053,6,0,P|235:280|224:228,1,108.750004148483
48,336,94216,6,0,P|47:281|59:228,1,108.750004148483
72,73,94541,6,0,B|80:149|80:149|113:160|152:213,1,130.499996017456
296,173,94703,2,0,B|287:139|273:100|273:100|255:76|236:58,1,130.499996017456
156,99,94865,2,0,B|193:126|212:169|212:169|215:219|215:219|253:247|253:247|263:291|311:323,1,260.999992034912
401,126,95189,6,0,B|405:197|389:286|389:286|441:190,1,239.250007301331
464,36,95514,1,0,0:0:0:0:
432,64,95595,1,0,0:0:0:0:
401,126,95676,2,0,B|404:200|404:200|392:252,1,108.750004148483
368,344,95838,5,0,0:0:0:0:
207,241,96000,2,0,B|196:180|196:180|203:133,1,108.750004148483
204,24,96162,2,0,B|228:118|228:118|208:248,1,217.500008296967
208,384,96487,6,0,B|200:314|200:314|208:219,1,145
204,24,96730,1,0,0:0:0:0:
204,24,96810,2,0,B|182:119|182:119|186:166,1,145
205,168,97053,1,0,0:0:0:0:
205,168,97135,1,0,0:0:0:0:
328,228,97297,6,0,P|405:128|335:242,1,435
434,204,97621,2,0,P|360:185|424:228,1,217.5
283,324,97946,6,0,B|232:320|232:320|176:332,1,108.750004148483
128,248,98108,1,0,0:0:0:0:
136,248,98189,1,0,0:0:0:0:
144,248,98270,6,0,B|200:243|200:243|276:192,1,108.750004148483
456,116,98433,2,0,B|396:119|396:119|356:159,1,108.750004148483
240,184,98595,2,0,B|184:185|184:185|124:228,1,108.750004148483
356,188,98757,2,0,B|419:182|419:182|472:140,1,108.750004148483
308,32,99080,2,0,B|264:48|264:48|235:38|235:38|169:57,1,108.750004148483
8,116,99324,1,0,0:0:0:0:
11,123,99405,2,0,B|51:98|82:107|82:107|123:61|123:61|168:64|244:38,1,217.500008296967
304,40,99730,6,0,P|292:106|308:208,1,116
310,300,100054,2,0,P|325:198|304:40,1,260.999992034912
120,308,100379,6,0,P|125:253|108:158,1,116
112,56,100703,2,0,B|100:104|100:104|116:132|116:132|107:180|107:180|101:264|124:312,1,260.999992034912
320,168,101027,6,0,P|400:128|328:212,1,260.999992034912
360,40,101351,1,0,0:0:0:0:
376,328,101514,2,0,B|304:340|304:340|204:316,1,130.499996017456
372,48,101676,5,0,0:0:0:0:
384,56,101757,1,0,0:0:0:0:
400,80,101838,2,0,B|415:151|415:151|396:228,1,130.499996017456
164,344,102000,2,0,B|228:352|228:352|293:325,1,130.499996017456
61,207,102162,1,0,0:0:0:0:
160,332,102324,5,0,0:0:0:0:
152,316,102406,1,0,0:0:0:0:
144,304,102487,2,0,B|84:256|84:256|48:176,1,130.499996017456
296,152,102649,1,0,0:0:0:0:
332,336,102811,5,0,0:0:0:0:
320,312,102892,1,0,0:0:0:0:
304,284,102973,2,0,B|283:224|283:224|290:154,1,130.499996017456
424,80,103135,1,0,0:0:0:0:
432,280,103297,5,0,0:0:0:0:
456,248,103379,1,0,0:0:0:0:
477,198,103460,2,0,B|467:131|467:131|421:74,1,130.499996017456
200,68,103621,5,0,0:0:0:0:
234,121,103702,1,0,0:0:0:0:
216,182,103783,1,0,0:0:0:0:
159,209,103864,1,0,0:0:0:0:
101,185,103945,1,0,0:0:0:0:
80,125,104026,1,0,0:0:0:0:
111,70,104107,1,0,0:0:0:0:
173,57,104188,1,0,0:0:0:0:
200,68,104270,6,0,B|246:70|272:61|272:61|290:77|326:86,1,130.499996017456
456,156,104432,6,0,B|409:158|384:149|384:149|365:165|332:173,1,130.499996017456
152,132,104595,2,0,B|135:189|160:244|160:244|128:292|128:292|148:341|124:460,1,260.999992034912
287,126,104918,6,0,P|276:227|256:128,1,290
256,376,105243,2,0,L|272:172,1,188.499991371155
345,233,105567,2,0,B|336:348|336:348|376:320|405:323,1,188.499991371155
244,372,105891,1,0,0:0:0:0:
216,344,105972,1,0,0:0:0:0:
208,292,106053,1,0,0:0:0:0:
228,240,106134,1,0,0:0:0:0:
256,192,106216,6,0,P|188:144|280:184,1,362.5
256,192,106378,2,0,P|324:240|232:200,1,362.5
244,196,106540,2,0,P|230:277|226:177,1,362.5
244,196,106702,2,0,P|263:105|261:214,1,362.5
233,205,106864,2,0,B|195:191|162:205|162:205|143:161|103:158|103:158|65:167|2:123|40:156,1,217.500008296967
39,146,107026,6,0,B|67:74|67:74|152:66|208:122,2,217.500008296967
280,136,107513,2,0,P|275:79|236:24,1,94.2499956855776
251,300,107675,1,0,0:0:0:0:
268,148,107837,1,0,0:0:0:0:
124,160,107999,6,0,B|108:206|70:236|70:236|77:280|56:344,1,188.499991371155
168,300,108324,2,0,P|256:276|196:324,1,188.499991371155
336,280,108567,5,0,0:0:0:0:
320,216,108648,1,0,0:0:0:0:
268,168,108729,1,0,0:0:0:0:
202,155,108810,2,0,P|109:204|95:343,1,188.499991371155
208,384,109134,1,0,0:0:0:0:
76,283,109297,6,0,B|8:318|8:318|-14:209|60:149,1,188.499991371155
288,136,109621,2,0,B|240:100|193:111|193:111|206:67|168:8,2,188.499991371155
224,192,110107,6,0,P|172:268|252:272,1,188.499991371155
396,228,110432,2,0,B|340:237|340:237|280:224|280:224|208:240,1,188.499991371155
392,272,110756,6,0,P|444:196|364:192,1,188.499991371155
256,352,111080,1,0,0:0:0:0:
228,348,111161,1,0,0:0:0:0:
192,328,111242,1,0,0:0:0:0:
164,292,111323,1,0,0:0:0:0:
136,232,111405,6,0,B|163:163|163:163|228:108,1,116
336,148,111567,2,0,B|315:208|315:208|259:255,1,116
204,124,111729,1,0,0:0:0:0:
280,252,111891,2,0,B|319:218|319:218|340:158,1,116
128,216,112053,1,0,0:0:0:0:
336,148,112215,6,0,B|406:95|406:95|408:38|408:38|350:79,2,188.499991371155
450,242,112702,6,0,B|448:193|461:156|461:156|355:238,1,188.499991371155
252,316,113026,1,0,0:0:0:0:
195,122,113188,2,0,B|218:199|256:229|256:229|201:226|127:306,1,188.499991371155
149,338,113513,6,0,B|181:310|205:302|205:302|203:277|192:248|192:248|223:227|275:231,1,188.499991371155
412,260,113756,2,0,P|324:200|316:180,2,94.2499956855776
384,29,113999,2,0,B|347:53|302:56|302:56|307:94|307:94|283:126|276:166,1,188.499991371155
292,312,114323,1,0,0:0:0:0:
160,160,114486,2,0,B|192:218|185:248|185:248|230:256|272:304,1,188.499991371155
420,116,114810,1,0,0:0:0:0:
324,248,114972,6,0,B|300:204|300:204|252:156,1,94.2499956855776
300,108,115134,2,0,B|252:71|252:71|228:24,1,94.2499956855776
180,36,115297,5,0,0:0:0:0:
144,76,115378,1,0,0:0:0:0:
132,140,115459,2,0,P|136:216|172:260,1,94.2499956855776
188,56,115621,5,0,0:0:0:0:
152,96,115702,1,0,0:0:0:0:
140,160,115783,2,0,P|144:236|180:280,1,94.2499956855776
264,268,115945,5,0,0:0:0:0:
269,261,116026,1,0,0:0:0:0:
276,256,116107,1,0,0:0:0:0:
283,249,116189,1,0,0:0:0:0:
292,248,116270,6,0,L|300:192,1,47.1249978427888
292,248,116351,2,0,L|336:212,1,47.1249978427888
292,248,116432,2,0,L|368:248,1,47.1249978427888
296,260,116513,2,0,L|340:288,1,47.1249978427888
290,115,116594,5,0,0:0:0:0:
264,92,116675,1,0,0:0:0:0:
224,72,116756,2,0,B|180:68|180:68|128:72,1,94.2499956855776
86,87,116917,5,0,0:0:0:0:
143,58,116998,1,0,0:0:0:0:
214,59,117080,2,0,B|252:76|252:76|290:115,1,94.2499956855776
244,328,117243,5,0,0:0:0:0:
252,324,117324,1,0,0:0:0:0:
260,320,117405,2,0,B|248:264|248:264|212:196,1,94.2499956855776
80,212,117567,5,0,0:0:0:0:
80,220,117648,1,0,0:0:0:0:
80,228,117729,2,0,B|97:288|97:288|128:344,1,94.2499956855776
296,140,117891,5,0,0:0:0:0:
336,116,117972,1,0,0:0:0:0:
384,124,118053,1,0,0:0:0:0:
416,160,118134,1,0,0:0:0:0:
428,204,118216,2,0,P|420:282|386:333,1,94.2499956855776
324,384,118378,2,0,P|309:339|309:292,1,94.2499956855776
180,116,118540,5,0,0:0:0:0:
176,144,118621,1,0,0:0:0:0:
172,172,118702,2,0,B|186:234|186:234|176:296,1,94.2499956855776
28,180,118864,5,0,0:0:0:0:
32,152,118945,1,0,0:0:0:0:
44,128,119026,1,0,0:0:0:0:
64,108,119107,1,0,0:0:0:0:
80,84,119189,2,0,B|109:75|135:31|135:31|181:15|272:16,1,188.499991371155
408,120,119432,5,0,0:0:0:0:
400,124,119513,1,0,0:0:0:0:
404,132,119594,1,0,0:0:0:0:
412,127,119675,1,0,0:0:0:0:
340,108,119756,5,0,0:0:0:0:
272,136,119837,1,0,0:0:0:0:
236,204,119918,1,0,0:0:0:0:
256,276,119999,1,0,0:0:0:0:
324,308,120080,1,0,0:0:0:0:
384,284,120162,2,0,P|448:272|408:300,4,181.25
176,100,120486,5,0,0:0:0:0:
180,108,120567,1,0,0:0:0:0:
188,116,120648,1,0,0:0:0:0:
192,124,120729,1,0,0:0:0:0:
248,160,120810,5,0,0:0:0:0:
292,112,120891,1,0,0:0:0:0:
356,100,120972,1,0,0:0:0:0:
420,112,121053,1,0,0:0:0:0:
452,172,121134,5,0,0:0:0:0:
448,180,121216,1,0,0:0:0:0:
444,188,121297,1,0,0:0:0:0:
440,196,121378,1,0,0:0:0:0:
400,236,121459,5,0,0:0:0:0:
348,260,121540,1,0,0:0:0:0:
292,268,121621,1,0,0:0:0:0:
236,268,121702,1,0,0:0:0:0:
168,256,121783,6,0,B|203:195|203:195|212:148,1,94.2499956855776
348,260,121945,6,0,B|313:199|313:199|304:152,1,94.2499956855776
128,151,122107,6,0,P|199:88|256:96,1,94.2499956855776
384,151,122270,6,0,P|313:88|256:96,1,94.2499956855776
32,56,122431,6,0,B|88:60|88:60|149:15,1,94.2499956855776
480,56,122594,2,0,B|424:60|424:60|363:15,1,94.2499956855776
260,352,122756,2,0,L|256:220,1,94.2499956855776
248,28,122918,5,0,0:0:0:0:
248,48,122999,1,0,0:0:0:0:
248,76,123080,2,0,B|264:148|264:148|260:184|260:184|250:233|250:233|263:288,2,188.499991371155
400,260,123567,6,0,B|382:211|339:184|339:184|355:141|326:80,1,188.499991371155
190,318,123891,2,0,P|274:378|190:302,1,376.99998274231
164,189,124378,6,0,P|210:166|257:155,1,94.2499956855776
360,196,124540,2,0,P|312:168|252:156,1,108.750004148483
139,106,124702,6,0,P|216:124|256:160,1,130.499996017456
404,120,124864,2,0,P|320:124|256:160,1,159.500004867554
119,22,125026,6,0,P|212:64|256:164,1,195.750000746727
443,48,125189,2,0,P|312:68|252:168,1,239.250002281666
250,374,125351,6,0,B|237:288|237:288|264:237|264:237|250:134,1,239.250002281666
252,144,125513,1,0,0:0:0:0:
152,256,125675,6,0,P|112:204|160:251,2,173.999994689942
238,286,126486,2,0,B|264:215|235:168|235:168|285:201|295:225,1,173.999994689942
432,208,126972,6,0,B|344:304|344:304|422:344|422:344|461:302,2,260.999992034912
296,64,128270,6,0,B|325:130|366:160|366:160|304:227,1,173.999994689942
197,162,128756,2,0,P|237:66|309:70,1,173.999994689942
356,328,129243,2,0,P|292:268|268:268,1,86.9999973449708
272,140,129567,6,0,P|348:123|356:20,1,173.999994689942
116,168,130053,2,0,B|112:274|112:274|160:344,1,173.999994689942
200,236,130540,2,0,L|200:120,1,86.9999973449708
356,92,130864,6,0,B|365:120|356:152|356:152|378:178|378:178|360:216|381:275,2,173.999994689942
228,40,131675,1,0,0:0:0:0:
176,152,131837,6,0,P|204:240|216:252,1,86.9999973449708
296,371,132161,6,0,B|256:320|260:282|260:282|220:264|199:234,1,173.999994689942
336,136,132648,6,0,B|304:132|274:102|274:102|217:111|176:168,1,173.999994689942
124,236,133134,2,0,P|104:200|102:147,1,86.9999973449708
256,192,133459,12,0,134675,0:0:0:0:
256,192,134756,12,0,135972,0:0:0:0:
144,64,136053,5,0,0:0:0:0:
96,172,136216,1,0,0:0:0:0:
212,160,136378,1,0,0:0:0:0:
168,268,136540,6,0,B|184:320|168:380|168:380|204:336,1,145
297,217,136864,2,0,B|297:268|320:316|320:316|294:292|276:284,1,145
232,80,137189,1,0,0:0:0:0:
112,164,137351,6,0,L|116:188,1,21.75
256,320,137675,2,0,L|248:296,1,21.75
196,132,137999,5,0,0:0:0:0:
278,49,138162,1,0,0:0:0:0:
359,130,138324,1,0,0:0:0:0:
277,211,138486,1,0,0:0:0:0:
188,136,138648,5,0,0:0:0:0:
116,228,138810,1,0,0:0:0:0:
72,120,138972,1,0,0:0:0:0:
116,228,139134,6,0,B|166:250|166:250|189:293|189:293|240:320,1,145
29,249,139459,2,0,P|44:179|103:140,1,145
100,376,139783,6,0,B|99:322|99:322|114:290|114:290|116:234,1,145
276,246,140107,6,0,P|308:327|270:388,1,145
228,312,140432,6,0,B|242:260|231:233|231:233|260:212|276:164,1,145
132,256,140756,5,0,0:0:0:0:
156,368,140918,1,0,0:0:0:0:
184,160,141080,1,0,0:0:0:0:
312,248,141243,5,0,0:0:0:0:
336,152,141405,1,0,0:0:0:0:
268,92,141567,1,0,0:0:0:0:
312,248,141729,2,0,P|386:231|430:149,1,145
268,92,142053,2,0,P|360:68|424:120,1,145
412,104,142378,5,0,0:0:0:0:
304,244,142540,6,0,L|280:236,1,21.75
136,144,142864,2,0,L|153:157,1,21.75
304,244,143189,5,0,0:0:0:0:
136,144,143351,1,0,0:0:0:0:
272,144,143513,5,0,0:0:0:0:
272,144,143594,1,0,0:0:0:0:
272,144,143675,1,0,0:0:0:0:
272,144,143756,1,0,0:0:0:0:
272,144,143837,5,0,0:0:0:0:
244,248,143999,1,0,0:0:0:0:
368,200,144162,1,0,0:0:0:0:
144,348,144324,6,0,B|168:300|148:252|148:252|176:188,1,145
424,288,144648,2,0,B|393:325|380:352|380:352|335:360|313:393,1,145
280,92,144972,6,0,P|229:228|116:56,1,435
331,20,145621,6,0,P|362:80|355:208,1,145
184,128,145945,1,0,0:0:0:0:
80,296,146107,1,0,0:0:0:0:
299,282,146270,2,0,P|353:209|369:141,1,145
344,160,156810,6,0,B|328:224|328:224|328:308,1,130.499996017456
380,72,157135,1,0,0:0:0:0:
208,160,157297,6,0,B|231:223|231:223|232:312,1,130.499996017456
160,80,157621,1,0,0:0:0:0:
268,72,157783,5,0,0:0:0:0:
260,92,157864,1,0,0:0:0:0:
272,108,157945,1,0,0:0:0:0:
292,104,158026,1,0,0:0:0:0:
292,84,158107,2,0,B|343:61|389:84|389:84|416:56,1,130.499996017456
340,156,158432,1,0,0:0:0:0:
444,228,158594,2,0,P|360:184|332:136,1,130.499996017456
216,60,158837,5,0,0:0:0:0:
188,75,158918,1,0,0:0:0:0:
168,99,158999,1,0,0:0:0:0:
159,128,159080,5,0,0:0:0:0:
161,159,159161,1,0,0:0:0:0:
184,216,159242,1,0,0:0:0:0:
216,244,159323,1,0,0:0:0:0:
253,223,159405,6,0,B|259:266|279:288|279:288|262:317|269:371,1,130.499996017456
243,134,159730,1,0,0:0:0:0:
388,112,159892,2,0,B|372:152|383:187|383:187|354:210|348:252,1,130.499996017456
268,356,160216,1,0,0:0:0:0:
88,192,160378,5,0,0:0:0:0:
115,164,160459,1,0,0:0:0:0:
142,136,160540,1,0,0:0:0:0:
169,108,160621,1,0,0:0:0:0:
196,80,160702,1,0,0:0:0:0:
223,52,160783,1,0,0:0:0:0:
249,23,160864,1,0,0:0:0:0:
232,168,161027,6,0,L|338:56,1,130.499996017456
288,236,161351,1,0,0:0:0:0:
446,54,161513,1,0,0:0:0:0:
420,83,161595,1,0,0:0:0:0:
394,112,161676,1,0,0:0:0:0:
368,141,161756,1,0,0:0:0:0:
342,169,161837,1,0,0:0:0:0:
316,198,161918,1,0,0:0:0:0:
288,236,162000,6,0,B|248:288|248:288|184:288,1,130.499996017456
229,144,162325,1,0,0:0:0:0:
121,184,162487,2,0,B|131:254|131:254|218:310,1,130.499996017456
232,136,162811,1,0,0:0:0:0:
400,204,162972,5,0,0:0:0:0:
372,176,163053,1,0,0:0:0:0:
399,148,163134,1,0,0:0:0:0:
426,175,163216,1,0,0:0:0:0:
400,204,163297,6,0,B|350:262|350:262|264:284,1,130.499996017456
176,384,163621,1,0,0:0:0:0:
208,217,163784,2,0,B|276:218|276:218|273:255|311:288,1,130.499996017456
216,40,164027,5,0,0:0:0:0:
264,60,164108,1,0,0:0:0:0:
320,80,164190,1,0,0:0:0:0:
376,104,164271,5,0,0:0:0:0:
316,100,164352,1,0,0:0:0:0:
256,92,164433,1,0,0:0:0:0:
200,80,164514,1,0,0:0:0:0:
148,84,164594,6,0,B|124:157|124:157|132:232,1,130.499996017456
256,312,164919,1,0,0:0:0:0:
64,107,165081,2,0,B|78:157|125:175|125:175|131:230,1,130.499996017456
260,320,165405,1,0,0:0:0:0:
352,144,165567,5,0,0:0:0:0:
340,156,165648,1,0,0:0:0:0:
320,172,165729,1,0,0:0:0:0:
296,192,165810,1,0,0:0:0:0:
266,211,165891,6,0,L|190:159,3,65.2499980087281
96,68,166216,2,0,L|156:112,3,65.2499980087281
208,0,166540,1,0,0:0:0:0:
246,20,166621,1,0,0:0:0:0:
280,46,166702,1,0,0:0:0:0:
306,80,166783,1,0,0:0:0:0:
348,108,166865,5,0,0:0:0:0:
360,132,166945,1,0,0:0:0:0:
436,184,167027,5,0,0:0:0:0:
448,208,167108,1,0,0:0:0:0:
464,240,167189,2,0,B|487:306|487:306|480:388,1,130.499996017456
476,80,167514,1,0,0:0:0:0:
263,76,167676,6,0,B|237:144|237:144|239:228,1,130.499996017456
316,336,168000,1,0,0:0:0:0:
228,200,168162,6,0,B|226:142|226:142|252:74,1,130.499996017456
408,328,168487,1,0,0:0:0:0:
504,216,168648,2,0,B|509:155|509:155|486:89,1,130.499996017456
316,336,168973,2,0,B|308:284|325:257|325:257|354:250|380:212,1,130.499996017456
232,196,169216,5,0,0:0:0:0:
200,220,169297,1,0,0:0:0:0:
164,200,169379,1,0,0:0:0:0:
149,172,169460,5,0,0:0:0:0:
127,136,169541,1,0,0:0:0:0:
104,53,169622,5,0,0:0:0:0:
70,29,169703,1,0,0:0:0:0:
33,27,169784,6,0,B|13:93|13:93|17:175,1,130.499996017456
116,300,170109,1,0,0:0:0:0:
264,68,170271,2,0,B|287:136|287:136|288:220,1,130.499996017456
172,376,170595,1,0,0:0:0:0:
296,196,170756,2,0,B|295:137|295:137|272:69,1,130.499996017456
240,256,171081,2,0,P|294:280|365:240,1,130.499996017456
164,0,171406,2,0,B|193:60|193:60|268:72,1,130.499996017456
92,180,171730,1,0,0:0:0:0:
280,80,171892,5,0,0:0:0:0:
300,96,171972,1,0,0:0:0:0:
312,120,172055,5,0,0:0:0:0:
92,180,172217,1,0,0:0:0:0:
316,148,172379,6,0,B|312:223|312:223|332:296,1,130.499996017456
432,356,172704,1,0,0:0:0:0:
468,112,172866,2,0,B|483:186|483:186|465:277,1,130.499996017456
372,48,173190,1,0,0:0:0:0:
168,172,173351,5,0,0:0:0:0:
168,172,173432,1,0,0:0:0:0:
168,172,173513,1,0,0:0:0:0:
280,300,173675,2,0,B|232:316|204:312|204:312|184:332|128:368,1,130.499996017456
388,172,174000,1,0,0:0:0:0:
380,360,174163,2,0,B|447:329|447:329|492:268,1,130.499996017456
368,164,174406,5,0,0:0:0:0:
332,148,174487,1,0,0:0:0:0:
308,120,174569,1,0,0:0:0:0:
272,96,174650,5,0,0:0:0:0:
236,92,174731,1,0,0:0:0:0:
144,96,174812,5,0,0:0:0:0:
116,120,174893,1,0,0:0:0:0:
96,160,174973,6,0,B|88:224|88:224|112:308,1,130.499996017456
200,172,175298,1,0,0:0:0:0:
376,72,175460,2,0,B|381:142|381:142|352:224,1,130.499996017456
256,312,175784,1,0,0:0:0:0:
428,244,175946,2,0,B|464:168|464:168|464:116,1,130.499996017456
264,312,176271,1,0,0:0:0:0:
428,260,176433,2,0,L|366:280,3,65.2499980087281
190,308,176757,2,0,L|255:311,3,65.2499980087281
288,136,177081,5,0,0:0:0:0:
280,128,177163,1,0,0:0:0:0:
264,108,177244,5,0,0:0:0:0:
256,68,177325,1,0,0:0:0:0:
320,8,177406,5,0,0:0:0:0:
364,32,177487,1,0,0:0:0:0:
400,84,177567,6,0,B|428:180|428:180|412:260,1,159.500004867554
388,128,177891,2,0,B|368:221|368:221|392:312,1,159.500004867554
236,76,178216,1,0,0:0:0:0:
260,264,178378,1,0,0:0:0:0:
256,64,178540,1,0,0:0:0:0:
288,248,178702,1,0,0:0:0:0:
104,204,178864,6,0,B|188:200|188:200|272:160,1,159.500004867554
416,152,179189,2,0,B|338:180|338:180|240:164,1,159.500004867554
144,76,179513,1,0,0:0:0:0:
319,257,179675,1,0,0:0:0:0:
304,36,179837,1,0,0:0:0:0:
476,216,180000,1,0,0:0:0:0:
204,192,180162,6,0,B|156:236|134:299|134:299|120:245,1,159.500004867554
216,168,180486,2,0,B|257:213|288:264|288:264|284:224,1,159.500004867554
236,40,180810,1,0,0:0:0:0:
220,312,180973,1,0,0:0:0:0:
248,40,181135,1,0,0:0:0:0:
204,312,181297,1,0,0:0:0:0:
356,136,181459,6,0,B|360:192|392:224|392:224|369:258|368:312,1,159.500004867554
444,136,181783,2,0,B|463:109|478:65|478:65|441:35|427:-2,1,159.500004867554
208,116,182108,1,0,0:0:0:0:
324,256,182270,1,0,0:0:0:0:
268,48,182432,1,0,0:0:0:0:
312,248,182594,1,0,0:0:0:0:
96,308,182756,6,0,B|107:221|107:221|96:120,1,159.500004867554
168,62,183081,2,0,B|192:156|192:156|200:257,1,159.500004867554
255,336,183405,2,0,B|277:218|277:218|272:168,1,159.500004867554
294,20,183729,2,0,B|346:147|346:147|357:186,1,159.500004867554
152,56,184054,5,0,0:0:0:0:
360,168,184216,1,0,0:0:0:0:
96,320,184378,1,0,0:0:0:0:
160,64,184540,1,0,0:0:0:0:
264,340,184702,1,0,0:0:0:0:
360,160,184864,1,0,0:0:0:0:
104,312,185027,1,0,0:0:0:0:
176,44,185189,1,0,0:0:0:0:
96,192,185351,5,0,0:0:0:0:
134,165,185432,1,0,0:0:0:0:
179,151,185513,1,0,0:0:0:0:
224,161,185594,1,0,0:0:0:0:
257,194,185675,1,0,0:0:0:0:
288,229,185756,1,0,0:0:0:0:
332,242,185837,1,0,0:0:0:0:
374,224,185918,1,0,0:0:0:0:
379,181,185999,5,0,0:0:0:0:
340,157,186080,1,0,0:0:0:0:
294,162,186161,1,0,0:0:0:0:
257,190,186242,1,0,0:0:0:0:
228,227,186323,1,0,0:0:0:0:
186,246,186405,1,0,0:0:0:0:
141,233,186486,1,0,0:0:0:0:
106,203,186567,1,0,0:0:0:0:
96,160,186648,6,0,P|76:76|100:160,1,239.250007301331
200,180,186973,2,0,P|218:97|181:19,1,159.500004867554
200,180,187297,2,0,P|312:204|364:184,2,159.500004867554
448,136,187783,1,0,0:0:0:0:
188,248,187945,6,0,B|150:258|118:304|118:304|128:6,1,369.750007052422
113,385,188270,2,0,B|101:311|101:311|120:216,1,152.249995353699
127,25,188594,1,0,0:0:0:0:
118,231,188756,2,0,B|128:177|128:177|124:122,1,101.499996902466
120,376,188918,1,0,0:0:0:0:
127,25,189080,2,0,B|112:64|112:64|121:142,1,101.499996902466
120,352,189243,1,0,0:0:0:0:
394,101,189405,6,0,P|406:156|379:247,1,123.250002350807
213,136,189567,2,0,P|311:198|292:105,1,246.500004701614
330,285,189891,6,0,P|162:252|168:55,1,369.750007052422
344,28,190216,6,0,P|255:1|173:38,1,152.249995353699
268,152,190540,5,0,0:0:0:0:
116,368,190702,2,0,B|199:367|199:367|248:308,1,123.250002350807
276,156,190864,1,0,0:0:0:0:
224,336,191026,2,0,B|200:220|200:220|148:172,1,188.499991371155
0,336,191351,2,0,B|25:366|25:366|108:367,1,123.250002350807
348,284,191513,5,0,0:0:0:0:
260,216,191675,6,0,B|187:212|187:212|108:172,1,123.250002350807
272,100,191837,2,0,B|345:104|345:104|424:144,1,123.250002350807
233,239,191999,2,0,B|167:250|167:250|88:240,1,123.250002350807
299,77,192162,2,0,B|365:66|365:66|444:76,1,123.250002350807
100,300,192486,6,0,P|145:187|148:292,1,326.25001244545
208,131,192810,2,0,P|46:116|-3:156,1,217.5
344,44,193134,6,0,B|335:145|335:145|367:202|367:202|365:317,1,246.500004701614
361,368,193459,2,0,L|368:172,1,152.249995353699
332,32,193783,1,0,0:0:0:0:
183,212,193945,6,0,B|204:200|208:173|208:173|230:208|272:216,1,123.250002350807
40,352,194107,1,0,0:0:0:0:
269,248,194270,6,0,B|247:262|240:290|240:290|215:257|180:250,1,123.250002350807
52,348,194432,1,0,0:0:0:0:
320,128,194594,6,0,B|352:128|352:128|344:164|352:224,1,123.250002350807
224,352,194756,6,0,B|275:334|352:352|352:352|365:285|352:224,1,246.500004701614
256,128,195080,6,0,B|192:109|96:128|96:128|111:194|96:256,1,282.749987056733
160,352,195405,6,0,B|135:340|96:352|96:352|85:308|96:256,1,152.249995353699
228,231,195729,5,0,0:0:0:0:
421,98,195891,2,0,B|442:160|442:160|440:220,1,123.250002350807
312,348,196053,1,0,0:0:0:0:
450,208,196216,2,0,B|452:142|452:142|433:78,1,130.499996017456
336,356,196540,5,0,0:0:0:0:
368,340,196621,1,0,0:0:0:0:
408,320,196702,1,0,0:0:0:0:
428,276,196783,1,0,0:0:0:0:
450,208,196864,2,0,B|462:138|462:138|456:72,1,123.250002350807
88,84,197026,6,0,B|101:150|101:150|173:127|219:153|219:153|243:93,1,246.500004701614
18,154,197351,2,0,P|35:195|118:230,1,108.75
224,188,197675,6,0,P|180:236|193:355,1,145
380,128,197837,2,0,B|383:204|383:204|326:262,1,145
212,180,197999,6,0,P|258:129|255:53,1,141.374993528366
329,250,198324,6,0,B|337:326|337:326|380:354|416:386,1,145
488,232,198486,2,0,B|480:156|480:156|426:111|395:100,1,145
479,341,198648,2,0,B|452:304|413:282|413:282|406:197|406:197|374:180|344:147|344:147|359:180|375:187,1,290
132,28,198972,6,0,B|153:65|180:65|180:65|184:119|184:119|203:123|237:174,1,195.749994026184
104,292,199297,5,0,0:0:0:0:
96,276,199378,1,0,0:0:0:0:
88,260,199459,2,0,B|70:193|70:193|36:144,1,123.250002350807
32,136,199621,1,0,0:0:0:0:
192,224,199783,6,0,B|243:189|328:180|340:164,1,123.250002350807
320,291,199945,2,0,B|354:234|310:180|310:180|262:213|172:231,1,246.500004701614
130,55,200270,6,0,B|145:101|185:133|185:133|174:175|194:231,1,188.499991371155
208,264,200513,1,0,0:0:0:0:
192,224,200594,2,0,P|243:189|328:180,1,116
312,184,200837,1,0,0:0:0:0:
328,200,200918,1,0,0:0:0:0:
484,120,201080,6,0,B|472:184|472:184|484:264,1,123.250002350807
376,336,201243,1,0,0:0:0:0:
473,177,201405,2,0,B|469:210|481:241,1,65.2499980087281
368,340,201567,1,0,0:0:0:0:
148,320,201729,6,0,B|208:304|208:304|304:316,1,123.250002350807
112,200,201891,5,0,0:0:0:0:
112,200,201972,1,0,0:0:0:0:
112,200,202053,2,0,L|244:144,1,123.250002350807
432,152,202216,2,0,L|319:201,1,123.250002350807
212,136,202378,6,0,L|98:184,1,123.250002350807
324,180,202540,2,0,L|436:130,1,123.250002350807
320,320,202864,6,0,B|224:320|224:320|160:256|160:256|106:271|64:256,1,282.749987056733
160,256,203189,2,0,B|202:278|224:320|224:320|265:337|320:320,1,174
304,40,203513,6,0,L|312:191,1,152.249995353699
328,44,203837,2,0,B|336:209|336:209|356:286|356:286|346:351,1,304.499990707398
152,272,204162,6,0,B|160:191|160:191|136:120,1,152.249995353699
188,275,204486,2,0,B|204:186|204:186|162:101|162:101|145:35|145:35|160:-24,1,304.499990707398
320,168,204810,6,0,P|400:136|328:212,1,232
360,40,205134,1,0,0:0:0:0:
452,300,205297,2,0,P|384:321|280:288,1,116
136,248,205459,5,0,0:0:0:0:
168,280,205540,1,0,0:0:0:0:
208,296,205621,6,0,P|266:311|328:284,1,116
444,176,205783,2,0,P|386:161|324:188,1,116
120,224,205945,1,0,0:0:0:0:
389,244,206107,5,0,0:0:0:0:
362,201,206189,1,0,0:0:0:0:
334,179,206270,2,0,B|292:163|292:163|265:138|265:138|192:112,1,116
40,120,206432,1,0,0:0:0:0:
216,72,206594,5,0,0:0:0:0:
248,88,206675,1,0,0:0:0:0:
288,108,206756,2,0,B|320:119|320:119|347:144|347:144|389:160,1,116
496,280,206918,1,0,0:0:0:0:
420,124,207080,5,0,0:0:0:0:
376,104,207162,1,0,0:0:0:0:
328,92,207243,2,0,B|286:76|286:76|259:51|259:51|226:39,1,116
128,40,207405,6,0,L|112:72,6,19.0312494192124
156,188,207567,6,0,L|160:168,6,19.0312494192124
264,88,207729,6,0,L|252:120,6,19.0312494192124
288,244,207891,6,0,L|304:216,6,19.0312494192124
172,320,208053,2,0,P|184:284|184:328,1,116
100,256,208216,2,0,P|85:317|105:378,1,116
280,384,208378,2,0,B|346:293|263:204|263:204|320:155|320:155|295:100|312:51,1,348
172,320,208702,6,0,P|220:280|168:312,1,188.499991371155
216,112,209027,2,0,B|192:208|192:208|201:299,1,188.499991371155
188,84,209351,6,0,P|236:124|184:92,1,188.499991371155
60,224,209675,2,0,B|125:231|125:231|184:220,2,94.2499956855776
272,152,209999,6,0,B|264:225|204:291|204:291|270:374|270:374|317:274,1,362.5
312,288,210162,6,0,B|355:380|355:380|421:297|421:297|355:224|353:158,1,362.5
353,158,210324,6,0,B|419:82|421:19|421:19|355:-64|355:-64|311:28,1,362.5
313,22,210486,6,0,B|270:-70|270:-70|204:13|204:13|212:80|272:152,1,362.5
270,150,210648,2,0,B|227:157|227:157|208:180|208:180|114:202,1,108.750004148483
56,272,210810,2,0,B|64:216|52:138|52:138|92:187,2,188.499991371155
173,188,211297,6,0,B|209:243|200:290|200:290|241:301|281:348,1,188.499991371155
444,232,211621,1,0,0:0:0:0:
236,4,211783,2,0,B|222:58|224:102|224:102|197:122|168:188,1,188.499991371155
440,224,212108,2,0,B|388:186|388:186|371:130|371:130|298:62,1,188.499991371155
284,68,212351,5,0,0:0:0:0:
228,72,212432,1,0,0:0:0:0:
168,56,212513,1,0,0:0:0:0:
123,103,212594,6,0,B|88:162|88:162|84:222|84:222|43:300,1,188.499991371155
208,168,212918,1,0,0:0:0:0:
160,384,213081,2,0,B|139:338|163:289|163:289|96:304|54:280,1,188.499991371155
344,280,213405,6,0,B|288:244|241:237|241:237|246:193|224:152,2,188.499991371155
376,92,213891,6,0,P|324:168|404:172,1,188.499991371155
425,286,214216,2,0,P|472:188|441:82,1,188.499991371155
240,172,214540,2,0,B|202:188|176:252|176:252|159:211|104:172,1,188.499991371155
232,296,214864,5,0,0:0:0:0:
188,256,214945,1,0,0:0:0:0:
156,228,215026,1,0,0:0:0:0:
124,187,215107,1,0,0:0:0:0:
108,144,215189,6,0,B|205:113|285:174|285:174|352:155|504:268,1,362.5
448,248,215351,2,0,B|352:284|274:204|274:204|194:253|85:115,1,362.5
112,136,215513,6,0,B|237:138|297:119|297:119|352:172|464:248,1,362.5
444,256,215675,2,0,B|318:253|259:273|259:273|204:220|92:144,1,362.5
116,140,215837,2,0,P|80:284|48:304,1,123.250002350807
0,384,215999,6,0,B|18:318|0:275|0:275|8:229|50:192,2,188.499991371155
0,12,216486,2,0,B|33:103|33:103|81:104|115:139,1,188.499991371155
296,128,216810,1,0,0:0:0:0:
132,315,216972,2,0,B|127:276|134:246|134:246|107:219|107:219|117:185|113:122,1,188.499991371155
360,310,217297,6,0,P|366:247|361:310,1,188.499991371155
344,280,217540,1,0,0:0:0:0:
368,252,217621,1,0,0:0:0:0:
408,276,217702,1,0,0:0:0:0:
380,320,217783,6,0,B|284:343|284:343|246:304|265:237,1,188.499991371155
296,104,218107,1,0,0:0:0:0:
172,208,218270,2,0,B|206:237|257:257|257:257|254:308|286:351,1,188.499991371155
464,252,218594,6,0,L|408:152,1,94.2499956855776
293,165,218756,2,0,L|352:240,1,94.2499956855776
344,92,218918,2,0,L|272:8,1,94.2499956855776
204,164,219080,5,0,0:0:0:0:
168,204,219161,1,0,0:0:0:0:
156,268,219242,2,0,B|156:328|156:328|196:388,1,94.2499956855776
212,184,219404,5,0,0:0:0:0:
176,224,219485,1,0,0:0:0:0:
164,288,219566,2,0,B|164:344|164:344|204:408,1,94.2499956855776
432,348,219728,5,0,0:0:0:0:
438,342,219809,1,0,0:0:0:0:
446,339,219890,1,0,0:0:0:0:
455,334,219972,1,0,0:0:0:0:
464,336,220053,6,0,L|487:284,1,47.1249978427888
464,336,220134,2,0,L|516:313,1,47.1249978427888
464,336,220215,2,0,L|537:356,1,47.1249978427888
464,349,220296,2,0,L|498:388,1,47.1249978427888
328,192,220377,5,0,0:0:0:0:
350,135,220458,1,0,0:0:0:0:
392,92,220540,2,0,B|432:56|432:56|508:48,1,94.2499956855776
356,212,220702,5,0,0:0:0:0:
412,190,220783,1,0,0:0:0:0:
456,149,220865,2,0,B|492:109|492:109|497:69,1,94.2499956855776
188,356,221026,5,0,0:0:0:0:
200,324,221107,1,0,0:0:0:0:
212,292,221188,2,0,B|200:236|200:236|164:168,1,94.2499956855776
8,16,221350,5,0,0:0:0:0:
8,24,221431,1,0,0:0:0:0:
8,32,221512,2,0,B|25:92|25:92|56:148,1,94.2499956855776
300,160,221674,5,0,0:0:0:0:
328,104,221755,1,0,0:0:0:0:
384,64,221836,1,0,0:0:0:0:
452,80,221917,1,0,0:0:0:0:
504,140,221999,2,0,P|496:218|462:269,1,94.2499956855776
400,384,222161,2,0,P|385:339|385:292,1,94.2499956855776
176,296,222323,5,0,0:0:0:0:
181,264,222404,1,0,0:0:0:0:
184,216,222485,2,0,B|198:278|198:278|188:340,1,94.2499956855776
48,272,222647,5,0,0:0:0:0:
3,207,222728,1,0,0:0:0:0:
10,130,222809,1,0,0:0:0:0:
57,71,222890,1,0,0:0:0:0:
128,69,222972,2,0,B|157:60|183:16|183:16|229:0|320:1,1,188.499991371155
264,368,223215,5,0,0:0:0:0:
270,361,223296,1,0,0:0:0:0:
264,355,223377,1,0,0:0:0:0:
258,362,223458,1,0,0:0:0:0:
332,359,223539,5,0,0:0:0:0:
399,317,223620,1,0,0:0:0:0:
414,244,223701,1,0,0:0:0:0:
366,181,223782,1,0,0:0:0:0:
288,174,223863,1,0,0:0:0:0:
222,205,223945,2,0,P|164:235|194:196,4,181.25
176,100,224269,5,0,0:0:0:0:
180,108,224350,1,0,0:0:0:0:
188,116,224431,1,0,0:0:0:0:
192,124,224512,1,0,0:0:0:0:
240,144,224593,5,0,0:0:0:0:
288,174,224674,1,0,0:0:0:0:
366,181,224755,1,0,0:0:0:0:
414,244,224837,1,0,0:0:0:0:
420,232,224917,5,0,0:0:0:0:
424,224,224998,1,0,0:0:0:0:
428,216,225079,1,0,0:0:0:0:
432,208,225161,1,0,0:0:0:0:
444,164,225242,5,0,0:0:0:0:
384,104,225323,1,0,0:0:0:0:
296,112,225404,1,0,0:0:0:0:
256,188,225485,1,0,0:0:0:0:
201,207,225566,6,0,B|196:230|196:230|161:291,1,94.2499956855776
304,116,225728,6,0,B|308:139|308:139|343:200,1,94.2499956855776
117,189,225890,6,0,P|188:126|245:134,1,94.2499956855776
380,96,226053,6,0,P|309:33|252:41,1,94.2499956855776
30,207,226214,6,0,B|86:211|86:211|147:166,1,94.2499956855776
464,232,226377,2,0,B|408:236|408:236|347:191,1,94.2499956855776
260,352,226539,2,0,L|256:220,1,94.2499956855776
248,28,226701,5,0,0:0:0:0:
248,48,226782,1,0,0:0:0:0:
248,76,226863,2,0,B|264:148|264:148|260:184|260:184|250:233|250:233|263:288,2,188.499991371155
400,260,227350,6,0,B|382:211|339:184|339:184|355:141|326:80,1,188.499991371155
308,261,227674,2,0,P|191:330|327:317,1,376.99998274231
164,189,228161,6,0,P|210:166|257:155,1,94.2499956855776
360,196,228323,2,0,P|312:168|252:156,1,108.750004148483
139,106,228485,6,0,P|216:124|256:160,1,130.499996017456
404,120,228647,2,0,P|320:124|256:160,1,159.500004867554
119,22,228809,6,0,P|212:64|256:164,1,195.750000746727
443,48,228972,2,0,P|312:68|252:168,1,239.250002281666
250,374,229134,6,0,B|237:288|237:288|264:237|264:237|250:134,1,239.250002281666
251,143,229296,1,0,0:0:0:0:
16,352,229459,6,0,L|24:232,1,101.499996902466
128,132,229783,2,0,L|120:264,1,101.499996902466
208,384,230108,2,0,L|208:282,1,101.499996902466
304,164,230432,5,0,0:0:0:0:
300,160,230513,1,0,0:0:0:0:
296,156,230594,1,0,0:0:0:0:
292,152,230675,1,0,0:0:0:0:
288,148,230757,6,0,B|264:96|264:96|220:56,1,101.499996902466
183,239,231080,2,0,B|223:259|223:259|280:256,1,101.499996902466
480,268,231405,2,0,B|452:220|452:220|397:191,1,101.499996902466
372,84,231729,5,0,0:0:0:0:
372,80,231810,1,0,0:0:0:0:
368,76,231891,1,0,0:0:0:0:
364,76,231972,1,0,0:0:0:0:
360,76,232054,6,0,P|292:82|252:116,1,101.499996902466
192,272,232378,2,0,P|241:265|288:240,1,101.499996902466
152,140,232702,2,0,P|96:176|70:218,1,101.499996902466
16,24,233026,5,0,0:0:0:0:
20,20,233107,1,0,0:0:0:0:
24,20,233188,1,0,0:0:0:0:
28,20,233269,1,0,0:0:0:0:
32,24,233351,6,0,B|76:60|76:60|144:72,1,101.499996902466
248,300,233675,2,0,B|236:252|236:252|164:196,1,101.499996902466
272,100,233999,2,0,B|302:118|302:118|316:149|316:149|354:167,1,101.499996902466
416,80,234324,5,0,0:0:0:0:
416,84,234405,1,0,0:0:0:0:
416,88,234486,1,0,0:0:0:0:
416,92,234567,1,0,0:0:0:0:
416,96,234648,6,0,P|432:156|424:232,1,101.499996902466
336,356,234972,2,0,P|320:297|322:258,1,101.499996902466
196,64,235297,2,0,P|214:115|221:194,1,101.499996902466
116,224,235621,5,0,0:0:0:0:
116,224,235702,1,0,0:0:0:0:
116,224,235783,1,0,0:0:0:0:
116,224,235864,1,0,0:0:0:0:
116,224,235945,6,0,B|170:222|170:222|247:253,1,101.499996902466
260,332,236270,2,0,B|206:334|206:334|132:304,1,101.499996902466
396,208,236594,2,0,P|370:256|356:320,1,101.499996902466
372,36,236918,5,0,0:0:0:0:
368,40,236999,1,0,0:0:0:0:
364,44,237080,1,0,0:0:0:0:
360,48,237161,1,0,0:0:0:0:
356,52,237243,6,0,B|297:60|297:60|241:93,1,101.499996902466
216,220,237567,2,0,B|252:275|252:275|260:352,1,101.499996902466
472,260,237891,2,0,B|440:214|440:214|432:136,1,101.499996902466
376,348,238215,5,0,0:0:0:0:
376,344,238296,1,0,0:0:0:0:
372,340,238377,1,0,0:0:0:0:
372,336,238458,1,0,0:0:0:0:
368,332,238540,6,0,L|340:208,1,101.499996902466
236,200,238864,2,0,L|333:228,1,101.499996902466
432,156,239189,2,0,L|354:227,1,101.499996902466
232,100,239513,5,0,0:0:0:0:
216,112,239594,1,0,0:0:0:0:
200,124,239675,1,0,0:0:0:0:
184,136,239757,1,0,0:0:0:0:
168,148,239838,6,0,P|152:204|161:249,1,101.499996902466
363,227,240162,2,0,P|379:180|376:128,1,101.499996902466
268,280,240486,2,0,P|253:335|262:388,1,101.499996902466
468,328,240811,5,0,0:0:0:0:
468,324,240892,1,0,0:0:0:0:
468,320,240973,1,0,0:0:0:0:
468,316,241054,1,0,0:0:0:0:
468,312,241136,6,0,L|374:273,1,101.499996902466
156,204,241459,2,0,L|249:254,1,101.499996902466
360,280,241783,2,0,L|268:236,1,101.499996902466
380,92,242108,5,0,0:0:0:0:
380,96,242189,1,0,0:0:0:0:
380,100,242270,1,0,0:0:0:0:
380,104,242351,1,0,0:0:0:0:
380,108,242433,6,0,B|335:135|335:135|248:156,1,101.499996902466
56,208,242756,2,0,B|104:186|104:186|164:180,1,101.499996902466
312,284,243080,2,0,B|260:316|260:316|195:333,1,101.499996902466
244,168,243405,5,0,0:0:0:0:
252,164,243486,1,0,0:0:0:0:
264,164,243567,1,0,0:0:0:0:
276,164,243648,1,0,0:0:0:0:
284,168,243729,6,0,P|343:187|408:228,1,101.499996902466
408,344,244053,2,0,P|344:332|310:301,1,101.499996902466
392,112,244378,2,0,P|442:133|483:179,1,101.499996902466
184,64,244703,5,0,0:0:0:0:
180,72,244784,1,0,0:0:0:0:
176,80,244865,1,0,0:0:0:0:
172,88,244946,1,0,0:0:0:0:
168,96,245027,6,0,P|203:141|280:164,1,101.499996902466
236,296,245351,2,0,P|195:255|148:224,1,101.499996902466
320,232,245676,2,0,B|366:267|366:267|388:319,1,101.499996902466
448,172,246000,5,0,0:0:0:0:
440,168,246081,1,0,0:0:0:0:
432,164,246162,1,0,0:0:0:0:
424,160,246243,1,0,0:0:0:0:
416,156,246325,6,0,L|325:109,1,101.499996902466
241,222,246648,2,0,L|332:268,1,101.499996902466
236,136,246972,2,0,L|144:91,1,101.499996902466
0,24,247297,5,0,0:0:0:0:
8,28,247378,1,0,0:0:0:0:
20,28,247459,1,0,0:0:0:0:
28,24,247540,1,0,0:0:0:0:
40,20,247622,6,0,P|108:22|164:44,1,101.499996902466
168,172,247945,2,0,P|226:169|281:148,1,101.499996902466
252,56,248270,2,0,P|315:28|364:32,1,101.499996902466
500,16,248594,5,0,0:0:0:0:
492,20,248675,1,0,0:0:0:0:
488,28,248756,1,0,0:0:0:0:
484,36,248837,1,0,0:0:0:0:
480,44,248919,5,0,0:0:0:0:
464,260,249080,1,0,0:0:0:0:
392,36,249243,1,0,0:0:0:0:
384,256,249405,1,0,0:0:0:0:
380,244,249567,6,0,L|380:180,2,50.749998451233
456,44,249810,1,0,0:0:0:0:
468,56,249891,6,0,L|464:120,2,50.749998451233
380,232,250134,1,0,0:0:0:0:
