osu file format v14

[General]
AudioFilename: audio.mp3
AudioLeadIn: 0
PreviewTime: 172116
Countdown: 1
SampleSet: Soft
StackLeniency: 0.2
Mode: 0
LetterboxInBreaks: 0
WidescreenStoryboard: 0

[Editor]
Bookmarks: 1158,27459,53760,80062,93212,106363,119514,145815,158966,172116,198418,237870,248144,271876,298178,324479,350780,377082
DistanceSpacing: 1.5
BeatDivisor: 4
GridSize: 8
TimelineZoom: 1.8

[Metadata]
Title:Amygdala
TitleUnicode:Amygdala
Artist:Nhato
ArtistUnicode:Nhato
Creator:Metronome
Version:Paranoia
Source:ULTRA HITECH 01
Tags:MEGAREX hi-tech hitech
BeatmapID:1629314
BeatmapSetID:775339

[Difficulty]
HPDrainRate:5.5
CircleSize:4
OverallDifficulty:8
ApproachRate:9.4
SliderMultiplier:2.39999990463257
SliderTickRate:1

[Events]
//Background and Video events
0,0,"Long Journey Ahead.jpg",0,0
//Break Periods
2,9782,48289
2,58377,168289
2,185261,376542
//Storyboard Layer 0 (Background)
//Storyboard Layer 1 (Fail)
//Storyboard Layer 2 (Pass)
//Storyboard Layer 3 (Foreground)
//Storyboard Sound Samples

[TimingPoints]
1158,410.958904109589,4,2,40,30,1,0
1158,-147.058823529412,4,2,40,30,0,0
1979,-147.058823529412,4,2,40,40,0,0
2390,-147.058823529412,4,2,40,50,0,0
2801,-147.058823529412,4,2,40,40,0,0
3212,-147.058823529412,4,2,40,30,0,0
3623,-147.058823529412,4,2,40,20,0,0
4445,-147.058823529412,4,2,41,30,0,0
5267,-147.058823529412,4,2,41,40,0,0
5678,-147.058823529412,4,2,41,50,0,0
6089,-147.058823529412,4,2,41,40,0,0
6500,-147.058823529412,4,2,41,30,0,0
6911,-147.058823529412,4,2,41,20,0,0
7733,-147.058823529412,4,2,40,30,0,0
8555,-147.058823529412,4,2,40,40,0,0
8966,-147.058823529412,4,2,40,50,0,0
9377,-147.058823529412,4,2,40,40,0,0
9788,-147.058823529412,4,2,40,30,0,0
10199,-147.058823529412,4,2,40,20,0,0
11021,-100,4,2,42,30,0,0
48829,-100,4,1,20,30,0,0
53144,-32.7868852459016,4,2,42,30,0,0
53760,-50,4,2,0,30,0,0
54479,-80,4,1,20,50,0,0
56842,-80,4,1,20,30,0,0
168829,-500,4,2,0,30,0,0
170473,-250,4,2,40,30,0,0
171705,-66.6666666666667,4,2,0,30,0,0
172116,-100,4,2,40,30,0,0
175404,-100,4,2,41,30,0,0
178692,-100,4,2,40,30,0,0
181979,-100,4,2,42,30,0,0
248144,428.571428571429,4,2,0,50,1,0
248572,571.428571428571,4,2,0,50,1,0
250286,652.173913043478,4,2,0,50,1,0
251590,625,4,2,0,50,1,0
258726,410.958904109589,4,1,0,50,1,0
377082,-1000,4,1,99,70,0,0

[HitObjects]
71,227,1158,6,0,L|87:328,1,81.5999972555542,14|0,0:0|0:0,0:0:0:0:
275,153,1568,2,0,L|198:125,1,81.5999972555542,8|0,0:0|0:0,0:0:0:0:
121,96,1979,5,8,0:0:0:0:
46,65,2185,1,0,0:0:0:0:
57,146,2390,1,8,0:0:0:0:
111,73,2596,1,0,0:0:0:0:
31,84,2801,1,8,0:0:0:0:
81,148,3007,1,0,0:0:0:0:
135,209,3212,6,0,L|206:299,1,81.5999972555542,8|0,0:0|0:0,0:0:0:0:
193,61,3623,1,8,0:0:0:0:
167,137,3829,1,0,0:0:0:0:
245,122,4034,1,8,0:0:0:0:
325,105,4240,1,0,0:0:0:0:
273,41,4445,6,0,L|193:58,1,81.5999972555542,10|0,0:0|0:0,0:0:0:0:
300,180,4856,1,0,0:0:0:0:
358,232,5062,6,0,B|400:221|400:221|430:178,1,81.5999972555542,0|8,0:0|0:0,0:0:0:0:
412,58,5473,1,0,0:0:0:0:
273,41,5678,1,8,0:0:0:0:
222,170,5884,1,0,0:0:0:0:
358,232,6089,2,0,B|396:222|396:222|453:227,1,81.5999972555542,8|8,0:0|0:0,0:0:0:0:
395,349,6500,6,0,L|299:370,1,81.5999972555542,8|0,0:0|0:0,0:0:0:0:
243,266,6911,1,8,0:0:0:0:
358,232,7116,2,0,B|398:224|398:224|439:245,1,81.5999972555542,0|8,2:0|2:0,2:0:0:0:
313,291,7527,1,0,0:0:0:0:
172,238,7733,6,0,L|65:199,1,81.5999972555542,10|0,0:0|0:0,0:0:0:0:
300,146,8144,2,0,L|398:124,1,81.5999972555542,8|0,0:0|0:0,0:0:0:0:
392,250,8555,5,8,0:0:0:0:
334,304,8761,1,0,0:0:0:0:
313,224,8966,1,8,0:0:0:0:
389,273,9171,1,0,0:0:0:0:
313,291,9377,1,8,0:0:0:0:
334,212,9582,1,0,0:0:0:0:
0,216,48829,5,0,0:0:0:0:
9,289,48931,1,0,0:0:0:0:
54,348,49034,1,4,0:0:0:0:
123,375,49137,1,0,0:0:0:0:
196,363,49239,1,0,0:0:0:0:
253,316,49342,1,0,0:0:0:0:
278,246,49445,1,4,0:0:0:0:
263,173,49548,1,0,0:0:0:0:
224,112,49651,5,0,0:0:0:0:
168,161,49753,1,0,0:0:0:0:
142,230,49856,1,4,0:0:0:0:
153,304,49959,1,0,0:0:0:0:
197,363,50061,1,0,0:0:0:0:
264,395,50164,1,0,0:0:0:0:
338,391,50267,1,4,0:0:0:0:
401,352,50370,1,0,0:0:0:0:
444,277,50473,6,0,L|469:252,7,29.9999988079071,0|0|0|0|4|0|0|0,0:0|0:0|0:0|0:0|0:0|0:0|0:0|0:0,0:0:0:0:
398,225,50884,6,0,L|379:201,7,29.9999988079071,0|0|0|0|4|0|0|0,0:0|0:0|0:0|0:0|0:0|0:0|0:0|0:0,0:0:0:0:
376,291,51294,6,0,L|365:318,7,29.9999988079071,0|0|0|0|4|0|0|0,2:0|2:0|2:0|2:0|2:0|2:0|2:0|2:0,0:0:0:0:
444,276,51705,6,0,L|456:290,16,14.9999994039536,0|0|0|0|0|0|0|0|0|0|0|0|0|0|0|0|0,2:0|2:0|2:3|2:0|2:3|2:0|2:3|2:0|2:3|2:0|2:3|2:0|2:3|2:0|2:3|2:0|2:0,2:0:0:0:
279,69,52322,5,2,0:0:0:0:
240,8,52425,1,2,0:0:0:0:
169,29,52528,1,2,0:0:0:0:
167,99,52630,1,2,0:0:0:0:
235,125,52733,1,2,0:0:0:0:
279,69,53144,6,0,B|318:127|369:132|369:132|308:136|270:177,1,182.999997963905
235,124,53349,5,0,0:0:0:0:
167,98,53452,1,0,0:0:0:0:
122,156,53555,1,4,0:0:0:0:
162,214,53657,1,4,0:0:0:0:
232,195,53760,6,0,P|354:212|248:86,1,359.999985694885
153,228,54479,6,0,B|165:162|64:144|54:60|54:60|163:174|276:70|276:70|339:55|385:93|402:127|427:232|290:279|232:195|232:195|211:259|248:323|326:287|389:349|389:349|385:268|512:218|537:104|481:56|481:56|488:119|438:169,1,1499.99994039536,2|0,0:0|0:0,0:0:0:0:
311,159,56842,5,8,0:0:0:0:
311,159,56894,1,8,0:0:0:0:
311,159,56945,1,8,0:0:0:0:
311,159,56997,1,8,0:0:0:0:
311,159,57048,6,8,L|412:297,1,149.999994039536,8|0,0:0|0:0,0:0:0:0:
314,287,57356,2,8,L|225:165,1,149.999994039536,8|0,0:0|0:0,0:0:0:0:
181,228,57664,2,8,L|282:366,1,149.999994039536,8|0,0:0|0:0,0:0:0:0:
184,356,57972,2,8,L|95:234,1,149.999994039536,8|0,0:0|0:0,0:0:0:0:
100,59,168829,6,0,B|106:77|106:77|105:89|107:102|115:114|115:114|115:126|119:133|117:150|117:150|127:166|128:189,1,131.999994754791
100,59,170062,1,0,0:0:0:0:
177,132,170473,5,0,0:0:0:0:
200,203,170575,1,0,0:0:0:0:
127,185,170678,1,0,0:0:0:0:
54,165,170781,2,0,L|36:230,1,47.9999980926514,4|0,0:0|0:0,0:0:0:0:
106,111,171089,2,0,L|118:64,1,47.9999980926514,4|0,0:0|0:0,0:0:0:0:
127,185,171397,2,0,L|109:250,1,47.9999980926514,4|0,0:0|0:0,0:0:0:0:
173,281,171705,6,0,B|224:219|281:223|281:223|243:154|243:154|172:141,1,269.999999570847
128,88,172116,5,6,2:2:0:0:
108,157,172321,1,0,2:0:0:0:
124,228,172526,1,0,2:0:0:0:
173,281,172732,1,4,2:0:0:0:
241,304,172937,1,4,2:0:0:0:
38,137,173143,5,0,2:0:0:0:
56,207,173348,1,0,2:0:0:0:
124,228,173554,1,4,2:0:0:0:
173,281,173759,1,4,2:0:0:0:
241,304,173964,1,0,2:0:0:0:
38,137,174170,5,0,2:0:0:0:
56,207,174375,1,4,2:0:0:0:
124,228,174581,1,4,2:0:0:0:
194,214,174786,1,0,2:0:0:0:
241,304,174991,1,0,2:0:0:0:
338,272,175198,1,4,0:0:0:0:
385,362,175403,5,6,2:0:0:0:
439,316,175608,1,0,2:0:0:0:
435,245,175814,1,0,2:0:0:0:
472,170,176019,1,4,2:0:0:0:
462,86,176224,1,4,2:0:0:0:
303,290,176430,5,0,2:1:0:0:
374,285,176635,1,0,2:0:0:0:
435,245,176840,1,4,2:0:0:0:
472,170,177047,1,4,2:0:0:0:
462,86,177251,1,0,2:0:0:0:
385,362,177458,5,0,2:0:0:0:
440,316,177663,1,4,2:0:0:0:
435,245,177869,1,4,2:0:0:0:
385,176,178074,1,0,2:0:0:0:
462,86,178279,1,0,2:0:0:0:
372,9,178485,1,4,2:0:0:0:
295,99,178691,5,6,2:0:0:0:
259,160,178896,1,0,2:0:0:0:
273,242,179101,1,0,2:0:0:0:
334,299,179307,1,4,2:0:0:0:
416,312,179512,1,4,2:0:0:0:
194,128,179718,5,0,2:0:0:0:
199,200,179923,1,0,2:0:0:0:
273,242,180129,1,4,0:0:0:0:
334,299,180335,1,4,2:0:0:0:
416,312,180539,1,0,2:0:0:0:
194,128,180745,5,0,2:0:0:0:
199,200,180950,1,4,2:0:0:0:
273,242,181156,1,4,2:0:0:0:
353,217,181361,1,0,2:0:0:0:
416,312,181566,1,0,2:0:0:0:
466,210,181773,1,4,2:0:0:0:
353,217,181979,5,6,2:0:0:0:
301,267,182184,1,0,2:0:0:0:
230,256,182390,1,0,2:0:0:0:
151,284,182595,1,4,2:0:0:0:
69,266,182800,1,4,2:0:0:0:
289,130,183006,5,0,2:1:0:0:
276,199,183211,1,0,2:0:0:0:
230,256,183416,1,4,2:0:0:0:
151,284,183623,1,4,2:0:0:0:
69,266,183827,1,0,2:0:0:0:
353,217,184034,5,4,2:0:0:0:
300,268,184239,1,4,2:0:0:0:
230,256,184445,1,0,2:0:0:0:
150,189,184650,1,0,2:0:0:0:
69,266,184753,1,4,0:0:0:0:
69,266,184856,1,4,2:0:0:0:
0,188,185061,1,4,2:0:0:0:
256,0,377082,5,4,2:1:0:0:
