osu file format v14

[General]
AudioFilename: audio.mp3
AudioLeadIn: 0
PreviewTime: 296320
Countdown: 0
SampleSet: Normal
StackLeniency: 0.3
Mode: 1
LetterboxInBreaks: 0
WidescreenStoryboard: 0

[Editor]
Bookmarks: 40604,53754,66905,80056,93206,106357,119508,132658,145809,149097,172110,185261,198412,211562,237864,258715,271865,285016,298167,311317,324468,350769
DistanceSpacing: 1.5
BeatDivisor: 16
GridSize: 32
TimelineZoom: 2.3

[Metadata]
Title:Amygdala
TitleUnicode:Amygdala
Artist:Nhato
ArtistUnicode:Nhato
Creator:Alchyr
Version:????????????????????????????????????????????????????????????????????????????????
Source:
Tags:ULTRA HITECH 01 MEGAREX hi-tech sv electronic instrumental psytrance
BeatmapID:3265146
BeatmapSetID:1598679

[Difficulty]
HPDrainRate:4
CircleSize:2
OverallDifficulty:6.6
ApproachRate:10
SliderMultiplier:1.4
SliderTickRate:1

[Events]
//Background and Video events
0,0,"bg.jpg",0,0
//Break Periods
//Storyboard Layer 0 (Background)
//Storyboard Layer 1 (Fail)
//Storyboard Layer 2 (Pass)
//Storyboard Layer 3 (Foreground)
//Storyboard Layer 4 (Overlay)
//Storyboard Sound Samples

[TimingPoints]
979,410.958904109589,4,1,0,40,1,0
979,-400,4,1,0,40,0,0
1170,-399.908656126037,4,1,0,40,0,0
1375,-399.634888531021,4,1,0,40,0,0
1581,-399.176822691171,4,1,0,40,0,0
1786,-398.540223088322,4,1,0,40,0,0
1992,-397.720722526628,4,1,0,40,0,0
2197,-396.728610210058,4,1,0,40,0,0
2403,-395.557042951733,4,1,0,40,0,0
2608,-394.220677777511,4,1,0,40,0,0
2814,-392.710226028798,4,1,0,40,0,0
3019,-391.044493897424,4,1,0,40,0,0
3225,-389.211790447078,4,1,0,40,0,0
3430,-387.234798738243,4,1,0,40,0,0
3636,-385.09948253533,4,1,0,40,0,0
3841,-382.832085509472,4,1,0,40,0,0
4047,-380.41629790127,4,1,0,40,0,0
4252,-377.881574409196,4,1,0,40,0,0
4458,-375.209419046798,4,1,0,40,0,0
4663,-372.432125598554,4,1,0,40,0,0
4869,-369.529114944624,4,1,0,40,0,0
5074,-366.535136375034,4,1,0,40,0,0
5280,-363.427646243712,4,1,0,40,0,0
5485,-360.24346410213,4,1,0,40,0,0
5691,-356.95821500634,4,1,0,40,0,0
5896,-353.610410711769,4,1,0,40,0,0
6101,-350.190837476904,4,1,0,40,0,0
6307,-346.688797440443,4,1,0,40,0,0
6512,-343.14466433859,4,1,0,40,0,0
6718,-339.530150621006,4,1,0,40,0,0
6923,-335.886454202491,4,1,0,40,0,0
7129,-332.184011498946,4,1,0,40,0,0
7334,-328.464540539748,4,1,0,40,0,0
7540,-324.697375724951,4,1,0,40,0,0
7745,-320.924480116783,4,1,0,40,0,0
7951,-317.114261795622,4,1,0,40,0,0
8156,-313.308683812637,4,1,0,40,0,0
8362,-309.475402514726,4,1,0,40,0,0
8567,-305.656165954621,4,1,0,40,0,0
8773,-301.81804962698,4,1,0,40,0,0
8978,-298.002400844123,4,1,0,40,0,0
9184,-294.175879113564,4,1,0,40,0,0
9389,-290.379273071909,4,1,0,40,0,0
9595,-286.578983123024,4,1,0,40,0,0
9800,-282.815107218782,4,1,0,40,0,0
10006,-279.053933975734,4,1,0,40,0,0
10211,-275.334762418767,4,1,0,40,0,0
10417,-271.62390592979,4,1,0,40,0,0
10622,-267.959777828324,4,1,0,40,0,0
10828,-264.308841231732,4,1,0,41,0,0
11033,-260.708556101742,4,1,0,41,0,0
11238,-257.142953597026,4,1,0,41,0,0
11444,-253.59657334404,4,1,0,41,0,0
11649,-250.105355912277,4,1,0,41,0,0
11855,-246.636605549324,4,1,0,41,0,0
12060,-243.225209281508,4,1,0,41,0,0
12266,-239.838963115691,4,1,0,41,0,0
12471,-236.511682566329,4,1,0,42,0,0
12677,-233.211726568562,4,1,0,42,0,0
12882,-229.971831038836,4,1,0,42,0,0
13088,-226.760978060603,4,1,0,42,0,0
13293,-223.6108241535,4,1,0,42,0,0
13499,-220.491024509633,4,1,0,42,0,0
13704,-217.432163325722,4,1,0,42,0,0
13910,-214.404609365982,4,1,0,42,0,0
14115,-211.437887208993,4,1,0,43,0,0
14320,-208.503110961991,4,1,0,43,0,0
14525,-205.628762840742,4,1,0,43,0,0
14731,-202.786726193154,4,1,0,43,0,0
14936,-200.004461745768,4,1,0,43,0,0
15142,-197.254638924299,4,1,0,43,0,0
15347,-194.563720659273,4,1,0,43,0,0
15553,-191.905173020409,4,1,0,43,0,0
15758,-189.304486975601,4,1,0,43,0,0
15964,-186.748291118858,4,1,0,43,0,0
16169,-184.224049361553,4,1,0,43,0,0
16375,-181.75584757102,4,1,0,43,0,0
16580,-179.319154212166,4,1,0,43,0,0
16786,-176.937153555739,4,1,0,43,0,0
16991,-174.586108788657,4,1,0,43,0,0
17197,-172.288331960698,4,1,0,43,0,0
17402,-170.02087197782,4,1,0,43,0,0
17608,-167.805198248829,4,1,0,43,0,0
17813,-165.619133662707,4,1,0,43,0,0
18019,-163.48333452371,4,1,0,43,0,0
18224,-161.376383707364,4,1,0,43,0,0
18430,-159.318153704867,4,1,0,43,0,0
18635,-157.287971543052,4,1,0,43,0,0
18841,-155.304954784833,4,1,0,43,0,0
19046,-153.34915730791,4,1,0,43,0,0
19251,-151.438970096598,4,1,0,43,0,0
19457,-149.555155442467,4,1,0,43,0,0
19662,-147.7154054656,4,1,0,43,0,0
19868,-145.90117158506,4,1,0,43,0,0
20073,-144.129474059115,4,1,0,43,0,0
20279,-142.390834651936,4,1,0,43,0,0
20484,-140.684668803626,4,1,0,43,0,0
20686,-138.994217088727,4,1,0,43,0,0
20690,-139.002306303248,4,1,0,43,0,0
20895,-137.359503055573,4,1,0,43,0,0
21101,-135.739655682148,4,1,0,43,0,0
21306,-134.157924412792,4,1,0,43,0,0
21512,-132.598313897519,4,1,0,43,0,0
21717,-131.075412429227,4,1,0,43,0,0
21923,-129.573812255044,4,1,0,43,0,0
22128,-128.107552610509,4,1,0,43,0,0
22334,-126.661793105111,4,1,0,43,0,0
22540,-125.243224519194,4,1,0,43,0,0
22745,-123.858018137104,4,1,0,43,0,0
22950,-122.498716035707,4,1,0,43,0,0
23156,-121.158374489272,4,1,0,43,0,0
23361,-119.849514303737,4,1,0,43,0,0
23567,-118.558878999267,4,1,0,43,0,0
23772,-117.298523361355,4,1,0,43,0,0
23978,-116.055680880608,4,1,0,43,0,0
24183,-114.84195902812,4,1,0,43,0,0
24388,-113.650818892915,4,1,0,43,0,0
24594,-112.476171098991,4,1,0,43,0,0
24799,-111.328986014161,4,1,0,43,0,0
25005,-110.197643108285,4,1,0,43,0,0
25210,-109.092708803562,4,1,0,43,0,0
25416,-108.002991259181,4,1,0,43,0,0
25617,-106.933525714153,4,1,0,43,0,0
25621,-106.938669019321,4,1,0,43,0,0
25827,-105.88896267053,4,1,0,43,0,0
26032,-104.863678247121,4,1,0,43,0,0
26238,-103.85243307169,4,1,0,43,0,0
26443,-102.864675362637,4,1,0,44,0,0
26649,-101.890404057583,4,1,0,45,0,0
26854,-100.938723604068,4,1,0,46,0,0
27060,-100,4,1,0,47,0,0
27228,-100,4,1,0,80,0,0
27281,-66.6666666666667,4,1,0,80,0,0
27383,-100,4,1,0,40,0,0
27794,-66.6666666666667,4,1,0,80,0,0
27999,-100,4,1,0,40,0,0
28821,-100,4,1,0,80,0,0
28925,-66.6666666666667,4,1,0,80,0,0
29026,-66.6666666666667,4,1,0,40,0,0
29437,-66.6666666666667,4,1,0,80,0,0
29643,-100,4,1,0,40,0,0
29900,-66.6666666666667,4,1,0,80,0,0
30054,-100,4,1,0,40,0,0
30465,-100,4,1,0,80,0,0
30569,-66.6666666666667,4,1,0,80,0,0
30670,-100,4,1,0,40,0,0
31081,-66.6666666666667,4,1,0,80,0,0
31287,-100,4,1,0,40,0,0
31544,-66.6666666666667,4,1,0,80,0,0
31698,-100,4,1,0,40,0,0
32109,-100,4,1,0,80,0,0
32212,-66.6666666666667,4,1,0,80,0,0
32314,-100,4,1,0,40,0,0
32725,-66.6666666666667,4,1,0,80,0,0
32931,-100,4,1,0,40,0,0
33187,-66.6666666666667,4,1,0,80,0,0
33342,-100,4,1,0,40,0,0
33598,-66.6666666666667,4,1,0,80,0,0
33701,-100,4,1,0,40,0,0
33804,-100,4,1,0,80,0,0
33856,-66.6666666666667,4,1,0,80,0,0
33907,-100,4,1,0,40,0,0
34369,-66.6666666666667,4,1,0,80,0,0
34574,-100,4,1,0,40,0,0
34831,-66.6666666666667,4,1,0,80,0,0
34985,-100,4,1,0,40,0,0
35396,-100,4,1,0,80,0,0
35500,-66.6666666666667,4,1,0,80,0,0
35602,-100,4,1,0,40,0,0
36013,-66.6666666666667,4,1,0,80,0,0
36218,-100,4,1,0,40,0,0
36475,-66.6666666666667,4,1,0,80,0,0
36629,-100,4,1,0,40,0,0
37040,-100,4,1,0,80,0,0
37144,-66.6666666666667,4,1,0,80,0,0
37246,-100,4,1,0,40,0,0
37657,-66.6666666666667,4,1,0,80,0,0
37862,-100,4,1,0,40,0,0
38119,-66.6666666666667,4,1,0,80,0,0
38273,-100,4,1,0,40,0,0
38684,-100,4,1,0,80,0,0
38788,-66.6666666666667,4,1,0,80,0,0
38889,-100,4,1,0,40,0,0
39300,-66.6666666666667,4,1,0,80,0,0
39506,-100,4,1,0,40,0,0
39763,-66.6666666666667,4,1,0,80,0,0
39917,-100,4,1,0,40,0,0
40174,-90.9090909090909,4,1,0,40,0,0
40251,-83.3333333333333,4,1,0,42,0,0
40302,-76.9230769230769,4,1,0,44,0,0
40353,-71.4285714285714,4,1,0,47,0,0
40396,-66.6666666666667,4,1,0,70,0,0
40533,-66.6666666666667,4,1,0,60,0,0
41658,-70.9219858156028,4,1,0,60,0,0
42069,-75.7575757575758,4,1,0,60,0,0
42480,-80.6451612903226,4,1,0,60,0,0
42891,-86.2068965517241,4,1,0,60,0,0
43302,-92.5925925925926,4,1,0,60,0,0
43713,-100,4,1,0,60,0,0
43919,-89.2857142857143,4,1,0,60,0,0
44124,-80.6451612903226,4,1,0,60,0,0
44330,-72.992700729927,4,1,0,60,0,0
44535,-66.6666666666667,4,1,0,60,0,0
44946,-70.9219858156028,4,1,0,60,0,0
45357,-75.7575757575758,4,1,0,60,0,0
45768,-80.6451612903226,4,1,0,60,0,0
46179,-86.2068965517241,4,1,0,60,0,0
46590,-92.5925925925926,4,1,0,60,0,0
47001,-100,4,1,0,60,0,0
47206,-97.2787610619469,4,1,0,60,0,0
47412,-94.5442477876106,4,1,0,60,0,0
47617,-91.8230088495575,4,1,0,60,0,0
47823,-89.0884955752212,4,1,0,60,0,0
48028,-86.3672566371681,4,1,0,60,0,0
48234,-83.6327433628319,4,1,0,60,0,0
48439,-80.9115044247788,4,1,0,60,0,0
48645,-78.1769911504425,4,1,0,60,0,0
48747,-76.8230088495575,4,1,0,60,0,0
48850,-75.4557522123894,4,1,0,60,0,0
48953,-74.0884955752212,4,1,0,60,0,0
49056,-72.7212389380531,4,1,0,60,0,0
49158,-71.3672566371681,4,1,0,60,0,0
49261,-70,4,1,0,60,0,0
49364,-68.6327433628319,4,1,0,60,0,0
49467,-67.2654867256637,4,1,0,60,0,0
49569,-65.9115044247788,4,1,0,60,0,0
49672,-64.5442477876106,4,1,0,60,0,0
49775,-63.1769911504425,4,1,0,60,0,0
49878,-61.8097345132743,4,1,0,60,0,0
49980,-60.4557522123894,4,1,0,60,0,0
50083,-59.0884955752212,4,1,0,60,0,0
50186,-57.7212389380531,4,1,0,60,0,0
50289,-56.353982300885,4,1,0,62,0,0
50340,-55.6769911504425,4,1,0,62,0,0
50391,-55,4,1,0,62,0,0
50443,-54.3097345132743,4,1,0,62,0,0
50494,-53.6327433628319,4,1,0,63,0,0
50545,-52.9557522123894,4,1,0,63,0,0
50597,-52.2654867256637,4,1,0,63,0,0
50648,-51.5884955752212,4,1,0,63,0,0
50700,-50.8982300884956,4,1,0,64,0,0
50751,-50.2212389380531,4,1,0,64,0,0
50802,-49.5442477876106,4,1,0,64,0,0
50854,-48.853982300885,4,1,0,64,0,0
50905,-48.1769911504425,4,1,0,65,0,0
50956,-47.5,4,1,0,65,0,0
51008,-46.8097345132743,4,1,0,65,0,0
51059,-46.1327433628319,4,1,0,65,0,0
51110,-45.4557522123894,4,1,0,66,0,0
51162,-44.7654867256637,4,1,0,66,0,0
51213,-44.0884955752212,4,1,0,67,0,0
51265,-43.3982300884956,4,1,0,67,0,0
51316,-42.7212389380531,4,1,0,68,0,0
51367,-42.0442477876106,4,1,0,68,0,0
51419,-41.353982300885,4,1,0,69,0,0
51470,-40.6769911504425,4,1,0,69,0,0
51521,-40,4,1,0,70,0,0
51595,-40,4,1,0,67,0,0
51663,-40,4,1,0,63,0,0
51732,-40,4,1,0,57,0,0
51800,-40,4,1,0,50,0,0
51869,-40,4,1,0,40,0,0
51933,-55.5555555555556,4,1,0,5,0,0
52117,-57.1428571428571,4,1,0,20,0,0
52232,-56.3380281690141,4,1,0,20,0,0
52334,-52.6315789473684,4,1,0,20,0,0
52437,-53.1914893617021,4,1,0,20,0,0
52540,-55.5555555555556,4,1,0,20,0,0
52896,-66.6666666666667,4,1,0,65,0,0
56646,-62.5,4,1,0,55,0,0
56698,-58.8235294117647,4,1,0,56,0,0
56749,-55.5555555555556,4,1,0,57,0,0
56801,-52.6315789473684,4,1,0,58,0,0
56843,-50,4,1,0,50,0,0
58505,-57.1428571428571,4,1,0,40,0,0
60097,-66.6666666666667,4,1,0,65,0,0
63231,-62.5,4,1,0,40,0,0
63282,-58.8235294117647,4,1,0,43,0,0
63334,-55.5555555555556,4,1,0,45,0,0
63385,-52.6315789473684,4,1,0,48,0,0
63419,-50,4,1,0,80,0,0
64717,-51.5463917525773,4,1,0,80,0,0
64769,-53.1914893617021,4,1,0,80,0,0
64820,-54.9450549450549,4,1,0,80,0,0
64872,-56.8181818181818,4,1,0,80,0,0
65079,-50,4,1,0,80,0,0
66316,-52.6315789473684,4,1,0,80,0,0
66384,-54.9248160244801,4,1,0,80,0,0
66453,-57.3539334676404,4,1,0,80,0,0
66521,-59.852930635818,4,1,0,80,0,0
66590,-62.5,4,1,0,80,0,0
66727,-50,4,1,0,80,0,0
66932,-52.6315789473684,4,1,0,80,0,0
66984,-51.286145939605,4,1,0,80,0,0
67035,-50,4,1,0,80,0,0
67343,-47.6190476190476,4,1,0,80,0,0
67395,-48.8065618910761,4,1,0,80,0,0
67446,-50,4,1,0,80,0,0
67754,-46.9483568075117,4,1,0,80,0,0
67806,-48.4649719296341,4,1,0,80,0,0
67857,-50,4,1,0,80,0,0
68165,-54.054054054054,4,1,0,80,0,0
68217,-51.967853322553,4,1,0,80,0,0
68268,-50,4,1,0,80,0,0
68576,-54.7945205479452,4,1,0,80,0,0
68628,-52.3191311866567,4,1,0,80,0,0
68679,-50,4,1,0,80,0,0
68987,-45.4545454545455,4,1,0,80,0,0
69039,-47.6951915294136,4,1,0,80,0,0
69090,-50,4,1,0,80,0,0
69398,-45.4545454545455,4,1,0,80,0,0
69450,-47.641073080481,4,1,0,80,0,0
69501,-50,4,1,0,80,0,0
69758,-55.5555555555556,4,1,0,50,0,0
69860,-52.7315908105067,4,1,0,50,0,0
69912,-50,4,1,0,50,0,0
69963,-50,4,1,0,80,0,0
70220,-45.4545454545455,4,1,0,80,0,0
70271,-47.6510776002583,4,1,0,80,0,0
70323,-50,4,1,0,80,0,0
70631,-45.4545454545455,4,1,0,80,0,0
70682,-47.6510776002583,4,1,0,80,0,0
70734,-50,4,1,0,80,0,0
71042,-45.4545454545455,4,1,0,80,0,0
71093,-47.6510776002583,4,1,0,80,0,0
71145,-50,4,1,0,80,0,0
71453,-45.4545454545455,4,1,0,80,0,0
71504,-47.6510776002583,4,1,0,80,0,0
71556,-50,4,1,0,80,0,0
71864,-45.4545454545455,4,1,0,80,0,0
71915,-47.6510776002583,4,1,0,80,0,0
71967,-50,4,1,0,80,0,0
72275,-45.4545454545455,4,1,0,80,0,0
72326,-47.6510776002583,4,1,0,80,0,0
72378,-50,4,1,0,80,0,0
72480,-47.5059382422803,4,1,0,80,0,0
72583,-51.9480519480519,4,1,0,80,0,0
72634,-49.7087228319136,4,1,0,80,0,0
72686,-47.5248456521757,4,1,0,80,0,0
72737,-43.4782608695652,4,1,0,80,0,0
72870,-47.6190476190476,4,1,0,70,0,0
72922,-49.5085144241241,4,1,0,67,0,0
72973,-51.434449987364,4,1,0,64,0,0
73024,-53.4353065583718,4,1,0,61,0,0
73076,-55.5555555555556,4,1,0,58,0,0
73256,-50,4,1,0,80,0,0
73502,-45.4545454545455,4,1,0,80,0,0
73553,-47.6190476190476,4,1,0,80,0,0
73604,-50,4,1,0,80,0,0
73913,-55.5555555555556,4,1,0,80,0,0
73964,-52.6315789473684,4,1,0,80,0,0
74015,-50,4,1,0,80,0,0
74324,-45.4545454545455,4,1,0,80,0,0
74375,-47.6190476190476,4,1,0,80,0,0
74426,-50,4,1,0,80,0,0
74735,-55.5555555555556,4,1,0,80,0,0
74786,-52.6315789473684,4,1,0,80,0,0
74837,-50,4,1,0,80,0,0
75146,-45.4545454545455,4,1,0,80,0,0
75197,-47.6190476190476,4,1,0,80,0,0
75248,-50,4,1,0,80,0,0
75557,-55.5555555555556,4,1,0,80,0,0
75608,-52.6315789473684,4,1,0,80,0,0
75659,-50,4,1,0,80,0,0
75968,-45.4545454545455,4,1,0,80,0,0
76019,-47.6190476190476,4,1,0,80,0,0
76070,-50,4,1,0,80,0,0
76378,-43.1034482758621,4,1,0,80,0,0
76430,-44.6428571428571,4,1,0,80,0,0
76481,-46.2962962962963,4,1,0,80,0,0
76533,-48.0769230769231,4,1,0,80,0,0
76584,-50,4,1,0,80,0,0
76789,-45.4545454545455,4,1,0,80,0,0
76841,-47.6190476190476,4,1,0,80,0,0
76892,-50,4,1,0,80,0,0
77200,-45.4545454545455,4,1,0,80,0,0
77252,-47.6190476190476,4,1,0,80,0,0
77303,-50,4,1,0,80,0,0
77611,-45.4545454545455,4,1,0,80,0,0
77663,-47.6190476190476,4,1,0,80,0,0
77714,-50,4,1,0,80,0,0
78022,-45.4545454545455,4,1,0,80,0,0
78074,-47.6190476190476,4,1,0,80,0,0
78125,-50,4,1,0,80,0,0
78433,-45.4545454545455,4,1,0,80,0,0
78485,-47.6190476190476,4,1,0,80,0,0
78536,-50,4,1,0,80,0,0
79050,-45.4545454545455,4,1,0,80,0,0
79101,-47.1429704763997,4,1,0,80,0,0
79152,-48.8941126374513,4,1,0,80,0,0
79204,-50.7465794673521,4,1,0,80,0,0
79255,-52.6315789473684,4,1,0,80,0,0
79358,-51.9480519480519,4,1,0,80,0,0
79461,-51.2820512820513,4,1,0,80,0,0
79563,-47.2382323331063,4,1,0,80,0,0
79666,-43.4782608695652,4,1,0,80,0,0
79877,-49.0196078431373,4,1,0,80,0,0
79928,-49.3829385981306,4,1,0,80,0,0
79979,-49.7489623415694,4,1,0,80,0,0
80031,-50.1249564190905,4,1,0,80,0,0
80082,-50.4964799595895,4,1,0,80,0,0
80185,-51.2552296227207,4,1,0,80,0,0
80288,-52.0253801013495,4,1,0,80,0,0
80390,-52.7994569795446,4,1,0,80,0,0
80493,-53.5928106990275,4,1,0,80,0,0
80596,-54.3980851874014,4,1,0,80,0,0
80699,-48.0769230769231,4,1,0,80,0,0
80801,-48.7467964828221,4,1,0,80,0,0
80853,-49.0918844875854,4,1,0,80,0,0
80904,-49.4327090040039,4,1,0,80,0,0
81007,-50.1282729488825,4,1,0,80,0,0
81109,-50.8267285650703,4,1,0,80,0,0
81212,-51.5419076547522,4,1,0,80,0,0
81315,-52.2671499758235,4,1,0,80,0,0
81418,-53.0025971272592,4,1,0,80,0,0
81520,-47.1698113207547,4,1,0,80,0,0
81572,-47.4659912296098,4,1,0,80,0,0
81623,-47.8076875522064,4,1,0,80,0,0
81675,-48.132991597484,4,1,0,80,0,0
81726,-48.4541897686951,4,1,0,80,0,0
81829,-49.1094346192103,4,1,0,80,0,0
81931,-49.7670497247888,4,1,0,80,0,0
81983,-49.2003795628167,4,1,0,80,0,0
82034,-50.4400483491218,4,1,0,80,0,0
82137,-51.1221479177716,4,1,0,80,0,0
82240,-51.8134715025907,4,1,0,80,0,0
82342,-46.2962962962963,4,1,0,80,0,0
82445,-46.9101353965704,4,1,0,80,0,0
82496,-47.2170811108036,4,1,0,80,0,0
82548,-47.5321133431707,4,1,0,80,0,0
82651,-48.1623380484466,4,1,0,80,0,0
82753,-48.7946785199364,4,1,0,80,0,0
82805,-48.4606535680472,4,1,0,80,0,0
82856,-49.4416434816506,4,1,0,80,0,0
82959,-50.0971865029889,4,1,0,80,0,0
83062,-50.761421319797,4,1,0,80,0,0
83164,-45.3905859924652,4,1,0,80,0,0
83216,-45.7092027518977,4,1,0,80,0,0
83267,-46.0238645802185,4,1,0,80,0,0
83318,-46.340692538339,4,1,0,80,0,0
83370,-46.6659785192002,4,1,0,80,0,0
83472,-47.310686521856,4,1,0,80,0,0
83575,-47.9707538924596,4,1,0,80,0,0
83627,-48.3074820006909,4,1,0,80,0,0
83678,-48.6400303649758,4,1,0,80,0,0
83781,-49.3186444225895,4,1,0,80,0,0
83883,-50,4,1,0,80,0,0
83986,-44.5473984319316,4,1,0,80,0,0
84038,-44.8726292756319,4,1,0,80,0,0
84089,-45.1939119573887,4,1,0,80,0,0
84140,-45.5174949848855,4,1,0,80,0,0
84192,-45.8498082920179,4,1,0,80,0,0
84294,-46.5087170660449,4,1,0,80,0,0
84397,-47.1836950825681,4,1,0,80,0,0
84449,-47.5281729533477,4,1,0,80,0,0
84500,-47.8684690115897,4,1,0,80,0,0
84603,-48.5631810205571,4,1,0,80,0,0
84705,-49.2610837438424,4,1,0,80,0,0
84808,-43.7368789363191,4,1,0,80,0,0
84859,-44.0615668432075,4,1,0,80,0,0
84911,-44.3951030305725,4,1,0,80,0,0
84962,-44.7246773721728,4,1,0,80,0,0
85014,-45.0632331576474,4,1,0,80,0,0
85116,-45.7347852588517,4,1,0,80,0,0
85219,-46.4230771154039,4,1,0,80,0,0
85270,-46.7677064558255,4,1,0,80,0,0
85322,-47.1217275136464,4,1,0,80,0,0
85425,-47.8308923458578,4,1,0,80,0,0
85527,-48.5436893203883,4,1,0,80,0,0
85630,-42.9534813796658,4,1,0,80,0,0
85681,-43.2688012241782,4,1,0,80,0,0
85733,-43.5926872015387,4,1,0,80,0,0
85784,-43.9126994312522,4,1,0,80,0,0
85836,-44.2414052694413,4,1,0,80,0,0
85938,-44.8933383139549,4,1,0,80,0,0
86041,-45.5614118272505,4,1,0,80,0,0
86092,-45.8958763882519,4,1,0,80,0,0
86144,-46.2394271768169,4,1,0,80,0,0
86246,-46.9208026971548,4,1,0,80,0,0
86349,-47.6190476190476,4,1,0,80,0,0
86452,-42.1976538104481,4,1,0,80,0,0
86503,-42.5040621951205,4,1,0,80,0,0
86555,-42.81876947493,4,1,0,80,0,0
86606,-43.1296879455968,4,1,0,80,0,0
86657,-43.4428640779523,4,1,0,80,0,0
86760,-44.0823082401795,4,1,0,80,0,0
86863,-44.7311645082906,4,1,0,80,0,0
86914,-45.0559693878004,4,1,0,80,0,0
86966,-45.3895714209455,4,1,0,80,0,0
87068,-46.0511361250384,4,1,0,80,0,0
87171,-46.7289719626168,4,1,0,80,0,0
87274,-41.4696856597827,4,1,0,80,0,0
87325,-41.7674983135902,4,1,0,80,0,0
87377,-42.0733525772482,4,1,0,80,0,0
87428,-42.3755004374564,4,1,0,80,0,0
87479,-42.6798181587248,4,1,0,80,0,0
87582,-43.3011007620518,4,1,0,80,0,0
87685,-43.9314272669194,4,1,0,80,0,0
87736,-44.2469188056605,4,1,0,80,0,0
87788,-44.570929323811,4,1,0,80,0,0
87890,-45.2133961802301,4,1,0,80,0,0
87993,-45.8715596330275,4,1,0,80,0,0
88096,-40.7647466470996,4,1,0,80,0,0
88147,-41.0544760707592,4,1,0,80,0,0
88199,-41.3520067317935,4,1,0,80,0,0
88250,-41.6459100198794,4,1,0,80,0,0
88301,-41.9419021822323,4,1,0,80,0,0
88404,-42.5461204603683,4,1,0,80,0,0
88507,-43.1590431536271,4,1,0,80,0,0
88558,-43.4657896865285,4,1,0,80,0,0
88609,-43.7747163751649,4,1,0,80,0,0
88661,-44.0919612056004,4,1,0,80,0,0
88712,-44.4053383159432,4,1,0,80,0,0
88815,-45.045045045045,4,1,0,80,0,0
88918,-40,4,1,0,80,0,0
88969,-40.287381920325,4,1,0,80,0,0
89020,-40.5768285498533,4,1,0,80,0,0
89072,-40.8740918098546,4,1,0,80,0,0
89123,-41.167753684751,4,1,0,80,0,0
89226,-41.7672845320106,4,1,0,80,0,0
89329,-42.3755464176349,4,1,0,80,0,0
89380,-42.679995565243,4,1,0,80,0,0
89431,-42.9866320423681,4,1,0,80,0,0
89483,-43.3015493691791,4,1,0,80,0,0
89534,-43.6126514294482,4,1,0,80,0,0
89637,-44.2477876106195,4,1,0,80,0,0
89740,-38.4615384615385,4,1,0,80,0,0
89791,-39.034353933945,4,1,0,80,0,0
89842,-39.6157004630528,4,1,0,80,0,0
89894,-40.217361234476,4,1,0,80,0,0
89945,-40.8163265306122,4,1,0,80,0,0
90048,-37.8787878787879,4,1,0,80,0,0
90099,-38.9146526971117,4,1,0,80,0,0
90151,-40,4,1,0,80,0,0
90253,-37.3134328358209,4,1,0,80,0,0
90305,-38.4143749358766,4,1,0,80,0,0
90356,-39.5256916996047,4,1,0,80,0,0
90459,-36.7647058823529,4,1,0,80,0,0
90510,-37.8850404204526,4,1,0,80,0,0
90562,-39.0625,4,1,0,80,0,0
90664,-36.231884057971,4,1,0,80,0,0
90716,-37.4136089578698,4,1,0,80,0,0
90767,-38.6100386100386,4,1,0,80,0,0
90870,-35.7142857142857,4,1,0,80,0,0
90921,-36.9088282162663,4,1,0,80,0,0
90972,-38.1433248083399,4,1,0,80,0,0
91075,-35.2112676056338,4,1,0,80,0,0
91127,-36.4639637300911,4,1,0,80,0,0
91178,-37.7358490566038,4,1,0,80,0,0
91281,-34.7222222222222,4,1,0,80,0,0
91332,-35.9945177325567,4,1,0,80,0,0
91383,-25.0156347717323,4,1,0,80,0,0
91441,-25,4,1,0,50,0,0
91749,-40,4,1,0,40,0,0
91981,-43.4782608695652,4,1,0,60,0,0
92032,-42.1721477642897,4,1,0,60,0,0
92084,-40.8808145853458,4,1,0,60,0,0
92135,-39.6527303286079,4,1,0,60,0,0
92186,-38.4615384615385,4,1,0,60,0,0
92391,-47.6190476190476,4,1,0,50,0,0
92494,-50.3749295161814,4,1,0,50,0,0
92545,-51.6795865633075,4,1,0,50,0,0
92596,-53.261203655455,4,1,0,50,0,0
92802,-59.6044204171498,4,1,0,50,0,0
93015,-66.6666666666667,4,1,0,55,0,0
94257,-63.8512600922347,4,1,0,55,0,0
94327,-59.5809362449823,4,1,0,55,0,0
94395,-54.7147902027238,4,1,0,55,0,0
94464,-50,4,1,0,55,0,0
94669,-66.6666666666667,4,1,0,55,0,0
95901,-63.8512600922347,4,1,0,55,0,0
95971,-59.5809362449823,4,1,0,55,0,0
96039,-54.7147902027238,4,1,0,55,0,0
96107,-50.0638309585001,4,1,0,55,0,0
96313,-66.6666666666667,4,1,0,55,0,0
96681,-54.054054054054,4,1,0,40,0,0
96749,-56.6157085153125,4,1,0,38,0,0
96818,-59.3391522554298,4,1,0,36,0,0
96886,-62.1512707313245,4,1,0,34,0,0
96989,-66.6666666666667,4,1,0,50,0,0
97092,-66.6666666666667,4,1,0,55,0,0
97752,-63.1911532385466,4,1,0,55,0,0
97855,-59.3471810089021,4,1,0,55,0,0
97958,-57.1428571428571,4,1,0,55,0,0
98163,-66.6666666666667,4,1,0,55,0,0
98453,-50,4,1,0,90,0,0
98504,-52.0630010549863,4,1,0,90,0,0
98555,-54.2111215770301,4,1,0,90,0,0
98607,-56.4926418183599,4,1,0,90,0,0
98658,-58.8235294117647,4,1,0,60,0,0
98735,-50,4,1,0,70,0,0
98941,-45.4545454545455,4,1,0,60,0,0
99044,-41.6666666666667,4,1,0,62,0,0
99146,-44.4444444444445,4,1,0,64,0,0
99249,-47.6190476190476,4,1,0,66,0,0
99352,-51.2820512820513,4,1,0,68,0,0
99455,-55.5555555555556,4,1,0,70,0,0
99558,-43.859649122807,4,1,0,72,0,0
99711,-60.0024000960038,4,1,0,55,0,0
100837,-57.9698879843214,4,1,0,55,0,0
100906,-54.9080143686895,4,1,0,55,0,0
100974,-51.265878661633,4,1,0,55,0,0
101043,-47.6190476190476,4,1,0,55,0,0
101248,-60.0024000960038,4,1,0,55,0,0
101407,-62.5451603464069,4,1,0,50,0,0
101509,-63.8438037139878,4,1,0,51,0,0
101612,-65.1825426635263,4,1,0,52,0,0
101715,-66.5493535929713,4,1,0,53,0,0
101818,-67.944825142891,4,1,0,54,0,0
101920,-69.355583322174,4,1,0,55,0,0
102023,-70.8098986254618,4,1,0,56,0,0
102126,-72.2947094260127,4,1,0,57,0,0
102229,-73.810655183063,4,1,0,58,0,0
102331,-75.3432072986768,4,1,0,58,0,0
102434,-76.9230769230769,4,1,0,65,0,0
102503,-70.3125644158606,4,1,0,70,0,0
102571,-64.3538877499305,4,1,0,75,0,0
102639,-58.9001823918183,4,1,0,80,0,0
102845,-40,4,1,0,90,0,0
104535,-25,4,1,0,100,0,0
105490,-50,4,1,0,80,0,0
105606,-46.5274625510667,4,1,0,80,0,0
105657,-43.5059422750424,4,1,0,80,0,0
105709,-40.8041401273885,4,1,0,80,0,0
105760,-38.4615384615385,4,1,0,80,0,0
106133,-43.859649122807,4,1,0,70,0,0
106287,-46.3808508112927,4,1,0,55,0,0
106482,-47.6996099803789,4,1,0,55,0,0
106585,-49.0196078431373,4,1,0,55,0,0
106688,-50.3100800261776,4,1,0,55,0,0
106790,-51.525011195375,4,1,0,55,0,0
106893,-52.6514346149178,4,1,0,55,0,0
106996,-53.6392111154197,4,1,0,55,0,0
107099,-54.4520145732662,4,1,0,55,0,0
107201,-55.0528971685317,4,1,0,55,0,0
107304,-55.4284874435639,4,1,0,55,0,0
107391,-55.5555555555556,4,1,0,57,0,0
107442,-55.3227558997663,4,1,0,59,0,0
107494,-54.6270590380901,4,1,0,61,0,0
107545,-53.5530858748933,4,1,0,63,0,0
107596,-52.1752566903795,4,1,0,65,0,0
107674,-48.8621567170017,4,1,0,55,0,0
107813,-46.5116279069767,4,1,0,55,0,0
107916,-47.8212375928343,4,1,0,55,0,0
108018,-49.1688418363421,4,1,0,55,0,0
108121,-50.558037489786,4,1,0,55,0,0
108224,-51.948051948052,4,1,0,55,0,0
108327,-53.306504758547,4,1,0,55,0,0
108429,-54.5850128221651,4,1,0,55,0,0
108532,-55.7700140892068,4,1,0,55,0,0
108635,-56.8088674783279,4,1,0,55,0,0
108737,-57.6561969627848,4,1,0,55,0,0
108840,-58.2951811645574,4,1,0,55,0,0
108943,-58.6899737434413,4,1,0,55,0,0
109009,-58.8235294117647,4,1,0,70,0,0
109086,-57.5475132909334,4,1,0,75,0,0
109137,-54.1977610288463,4,1,0,78,0,0
109189,-49.76254486498,4,1,0,80,0,0
109240,-45.4545454545455,4,1,0,85,0,0
109318,-48.7892311526056,4,1,0,55,0,0
109563,-51.3637870124659,4,1,0,55,0,0
109666,-53.556138033042,4,1,0,55,0,0
109769,-55.0329855575137,4,1,0,55,0,0
109872,-55.5555555555556,4,1,0,55,0,0
109923,-55.2648605174906,4,1,0,55,0,0
109974,-54.4213639268506,4,1,0,55,0,0
110026,-53.0748226209212,4,1,0,55,0,0
110077,-51.3927433446397,4,1,0,55,0,0
110180,-52.1321284233317,4,1,0,55,0,0
110283,-52.8833374849481,4,1,0,55,0,0
110385,-53.6292635536168,4,1,0,55,0,0
110488,-54.3739249874642,4,1,0,55,0,0
110591,-55.0985711749506,4,1,0,55,0,0
110694,-55.7912329187985,4,1,0,55,0,0
110796,-56.4336266312857,4,1,0,55,0,0
110899,-57.0262628571781,4,1,0,55,0,0
111002,-57.5508564175073,4,1,0,55,0,0
111104,-57.992581094802,4,1,0,55,0,0
111207,-58.3505191074619,4,1,0,55,0,0
111310,-58.6119355070788,4,1,0,55,0,0
111413,-58.77083824239,4,1,0,55,0,0
111475,-50,4,1,0,75,0,0
111603,-54.6448087431694,4,1,0,75,0,0
111654,-56.8513430928833,4,1,0,75,0,0
111706,-58.6320659618917,4,1,0,75,0,0
111783,-60.2409638554217,4,1,0,75,0,0
111908,-52.6315789473684,4,1,0,75,0,0
112135,-66.6666666666667,4,1,0,75,0,0
112238,-55.5555555555556,4,1,0,75,0,0
112340,-71.4285714285714,4,1,0,75,0,0
112443,-74.0740740740741,4,1,0,75,0,0
112546,-40,4,1,0,75,0,0
112708,-43.859649122807,4,1,0,70,0,0
112862,-50,4,1,0,40,0,0
113967,-58.8235294117647,4,1,0,58,0,0
114019,-53.3668752990313,4,1,0,61,0,0
114070,-48.5071250072666,4,1,0,64,0,0
114121,-44.0899183863833,4,1,0,67,0,0
114173,-40,4,1,0,70,0,0
114506,-50,4,1,0,40,0,0
115585,-58.8235294117647,4,1,0,70,0,0
115661,-55.1860639320544,4,1,0,72,0,0
115713,-51.7087689995019,4,1,0,74,0,0
115764,-48.5112583415238,4,1,0,77,0,0
115816,-45.4545454545455,4,1,0,80,0,0
115944,-50,4,1,0,40,0,0
116134,-52.9834318155486,4,1,0,40,0,0
116236,-55.9378982736647,4,1,0,40,0,0
116339,-58.9213300892133,4,1,0,40,0,0
116442,-61.9047619047619,4,1,0,40,0,0
116545,-64.8881937203105,4,1,0,40,0,0
116647,-67.8426601784266,4,1,0,40,0,0
116750,-70.8260919939752,4,1,0,40,0,0
116853,-73.8095238095238,4,1,0,40,0,0
116956,-76.7929556250724,4,1,0,40,0,0
117058,-79.7474220831885,4,1,0,40,0,0
117161,-82.7308538987371,4,1,0,40,0,0
117264,-85.7142857142857,4,1,0,40,0,0
117367,-88.6977175298343,4,1,0,40,0,0
117469,-91.6521839879504,4,1,0,40,0,0
117572,-94.635615803499,4,1,0,40,0,0
117675,-97.6190476190476,4,1,0,40,0,0
117778,-100.602479434596,4,1,0,40,0,0
117880,-103.556945892712,4,1,0,40,0,0
117983,-106.540377708261,4,1,0,40,0,0
118291,-115.461707797474,4,1,0,40,0,0
118394,-118.445139613023,4,1,0,40,0,0
118497,-121.428571428571,4,1,0,40,0,0
118599,-124.383037886688,4,1,0,40,0,0
118702,-127.366469702236,4,1,0,40,0,0
118805,-130.349901517785,4,1,0,40,0,0
118908,-133.333333333333,4,1,0,40,0,0
118959,-112.214336895147,4,1,0,40,0,0
119010,-94.4404305361312,4,1,0,40,0,0
119062,-79.2134867507588,4,1,0,40,0,0
119113,-66.6666666666667,4,1,0,40,0,0
119283,-50,4,1,0,70,0,0
119369,-55.5555555555556,4,1,0,70,0,0
119574,-58.8235294117647,4,1,0,70,0,0
119677,-64.5161290322581,4,1,0,70,0,0
119883,-71.4285714285714,4,1,0,70,0,0
120088,-80,4,1,0,70,0,0
120294,-83.3333333333333,4,1,0,70,0,0
120396,-86.9565217391304,4,1,0,70,0,0
120499,-90.9090909090909,4,1,0,70,0,0
120705,-94.3396226415094,4,1,0,70,0,0
120807,-97.0873786407767,4,1,0,70,0,0
120910,-100,4,1,0,40,0,0
122571,-66.6666666666667,4,1,0,70,0,0
122674,-72.7158432085051,4,1,0,70,0,0
122879,-75.9432530515152,4,1,0,70,0,0
122982,-82.7992478487832,4,1,0,70,0,0
123187,-90.312256865314,4,1,0,70,0,0
123393,-98.4654546586467,4,1,0,70,0,0
123598,-102.835731664863,4,1,0,70,0,0
123701,-107.354705747119,4,1,0,70,0,0
123804,-117.09581926204,4,1,0,70,0,0
124009,-122.292983772366,4,1,0,70,0,0
124112,-127.666979903497,4,1,0,70,0,0
124215,-133.333333333333,4,1,0,40,0,0
125859,-100,4,1,0,70,0,0
126013,-109.027786566658,4,1,0,70,0,0
126167,-113.866860639111,4,1,0,70,0,0
126270,-124.198871773175,4,1,0,70,0,0
126475,-135.411280835054,4,1,0,70,0,0
126681,-147.69818198797,4,1,0,70,0,0
126886,-154.188574438087,4,1,0,70,0,0
126989,-161.032058620678,4,1,0,70,0,0
127143,-175.643728893061,4,1,0,70,0,0
127297,-183.3621497739,4,1,0,70,0,0
127400,-191.500469855246,4,1,0,70,0,0
127502,-200,4,1,0,40,0,0
129146,-125,4,1,0,70,0,0
129249,-139.42035940316,4,1,0,70,0,0
129455,-147.282090429186,4,1,0,70,0,0
129557,-164.272975850287,4,1,0,70,0,0
129763,-183.321586887679,4,1,0,70,0,0
129968,-204.470092241902,4,1,0,70,0,0
130174,-215.999892300904,4,1,0,70,0,0
130276,-228.179842648113,4,1,0,70,0,0
130379,-254.50332536445,4,1,0,70,0,0
130585,-268.854433752135,4,1,0,70,0,0
130687,-284.01478230067,4,1,0,70,0,0
130790,-66.6666666666667,4,1,0,55,0,0
131145,-74.0740740740741,4,1,0,55,0,0
131247,-71.4285714285714,4,1,0,55,0,0
131350,-68.9655172413793,4,1,0,55,0,0
131402,-67.5675675675676,4,1,0,55,0,0
131453,-66.2251655629139,4,1,0,55,0,0
131504,-64.9350649350649,4,1,0,55,0,0
131556,-63.6942675159236,4,1,0,55,0,0
131658,-61.7283950617284,4,1,0,55,0,0
131710,-60.6060606060606,4,1,0,55,0,0
131761,-59.5238095238095,4,1,0,55,0,0
131864,-58.8235294117647,4,1,0,55,0,0
131932,-60.6060606060606,4,1,0,55,0,0
132001,-62.5,4,1,0,55,0,0
132069,-64.5161290322581,4,1,0,55,0,0
132172,-67.5675675675676,4,1,0,55,0,0
132275,-71.4285714285714,4,1,0,55,0,0
132485,-50,4,1,0,90,0,1
132687,-54.9450549450549,4,1,0,90,0,1
132790,-57.0613409415122,4,1,0,90,0,1
132995,-52.6315789473684,4,1,0,90,0,1
133046,-51.3435005190054,4,1,0,90,0,1
133098,-50.0626174321759,4,1,0,90,0,1
133201,-47.6190476190476,4,1,0,90,0,1
133303,-51.2820512820513,4,1,0,90,0,1
133509,-55.5555555555556,4,1,0,90,0,1
133560,-53.3760512683624,4,1,0,90,0,1
133611,-51.2820512820513,4,1,0,90,0,1
133714,-50,4,1,0,90,0,1
133817,-52.7926442845535,4,1,0,90,0,1
133920,-55.7412658111079,4,1,0,90,0,1
134022,-58.8235294117647,4,1,0,90,0,1
134125,-46.7289719626168,4,1,0,90,0,1
134228,-47.860587966723,4,1,0,90,0,1
134279,-48.4310054671788,4,1,0,90,0,1
134331,-49.0196078431373,4,1,0,90,0,1
134536,-50,4,1,0,90,0,1
134588,-51.390907825129,4,1,0,90,0,1
134639,-52.7926442845535,4,1,0,90,0,1
134742,-55.7412658111079,4,1,0,90,0,1
134844,-58.8235294117647,4,1,0,90,0,1
134947,-57.1428571428571,4,1,0,90,0,1
135153,-52.6315789473684,4,1,0,90,0,1
135255,-54.054054054054,4,1,0,90,0,1
135358,-55.5555555555556,4,1,0,90,0,1
135461,-53.6321833042088,4,1,0,90,0,1
135512,-52.704627669473,4,1,0,90,0,1
135564,-51.7753995475726,4,1,0,90,0,1
135666,-50,4,1,0,90,0,1
135769,-45.4545454545455,4,1,0,90,0,1
135974,-50.1373279046358,4,1,0,90,0,1
136077,-52.6315789473684,4,1,0,90,0,1
136283,-51.2820512820513,4,1,0,90,0,1
136334,-50.3452460155832,4,1,0,90,0,1
136385,-49.4255540292071,4,1,0,90,0,1
136488,-47.6190476190476,4,1,0,90,0,1
136694,-50,4,1,0,90,0,1
136745,-48.3964144995394,4,1,0,90,0,1
136796,-46.8442587282246,4,1,0,90,0,1
136899,-43.859649122807,4,1,0,90,0,1
137002,-45.4545454545455,4,1,0,90,0,1
137053,-46.6006070959279,4,1,0,90,0,1
137105,-47.7988969062578,4,1,0,90,0,1
137207,-50.2396245207709,4,1,0,90,0,1
137310,-52.8307699277035,4,1,0,90,0,1
137413,-55.5555555555556,4,1,0,90,0,1
137516,-60.6060606060606,4,1,0,90,0,1
137618,-50,4,1,0,90,0,1
137721,-54.7945205479452,4,1,0,90,0,1
137824,-45.4545454545455,4,1,0,90,0,1
137927,-50,4,1,0,90,0,1
138029,-41.6666666666667,4,1,0,90,0,1
138235,-54.054054054054,4,1,0,90,0,1
138338,-51.2820512820513,4,1,0,90,0,1
138440,-48.780487804878,4,1,0,90,0,1
138543,-46.5116279069767,4,1,0,90,0,1
138646,-44.4444444444445,4,1,0,90,0,1
138851,-50,4,1,0,90,0,1
138954,-52.6315789473684,4,1,0,90,0,1
139057,-55.5555555555556,4,1,0,90,0,1
139108,-57.1428571428571,4,1,0,90,0,1
139159,-58.8235294117647,4,1,0,90,0,1
139262,-50,4,1,0,90,0,1
139365,-47.6190476190476,4,1,0,90,0,1
139468,-45.4545454545455,4,1,0,90,0,1
139519,-44.4444444444445,4,1,0,90,0,1
139570,-43.4782608695652,4,1,0,90,0,1
139673,-47.6190476190476,4,1,0,90,0,1
139776,-52.1524788630223,4,1,0,90,0,1
139879,-57.1175020827177,4,1,0,90,0,1
139930,-59.748170517346,4,1,0,90,0,1
139981,-62.5,4,1,0,90,0,1
140084,-52.6315789473684,4,1,0,90,0,1
140187,-48.6762802458246,4,1,0,90,0,1
140290,-45.018224912831,4,1,0,90,0,1
140341,-43.3100377668729,4,1,0,90,0,1
140392,-41.6666666666667,4,1,0,90,0,1
140495,-44.8430493273543,4,1,0,90,0,1
140598,-46.7289719626168,4,1,0,90,0,1
140701,-45.4545454545455,4,1,0,90,0,1
140752,-46.5116279069767,4,1,0,90,0,1
140803,-47.6190476190476,4,1,0,90,0,1
140906,-50,4,1,0,90,0,1
140957,-47.6190476190476,4,1,0,90,0,1
141009,-45.4545454545455,4,1,0,90,0,1
141163,-46.5116279069767,4,1,0,90,0,1
141214,-47.6190476190476,4,1,0,90,0,1
141368,-45.4344949272166,4,1,0,90,0,1
141420,-43.4782608695652,4,1,0,90,0,1
141522,-45.4545454545455,4,1,0,90,0,1
141574,-46.5221318879855,4,1,0,90,0,1
141625,-47.6190476190476,4,1,0,90,0,1
141728,-50,4,1,0,90,0,1
141779,-47.5970425138632,4,1,0,90,0,1
141831,-45.4545454545455,4,1,0,90,0,1
141985,-46.5221318879855,4,1,0,90,0,1
142036,-47.6190476190476,4,1,0,90,0,1
142190,-45.4344949272166,4,1,0,90,0,1
142242,-43.4782608695652,4,1,0,90,0,1
142344,-45.4545454545455,4,1,0,90,0,1
142396,-46.9633412365493,4,1,0,90,0,1
142447,-48.5436893203883,4,1,0,90,0,1
142550,-46.7289719626168,4,1,0,90,0,1
142601,-48.5253933854707,4,1,0,90,0,1
142653,-50.5050505050505,4,1,0,90,0,1
142755,-48.3091787439614,4,1,0,90,0,1
142807,-50.3987865146548,4,1,0,90,0,1
142858,-52.6315789473684,4,1,0,90,0,1
142961,-50,4,1,0,90,0,1
143012,-52.3320800731633,4,1,0,90,0,1
143064,-54.9450549450549,4,1,0,90,0,1
143166,-47.6190476190476,4,1,0,90,0,1
143218,-48.7920416864045,4,1,0,90,0,1
143269,-50,4,1,0,90,0,1
143372,-46.0829493087558,4,1,0,90,0,1
143423,-47.716112295006,4,1,0,90,0,1
143475,-49.5049504950495,4,1,0,90,0,1
143577,-44.6428571428571,4,1,0,90,0,1
143629,-46.7501815541031,4,1,0,90,0,1
143680,-49.0196078431373,4,1,0,90,0,1
143783,-43.1034482758621,4,1,0,90,0,1
143834,-45.662100456621,4,1,0,90,0,1
143885,-48.5436893203883,4,1,0,90,0,1
143937,-41.6666666666667,4,1,0,60,0,1
143992,-41.6666666666667,4,1,0,60,0,0
144095,-48.5197055464889,4,1,0,57,0,0
144300,-57.5819097169788,4,1,0,54,0,0
144506,-69.6240104941435,4,1,0,51,0,0
144711,-85.157034709737,4,1,0,48,0,0
144917,-104.354649992174,4,1,0,45,0,0
145122,-125.22741010514,4,1,0,42,0,0
145328,-142.909114175551,4,1,0,40,0,0
145585,-150.01500150015,4,1,0,70,0,0
146013,-154.896623760324,4,1,0,55,0,0
146081,-158.206180013868,4,1,0,55,0,0
146150,-161.636693955529,4,1,0,55,0,0
146218,-165.090260071407,4,1,0,55,0,0
146424,-176.009445064931,4,1,0,55,0,0
146527,-181.736949757379,4,1,0,55,0,0
146629,-187.59250108482,4,1,0,55,0,0
146835,-200,4,1,0,75,0,0
147246,-200,4,1,0,60,0,0
147326,-206.462710018469,4,1,0,60,0,0
147378,-213.26720029608,4,1,0,60,0,0
147429,-220.158620655901,4,1,0,60,0,0
147480,-227.272727272727,4,1,0,60,0,0
147828,-254.823595718813,4,1,0,50,0,0
148190,-277.715139693478,4,1,0,50,0,0
148292,-285.714285714286,4,1,0,50,0,0
148444,-40,4,1,0,80,0,0
148914,-58.8235294117647,4,1,0,65,0,0
148982,-62.7365934866078,4,1,0,65,0,0
149051,-66.9733633715039,4,1,0,65,0,0
149119,-71.4285714285714,4,1,0,65,0,0
149325,-76.9230769230769,4,1,0,65,0,0
149427,-74.1383310438106,4,1,0,65,0,0
149530,-71.4285714285714,4,1,0,65,0,0
149694,-55.5555555555556,4,1,0,75,0,0
149797,-55.5555555555556,4,1,0,65,0,0
149933,-71.4285714285714,4,1,0,65,0,0
150036,-70.4225352112676,4,1,0,65,0,0
150139,-69.4444444444444,4,1,0,65,0,0
150241,-71.4285714285714,4,1,0,65,0,0
150344,-74.0740740740741,4,1,0,65,0,0
150550,-66.6666666666667,4,1,0,65,0,0
150618,-69.7183959382543,4,1,0,65,0,0
150687,-72.9578276711938,4,1,0,65,0,0
150755,-76.2975407456282,4,1,0,65,0,0
150824,-79.8426692774941,4,1,0,65,0,0
150892,-83.4975424418314,4,1,0,65,0,0
150960,-87.3743993010048,4,1,0,65,0,0
151063,-85.3299475081897,4,1,0,65,0,0
151166,-83.3333333333333,4,1,0,65,0,0
151371,-71.4285714285714,4,1,0,65,0,0
151423,-74.1516027174757,4,1,0,65,0,0
151474,-76.9230769230769,4,1,0,65,0,0
151577,-72.463768115942,4,1,0,65,0,0
151749,-55.5555555555556,4,1,0,80,0,0
152177,-58.8235294117647,4,1,0,65,0,0
152246,-62.7761217786041,4,1,0,65,0,0
152314,-66.9311921989574,4,1,0,65,0,0
152383,-71.4285714285714,4,1,0,65,0,0
152588,-76.9230769230769,4,1,0,65,0,0
152711,-74.1249316661101,4,1,0,65,0,0
152814,-71.4285714285714,4,1,0,65,0,0
153019,-66.6666666666667,4,1,0,65,0,0
153122,-69.1008708261623,4,1,0,65,0,0
153225,-71.6239552340096,4,1,0,65,0,0
153328,-74.2391651802619,4,1,0,65,0,0
153430,-76.9230769230769,4,1,0,65,0,0
153499,-75.9567989426734,4,1,0,65,0,0
153567,-75.0164011296228,4,1,0,65,0,0
153636,-74.0740740740741,4,1,0,65,0,0
153829,-68.9655172413793,4,1,0,75,0,0
153880,-71.449379744966,4,1,0,75,0,0
153932,-74.0740740740741,4,1,0,75,0,0
154035,-66.6666666666667,4,1,0,75,0,0
154069,-68.9655172413793,4,1,0,75,0,0
154163,-66.6666666666667,4,1,0,65,0,0
154354,-69.0065559342354,4,1,0,65,0,0
154457,-71.4285714285714,4,1,0,65,0,0
154662,-76.9230769230769,4,1,0,65,0,0
154765,-74.1249316661101,4,1,0,65,0,0
154868,-71.4285714285714,4,1,0,65,0,0
155037,-50,4,1,0,75,0,0
155473,-58.8235294117647,4,1,0,65,0,0
155885,-55.5555555555556,4,1,0,80,0,0
155954,-56.6491129865355,4,1,0,80,0,0
156022,-57.7478797001006,4,1,0,80,0,0
156090,-58.8679581028907,4,1,0,80,0,0
156193,-60.6060606060606,4,1,0,80,0,0
156296,-55.5555555555556,4,1,0,80,0,0
156364,-54.2781693603302,4,1,0,80,0,0
156433,-53.0120166126691,4,1,0,80,0,0
156501,-51.7931138850316,4,1,0,80,0,0
156604,-50,4,1,0,80,0,0
156707,-45.4545454545455,4,1,0,80,0,0
156758,-47.1429704763997,4,1,0,80,0,0
156810,-48.9290912250895,4,1,0,80,0,0
156861,-50.7465794673521,4,1,0,80,0,0
156912,-52.6315789473684,4,1,0,80,0,0
157118,-43.859649122807,4,1,0,80,0,0
157544,-71.4285714285714,4,1,0,80,0,0
157647,-76.9230769230769,4,1,0,80,0,0
157749,-68.9655172413793,4,1,0,80,0,0
157852,-74.0740740740741,4,1,0,80,0,0
157955,-66.6666666666667,4,1,0,80,0,0
158058,-71.4285714285714,4,1,0,80,0,0
158160,-64.5161290322581,4,1,0,80,0,0
158299,-68.9655172413793,4,1,0,65,0,0
158418,-65.9528907922912,4,1,0,65,0,0
158487,-62.8930817610063,4,1,0,65,0,0
158555,-60.2409638554217,4,1,0,65,0,0
158658,-58.1395348837209,4,1,0,65,0,0
158761,-58.8235294117647,4,1,0,65,0,0
158829,-62.7365934866078,4,1,0,65,0,0
158898,-66.9733633715039,4,1,0,65,0,0
158966,-71.4285714285714,4,1,0,65,0,0
159189,-76.9230769230769,4,1,0,65,0,0
159292,-74.1115347101437,4,1,0,65,0,0
159394,-71.4285714285714,4,1,0,65,0,0
159574,-66.6666666666667,4,1,0,65,0,0
159677,-69.1008708261623,4,1,0,65,0,0
159780,-71.6239552340096,4,1,0,65,0,0
159883,-74.2391651802619,4,1,0,65,0,0
159985,-76.9230769230769,4,1,0,65,0,0
160054,-75.9567989426734,4,1,0,65,0,0
160122,-75.0164011296228,4,1,0,65,0,0
160191,-74.0740740740741,4,1,0,65,0,0
160405,-68.9655172413793,4,1,0,75,0,0
160456,-71.449379744966,4,1,0,75,0,0
160508,-74.0740740740741,4,1,0,75,0,0
160602,-66.6882486241502,4,1,0,75,0,0
160657,-68.9655172413793,4,1,0,75,0,0
160739,-66.6666666666667,4,1,0,65,0,0
160919,-68.9655172413793,4,1,0,65,0,0
161022,-71.4285714285714,4,1,0,65,0,0
161227,-76.9230769230769,4,1,0,65,0,0
161330,-74.0740740740741,4,1,0,65,0,0
161433,-71.4285714285714,4,1,0,65,0,0
161638,-62.5,4,1,0,75,0,0
162023,-58.8235294117647,4,1,0,65,0,0
162125,-62.7761217786041,4,1,0,65,0,0
162193,-66.9311921989574,4,1,0,65,0,0
162262,-71.4285714285714,4,1,0,65,0,0
162473,-76.9230769230769,4,1,0,65,0,0
162576,-74.1249316661101,4,1,0,65,0,0
162679,-71.4285714285714,4,1,0,65,0,0
162845,-55.5555555555556,4,1,0,75,0,0
162948,-55.5555555555556,4,1,0,65,0,0
163093,-71.4285714285714,4,1,0,65,0,0
163196,-70.4225352112676,4,1,0,65,0,0
163298,-69.4444444444444,4,1,0,65,0,0
163401,-71.4285714285714,4,1,0,65,0,0
163504,-74.0740740740741,4,1,0,65,0,0
163693,-55.5555555555556,4,1,0,50,0,0
163949,-55.5555555555556,4,1,0,65,0,0
164120,-62.5,4,1,0,65,0,0
164223,-64.5497224367903,4,1,0,65,0,0
164326,-66.6666666666667,4,1,0,65,0,0
164506,-71.4285714285714,4,1,0,65,0,0
164558,-74.1516027174757,4,1,0,65,0,0
164609,-76.9230769230769,4,1,0,65,0,0
164712,-72.463768115942,4,1,0,65,0,0
164814,-68.4931506849315,4,1,0,65,0,0
164925,-55.5555555555556,4,1,0,75,0,0
165348,-58.8235294117647,4,1,0,75,0,0
165417,-55.7070094994938,4,1,0,75,0,0
165485,-52.797242160611,4,1,0,75,0,0
165554,-50,4,1,0,75,0,0
165722,-58.8235294117647,4,1,0,70,0,0
165979,-62.5,4,1,0,65,0,0
166150,-66.6666666666667,4,1,0,65,0,0
166253,-69.1008708261623,4,1,0,65,0,0
166356,-71.6239552340096,4,1,0,65,0,0
166459,-74.2391651802619,4,1,0,65,0,0
166561,-76.9230769230769,4,1,0,65,0,0
166630,-75.9567989426734,4,1,0,65,0,0
166698,-75.0164011296228,4,1,0,65,0,0
166767,-74.0740740740741,4,1,0,65,0,0
166980,-68.9655172413793,4,1,0,75,0,0
167031,-71.449379744966,4,1,0,75,0,0
167083,-74.0740740740741,4,1,0,75,0,0
167186,-66.6666666666667,4,1,0,75,0,0
167246,-68.9655172413793,4,1,0,75,0,0
167340,-66.6666666666667,4,1,0,65,0,0
167509,-69.018169009952,4,1,0,65,0,0
167611,-71.4285714285714,4,1,0,65,0,0
167817,-76.9230769230769,4,1,0,65,0,0
167920,-74.1115347101437,4,1,0,65,0,0
168022,-71.4285714285714,4,1,0,65,0,0
168162,-55.5555555555556,4,1,0,90,0,0
168290,-55.5555555555556,4,1,0,60,0,0
168438,-66.6666666666667,4,1,0,60,0,0
168490,-69.1188592832804,4,1,0,60,0,0
168541,-71.6114874039433,4,1,0,60,0,0
168592,-74.1940069813279,4,1,0,60,0,0
168644,-75.187969924812,4,1,0,60,0,0
169831,-57.1428571428571,4,1,0,75,0,0
169985,-57.1428571428571,4,1,0,35,0,0
170281,-76.9230769230769,4,1,0,44,0,0
170332,-73.5294117647059,4,1,0,44,0,0
170383,-70.4225352112676,4,1,0,44,0,0
170486,-67.5675675675676,4,1,0,44,0,0
170589,-69.4444444444444,4,1,0,44,0,0
170692,-71.4285714285714,4,1,0,44,0,0
170897,-66.6666666666667,4,1,0,44,0,0
170966,-63.9164649484204,4,1,0,44,0,0
171034,-61.3171432455022,4,1,0,44,0,0
171102,-58.8235294117647,4,1,0,44,0,0
171205,-61.3296236152261,4,1,0,44,0,0
171308,-63.9424864573502,4,1,0,44,0,0
171411,-66.6666666666667,4,1,0,44,0,0
171492,-58.8235294117647,4,1,0,70,0,0
171561,-61.5333284828184,4,1,0,72,0,0
171629,-64.3259588113457,4,1,0,74,0,0
171698,-67.2892360096833,4,1,0,76,0,0
171766,-70.343092608982,4,1,0,78,0,0
171835,-73.5835586080988,4,1,0,80,0,0
171903,-76.9230769230769,4,1,0,82,0,0
171972,-76.9230769230769,4,1,0,50,0,0
172143,-76.9230769230769,4,1,0,40,0,0
172541,-80,4,1,0,40,0,0
173363,-83.3333333333333,4,1,0,40,0,0
174185,-86.9565217391304,4,1,0,40,0,0
175007,-90.9090909090909,4,1,0,40,0,0
175829,-100,4,1,0,40,0,0
176650,-109.89010989011,4,1,0,40,0,0
177472,-120.481927710843,4,1,0,40,0,0
178294,-131.578947368421,4,1,0,40,0,0
178410,-100,4,1,0,70,0,0
178667,-142.857142857143,4,1,0,40,0,0
179938,-153.846153846154,4,1,0,40,0,0
180760,-166.666666666667,4,1,0,40,0,0
181582,-181.818181818182,4,1,0,40,0,0
182404,-200,4,1,0,40,0,0
183226,-222.222222222222,4,1,0,40,0,0
184048,-238.095238095238,4,1,0,40,0,0
184561,-100,4,1,0,40,0,0
184664,-90.9090909090909,4,1,0,40,0,0
184870,-76.9230769230769,4,1,0,40,0,0
185075,-66.6666666666667,4,1,0,40,0,0
191561,-58.8235294117647,4,1,0,60,0,0
191715,-66.6666666666667,4,1,0,40,0,0
198162,-62.5,4,1,0,60,0,0
198316,-66.6666666666667,4,1,0,50,0,0
198848,-100,4,1,0,50,0,0
199156,-66.6666666666667,4,1,0,50,0,0
199670,-95.2380952380952,4,1,0,50,0,0
199773,-66.6666666666667,4,1,0,50,0,0
199876,-95.2380952380952,4,1,0,50,0,0
200081,-65.7894736842105,4,1,0,50,0,0
200492,-90.9090909090909,4,1,0,50,0,0
200800,-64.9350649350649,4,1,0,50,0,0
201314,-86.9565217391304,4,1,0,50,0,0
201725,-64.1025641025641,4,1,0,50,0,0
202136,-83.3333333333333,4,1,0,50,0,0
202444,-63.2911392405063,4,1,0,50,0,0
202958,-80,4,1,0,50,0,0
203061,-63.2911392405063,4,1,0,50,0,0
203163,-80,4,1,0,50,0,0
203369,-62.5,4,1,0,50,0,0
203780,-76.9230769230769,4,1,0,50,0,0
204088,-61.7283950617284,4,1,0,50,0,0
204602,-74.0740740740741,4,1,0,50,0,0
204704,-61.7283950617284,4,1,0,50,0,0
204807,-74.0740740740741,4,1,0,50,0,0
205013,-60.9756097560976,4,1,0,50,0,0
205424,-71.4285714285714,4,1,0,50,0,0
205732,-60.2409638554217,4,1,0,50,0,0
206245,-68.9655172413793,4,1,0,50,0,0
206348,-60.2409638554217,4,1,0,50,0,0
206451,-68.9655172413793,4,1,0,50,0,0
206656,-59.5238095238095,4,1,0,50,0,0
207067,-66.6666666666667,4,1,0,50,0,0
207376,-58.8235294117647,4,1,0,50,0,0
207889,-64.5161290322581,4,1,0,50,0,0
208300,-58.1395348837209,4,1,0,50,0,0
208711,-62.5,4,1,0,50,0,0
209019,-57.4712643678161,4,1,0,50,0,0
209533,-60.6060606060606,4,1,0,50,0,0
209636,-57.4712643678161,4,1,0,50,0,0
209739,-60.6060606060606,4,1,0,50,0,0
209944,-56.8181818181818,4,1,0,50,0,0
210355,-58.8235294117647,4,1,0,50,0,0
210766,-50,4,1,0,50,0,0
210869,-44.4444444444445,4,1,0,50,0,0
210927,-40,4,1,0,80,0,0
211380,-50,4,1,0,60,0,0
211586,-68.8226059654631,4,1,0,50,0,0
211689,-69.9005756148613,4,1,0,50,0,0
211791,-70.9680795395081,4,1,0,50,0,0
211997,-73.1240188383046,4,1,0,50,0,0
212100,-74.2019884877028,4,1,0,50,0,0
212202,-75.2694924123496,4,1,0,50,0,0
212408,-77.425431711146,4,1,0,50,0,0
212511,-78.5034013605442,4,1,0,50,0,0
212613,-79.570905285191,4,1,0,50,0,0
212819,-81.7268445839874,4,1,0,50,0,0
212922,-82.8048142333857,4,1,0,50,0,0
213024,-83.8723181580324,4,1,0,50,0,0
213230,-86.0282574568289,4,1,0,50,0,0
213333,-87.1062271062271,4,1,0,50,0,0
213435,-88.1737310308739,4,1,0,50,0,0
213641,-90.3296703296703,4,1,0,50,0,0
213743,-91.3971742543171,4,1,0,50,0,0
213846,-92.4751439037153,4,1,0,50,0,0
214052,-94.6310832025118,4,1,0,50,0,0
214154,-95.6985871271586,4,1,0,50,0,0
214257,-96.7765567765568,4,1,0,50,0,0
214360,-97.854526425955,4,1,0,50,0,0
214463,-98.9324960753532,4,1,0,50,0,0
214668,-101.077969649398,4,1,0,50,0,0
214874,-103.233908948195,4,1,0,50,0,0
214976,-104.301412872841,4,1,0,50,0,0
215079,-105.37938252224,4,1,0,50,0,0
215285,-107.535321821036,4,1,0,50,0,0
215387,-108.602825745683,4,1,0,50,0,0
215490,-109.680795395081,4,1,0,50,0,0
215696,-111.836734693878,4,1,0,50,0,0
215798,-112.904238618524,4,1,0,50,0,0
215901,-113.982208267923,4,1,0,50,0,0
216106,-116.127681841968,4,1,0,50,0,0
216209,-117.205651491366,4,1,0,50,0,0
216312,-118.283621140764,4,1,0,50,0,0
216517,-120.429094714809,4,1,0,50,0,0
216620,-121.507064364207,4,1,0,50,0,0
216723,-122.585034013605,4,1,0,50,0,0
216928,-124.73050758765,4,1,0,50,0,0
217031,-125.808477237049,4,1,0,50,0,0
217134,-126.886446886447,4,1,0,50,0,0
217339,-129.031920460492,4,1,0,50,0,0
217442,-130.10989010989,4,1,0,50,0,0
217545,-131.187859759288,4,1,0,50,0,0
217648,-132.265829408687,4,1,0,50,0,0
217750,-133.333333333333,4,1,0,50,0,0
217888,-66.6666666666667,4,1,0,60,0,0
218068,-68.8121402407117,4,1,0,50,0,0
218266,-69.8901098901099,4,1,0,50,0,0
218369,-70.9680795395081,4,1,0,50,0,0
218574,-73.1135531135531,4,1,0,50,0,0
218677,-74.1915227629513,4,1,0,50,0,0
218780,-75.2694924123496,4,1,0,50,0,0
218985,-77.4149659863946,4,1,0,50,0,0
219088,-78.4929356357928,4,1,0,50,0,0
219191,-79.570905285191,4,1,0,50,0,0
219396,-81.716378859236,4,1,0,50,0,0
219499,-82.7943485086342,4,1,0,50,0,0
219602,-83.8723181580324,4,1,0,50,0,0
219807,-86.0177917320775,4,1,0,50,0,0
219910,-87.0957613814757,4,1,0,50,0,0
220013,-88.1737310308739,4,1,0,50,0,0
220218,-90.3192046049189,4,1,0,50,0,0
220321,-91.3971742543171,4,1,0,50,0,0
220424,-92.4751439037153,4,1,0,50,0,0
220629,-94.6206174777603,4,1,0,50,0,0
220732,-95.6985871271586,4,1,0,50,0,0
220835,-96.7765567765568,4,1,0,50,0,0
220937,-97.8440607012036,4,1,0,50,0,0
221040,-98.9220303506018,4,1,0,50,0,0
221245,-101.067503924647,4,1,0,50,0,0
221451,-103.223443223443,4,1,0,50,0,0
221554,-104.301412872841,4,1,0,50,0,0
221656,-105.368916797488,4,1,0,50,0,0
221862,-107.524856096285,4,1,0,50,0,0
221965,-108.602825745683,4,1,0,50,0,0
222067,-109.67032967033,4,1,0,50,0,0
222273,-111.826268969126,4,1,0,50,0,0
222376,-112.904238618524,4,1,0,50,0,0
222478,-113.971742543171,4,1,0,50,0,0
222684,-116.127681841968,4,1,0,50,0,0
222787,-117.205651491366,4,1,0,50,0,0
222889,-118.273155416013,4,1,0,50,0,0
223095,-120.429094714809,4,1,0,50,0,0
223198,-121.507064364207,4,1,0,50,0,0
223300,-122.574568288854,4,1,0,50,0,0
223506,-124.73050758765,4,1,0,50,0,0
223608,-125.798011512297,4,1,0,50,0,0
223711,-126.875981161695,4,1,0,50,0,0
223917,-129.031920460492,4,1,0,50,0,0
224019,-130.099424385139,4,1,0,50,0,0
224122,-131.177394034537,4,1,0,50,0,0
224225,-132.255363683935,4,1,0,50,0,0
224328,-133.333333333333,4,1,0,50,0,0
224463,-66.6666666666667,4,1,0,60,0,0
224643,-68.8226059654631,4,1,0,50,0,0
224841,-69.8901098901099,4,1,0,50,0,0
224944,-70.9680795395081,4,1,0,50,0,0
225150,-73.1240188383046,4,1,0,50,0,0
225252,-74.1915227629513,4,1,0,50,0,0
225355,-75.2694924123496,4,1,0,50,0,0
225561,-77.425431711146,4,1,0,50,0,0
225663,-78.4929356357928,4,1,0,50,0,0
225766,-79.570905285191,4,1,0,50,0,0
225972,-81.7268445839874,4,1,0,50,0,0
226074,-82.7943485086342,4,1,0,50,0,0
226177,-83.8723181580324,4,1,0,50,0,0
226382,-86.0177917320775,4,1,0,50,0,0
226485,-87.0957613814757,4,1,0,50,0,0
226588,-88.1737310308739,4,1,0,50,0,0
226793,-90.3192046049189,4,1,0,50,0,0
226896,-91.3971742543171,4,1,0,50,0,0
226999,-92.4751439037153,4,1,0,50,0,0
227204,-94.6206174777603,4,1,0,50,0,0
227306,-95.6881214024071,4,1,0,50,0,0
227410,-96.7765567765568,4,1,0,50,0,0
227513,-97.854526425955,4,1,0,50,0,0
227615,-98.9220303506018,4,1,0,50,0,0
227821,-101.077969649398,4,1,0,50,0,0
228026,-103.223443223443,4,1,0,50,0,0
228129,-104.301412872841,4,1,0,50,0,0
228232,-105.37938252224,4,1,0,50,0,0
228437,-107.524856096285,4,1,0,50,0,0
228540,-108.602825745683,4,1,0,50,0,0
228643,-109.680795395081,4,1,0,50,0,0
228848,-111.826268969126,4,1,0,50,0,0
228951,-112.904238618524,4,1,0,50,0,0
229054,-113.982208267923,4,1,0,50,0,0
229259,-116.127681841968,4,1,0,50,0,0
229362,-117.205651491366,4,1,0,50,0,0
229465,-118.283621140764,4,1,0,50,0,0
229670,-120.429094714809,4,1,0,50,0,0
229773,-121.507064364207,4,1,0,50,0,0
229876,-122.585034013605,4,1,0,50,0,0
230081,-124.73050758765,4,1,0,50,0,0
230184,-125.808477237049,4,1,0,50,0,0
230287,-126.886446886447,4,1,0,50,0,0
230492,-129.031920460492,4,1,0,50,0,0
230595,-130.10989010989,4,1,0,50,0,0
230698,-131.187859759288,4,1,0,50,0,0
230800,-132.255363683935,4,1,0,50,0,0
230903,-133.333333333333,4,1,0,50,0,0
231013,-66.6666666666667,4,1,0,60,0,0
231218,-68.8939344794032,4,1,0,50,0,0
231418,-70.0075683857714,4,1,0,50,0,0
231520,-71.1103903124662,4,1,0,50,0,0
231726,-73.3376581252027,4,1,0,50,0,0
231829,-74.451292031571,4,1,0,50,0,0
231931,-75.5541139582658,4,1,0,50,0,0
232137,-77.7813817710023,4,1,0,50,0,0
232240,-78.8950156773705,4,1,0,50,0,0
232342,-79.9978376040653,4,1,0,50,0,0
232548,-82.2251054168018,4,1,0,50,0,0
232651,-83.3387393231701,4,1,0,50,0,0
232753,-84.4415612498648,4,1,0,50,0,0
232959,-86.6688290626014,4,1,0,50,0,0
233062,-87.7824629689696,4,1,0,50,0,0
233164,-88.8852848956644,4,1,0,50,0,0
233370,-91.1125527084009,4,1,0,50,0,0
233473,-92.2261866147692,4,1,0,50,0,0
233575,-93.3290085414639,4,1,0,50,0,0
233781,-95.5562763542004,4,1,0,50,0,0
233883,-96.6590982808952,4,1,0,50,0,0
233986,-97.7727321872635,4,1,0,50,0,0
234089,-98.8863660936318,4,1,0,50,0,0
234192,-100,4,1,0,50,0,0
234326,-66.6666666666667,4,1,0,60,0,0
234506,-68.8946571490374,4,1,0,50,0,0
234702,-69.9978369024443,4,1,0,50,0,0
234805,-71.1118321436297,4,1,0,50,0,0
235011,-73.3398226260004,4,1,0,50,0,0
235113,-74.4430023794073,4,1,0,50,0,0
235216,-75.5569976205927,4,1,0,50,0,0
235422,-77.7849881029635,4,1,0,50,0,0
235524,-78.8881678563703,4,1,0,50,0,0
235627,-80.0021630975557,4,1,0,50,0,0
235833,-82.2301535799265,4,1,0,50,0,0
235935,-83.3333333333333,4,1,0,50,0,0
235996,-66.6666666666667,4,1,0,60,0,0
236150,-71.4186369958275,4,1,0,50,0,0
236351,-73.8062123319425,4,1,0,50,0,0
236454,-76.1937876680575,4,1,0,50,0,0
236659,-80.9457579972184,4,1,0,50,0,0
236762,-83.3333333333333,4,1,0,50,0,0
236865,-85.7209086694483,4,1,0,50,0,0
237070,-90.4728789986092,4,1,0,50,0,0
237173,-92.8604543347242,4,1,0,50,0,0
237276,-95.2480296708391,4,1,0,50,0,0
237379,-97.6356050069541,4,1,0,50,0,0
237481,-100,4,1,0,50,0,0
237614,-66.6666666666667,4,1,0,65,0,0
237794,-76.9230769230769,4,1,0,55,0,0
237992,-78.4948569891724,4,1,0,55,0,0
238095,-80.0987534587582,4,1,0,55,0,0
238300,-83.3891563663339,4,1,0,55,0,0
238403,-85.0930587445005,4,1,0,55,0,0
238506,-86.8317771999706,4,1,0,55,0,0
238711,-90.3987681933556,4,1,0,55,0,0
238814,-92.2458989573523,4,1,0,55,0,0
238917,-94.1307724044353,4,1,0,55,0,0
239122,-97.9976012105961,4,1,0,55,0,0
239225,-100,4,1,0,55,0,0
239283,-63.2911392405063,4,1,0,65,0,0
239437,-72.7272727272727,4,1,0,55,0,0
239740,-75.4897990203599,4,1,0,55,0,0
239945,-78.343079637523,4,1,0,55,0,0
240048,-79.8171328366599,4,1,0,55,0,0
240151,-81.3189208764991,4,1,0,55,0,0
240356,-84.3925242475051,4,1,0,55,0,0
240459,-85.9803999210915,4,1,0,55,0,0
240562,-87.5981520461439,4,1,0,55,0,0
240664,-89.2301927637591,4,1,0,55,0,0
240767,-90.9090909090909,4,1,0,55,0,0
240876,-60.6060606060606,4,1,0,65,0,0
241081,-68.9655172413793,4,1,0,55,0,0
241280,-69.9790837969246,4,1,0,55,0,0
241383,-71.0075464513264,4,1,0,55,0,0
241588,-73.0996837967889,4,1,0,55,0,0
241691,-74.1740090201906,4,1,0,55,0,0
241794,-75.2641232952775,4,1,0,55,0,0
241999,-77.4816746822625,4,1,0,55,0,0
242102,-78.6204007770834,4,1,0,55,0,0
242205,-79.7758624048461,4,1,0,55,0,0
242410,-82.1263458301262,4,1,0,55,0,0
242513,-83.3333333333333,4,1,0,55,0,0
242571,-55.5555555555556,4,1,0,65,0,0
242725,-65.5737704918033,4,1,0,55,0,0
243022,-67.346136224954,4,1,0,55,0,0
243227,-69.1574524445583,4,1,0,55,0,0
243330,-70.0858348355239,4,1,0,55,0,0
243433,-71.0266800028555,4,1,0,55,0,0
243638,-72.9369867364754,4,1,0,55,0,0
243741,-73.9161062925424,4,1,0,55,0,0
243844,-74.9083697300331,4,1,0,55,0,0
243946,-75.904125943298,4,1,0,55,0,0
244049,-76.9230769230769,4,1,0,55,0,0
244189,-51.2820512820513,4,1,0,70,0,0
244369,-62.5,4,1,0,60,0,0
244626,-48.9223859533527,4,1,0,72,0,0
244780,-58.8235294117647,4,1,0,62,0,0
245037,-48.0397291405972,4,1,0,73,0,0
245191,-55.5555555555556,4,1,0,64,0,0
245448,-47.1729972062778,4,1,0,74,0,0
245602,-52.6315789473684,4,1,0,66,0,0
245859,-46.3219028340222,4,1,0,75,0,0
246013,-50,4,1,0,68,0,0
246270,-45.4861638912153,4,1,0,76,0,0
246424,-47.6190476190476,4,1,0,70,0,0
246681,-44.6655033354735,4,1,0,77,0,0
246835,-45.4545454545455,4,1,0,72,0,0
247092,-43.859649122807,4,1,0,78,0,0
247246,-43.4782608695652,4,1,0,74,0,0
247451,-43.4782608695652,4,1,0,80,0,0
247554,431.654676258993,4,1,0,80,1,0
247554,-47.6031798924168,4,1,0,80,0,0
247595,-48.1645105133302,4,1,0,80,0,0
247649,-48.7451100759776,4,1,0,80,0,0
247703,-49.3346475661334,4,1,0,80,0,0
247757,-49.9333079995813,4,1,0,80,0,0
247829,-50.7460424419657,4,1,0,80,0,0
247901,-51.5757991113298,4,1,0,80,0,0
247985,461.538461538462,4,1,0,80,1,8
247985,-49.0287604223316,4,1,0,80,0,0
248032,-49.6679981667411,4,1,0,80,0,0
248090,-50.3295315484581,4,1,0,80,0,0
248148,-51.0025015067068,4,1,0,80,0,0
248205,-51.6752714023893,4,1,0,80,0,0
248282,-52.6025199428725,4,1,0,80,0,0
248359,-53.5515522018764,4,1,0,80,0,0
248446,517.241379310345,4,1,0,80,1,8
248446,-48.6513572271458,4,1,0,80,0,0
248490,-49.3876261152018,4,1,0,80,0,0
248555,-50.1504470645438,4,1,0,80,0,0
248619,-50.9167572950384,4,1,0,80,0,0
248684,-51.7109365377273,4,1,0,80,0,0
248770,-52.787086720227,4,1,0,80,0,0
248857,-53.9062125397982,4,1,0,80,0,0
248943,-55.0437536837205,4,1,0,80,0,0
249007,-55.9112007289438,4,1,0,80,0,0
249072,-56.8110590318299,4,1,0,80,0,0
249137,-57.7304882818232,4,1,0,80,0,0
249201,-58.6554704915653,4,1,0,80,0,0
249288,-59.9452778440739,4,1,0,80,0,0
249374,-61.2583527127095,4,1,0,80,0,0
249480,612.244897959184,4,1,0,80,1,0
249480,-52.8954003047846,4,1,0,80,0,0
249551,-53.9340645263915,4,1,0,80,0,0
249628,-55.0151178847361,4,1,0,80,0,0
249704,-56.1115703573134,4,1,0,80,0,0
249781,-57.2534417187967,4,1,0,80,0,0
249934,-59.6198687283109,4,1,0,80,0,0
250091,625,4,1,0,80,1,8
250091,-60.8405755901388,4,1,0,80,0,0
250164,-62.147012881226,4,1,0,80,0,0
250242,-63.4933341887401,4,1,0,80,0,0
250320,-64.8812822539995,4,1,0,80,0,0
250398,-66.3127024511477,4,1,0,80,0,0
250554,-69.3139006360245,4,1,0,80,0,0
250708,-72.5352500234061,4,1,0,80,0,0
250786,-74.2165980299584,4,1,0,80,0,0
250864,-75.9551638499272,4,1,0,80,0,0
250942,-77.7537734208248,4,1,0,80,0,0
251020,-79.615441421023,4,1,0,80,0,0
251098,-81.5433873008055,4,1,0,77,0,0
251176,-83.5410529756823,4,1,0,73,0,0
251254,-85.6121223865874,4,1,0,66,0,0
251333,-87.788607339312,4,1,0,50,0,0
251419,-87.789232808124,4,1,0,47,0,0
251497,-87.789232808124,4,1,0,44,0,0
251575,-87.789232808124,4,1,0,42,0,0
251653,-87.789232808124,4,1,0,40,0,0
251731,-87.789232808124,4,1,0,38,0,0
251809,-87.789232808124,4,1,0,36,0,0
251887,-87.789232808124,4,1,0,34,0,0
251966,638.297872340426,4,1,0,33,1,0
251966,-105.097216542852,4,1,0,33,0,0
252524,-105.097216542852,4,1,0,50,0,0
252604,681.818181818182,4,1,0,50,1,8
252604,-108.377848978548,4,1,0,50,0,0
253360,-122.521989788912,4,1,0,49,0,0
253615,-127.849989564916,4,1,0,48,0,0
253956,-135.549941242189,4,1,0,47,0,0
254297,-143.992552059895,4,1,0,46,0,0
254632,714.285714285714,4,1,0,47,1,0
254632,-145.856185155035,4,1,0,47,0,0
254977,-156.100714178511,4,1,0,48,0,0
255346,857.142857142857,4,1,0,49,1,8
255346,-139.618778546699,4,1,0,49,0,0
255763,-152.622915989991,4,1,0,50,0,0
256203,1090.90909090909,4,1,0,52,1,8
256203,-131.816172586268,4,1,0,52,0,0
256736,-150.014995925204,4,1,0,55,0,0
257225,-150.014995925204,4,1,0,60,0,0
257293,1250,4,1,0,60,1,8
257293,-25,4,1,0,60,0,0
257359,-24.0873120999749,4,1,0,60,0,0
257437,-23.2079441680639,4,1,0,60,0,0
257593,-21.5443469003188,4,1,0,60,0,0
257749,-20,4,1,0,60,0,0
257984,-21.7391304347826,4,1,0,60,0,0
258074,-16.6666666666667,4,1,0,75,0,0
258230,-16.6666666666667,4,1,0,60,0,0
258464,-16.6666666666667,4,1,0,70,0,0
258542,410.958904109589,4,1,0,70,1,0
258542,-66.6666666666667,4,1,0,70,0,0
261392,-62.5,4,1,0,50,0,0
261495,-58.8151116199199,4,1,0,50,0,0
261598,-55.5405405405405,4,1,0,50,0,0
261649,-54.0504997369805,4,1,0,50,0,0
261700,-52.6383196721311,4,1,0,50,0,0
261752,-51.2724550898204,4,1,0,50,0,0
261803,-50,4,1,0,70,0,0
263011,-55.5555555555556,4,1,0,5,0,0
263062,-55.5555555555556,4,1,0,6,0,0
263113,-55.5555555555556,4,1,0,7,0,0
263165,-55.5555555555556,4,1,0,9,0,0
263216,-55.5555555555556,4,1,0,11,0,0
263268,-55.5555555555556,4,1,0,13,0,0
263319,-55.5555555555556,4,1,0,15,0,0
263370,-55.5555555555556,4,1,0,18,0,0
263422,-55.5555555555556,4,1,0,21,0,0
263473,-60.0240096038415,4,1,0,24,0,0
263524,-60.0240096038415,4,1,0,27,0,0
263576,-60.0240096038415,4,1,0,30,0,0
263627,-60.0240096038415,4,1,0,32,0,0
263678,-60.0240096038415,4,1,0,34,0,0
263730,-60.0240096038415,4,1,0,35,0,0
263781,-60.0240096038415,4,1,0,36,0,0
263833,-60.0240096038415,4,1,0,37,0,0
263884,-60.0240096038415,4,1,0,38,0,0
263935,-60.0240096038415,4,1,0,39,0,0
263987,-60.0240096038415,4,1,0,40,0,0
264038,-60.0240096038415,4,1,0,41,0,0
264089,-60.0240096038415,4,1,0,42,0,0
264141,-60.0240096038415,4,1,0,43,0,0
264192,-60.0240096038415,4,1,0,44,0,0
264244,-60.0240096038415,4,1,0,45,0,0
264295,-60.0240096038415,4,1,0,46,0,0
264346,-60.0240096038415,4,1,0,47,0,0
264603,-57.1428571428571,4,1,0,60,0,0
265065,-66.6666666666667,4,1,0,70,0,0
268173,-62.5,4,1,0,44,0,0
268224,-58.8571428571429,4,1,0,46,0,0
268276,-55.5555555555556,4,1,0,48,0,0
268327,-52.6584867075665,4,1,0,50,0,0
268379,-50,4,1,0,80,0,0
269683,-51.6397447699691,4,1,0,80,0,0
269734,-53.3001790889026,4,1,0,80,0,0
269786,-55.0481528868915,4,1,0,80,0,0
269837,-56.8181818181818,4,1,0,80,0,0
270042,-50,4,1,0,80,0,0
271272,-51.2820512820513,4,1,0,80,0,0
271324,-49.9523793963815,4,1,0,80,0,0
271375,-48.6817721196716,4,1,0,80,0,0
271426,-47.4434844816083,4,1,0,80,0,0
271478,-46.2133412658768,4,1,0,80,0,0
271529,-45.0378415518881,4,1,0,80,0,0
271580,-43.8922422852538,4,1,0,80,0,0
271632,-42.7541778142224,4,1,0,80,0,0
271683,-41.6666666666667,4,1,0,80,0,0
271896,-55.5555555555556,4,1,0,80,0,0
271948,-52.6315789473684,4,1,0,80,0,0
271999,-50,4,1,0,80,0,0
272103,-48.780487804878,4,1,0,80,0,0
272206,-47.6190476190476,4,1,0,80,0,0
272307,-45.4545454545455,4,1,0,80,0,0
272359,-47.6190476190476,4,1,0,80,0,0
272410,-50,4,1,0,80,0,0
272463,-48.780487804878,4,1,0,80,0,0
272718,-45.4545454545455,4,1,0,80,0,0
272770,-47.6190476190476,4,1,0,80,0,0
272821,-50,4,1,0,80,0,0
272874,-51.2820512820513,4,1,0,80,0,0
272977,-52.6315789473684,4,1,0,80,0,0
273129,-55.5555555555556,4,1,0,80,0,0
273181,-52.6315789473684,4,1,0,80,0,0
273232,-50,4,1,0,80,0,0
273285,-48.780487804878,4,1,0,80,0,0
273540,-55.5555555555556,4,1,0,80,0,0
273592,-52.6315789473684,4,1,0,80,0,0
273643,-50,4,1,0,80,0,0
273696,-51.2820512820513,4,1,0,80,0,0
273799,-52.6315789473684,4,1,0,80,0,0
273951,-45.4545454545455,4,1,0,80,0,0
274003,-47.6190476190476,4,1,0,80,0,0
274054,-50,4,1,0,80,0,0
274107,-48.780487804878,4,1,0,80,0,0
274362,-45.4545454545455,4,1,0,80,0,0
274414,-47.6190476190476,4,1,0,80,0,0
274465,-50,4,1,0,80,0,0
274518,-51.2820512820513,4,1,0,80,0,0
274773,-55.5555555555556,4,1,0,80,0,0
274824,-52.6315789473684,4,1,0,80,0,0
274876,-50,4,1,0,80,0,0
274980,-48.780487804878,4,1,0,80,0,0
275083,-47.6190476190476,4,1,0,80,0,0
275184,-45.4545454545455,4,1,0,80,0,0
275235,-47.6190476190476,4,1,0,80,0,0
275287,-50,4,1,0,80,0,0
275339,-51.2820512820513,4,1,0,80,0,0
275442,-52.6315789473684,4,1,0,80,0,0
275595,-45.4545454545455,4,1,0,80,0,0
275646,-47.6190476190476,4,1,0,80,0,0
275698,-50,4,1,0,80,0,0
275750,-51.2820512820513,4,1,0,80,0,0
275853,-52.6315789473684,4,1,0,80,0,0
276006,-45.4545454545455,4,1,0,80,0,0
276057,-47.6190476190476,4,1,0,80,0,0
276109,-50,4,1,0,80,0,0
276161,-51.2820512820513,4,1,0,80,0,0
276264,-52.6315789473684,4,1,0,80,0,0
276417,-45.4545454545455,4,1,0,80,0,0
276468,-47.6190476190476,4,1,0,80,0,0
276520,-50,4,1,0,80,0,0
276572,-51.2820512820513,4,1,0,80,0,0
276675,-52.6315789473684,4,1,0,80,0,0
276828,-45.4545454545455,4,1,0,80,0,0
276879,-47.6190476190476,4,1,0,80,0,0
276931,-50,4,1,0,80,0,0
276983,-51.2820512820513,4,1,0,80,0,0
277086,-52.6315789473684,4,1,0,80,0,0
277239,-45.4545454545455,4,1,0,80,0,0
277290,-47.6190476190476,4,1,0,80,0,0
277342,-50,4,1,0,80,0,0
277420,-47.5059382422803,4,1,0,80,0,0
277523,-51.9480519480519,4,1,0,80,0,0
277574,-49.7087228319136,4,1,0,80,0,0
277626,-47.5248456521757,4,1,0,80,0,0
277677,-43.4782608695652,4,1,0,80,0,0
277729,-42.9184549356223,4,1,0,80,0,0
277831,-47.6190476190476,4,1,0,80,0,0
277883,-49.5085144241241,4,1,0,80,0,0
277934,-51.434449987364,4,1,0,80,0,0
277985,-53.4353065583718,4,1,0,80,0,0
278037,-55.5555555555556,4,1,0,80,0,0
278216,-51.2820512820513,4,1,0,80,0,0
278319,-52.6315789473684,4,1,0,80,0,0
278472,-45.4545454545455,4,1,0,80,0,0
278523,-47.6190476190476,4,1,0,80,0,0
278574,-50,4,1,0,80,0,0
278627,-51.2820512820513,4,1,0,80,0,0
278730,-52.6315789473684,4,1,0,80,0,0
278883,-55.5555555555556,4,1,0,80,0,0
278934,-52.6315789473684,4,1,0,80,0,0
278985,-50,4,1,0,80,0,0
279038,-51.2820512820513,4,1,0,80,0,0
279141,-52.6315789473684,4,1,0,80,0,0
279294,-45.4545454545455,4,1,0,80,0,0
279345,-47.6190476190476,4,1,0,80,0,0
279396,-50,4,1,0,80,0,0
279449,-51.2820512820513,4,1,0,80,0,0
279552,-52.6315789473684,4,1,0,80,0,0
279705,-55.5555555555556,4,1,0,80,0,0
279756,-52.6315789473684,4,1,0,80,0,0
279807,-50,4,1,0,80,0,0
279860,-51.2820512820513,4,1,0,80,0,0
279963,-52.6315789473684,4,1,0,80,0,0
280116,-45.4545454545455,4,1,0,80,0,0
280167,-47.6190476190476,4,1,0,80,0,0
280218,-50,4,1,0,80,0,0
280271,-51.2820512820513,4,1,0,80,0,0
280374,-52.6315789473684,4,1,0,80,0,0
280527,-55.5555555555556,4,1,0,80,0,0
280578,-52.6315789473684,4,1,0,80,0,0
280629,-50,4,1,0,80,0,0
280682,-51.2820512820513,4,1,0,80,0,0
280785,-52.6315789473684,4,1,0,80,0,0
280938,-45.4545454545455,4,1,0,80,0,0
280989,-47.6190476190476,4,1,0,80,0,0
281040,-50,4,1,0,80,0,0
281093,-48.780487804878,4,1,0,80,0,0
281196,-47.6190476190476,4,1,0,80,0,0
281348,-43.1034482758621,4,1,0,80,0,0
281400,-44.6428571428571,4,1,0,80,0,0
281451,-46.2962962962963,4,1,0,80,0,0
281503,-48.0769230769231,4,1,0,80,0,0
281554,-50,4,1,0,80,0,0
281607,-51.2820512820513,4,1,0,80,0,0
281759,-45.4545454545455,4,1,0,80,0,0
281811,-47.6190476190476,4,1,0,80,0,0
281862,-50,4,1,0,80,0,0
281915,-51.2820512820513,4,1,0,80,0,0
282018,-52.6315789473684,4,1,0,80,0,0
282170,-45.4545454545455,4,1,0,80,0,0
282222,-47.6190476190476,4,1,0,80,0,0
282273,-50,4,1,0,80,0,0
282326,-51.2820512820513,4,1,0,80,0,0
282429,-52.6315789473684,4,1,0,80,0,0
282581,-45.4545454545455,4,1,0,80,0,0
282633,-47.6190476190476,4,1,0,80,0,0
282684,-50,4,1,0,80,0,0
282737,-51.2820512820513,4,1,0,80,0,0
282840,-52.6315789473684,4,1,0,80,0,0
282992,-45.4545454545455,4,1,0,80,0,0
283044,-47.6190476190476,4,1,0,80,0,0
283095,-50,4,1,0,80,0,0
283148,-51.2820512820513,4,1,0,80,0,0
283251,-52.6315789473684,4,1,0,80,0,0
283403,-45.4545454545455,4,1,0,80,0,0
283455,-47.6190476190476,4,1,0,80,0,0
283506,-50,4,1,0,80,0,0
283559,-51.2820512820513,4,1,0,80,0,0
283764,-50,4,1,0,80,0,0
283867,-48.780487804878,4,1,0,80,0,0
283995,-45.4545454545455,4,1,0,80,0,0
284046,-47.1429704763997,4,1,0,80,0,0
284097,-48.8941126374513,4,1,0,80,0,0
284149,-50.7465794673521,4,1,0,80,0,0
284200,-52.6315789473684,4,1,0,80,0,0
284303,-51.9480519480519,4,1,0,80,0,0
284406,-51.2820512820513,4,1,0,80,0,0
284458,-49.1400491400491,4,1,0,80,0,0
284508,-47.2382323331063,4,1,0,80,0,0
284611,-43.4782608695652,4,1,0,80,0,0
284842,-50,4,1,0,80,0,0
284944,-52.6315789473684,4,1,0,80,0,0
284996,-50.761421319797,4,1,0,80,0,0
285047,-49.0196078431373,4,1,0,80,0,0
285151,-51.0204081632653,4,1,0,80,0,0
285254,-50.1299811016961,4,1,0,80,0,0
285357,-49.2550941030255,4,1,0,80,0,0
285459,-48.4037492161861,4,1,0,80,0,0
285562,-47.5589890557894,4,1,0,80,0,0
285665,-46.7289719626168,4,1,0,80,0,0
285766,-47.9923518164436,4,1,0,80,0,0
285819,-50,4,1,0,80,0,0
285869,-52.3560209424084,4,1,0,80,0,0
285972,-51.2820512820513,4,1,0,80,0,0
286024,-50,4,1,0,80,0,0
286127,-48.8311966470016,4,1,0,80,0,0
286230,-47.6786574403478,4,1,0,80,0,0
286333,-46.5533210612733,4,1,0,80,0,0
286435,-45.4545454545455,4,1,0,80,0,0
286538,-48.5436893203883,4,1,0,80,0,0
286641,-46.2962962962963,4,1,0,80,0,0
286692,-44.2477876106195,4,1,0,80,0,0
286795,-45.4545454545455,4,1,0,80,0,0
286898,-46.7289719626168,4,1,0,80,0,0
287000,-46.2023280369959,4,1,0,80,0,0
287103,-45.6765436551498,4,1,0,80,0,0
287206,-45.1567427210636,4,1,0,80,0,0
287309,-43.4782608695652,4,1,0,80,0,0
287411,-44.2388687364088,4,1,0,80,0,0
287514,-45.0204366880705,4,1,0,80,0,0
287617,-45.81581259822,4,1,0,80,0,0
287720,-46.6252404120157,4,1,0,80,0,0
287822,-47.4409014789853,4,1,0,80,0,0
287925,-48.27903973281,4,1,0,80,0,0
288028,-49.1319853724689,4,1,0,80,0,0
288105,-50,4,1,0,80,0,0
288207,-51.2820512820513,4,1,0,80,0,0
288259,-49.0196078431373,4,1,0,80,0,0
288310,-46.9483568075117,4,1,0,80,0,0
288413,-48.780487804878,4,1,0,80,0,0
288542,-50,4,1,0,80,0,0
288594,-48.8056831806057,4,1,0,80,0,0
288644,-47.6842130298621,4,1,0,80,0,0
288696,-46.5452118770393,4,1,0,80,0,0
288747,-45.4545454545455,4,1,0,80,0,0
288850,-45.045045045045,4,1,0,80,0,0
288952,-44.6428571428571,4,1,0,80,0,0
289029,-44.0528634361233,4,1,0,80,0,0
289082,-45.8715596330275,4,1,0,80,0,0
289132,-47.8468899521531,4,1,0,80,0,0
289235,-46.7289719626168,4,1,0,80,0,0
289363,-45.4545454545455,4,1,0,80,0,0
289415,-46.5613922830598,4,1,0,80,0,0
289466,-47.6731294622796,4,1,0,80,0,0
289518,-48.8340002095945,4,1,0,80,0,0
289569,-50,4,1,0,80,0,0
289646,-47.6190476190476,4,1,0,80,0,0
289749,-45.4545454545455,4,1,0,80,0,0
289851,-46.2962962962963,4,1,0,80,0,0
289904,-44.6428571428571,4,1,0,80,0,0
289955,-43.1034482758621,4,1,0,80,0,0
290058,-45.4545454545455,4,1,0,80,0,0
290186,-46.7126189373195,4,1,0,80,0,0
290238,-45.870100954715,4,1,0,80,0,0
290288,-45.074321216822,4,1,0,80,0,0
290340,-44.2613518941253,4,1,0,80,0,0
290391,-43.4782608695652,4,1,0,80,0,0
290469,-42.9184549356223,4,1,0,80,0,0
290587,-41.6724792632809,4,1,0,80,0,0
290693,-42.2696436968003,4,1,0,80,0,0
290796,-42.8813466781067,4,1,0,80,0,0
290899,-43.5019018877409,4,1,0,80,0,0
291001,-44.125281851138,4,1,0,80,0,0
291104,-44.7638386048437,4,1,0,80,0,0
291207,-45.4116361998676,4,1,0,80,0,0
291309,-46.0623825553977,4,1,0,80,0,0
291413,-47.6190476190476,4,1,0,80,0,0
291465,-46.8495575222949,4,1,0,80,0,0
291516,-46.1069445977073,4,1,0,80,0,0
291567,-45.3761028399126,4,1,0,80,0,0
291619,-44.6428571428571,4,1,0,80,0,0
291675,-45.2488687782805,4,1,0,80,0,0
291825,-46.2962962962963,4,1,0,80,0,0
291877,-48.1305004983928,4,1,0,80,0,0
291928,-50,4,1,0,80,0,0
292031,-46.7289719626168,4,1,0,80,0,0
292133,-46.0829493087558,4,1,0,80,0,0
292236,-45.4545454545455,4,1,0,80,0,0
292287,-46.312247131478,4,1,0,80,0,0
292339,-47.2034320030851,4,1,0,80,0,0
292390,-48.0941341843775,4,1,0,80,0,0
292442,-49.0196078431373,4,1,0,80,0,0
292544,-45.045045045045,4,1,0,80,0,0
292647,-46.7289719626168,4,1,0,80,0,0
292698,-45.8921773770907,4,1,0,80,0,0
292750,-45.0703676103817,4,1,0,80,0,0
292853,-44.2477876106195,4,1,0,80,0,0
292955,-43.859649122807,4,1,0,80,0,0
293058,-43.4782608695652,4,1,0,80,0,0
293109,-42.5899386461283,4,1,0,80,0,0
293161,-41.702882811415,4,1,0,80,0,0
293212,-40.8508340670114,4,1,0,80,0,0
293264,-40,4,1,0,80,0,0
293366,-40.650406504065,4,1,0,80,0,0
293469,-41.6666666666667,4,1,0,80,0,0
293520,-42.7384549496708,4,1,0,80,0,0
293572,-43.859649122807,4,1,0,80,0,0
293674,-42.7350427350427,4,1,0,80,0,0
293777,-42.5531914893617,4,1,0,80,0,0
293858,-42.3728813559322,4,1,0,80,0,0
293982,-41.9353317133105,4,1,0,80,0,0
294033,-42.0690005824055,4,1,0,80,0,0
294084,-42.2030955210183,4,1,0,80,0,0
294187,-42.4752194400584,4,1,0,80,0,0
294290,-42.7490980035481,4,1,0,80,0,0
294341,-42.8853607526788,4,1,0,80,0,0
294393,-43.0247425253666,4,1,0,80,0,0
294495,-43.2994623955467,4,1,0,80,0,0
294598,-43.5786556455664,4,1,0,80,0,0
294701,-43.859649122807,4,1,0,80,0,0
294804,-46.3435625383124,4,1,0,80,0,0
294855,-47.6250462303209,4,1,0,80,0,0
294906,-48.9419652743596,4,1,0,80,0,0
295009,-51.7137066484365,4,1,0,80,0,0
295060,-53.1436845805063,4,1,0,80,0,0
295112,-54.6424206778145,4,1,0,80,0,0
295215,-57.7369972303372,4,1,0,80,0,0
295266,-59.3335300889203,4,1,0,80,0,0
295317,-60.9742099813085,4,1,0,80,0,0
295420,-64.4273761876395,4,1,0,80,0,0
295471,-66.2089101781501,4,1,0,80,0,0
295523,-68.0761063357125,4,1,0,80,0,0
295626,-71.9314758424129,4,1,0,80,0,0
295677,-73.9205118203429,4,1,0,80,0,0
295728,-75.9645482563501,4,1,0,80,0,0
295831,-80.266665676132,4,1,0,80,0,0
295882,-82.4861847946898,4,1,0,80,0,0
295934,-84.8124258834829,4,1,0,80,0,0
296037,-89.6156271554236,4,1,0,80,0,0
296088,-92.093662042229,4,1,0,80,0,0
296139,-94.6402190952586,4,1,0,80,0,0
296242,-100,4,1,0,80,0,0
296324,-50,4,1,0,70,0,0
296398,-52.0630010549863,4,1,0,70,0,0
296449,-54.2111215770301,4,1,0,70,0,0
296501,-56.4926418183599,4,1,0,70,0,0
296552,-58.8235294117647,4,1,0,70,0,0
296655,-62.5,4,1,0,70,0,0
296758,-60.6060606060606,4,1,0,70,0,0
296826,-59.4346312215404,4,1,0,70,0,0
296895,-58.2691167089857,4,1,0,70,0,0
296963,-57.1428571428572,4,1,0,70,0,0
297066,-58.8235294117647,4,1,0,70,0,0
297169,-57.1428571428571,4,1,0,70,0,0
297220,-58.8944354262758,4,1,0,70,0,0
297271,-60.699704173146,4,1,0,70,0,0
297323,-62.5973560662688,4,1,0,70,0,0
297374,-64.5161290322581,4,1,0,70,0,0
297477,-62.6116100338112,4,1,0,70,0,0
297580,-60.7633125209037,4,1,0,70,0,0
297648,-59.5730795111046,4,1,0,70,0,0
297717,-58.389171891102,4,1,0,70,0,0
297785,-57.2454435965705,4,1,0,70,0,0
297888,-55.5555555555556,4,1,0,70,0,0
297939,-55.5555555555556,4,1,0,100,0,0
297994,-50,4,1,0,100,0,1
298092,-52.2606888203694,4,1,0,100,0,1
298144,-53.4522483824849,4,1,0,100,0,1
298195,-54.6472787561254,4,1,0,100,0,1
298246,-55.8690263893227,4,1,0,100,0,1
298298,-57.1428571428571,4,1,0,100,0,1
298401,-52.6315789473684,4,1,0,100,0,1
298503,-54.054054054054,4,1,0,100,0,1
298555,-51.967853322553,4,1,0,100,0,1
298606,-50,4,1,0,100,0,1
298657,-49.0196078431373,4,1,0,100,0,1
298811,-46.7289719626168,4,1,0,100,0,1
298914,-50,4,1,0,100,0,1
298966,-49.3879783656765,4,1,0,100,0,1
299017,-48.7950036474267,4,1,0,100,0,1
299068,-48.2091484555903,4,1,0,100,0,1
299120,-47.6190476190476,4,1,0,100,0,1
299222,-50,4,1,0,100,0,1
299325,-51.7872084325643,4,1,0,100,0,1
299377,-52.7136138509127,4,1,0,100,0,1
299428,-53.6382991447572,4,1,0,100,0,1
299531,-55.5555555555556,4,1,0,100,0,1
299633,-50,4,1,0,100,0,1
299736,-47.8631988529278,4,1,0,100,0,1
299788,-46.8193628927618,4,1,0,100,0,1
299839,-45.8177160886982,4,1,0,100,0,1
299890,-44.8374983741844,4,1,0,100,0,1
299942,-43.859649122807,4,1,0,100,0,1
300044,-47.6190476190476,4,1,0,100,0,1
300147,-45.4545454545455,4,1,0,100,0,1
300250,-44.6499766480683,4,1,0,100,0,1
300301,-44.2568852423773,4,1,0,100,0,1
300353,-43.859649122807,4,1,0,100,0,1
300455,-46.7289719626168,4,1,0,100,0,1
300507,-48.3527028082958,4,1,0,100,0,1
300558,-50,4,1,0,100,0,1
300661,-54.054054054054,4,1,0,100,0,1
300764,-56.4971751412429,4,1,0,100,0,1
300866,-50,4,1,0,100,0,1
300918,-52.7315908105067,4,1,0,100,0,1
300969,-55.5555555555556,4,1,0,100,0,1
301072,-54.054054054054,4,1,0,100,0,1
301174,-56.4971751412429,4,1,0,100,0,1
301277,-51.2820512820513,4,1,0,100,0,1
301380,-54.054054054054,4,1,0,100,0,1
301431,-52.5300566035193,4,1,0,100,0,1
301483,-51.0204081632653,4,1,0,100,0,1
301585,-53.1914893617021,4,1,0,100,0,1
301688,-55.5555555555556,4,1,0,100,0,1
301740,-56.7892790047926,4,1,0,100,0,1
301791,-58.0258853185659,4,1,0,100,0,1
301842,-59.2894191651775,4,1,0,100,0,1
301894,-60.6060606060606,4,1,0,100,0,1
301996,-60.9756097560976,4,1,0,100,0,1
302099,-58.8235294117647,4,1,0,100,0,1
302202,-62.5,4,1,0,100,0,1
302253,-59.787432970488,4,1,0,100,0,1
302305,-57.1428571428571,4,1,0,100,0,1
302407,-55.5555555555556,4,1,0,100,0,1
302510,-57.1428571428571,4,1,0,100,0,1
302561,-57.8430070324606,4,1,0,100,0,1
302613,-58.5657186921991,4,1,0,100,0,1
302664,-59.2833023680447,4,1,0,100,0,1
302716,-48.3091787439614,4,1,0,100,0,1
302818,-46.7289719626168,4,1,0,100,0,1
302921,-50,4,1,0,100,0,1
303024,-53.1914893617021,4,1,0,100,0,1
303075,-51.8134715025907,4,1,0,100,0,1
303127,-50.5050505050505,4,1,0,100,0,1
303229,-51.2820512820513,4,1,0,100,0,1
303332,-50,4,1,0,100,0,1
303383,-51.5463917525773,4,1,0,100,0,1
303435,-53.1914893617021,4,1,0,100,0,1
303537,-54.3478260869565,4,1,0,100,0,1
303640,-52.6315789473684,4,1,0,100,0,1
303743,-55.5555555555556,4,1,0,100,0,1
303794,-54.0880012387036,4,1,0,100,0,1
303846,-52.6315789473684,4,1,0,100,0,1
303948,-51.2820512820513,4,1,0,100,0,1
304051,-53.1914893617021,4,1,0,100,0,1
304154,-50,4,1,0,100,0,1
304222,-51.8804551810992,4,1,0,100,0,1
304291,-53.8608672507971,4,1,0,100,0,1
304359,-55.8865261884022,4,1,0,100,0,1
304428,-58.0198604201597,4,1,0,100,0,1
304496,-60.2019353628346,4,1,0,100,0,1
304565,-50,4,1,0,100,0,1
304642,-52.2606888203694,4,1,0,100,0,1
304694,-53.4522483824849,4,1,0,100,0,1
304745,-54.6472787561254,4,1,0,100,0,1
304796,-55.8690263893227,4,1,0,100,0,1
304848,-57.1428571428571,4,1,0,100,0,1
304951,-54.054054054054,4,1,0,100,0,1
305053,-55.5555555555556,4,1,0,100,0,1
305105,-53.475935828877,4,1,0,100,0,1
305156,-51.5463917525773,4,1,0,100,0,1
305233,-50.761421319797,4,1,0,100,0,1
305361,-51.8134715025907,4,1,0,100,0,1
305490,-53.1914893617021,4,1,0,100,0,1
305541,-52.3789616787521,4,1,0,100,0,1
305592,-51.5788457790306,4,1,0,100,0,1
305643,-50.7909520660892,4,1,0,100,0,1
305695,-50,4,1,0,100,0,1
305772,-50.761421319797,4,1,0,100,0,1
305875,-51.7872084325643,4,1,0,100,0,1
305927,-52.7136138509127,4,1,0,100,0,1
305978,-53.6382991447572,4,1,0,100,0,1
306081,-55.5555555555556,4,1,0,100,0,1
306183,-50,4,1,0,100,0,1
306286,-47.8631988529278,4,1,0,100,0,1
306338,-46.8193628927618,4,1,0,100,0,1
306389,-45.8177160886982,4,1,0,100,0,1
306440,-44.8374983741844,4,1,0,100,0,1
306492,-43.859649122807,4,1,0,100,0,1
306594,-47.6190476190476,4,1,0,100,0,1
306697,-45.4545454545455,4,1,0,100,0,1
306800,-44.6499766480683,4,1,0,100,0,1
306851,-44.2568852423773,4,1,0,100,0,1
306903,-43.859649122807,4,1,0,100,0,1
307005,-46.7289719626168,4,1,0,100,0,1
307057,-48.3527028082958,4,1,0,100,0,1
307108,-50,4,1,0,100,0,1
307211,-54.054054054054,4,1,0,100,0,1
307314,-56.4971751412429,4,1,0,100,0,1
307416,-50,4,1,0,100,0,1
307468,-52.7315908105067,4,1,0,100,0,1
307519,-55.5555555555556,4,1,0,100,0,1
307622,-54.054054054054,4,1,0,100,0,1
307724,-55.2486187845304,4,1,0,100,0,1
307853,-50,4,1,0,100,0,1
307904,-51.6427082237603,4,1,0,100,0,1
307955,-53.3393862536889,4,1,0,100,0,1
308007,-55.1267378594613,4,1,0,100,0,1
308058,-56.9378807720777,4,1,0,100,0,1
308161,-60.9756097560976,4,1,0,100,0,1
308264,-59.4671741198858,4,1,0,100,0,1
308315,-61.4208878103269,4,1,0,100,0,1
308366,-63.4387881254177,4,1,0,100,0,1
308418,-65.5645276519854,4,1,0,100,0,1
308469,-67.7185616577504,4,1,0,100,0,1
308572,-71.9424460431655,4,1,0,100,0,1
308674,-70.6963591375044,4,1,0,100,0,1
308726,-73.0617028986801,4,1,0,100,0,1
308777,-75.4584138737886,4,1,0,100,0,1
308829,-77.983085450403,4,1,0,100,0,1
308880,-80.5412371134021,4,1,0,100,0,1
308983,-77.1128932757557,4,1,0,100,0,1
309034,-80.5131620659229,4,1,0,100,0,1
309085,-84.0633646395891,4,1,0,100,0,1
309137,-87.8444044134391,4,1,0,100,0,1
309188,-91.7178758139961,4,1,0,100,0,1
309291,-87.8117316473481,4,1,0,100,0,1
309342,-90.6975525261682,4,1,0,100,0,1
309394,-93.7376253769173,4,1,0,100,0,1
309445,-96.8181932164184,4,1,0,100,0,1
309496,-66.6666666666667,4,1,0,100,0,1
309548,-69.0296712633484,4,1,0,100,0,1
309599,-71.4285714285714,4,1,0,100,0,1
309702,-69.9300699300699,4,1,0,100,0,1
309805,-60.2409638554217,4,1,0,100,0,1
309856,-63.3724250524478,4,1,0,100,0,1
309907,-66.6666666666667,4,1,0,100,0,1
310010,-64.5161290322581,4,1,0,100,0,1
310061,-62.1714109259143,4,1,0,100,0,1
310113,-59.868434008925,4,1,0,100,0,1
310164,-57.6926276900277,4,1,0,100,0,1
310216,-55.5555555555556,4,1,0,100,0,1
310318,-57.1428571428571,4,1,0,100,0,1
310370,-59.787432970488,4,1,0,100,0,1
310421,-62.5,4,1,0,100,0,1
310524,-55.5555555555556,4,1,0,100,0,1
310575,-58.001381211578,4,1,0,100,0,1
310627,-60.6060606060606,4,1,0,100,0,1
310729,-58.8235294117647,4,1,0,100,0,1
310781,-54.6223229134647,4,1,0,100,0,1
310832,-50.7934972232186,4,1,0,100,0,1
310883,-47.2330582544511,4,1,0,100,0,1
310935,-43.859649122807,4,1,0,100,0,1
311140,-50,4,1,0,100,0,1
311217,-53.1914893617021,4,1,0,100,0,1
311268,-52.0833333333333,4,1,0,100,0,1
311320,-51.0204081632653,4,1,0,100,0,1
311422,-52.6315789473684,4,1,0,100,0,1
311525,-55.5555555555556,4,1,0,100,0,1
311577,-56.7892790047926,4,1,0,100,0,1
311628,-58.0258853185659,4,1,0,100,0,1
311679,-59.2894191651775,4,1,0,100,0,1
311731,-60.6060606060606,4,1,0,100,0,1
311833,-60.9756097560976,4,1,0,100,0,1
311936,-59.5238095238095,4,1,0,100,0,1
312039,-62.5,4,1,0,100,0,1
312090,-59.787432970488,4,1,0,100,0,1
312142,-57.1428571428571,4,1,0,100,0,1
312244,-55.5555555555556,4,1,0,100,0,1
312347,-54.054054054054,4,1,0,100,0,1
312476,-43.859649122807,4,1,0,100,0,1
312527,-45.8948444248067,4,1,0,100,0,1
312579,-48.0672084752579,4,1,0,100,0,1
312630,-50.2976448518731,4,1,0,100,0,1
312681,-52.6315789473684,4,1,0,100,0,1
312784,-51.2820512820513,4,1,0,100,0,1
312887,-54.054054054054,4,1,0,100,0,1
312938,-52.663269139023,4,1,0,100,0,1
312990,-51.2820512820513,4,1,0,100,0,1
313092,-50,4,1,0,100,0,1
313195,-53.475935828877,4,1,0,100,0,1
313298,-57.1428571428571,4,1,0,100,0,1
313349,-55.2757554107105,4,1,0,100,0,1
313401,-53.4348425508023,4,1,0,100,0,1
313503,-50,4,1,0,100,0,1
313606,-53.1914893617021,4,1,0,100,0,1
313683,-56.1389007917211,4,1,0,100,0,1
313734,-57.6582005018053,4,1,0,100,0,1
313785,-59.2186173619674,4,1,0,100,0,1
313914,-62.5,4,1,0,100,0,1
314017,-50,4,1,0,100,0,1
314120,-52.8757396194795,4,1,0,100,0,1
314222,-58.8235294117647,4,1,0,100,0,1
314274,-56.4591709646683,4,1,0,100,0,1
314325,-54.232614454664,4,1,0,100,0,1
314377,-52.0527836730659,4,1,0,100,0,1
314428,-50,4,1,0,100,0,1
314505,-53.1914893617021,4,1,0,100,0,1
314556,-52.0833333333333,4,1,0,100,0,1
314608,-51.0204081632653,4,1,0,100,0,1
314710,-52.6315789473684,4,1,0,100,0,1
314813,-55.5555555555556,4,1,0,100,0,1
314916,-50,4,1,0,100,0,1
314967,-49.0196078431373,4,1,0,100,0,1
315019,-48.0769230769231,4,1,0,100,0,1
315121,-51.0204081632653,4,1,0,100,0,1
315224,-54.6448087431694,4,1,0,100,0,1
315327,-58.8235294117647,4,1,0,100,0,1
315378,-56.8181818181818,4,1,0,100,0,1
315430,-54.9450549450549,4,1,0,100,0,1
315532,-56.4971751412429,4,1,0,100,0,1
315635,-58.1395348837209,4,1,0,100,0,1
315764,-60.0024000960038,4,1,0,100,0,1
315815,-58.6223508945258,4,1,0,100,0,1
315866,-57.2740426866655,4,1,0,100,0,1
315918,-55.931221238066,4,1,0,100,0,1
315969,-54.6448087431694,4,1,0,100,0,1
316046,-52.6315789473684,4,1,0,100,0,1
316149,-54.054054054054,4,1,0,100,0,1
316200,-52.663269139023,4,1,0,100,0,1
316252,-51.2820512820513,4,1,0,100,0,1
316380,-50,4,1,0,100,0,1
316483,-53.475935828877,4,1,0,100,0,1
316534,-53.0520776064609,4,1,0,100,0,1
316585,-52.6315789473684,4,1,0,100,0,1
316688,-55.6414884074657,4,1,0,100,0,1
316740,-57.2258369471245,4,1,0,100,0,1
316791,-58.8235294117647,4,1,0,100,0,1
316894,-55.5555555555556,4,1,0,100,0,1
316996,-58.9086396473622,4,1,0,100,0,1
317048,-60.6951889636676,4,1,0,100,0,1
317099,-62.5,4,1,0,100,0,1
317202,-58.8235294117647,4,1,0,100,0,1
317305,-62.6415491488758,4,1,0,100,0,1
317356,-64.6227767632413,4,1,0,100,0,1
317407,-66.6666666666667,4,1,0,100,0,1
317510,-43.859649122807,4,1,0,100,0,1
317668,-43.859649122807,4,1,0,80,0,1
317720,-76.9230769230769,4,1,0,80,0,0
317797,-76.9230769230769,4,1,0,75,0,0
317874,-76.9230769230769,4,1,0,70,0,0
317925,-87.719298245614,4,1,0,65,0,0
318926,-62.4024960998441,4,1,0,70,0,0
318978,-58.7371512481644,4,1,0,70,0,0
319029,-55.4785020804439,4,1,0,70,0,0
319081,-52.5624178712221,4,1,0,70,0,0
319132,-49.9375780274657,4,1,0,70,0,0
319312,-57.1428571428571,4,1,0,80,0,0
319440,-76.9230769230769,4,1,0,65,0,0
320570,-50,4,1,0,75,0,0
320622,-52.0938657145498,4,1,0,76,0,0
320673,-54.232614454664,4,1,0,77,0,0
320724,-56.4591709646683,4,1,0,78,0,0
320776,-58.8235294117647,4,1,0,80,0,0
320905,-58.8235294117647,4,1,0,60,0,0
320995,-66.6666666666667,4,1,0,60,0,0
321098,-65.5542728389702,4,1,0,60,0,0
321201,-64.4604403116923,4,1,0,60,0,0
321303,-63.3952151417237,4,1,0,60,0,0
321406,-62.3374084512866,4,1,0,60,0,0
321509,-61.2972522253495,4,1,0,60,0,0
321612,-60.2744519498961,4,1,0,60,0,0
321714,-59.2784013022022,4,1,0,60,0,0
321778,-58.289287386338,4,1,0,64,0,0
321881,-57.3166777336972,4,1,0,64,0,0
321984,-56.3602969556718,4,1,0,64,0,0
322086,-55.4289287147199,4,1,0,64,0,0
322189,-54.5040467420487,4,1,0,64,0,0
322292,-53.5945972643437,4,1,0,64,0,0
322395,-52.7003227764227,4,1,0,64,0,0
322497,-51.8294365396011,4,1,0,64,0,0
322600,-50.9646153601065,4,1,0,68,0,0
322703,-50.114224506744,4,1,0,68,0,0
322806,-49.2780231964276,4,1,0,68,0,0
322908,-48.4636913305372,4,1,0,68,0,0
323011,-47.6550306639851,4,1,0,68,0,0
323114,-46.8598632344456,4,1,0,68,0,0
323217,-46.0779638950152,4,1,0,68,0,0
323319,-45.3165138229316,4,1,0,68,0,0
323422,-44.5603666688914,4,1,0,72,0,0
323525,-43.8168365162559,4,1,0,72,0,0
323627,-43.0927521491647,4,1,0,72,0,0
323730,-42.3737104765269,4,1,0,72,0,0
323858,-41.6666666666667,4,1,0,55,0,0
323909,-43.6001022035664,4,1,0,54,0,0
323961,-45.663848051495,4,1,0,53,0,0
324012,-47.7827626092794,4,1,0,52,0,0
324063,-50,4,1,0,57,0,0
324218,-40,4,1,0,80,0,0
324398,-45.5039003343144,4,1,0,75,0,0
324584,-46.3774615729604,4,1,0,75,0,0
324757,-48.2292228205237,4,1,0,70,0,0
324911,-50.2248686426512,4,1,0,65,0,0
325213,-52.4038303333443,4,1,0,65,0,0
325315,-53.5542537378683,4,1,0,65,0,0
325418,-54.7683736286412,4,1,0,65,0,0
325624,-57.3696079773476,4,1,0,65,0,0
325726,-58.751263567207,4,1,0,65,0,0
325829,-60.2156798983612,4,1,0,65,0,0
325932,-61.7549656033567,4,1,0,65,0,0
326035,-63.3750129336761,4,1,0,65,0,0
326086,-64.2090493431928,4,1,0,65,0,0
326137,-65.0653309036829,4,1,0,65,0,0
326343,-68.7697024657771,4,1,0,65,0,0
326394,-69.7528755267054,4,1,0,65,0,0
326445,-70.764568391678,4,1,0,65,0,0
326548,-72.8999771114672,4,1,0,65,0,0
326651,-75.1682730885782,4,1,0,65,0,0
326754,-77.5822591174379,4,1,0,65,0,0
326805,-78.8358531103652,4,1,0,65,0,0
326856,-80.1306242389478,4,1,0,65,0,0
326959,-82.8796852393493,4,1,0,65,0,0
327062,-85.824072776658,4,1,0,65,0,0
327165,-88.9853711961198,4,1,0,65,0,0
327216,-90.6384819406026,4,1,0,65,0,0
327267,-92.3541760905622,4,1,0,65,0,0
327370,-96.025132354892,4,1,0,65,0,0
327473,-100,4,1,0,65,0,0
327531,-50,4,1,0,75,0,0
327633,-51.4889552755067,4,1,0,75,0,0
327736,-53.0375064409303,4,1,0,75,0,0
327839,-54.6326309092904,4,1,0,75,0,0
328044,-58.0533751962323,4,1,0,75,0,0
328045,-57.9682447254972,4,1,0,70,0,0
328199,-61.4898230599596,4,1,0,65,0,0
328501,-65.2253377318854,4,1,0,65,0,0
328604,-67.1870161582469,4,1,0,65,0,0
328707,-69.2076928570938,4,1,0,65,0,0
328912,-73.4120691134007,4,1,0,65,0,0
329015,-75.6199667989027,4,1,0,65,0,0
329118,-77.8942679007438,4,1,0,65,0,0
329220,-80.2138895231947,4,1,0,65,0,0
329323,-82.6263547099449,4,1,0,65,0,0
329375,-83.8717245198876,4,1,0,65,0,0
329426,-85.1113757634145,4,1,0,65,0,0
329529,-87.6711348306553,4,1,0,65,0,0
329631,-90.2819028049706,4,1,0,65,0,0
329683,-91.642659388414,4,1,0,65,0,0
329734,-92.997167565291,4,1,0,65,0,0
329837,-95.7940950120365,4,1,0,65,0,0
330042,-101.61359862408,4,1,0,65,0,0
330094,-103.145150009231,4,1,0,65,0,0
330145,-104.669668721642,4,1,0,65,0,0
330248,-107.817651364057,4,1,0,65,0,0
330351,-111.060310858305,4,1,0,65,0,0
330453,-114.367587573343,4,1,0,65,0,0
330556,-117.807239049582,4,1,0,65,0,0
330607,-119.548468185149,4,1,0,65,0,0
330659,-121.350339435857,4,1,0,65,0,0
330762,-125,4,1,0,65,0,0
330819,-66.6666666666667,4,1,0,75,0,0
330964,-68.4403236502116,4,1,0,75,0,0
331067,-70.2611685201857,4,1,0,75,0,0
331169,-72.112071312795,4,1,0,75,0,0
331272,-76.000175922719,4,1,0,70,0,0
331487,-80.0775012978352,4,1,0,65,0,0
331791,-84.3950822004388,4,1,0,65,0,0
331894,-86.6404011042636,4,1,0,65,0,0
331996,-88.9227850118213,4,1,0,65,0,0
332202,-93.7172817449973,4,1,0,65,0,0
332305,-96.2106164136852,4,1,0,65,0,0
332407,-98.745110250741,4,1,0,65,0,0
332510,-101.372209566548,4,1,0,65,0,0
332613,-104.069202478074,4,1,0,65,0,0
332664,-105.431048939503,4,1,0,65,0,0
332716,-106.837948494282,4,1,0,65,0,0
332918,-112.569686258469,4,1,0,65,0,0
332969,-114.042769795623,4,1,0,65,0,0
333021,-115.564586410986,4,1,0,65,0,0
333124,-118.639165447061,4,1,0,65,0,0
333226,-121.764498646945,4,1,0,65,0,0
333329,-125.00402544754,4,1,0,65,0,0
333432,-128.329739388134,4,1,0,65,0,0
333483,-130.009058507723,4,1,0,65,0,0
333535,-131.743933465068,4,1,0,65,0,0
333637,-135.214487961892,4,1,0,65,0,0
333740,-138.811849774643,4,1,0,65,0,0
333843,-142.504918875916,4,1,0,65,0,0
333894,-144.36973396901,4,1,0,65,0,0
333945,-146.258951976465,4,1,0,65,0,0
334048,-150.15015015015,4,1,0,65,0,0
334107,-100,4,1,0,75,0,0
334253,-104.076836662891,4,1,0,75,0,0
334355,-108.277864325511,4,1,0,75,0,0
334458,-112.692175996129,4,1,0,75,0,0
334595,-122.068029016778,4,1,0,70,0,0
334774,-132.172654843613,4,1,0,65,0,0
335031,-143.169260190956,4,1,0,65,0,0
335133,-148.94824081512,4,1,0,65,0,0
335236,-155.020617305402,4,1,0,65,0,0
335477,-167.918145551513,4,1,0,65,0,0
335579,-174.696106884088,4,1,0,65,0,0
335682,-181.818181818182,4,1,0,65,0,0
335750,-71.4285714285714,4,1,0,80,0,0
335853,-69.4444444444444,4,1,0,80,0,0
336101,-76.9230769230769,4,1,0,80,0,0
336204,-79.3650793650794,4,1,0,80,0,0
336306,-71.4285714285714,4,1,0,80,0,0
336409,-64.5161290322581,4,1,0,80,0,0
336461,-66.0214088840459,4,1,0,80,0,0
336512,-67.5675675675676,4,1,0,80,0,0
336615,-66.6666666666667,4,1,0,80,0,0
336666,-64.5497224367903,4,1,0,80,0,0
336717,-62.5,4,1,0,80,0,0
336820,-52.6315789473684,4,1,0,80,0,0
336889,-54.7623003331093,4,1,0,80,0,0
336957,-56.9465187117472,4,1,0,80,0,0
337026,-59.2519248517369,4,1,0,80,0,0
337128,-62.8319746619815,4,1,0,80,0,0
337231,-66.6666666666667,4,1,0,80,0,0
337343,-66.6666666666667,4,1,0,85,0,0
337433,-55.5555555555556,4,1,0,85,0,0
337535,-51.3722901910864,4,1,0,85,0,0
337638,-47.467574431564,4,1,0,85,0,0
337741,-43.859649122807,4,1,0,85,0,0
337946,-50,4,1,0,85,0,0
338049,-52.6315789473684,4,1,0,85,0,0
338152,-55.5555555555556,4,1,0,85,0,0
338255,-45.4545454545455,4,1,0,85,0,0
338357,-47.6079888527636,4,1,0,85,0,0
338460,-50,4,1,0,85,0,0
338563,-43.859649122807,4,1,0,85,0,0
338768,-47.6190476190476,4,1,0,85,0,0
338871,-50,4,1,0,85,0,0
338974,-52.6315789473684,4,1,0,85,0,0
339076,-45.4545454545455,4,1,0,85,0,0
339179,-47.6190476190476,4,1,0,85,0,0
339282,-50,4,1,0,85,0,0
339487,-52.6315789473684,4,1,0,85,0,0
339590,-55.5555555555556,4,1,0,85,0,0
339642,-52.6315789473684,4,1,0,85,0,0
339693,-50,4,1,0,85,0,0
339796,-45.4545454545455,4,1,0,85,0,0
339898,-47.6190476190476,4,1,0,85,0,0
339950,-50.5050505050505,4,1,0,85,0,0
340001,-53.763440860215,4,1,0,85,0,0
340104,-50,4,1,0,85,0,0
340207,-45.4545454545455,4,1,0,85,0,0
340309,-50,4,1,0,85,0,0
340412,-52.6315789473684,4,1,0,85,0,0
340463,-54.0398740818468,4,1,0,85,0,0
340515,-55.5555555555556,4,1,0,85,0,0
340618,-58.8235294117647,4,1,0,85,0,0
340708,-55.5555555555556,4,1,0,85,0,0
340810,-51.3722901910864,4,1,0,85,0,0
340913,-47.467574431564,4,1,0,85,0,0
341016,-43.859649122807,4,1,0,85,0,0
341221,-50,4,1,0,85,0,0
341324,-52.6315789473684,4,1,0,85,0,0
341427,-55.5555555555556,4,1,0,85,0,0
341530,-45.4545454545455,4,1,0,85,0,0
341632,-47.6079888527636,4,1,0,85,0,0
341735,-50,4,1,0,85,0,0
341838,-43.859649122807,4,1,0,85,0,0
342043,-50,4,1,0,85,0,0
342146,-52.6315789473684,4,1,0,85,0,0
342249,-55.5555555555556,4,1,0,85,0,0
342360,-47.6190476190476,4,1,0,85,0,0
342461,-50,4,1,0,85,0,0
342560,-52.6315789473684,4,1,0,85,0,0
342779,-50,4,1,0,85,0,0
342830,-47.6190476190476,4,1,0,85,0,0
342882,-45.4545454545455,4,1,0,85,0,0
342985,-40,4,1,0,85,0,0
343190,-50,4,1,0,85,0,0
343293,-48.0769230769231,4,1,0,85,0,0
343344,-49.5049504950495,4,1,0,85,0,0
343396,-51.0204081632653,4,1,0,85,0,0
343498,-43.4782608695652,4,1,0,85,0,0
343601,-46.7289719626168,4,1,0,85,0,0
343652,-45.4625966818209,4,1,0,85,0,0
343704,-44.2401608733123,4,1,0,85,0,0
343755,-43.1034482758621,4,1,0,85,0,0
343806,-42.0236860776074,4,1,0,85,0,0
343909,-40,4,1,0,85,0,0
344012,-43.4323819533662,4,1,0,85,0,0
344115,-47.1592950535772,4,1,0,85,0,0
344217,-51.1651012971899,4,1,0,85,0,0
344320,-55.5555555555556,4,1,0,85,0,0
344526,-50,4,1,0,85,0,0
344628,-52.6910855394355,4,1,0,85,0,0
344731,-55.5555555555556,4,1,0,85,0,0
344937,-45.4545454545455,4,1,0,85,0,0
345039,-48.8941126374513,4,1,0,85,0,0
345142,-52.6315789473684,4,1,0,85,0,0
345348,-41.6666666666667,4,1,0,85,0,0
345450,-45.6232538918744,4,1,0,85,0,0
345553,-50,4,1,0,85,0,0
345656,-40,4,1,0,85,0,0
345759,-41.7865223312654,4,1,0,85,0,0
345861,-43.6343218443932,4,1,0,85,0,0
345964,-45.5831641040089,4,1,0,85,0,0
346067,-47.6190476190476,4,1,0,85,0,0
346272,-40,4,1,0,85,0,0
346375,-42.4476359978009,4,1,0,85,0,0
346478,-45.045045045045,4,1,0,85,0,0
346683,-38.4615384615385,4,1,0,85,0,0
346786,-41.2371134020619,4,1,0,85,0,0
346889,-44.4444444444444,4,1,0,85,0,0
347094,-37.037037037037,4,1,0,85,0,0
347197,-40,4,1,0,85,0,0
347300,-43.4782608695652,4,1,0,85,0,0
347505,-42.2759437499151,4,1,0,85,0,0
347711,-41.1012518546092,4,1,0,85,0,0
347916,-39.9646668635007,4,1,0,85,0,0
348122,-38.8541967923684,4,1,0,85,0,0
348327,-37.7797502749728,4,1,0,85,0,0
348533,-36.7299909433487,4,1,0,85,0,0
348738,-35.7142857142857,4,1,0,85,0,0
348901,-39.8746268138617,4,1,0,60,0,0
349004,-42.1444782525286,4,1,0,60,0,0
349107,-44.5435403187374,4,1,0,50,0,0
349210,-47.0791682895716,4,1,0,60,0,0
349312,-49.73239732098,4,1,0,60,0,0
349518,-55.5555555555556,4,1,0,50,0,0
349620,-52.6315789473684,4,1,0,60,0,0
349723,-48.8015094506616,4,1,0,48,0,0
349826,-47.6191648147077,4,1,0,48,0,0
349946,-50,4,1,0,50,0,0
350014,-51.711122294917,4,1,0,50,0,0
350083,-53.5714285714286,4,1,0,50,0,0
350151,-55.5405405405405,4,1,0,45,0,0
350220,-57.6923076923077,4,1,0,43,0,0
350288,-59.9824868651489,4,1,0,41,0,0
350357,-62.5,4,1,0,40,0,0
350545,-50,4,1,0,60,0,0
350802,-57.2446962208197,4,1,0,50,0,0
351003,-59.6361493422553,4,1,0,50,0,0
351209,-64.4659468228018,4,1,0,50,0,0
351414,-69.2722986845107,4,1,0,50,0,0
351620,-74.1020961650572,4,1,0,50,0,0
351722,-76.4935492864928,4,1,0,50,0,0
351825,-78.908448026766,4,1,0,50,0,0
352236,-88.5445973690214,4,1,0,50,0,0
352442,-93.3743948495678,4,1,0,50,0,0
352544,-95.7658479710035,4,1,0,50,0,0
352647,-98.1807467112767,4,1,0,50,0,0
352853,-103.010544191823,4,1,0,50,0,0
353058,-107.816896053532,4,1,0,50,0,0
353264,-112.646693534079,4,1,0,50,0,0
353366,-115.038146655514,4,1,0,50,0,0
353469,-117.453045395787,4,1,0,50,0,0
353880,-127.089194738043,4,1,0,50,0,0
354085,-131.895546599752,4,1,0,50,0,0
354188,-134.310445340025,4,1,0,50,0,0
354290,-136.70189846146,4,1,0,50,0,0
354496,-141.531695942007,4,1,0,50,0,0
354701,-146.338047803716,4,1,0,50,0,0
354907,-151.167845284262,4,1,0,50,0,0
355009,-153.559298405698,4,1,0,50,0,0
355112,-155.974197145971,4,1,0,50,0,0
355523,-165.610346488227,4,1,0,50,0,0
355729,-170.440143968773,4,1,0,50,0,0
355831,-172.831597090209,4,1,0,50,0,0
355934,-175.246495830482,4,1,0,50,0,0
356140,-180.076293311028,4,1,0,50,0,0
356345,-184.882645172737,4,1,0,50,0,0
356551,-189.712442653284,4,1,0,50,0,0
356653,-192.103895774719,4,1,0,50,0,0
356756,-194.518794514993,4,1,0,50,0,0
356962,-199.348591995539,4,1,0,50,0,0
357168,-204.178389476085,4,1,0,50,0,0
357373,-208.984741337794,4,1,0,50,0,0
357476,-211.399640078068,4,1,0,50,0,0
357579,-213.814538818341,4,1,0,50,0,0
357784,-218.62089068005,4,1,0,50,0,0
357990,-223.450688160596,4,1,0,50,0,0
358195,-228.257040022305,4,1,0,50,0,0
358298,-230.671938762578,4,1,0,50,0,0
358401,-233.086837502852,4,1,0,50,0,0
358811,-242.699541226269,4,1,0,50,0,0
359017,-247.529338706816,4,1,0,50,0,0
359120,-249.944237447089,4,1,0,50,0,0
359222,-252.335690568525,4,1,0,50,0,0
359428,-257.165488049071,4,1,0,50,0,0
359633,-261.97183991078,4,1,0,50,0,0
359839,-266.801637391326,4,1,0,50,0,0
359942,-269.2165361316,4,1,0,50,0,0
360044,-271.607989253035,4,1,0,50,0,0
360455,-281.244138595291,4,1,0,50,0,0
360661,-286.073936075837,4,1,0,50,0,0
360764,-288.48883481611,4,1,0,50,0,0
360866,-290.880287937546,4,1,0,50,0,0
361072,-295.710085418092,4,1,0,50,0,0
361277,-300.516437279801,4,1,0,50,0,0
361483,-305.346234760348,4,1,0,50,0,0
361585,-307.737687881783,4,1,0,50,0,0
361688,-310.152586622057,4,1,0,50,0,0
362099,-319.788735964312,4,1,0,50,0,0
362305,-324.618533444858,4,1,0,50,0,0
362407,-327.009986566294,4,1,0,50,0,0
362510,-329.424885306567,4,1,0,50,0,0
362716,-334.254682787114,4,1,0,50,0,0
362921,-339.061034648823,4,1,0,50,0,0
363127,-343.890832129369,4,1,0,50,0,0
363229,-346.282285250805,4,1,0,50,0,0
363332,-348.697183991078,4,1,0,50,0,0
363538,-353.526981471624,4,1,0,50,0,0
363743,-358.333333333333,4,1,0,50,0,0
363948,-363.139685195042,4,1,0,50,0,0
364051,-365.554583935315,4,1,0,50,0,0
364154,-367.969482675589,4,1,0,50,0,0
364359,-372.775834537298,4,1,0,50,0,0
364565,-377.605632017844,4,1,0,50,0,0
364770,-382.411983879553,4,1,0,50,0,0
364873,-384.826882619826,4,1,0,50,0,0
364976,-387.241781360099,4,1,0,50,0,0
365387,-396.877930702355,4,1,0,50,0,0
365592,-401.684282564064,4,1,0,50,0,0
365695,-404.099181304337,4,1,0,50,0,0
365798,-406.51408004461,4,1,0,50,0,0
366003,-411.320431906319,4,1,0,50,0,0
366209,-416.150229386865,4,1,0,50,0,0
366414,-420.956581248574,4,1,0,50,0,0
366517,-423.371479988848,4,1,0,50,0,0
366620,-425.786378729121,4,1,0,50,0,0
366825,-430.59273059083,4,1,0,50,0,0
367031,-435.422528071376,4,1,0,50,0,0
367236,-440.228879933085,4,1,0,50,0,0
367339,-442.643778673358,4,1,0,50,0,0
367442,-445.058677413631,4,1,0,50,0,0
367647,-449.86502927534,4,1,0,50,0,0
367853,-454.694826755887,4,1,0,50,0,0
368058,-459.501178617596,4,1,0,50,0,0
368161,-461.916077357869,4,1,0,50,0,0
368264,-464.330976098142,4,1,0,50,0,0
368674,-473.94367982156,4,1,0,50,0,0
368880,-478.773477302106,4,1,0,50,0,0
368983,-481.18837604238,4,1,0,50,0,0
369085,-483.579829163815,4,1,0,50,0,0
369291,-488.409626644362,4,1,0,50,0,0
369496,-493.215978506071,4,1,0,50,0,0
369702,-498.045775986617,4,1,0,50,0,0
369805,-500.46067472689,4,1,0,50,0,0
369907,-502.852127848326,4,1,0,50,0,0
370113,-507.681925328872,4,1,0,50,0,0
370318,-512.488277190581,4,1,0,50,0,0
370524,-517.318074671128,4,1,0,50,0,0
370627,-519.732973411401,4,1,0,50,0,0
370729,-522.124426532837,4,1,0,50,0,0
370935,-526.954224013383,4,1,0,50,0,0
371140,-531.760575875092,4,1,0,50,0,0
371346,-536.590373355638,4,1,0,50,0,0
371448,-538.981826477074,4,1,0,50,0,0
371551,-541.396725217347,4,1,0,50,0,0
371962,-551.032874559603,4,1,0,50,0,0
372168,-555.862672040149,4,1,0,50,0,0
372270,-558.254125161585,4,1,0,50,0,0
372373,-560.669023901858,4,1,0,50,0,0
372579,-565.498821382404,4,1,0,50,0,0
372784,-570.305173244113,4,1,0,50,0,0
372990,-575.13497072466,4,1,0,50,0,0
373092,-577.526423846095,4,1,0,50,0,0
373195,-579.941322586369,4,1,0,50,0,0
373401,-584.771120066915,4,1,0,50,0,0
373606,-589.577471928624,4,1,0,50,0,0
373811,-594.383823790333,4,1,0,50,0,0
373914,-596.798722530606,4,1,0,50,0,0
374017,-599.213621270879,4,1,0,50,0,0
374222,-604.019973132588,4,1,0,50,0,0
374428,-608.849770613135,4,1,0,50,0,0
374633,-613.656122474844,4,1,0,50,0,0
374736,-616.071021215117,4,1,0,50,0,0
374839,-618.48591995539,4,1,0,50,0,0
375250,-628.122069297645,4,1,0,50,0,0
375455,-632.928421159354,4,1,0,50,0,0
375558,-635.343319899627,4,1,0,50,0,0
375661,-637.758218639901,4,1,0,50,0,0
375866,-642.56457050161,4,1,0,50,0,0
376072,-647.394367982156,4,1,0,50,0,0
376277,-652.200719843865,4,1,0,50,0,0
376380,-654.615618584138,4,1,0,50,0,0
376483,-657.030517324411,4,1,0,50,0,0
376688,-661.83686918612,4,1,0,50,0,0
376846,-666.666666666667,4,1,0,70,0,0

[HitObjects]
64,64,979,5,0,0:0:0:0:
64,64,1184,1,0,0:0:0:0:
448,64,1389,1,8,0:0:0:0:
64,64,1595,1,0,0:0:0:0:
448,64,1800,1,8,0:0:0:0:
64,64,2006,1,0,0:0:0:0:
64,64,2211,1,0,0:0:0:0:
448,64,2417,1,8,0:0:0:0:
448,64,2622,1,8,0:0:0:0:
448,64,2828,1,8,0:0:0:0:
64,64,3033,1,0,0:0:0:0:
64,64,3239,1,0,0:0:0:0:
448,64,3444,1,8,0:0:0:0:
64,64,3650,1,0,0:0:0:0:
448,64,3855,1,8,0:0:0:0:
448,64,4061,1,8,0:0:0:0:
64,64,4266,1,0,0:0:0:0:
64,64,4472,1,0,0:0:0:0:
448,64,4677,1,8,0:0:0:0:
64,64,4883,1,0,0:0:0:0:
448,64,5088,1,8,0:0:0:0:
64,64,5294,1,0,0:0:0:0:
64,64,5499,1,0,0:0:0:0:
448,64,5705,1,8,0:0:0:0:
448,64,5910,1,8,0:0:0:0:
448,64,6115,1,8,0:0:0:0:
64,64,6321,1,0,0:0:0:0:
64,64,6526,1,0,0:0:0:0:
448,64,6732,1,8,0:0:0:0:
64,64,6937,1,0,0:0:0:0:
448,64,7143,1,8,0:0:0:0:
448,64,7348,1,8,0:0:0:0:
64,64,7554,1,0,0:0:0:0:
64,64,7759,1,0,0:0:0:0:
448,64,7965,1,8,0:0:0:0:
64,64,8170,1,0,0:0:0:0:
448,64,8376,1,8,0:0:0:0:
64,64,8581,1,0,0:0:0:0:
448,64,8787,1,8,0:0:0:0:
64,64,8992,1,0,0:0:0:0:
64,64,9198,1,0,0:0:0:0:
448,64,9403,1,8,0:0:0:0:
64,64,9609,1,0,0:0:0:0:
64,64,9814,1,0,0:0:0:0:
448,64,10020,1,8,0:0:0:0:
64,64,10225,1,0,0:0:0:0:
448,64,10431,1,8,0:0:0:0:
448,64,10636,1,8,0:0:0:0:
64,64,10842,1,0,0:0:0:0:
448,64,11047,1,8,0:0:0:0:
64,64,11252,1,0,0:0:0:0:
448,64,11458,1,8,0:0:0:0:
448,64,11663,1,8,0:0:0:0:
64,64,11869,1,0,0:0:0:0:
448,64,12074,1,8,0:0:0:0:
64,64,12280,1,0,0:0:0:0:
448,64,12485,1,8,0:0:0:0:
448,64,12691,1,8,0:0:0:0:
64,64,12896,1,0,0:0:0:0:
64,64,13102,1,0,0:0:0:0:
448,64,13307,1,8,0:0:0:0:
64,64,13513,1,0,0:0:0:0:
448,64,13718,1,8,0:0:0:0:
448,64,13924,1,8,0:0:0:0:
64,64,14129,1,0,0:0:0:0:
64,64,14335,1,0,0:0:0:0:
448,64,14540,1,8,0:0:0:0:
64,64,14746,1,0,0:0:0:0:
448,64,14951,1,8,0:0:0:0:
64,64,15157,1,0,0:0:0:0:
64,64,15362,1,0,0:0:0:0:
448,64,15568,1,8,0:0:0:0:
448,64,15773,1,8,0:0:0:0:
448,64,15978,1,8,0:0:0:0:
64,64,16184,1,0,0:0:0:0:
64,64,16389,1,0,0:0:0:0:
448,64,16595,1,8,0:0:0:0:
64,64,16800,1,0,0:0:0:0:
448,64,17006,1,8,0:0:0:0:
448,64,17211,1,8,0:0:0:0:
64,64,17417,1,0,0:0:0:0:
64,64,17622,1,0,0:0:0:0:
448,64,17828,1,8,0:0:0:0:
64,64,18033,1,0,0:0:0:0:
448,64,18239,1,8,0:0:0:0:
64,64,18444,1,0,0:0:0:0:
64,64,18650,1,0,0:0:0:0:
448,64,18855,1,8,0:0:0:0:
448,64,19061,1,8,0:0:0:0:
448,64,19266,1,8,0:0:0:0:
64,64,19472,1,0,0:0:0:0:
64,64,19677,1,0,0:0:0:0:
448,64,19883,1,8,0:0:0:0:
64,64,20088,1,0,0:0:0:0:
448,64,20293,1,8,0:0:0:0:
448,64,20498,1,8,0:0:0:0:
64,64,20704,1,0,0:0:0:0:
64,64,20909,1,0,0:0:0:0:
448,64,21115,1,8,0:0:0:0:
64,64,21320,1,0,0:0:0:0:
448,64,21526,1,8,0:0:0:0:
64,64,21731,1,0,0:0:0:0:
448,64,21937,1,8,0:0:0:0:
64,64,22142,1,0,0:0:0:0:
64,64,22348,1,0,0:0:0:0:
448,64,22554,1,8,0:0:0:0:
64,64,22759,1,0,0:0:0:0:
64,64,22964,1,0,0:0:0:0:
448,64,23170,1,8,0:0:0:0:
64,64,23375,1,0,0:0:0:0:
448,64,23581,1,8,0:0:0:0:
448,64,23786,1,8,0:0:0:0:
64,64,23992,1,0,0:0:0:0:
448,64,24197,1,8,0:0:0:0:
64,64,24402,1,0,0:0:0:0:
448,64,24608,1,8,0:0:0:0:
448,64,24813,1,8,0:0:0:0:
64,64,25019,1,0,0:0:0:0:
448,64,25224,1,8,0:0:0:0:
64,64,25430,1,0,0:0:0:0:
448,64,25635,1,8,0:0:0:0:
448,64,25841,1,8,0:0:0:0:
64,64,26046,1,0,0:0:0:0:
64,64,26252,1,0,0:0:0:0:
448,64,26457,1,8,0:0:0:0:
64,64,26663,1,0,0:0:0:0:
448,64,26868,1,8,0:0:0:0:
448,64,27074,1,8,0:0:0:0:
64,320,27281,1,4,0:0:0:0:
448,64,27691,1,8,0:0:0:0:
64,320,27896,1,4,0:0:0:0:
448,64,28205,1,8,0:0:0:0:
448,64,28307,1,8,0:0:0:0:
448,64,28513,1,8,0:0:0:0:
448,64,28718,1,8,0:0:0:0:
64,320,28925,1,4,0:0:0:0:
64,320,29540,1,4,0:0:0:0:
448,64,29746,1,8,0:0:0:0:
448,64,29848,1,8,0:0:0:0:
64,320,29951,1,4,0:0:0:0:
448,64,30157,1,8,0:0:0:0:
448,64,30259,1,8,0:0:0:0:
448,64,30362,1,8,0:0:0:0:
64,320,30569,1,4,0:0:0:0:
448,64,30979,1,8,0:0:0:0:
64,320,31184,1,4,0:0:0:0:
448,64,31492,1,8,0:0:0:0:
64,320,31595,1,4,0:0:0:0:
448,64,31800,1,8,0:0:0:0:
448,64,32006,1,8,0:0:0:0:
64,320,32212,1,4,0:0:0:0:
448,64,32622,1,8,0:0:0:0:
64,320,32828,1,4,0:0:0:0:
448,64,33033,1,8,0:0:0:0:
448,64,33136,1,8,0:0:0:0:
64,320,33239,1,4,0:0:0:0:
448,64,33444,1,8,0:0:0:0:
448,64,33547,1,8,0:0:0:0:
64,320,33650,1,4,0:0:0:0:
64,320,33856,1,4,0:0:0:0:
448,64,34266,1,8,0:0:0:0:
64,320,34472,1,4,0:0:0:0:
448,64,34780,1,8,0:0:0:0:
64,320,34883,1,4,0:0:0:0:
448,64,35088,1,8,0:0:0:0:
448,64,35294,1,8,0:0:0:0:
64,320,35500,1,4,0:0:0:0:
448,64,35910,1,8,0:0:0:0:
64,320,36115,1,4,0:0:0:0:
448,64,36321,1,8,0:0:0:0:
448,64,36424,1,8,0:0:0:0:
64,320,36526,1,4,0:0:0:0:
448,64,36732,1,8,0:0:0:0:
448,64,36835,1,8,0:0:0:0:
448,64,36937,1,8,0:0:0:0:
64,320,37144,1,4,0:0:0:0:
448,64,37554,1,8,0:0:0:0:
64,320,37759,1,4,0:0:0:0:
448,64,38068,1,8,0:0:0:0:
64,320,38170,1,4,0:0:0:0:
448,64,38376,1,8,0:0:0:0:
448,64,38478,1,8,0:0:0:0:
448,64,38581,1,8,0:0:0:0:
64,320,38788,1,4,0:0:0:0:
448,64,38992,1,8,0:0:0:0:
64,320,39403,1,4,0:0:0:0:
448,64,39609,1,8,0:0:0:0:
448,64,39711,1,8,0:0:0:0:
64,320,39814,1,4,0:0:0:0:
448,64,40020,1,8,0:0:0:0:
448,64,40122,1,8,0:0:0:0:
64,64,40225,1,0,0:0:0:0:
448,64,40276,1,8,0:0:0:0:
448,64,40328,1,8,0:0:0:0:
448,64,40379,1,8,0:0:0:0:
64,320,40431,1,4,0:0:0:0:
64,64,40636,1,0,0:0:0:0:
448,64,40842,1,8,0:0:0:0:
64,64,41047,1,0,0:0:0:0:
448,64,41252,1,8,0:0:0:0:
64,64,41663,1,0,0:0:0:0:
64,64,42074,1,0,0:0:0:0:
64,64,42485,1,0,0:0:0:0:
64,64,42896,1,0,0:0:0:0:
64,64,43307,1,0,0:0:0:0:
64,64,43718,1,0,0:0:0:0:
64,64,43924,1,0,0:0:0:0:
448,64,44129,1,8,0:0:0:0:
64,64,44335,1,0,0:0:0:0:
448,64,44540,1,8,0:0:0:0:
64,64,44951,1,0,0:0:0:0:
64,64,45362,1,0,0:0:0:0:
64,64,45773,1,0,0:0:0:0:
64,64,46184,1,0,0:0:0:0:
64,64,46595,1,0,0:0:0:0:
64,64,47006,1,0,0:0:0:0:
448,64,47211,1,8,0:0:0:0:
64,64,47417,1,0,0:0:0:0:
448,64,47622,1,8,0:0:0:0:
64,64,47828,1,0,0:0:0:0:
448,64,48033,1,8,0:0:0:0:
64,64,48239,1,0,0:0:0:0:
448,64,48444,1,8,0:0:0:0:
64,64,48650,1,0,0:0:0:0:
64,64,48752,1,0,0:0:0:0:
448,64,48855,1,8,0:0:0:0:
64,64,48958,1,0,0:0:0:0:
64,64,49061,1,0,0:0:0:0:
64,64,49163,1,0,0:0:0:0:
448,64,49266,1,8,0:0:0:0:
64,64,49369,1,0,0:0:0:0:
64,64,49472,1,0,0:0:0:0:
64,64,49574,1,0,0:0:0:0:
448,64,49677,1,8,0:0:0:0:
64,64,49780,1,0,0:0:0:0:
64,64,49883,1,0,0:0:0:0:
64,64,49985,1,0,0:0:0:0:
448,64,50088,1,8,0:0:0:0:
64,64,50191,1,0,0:0:0:0:
448,64,50294,1,8,0:0:0:0:
448,64,50345,1,8,0:0:0:0:
64,64,50396,1,0,0:0:0:0:
64,64,50448,1,0,0:0:0:0:
448,64,50499,1,8,0:0:0:0:
448,64,50550,1,8,0:0:0:0:
64,64,50602,1,0,0:0:0:0:
64,64,50653,1,0,0:0:0:0:
448,64,50705,1,8,0:0:0:0:
448,64,50756,1,8,0:0:0:0:
64,64,50807,1,0,0:0:0:0:
64,64,50859,1,0,0:0:0:0:
448,64,50910,1,8,0:0:0:0:
448,64,50961,1,8,0:0:0:0:
64,64,51013,1,0,0:0:0:0:
64,64,51064,1,0,0:0:0:0:
448,64,51115,1,8,0:0:0:0:
448,64,51167,1,8,0:0:0:0:
448,64,51218,1,8,0:0:0:0:
448,64,51270,1,8,0:0:0:0:
64,64,51321,1,0,0:0:0:0:
64,64,51372,1,0,0:0:0:0:
64,64,51424,1,0,0:0:0:0:
64,64,51475,1,0,0:0:0:0:
256,192,51526,12,0,51937,0:0:0:0:
64,64,52143,5,0,0:0:0:0:
64,64,52246,1,0,0:0:0:0:
448,64,52348,1,8,0:0:0:0:
448,64,52451,1,8,0:0:0:0:
64,64,52554,1,0,0:0:0:0:
448,64,52965,1,8,0:0:0:0:
448,64,53033,1,8,0:0:0:0:
448,64,53102,1,8,0:0:0:0:
64,64,53170,1,0,0:0:0:0:
448,64,53273,1,8,0:0:0:0:
64,64,53376,1,0,0:0:0:0:
64,64,53478,1,0,0:0:0:0:
448,64,53581,1,8,0:0:0:0:
448,64,53633,1,8,0:0:0:0:
64,64,53684,1,0,0:0:0:0:
64,64,53735,1,0,0:0:0:0:
64,64,53787,1,0,0:0:0:0:
448,64,54403,1,8,0:0:0:0:
448,64,54472,1,8,0:0:0:0:
448,64,54540,1,8,0:0:0:0:
64,64,54609,1,0,0:0:0:0:
64,64,54677,1,0,0:0:0:0:
64,64,54746,1,0,0:0:0:0:
448,64,54814,1,8,0:0:0:0:
448,64,54865,1,8,0:0:0:0:
448,64,54917,1,8,0:0:0:0:
448,64,54968,1,8,0:0:0:0:
64,64,55020,1,0,0:0:0:0:
64,64,55088,1,0,0:0:0:0:
64,64,55157,1,0,0:0:0:0:
448,64,55225,1,8,0:0:0:0:
448,64,55294,1,8,0:0:0:0:
64,64,55362,1,0,0:0:0:0:
64,64,55431,1,0,0:0:0:0:
448,64,55842,1,8,0:0:0:0:
448,64,55893,1,8,0:0:0:0:
448,64,55944,1,8,0:0:0:0:
448,64,55996,1,8,0:0:0:0:
64,64,56047,1,0,0:0:0:0:
64,64,56115,1,0,0:0:0:0:
64,64,56184,1,0,0:0:0:0:
448,64,56252,1,8,0:0:0:0:
64,64,56663,1,0,0:0:0:0:
64,64,56715,1,0,0:0:0:0:
448,64,56766,1,8,0:0:0:0:
448,64,56818,1,8,0:0:0:0:
64,320,56869,1,4,0:0:0:0:
64,320,57177,1,4,0:0:0:0:
64,320,57485,1,4,0:0:0:0:
64,320,57794,1,4,0:0:0:0:
448,64,59746,1,8,0:0:0:0:
64,64,60157,1,0,0:0:0:0:
64,64,60208,1,0,0:0:0:0:
448,64,60259,1,8,0:0:0:0:
448,64,60311,1,8,0:0:0:0:
64,64,60362,1,0,0:0:0:0:
448,64,60978,1,8,0:0:0:0:
448,64,61047,1,8,0:0:0:0:
448,64,61115,1,8,0:0:0:0:
64,64,61184,1,0,0:0:0:0:
64,64,61252,1,0,0:0:0:0:
64,64,61321,1,0,0:0:0:0:
448,64,61389,1,8,0:0:0:0:
448,64,61440,1,8,0:0:0:0:
448,64,61492,1,8,0:0:0:0:
448,64,61544,1,8,0:0:0:0:
64,64,61595,1,0,0:0:0:0:
64,64,61663,1,0,0:0:0:0:
64,64,61732,1,0,0:0:0:0:
448,64,61800,1,8,0:0:0:0:
448,64,61869,1,8,0:0:0:0:
64,64,61937,1,0,0:0:0:0:
64,64,62006,1,0,0:0:0:0:
448,64,62417,1,8,0:0:0:0:
448,64,62468,1,8,0:0:0:0:
448,64,62519,1,8,0:0:0:0:
448,64,62571,1,8,0:0:0:0:
64,64,62622,1,0,0:0:0:0:
64,64,62690,1,0,0:0:0:0:
64,64,62759,1,0,0:0:0:0:
448,64,62828,1,8,0:0:0:0:
448,64,62879,1,8,0:0:0:0:
64,64,62931,1,0,0:0:0:0:
64,64,63239,1,0,0:0:0:0:
64,64,63290,1,0,0:0:0:0:
448,64,63342,1,8,0:0:0:0:
448,64,63393,1,8,0:0:0:0:
64,320,63444,1,4,0:0:0:0:
448,64,63547,1,8,0:0:0:0:
448,64,63598,1,8,0:0:0:0:
448,64,63650,1,8,0:0:0:0:
64,320,63752,1,4,0:0:0:0:
448,64,63855,1,8,0:0:0:0:
448,64,63907,1,8,0:0:0:0:
448,64,63958,1,8,0:0:0:0:
64,320,64060,1,4,0:0:0:0:
448,64,64163,1,8,0:0:0:0:
448,64,64215,1,8,0:0:0:0:
448,64,64266,1,8,0:0:0:0:
64,320,64369,1,4,0:0:0:0:
448,64,64472,1,8,0:0:0:0:
448,64,64523,1,8,0:0:0:0:
448,64,64574,1,8,0:0:0:0:
64,64,64677,1,0,0:0:0:0:
64,64,64728,1,0,0:0:0:0:
64,64,64780,1,0,0:0:0:0:
64,64,64831,1,0,0:0:0:0:
448,64,64883,1,8,0:0:0:0:
64,320,65088,1,4,0:0:0:0:
448,64,65191,1,8,0:0:0:0:
448,64,65242,1,8,0:0:0:0:
448,64,65294,1,8,0:0:0:0:
64,320,65396,1,4,0:0:0:0:
448,64,65499,1,8,0:0:0:0:
448,64,65551,1,8,0:0:0:0:
448,64,65602,1,8,0:0:0:0:
64,320,65704,1,4,0:0:0:0:
448,64,65807,1,8,0:0:0:0:
448,64,65859,1,8,0:0:0:0:
448,64,65910,1,8,0:0:0:0:
64,320,66013,1,4,0:0:0:0:
448,64,66116,1,8,0:0:0:0:
448,64,66167,1,8,0:0:0:0:
448,64,66218,1,8,0:0:0:0:
64,64,66321,1,0,0:0:0:0:
64,64,66389,1,0,0:0:0:0:
64,64,66458,1,0,0:0:0:0:
64,64,66526,1,0,0:0:0:0:
448,64,66595,1,8,0:0:0:0:
64,64,66732,1,0,0:0:0:0:
64,64,66937,1,0,0:0:0:0:
64,64,66989,1,0,0:0:0:0:
448,64,67040,1,8,0:0:0:0:
64,64,67143,1,0,0:0:0:0:
64,64,67246,1,0,0:0:0:0:
448,64,67348,1,8,0:0:0:0:
448,64,67400,1,8,0:0:0:0:
64,64,67451,1,0,0:0:0:0:
448,64,67554,1,8,0:0:0:0:
448,64,67759,1,8,0:0:0:0:
448,64,67811,1,8,0:0:0:0:
64,64,67862,1,0,0:0:0:0:
448,64,67965,1,8,0:0:0:0:
448,64,68068,1,8,0:0:0:0:
64,64,68170,1,0,0:0:0:0:
64,64,68222,1,0,0:0:0:0:
448,64,68273,1,8,0:0:0:0:
64,64,68376,1,0,0:0:0:0:
64,64,68581,1,0,0:0:0:0:
64,64,68633,1,0,0:0:0:0:
448,64,68684,1,8,0:0:0:0:
64,64,68787,1,0,0:0:0:0:
64,64,68890,1,0,0:0:0:0:
448,64,68992,1,8,0:0:0:0:
448,64,69044,1,8,0:0:0:0:
64,64,69095,1,0,0:0:0:0:
448,64,69198,1,8,0:0:0:0:
448,64,69403,1,8,0:0:0:0:
448,64,69455,1,8,0:0:0:0:
64,64,69506,1,0,0:0:0:0:
448,64,69609,1,8,0:0:0:0:
64,64,69814,1,0,0:0:0:0:
64,64,69865,1,0,0:0:0:0:
448,64,69917,1,8,0:0:0:0:
64,64,70020,1,0,0:0:0:0:
64,64,70122,1,0,0:0:0:0:
448,64,70225,1,8,0:0:0:0:
448,64,70276,1,8,0:0:0:0:
64,64,70328,1,0,0:0:0:0:
64,64,70431,1,0,0:0:0:0:
64,64,70533,1,0,0:0:0:0:
448,64,70636,1,8,0:0:0:0:
448,64,70687,1,8,0:0:0:0:
64,64,70739,1,0,0:0:0:0:
64,64,70842,1,0,0:0:0:0:
64,64,70944,1,0,0:0:0:0:
448,64,71047,1,8,0:0:0:0:
448,64,71098,1,8,0:0:0:0:
64,64,71150,1,0,0:0:0:0:
64,64,71252,1,0,0:0:0:0:
64,64,71355,1,0,0:0:0:0:
448,64,71458,1,8,0:0:0:0:
448,64,71509,1,8,0:0:0:0:
64,64,71561,1,0,0:0:0:0:
64,64,71663,1,0,0:0:0:0:
64,64,71766,1,0,0:0:0:0:
448,64,71869,1,8,0:0:0:0:
448,64,71920,1,8,0:0:0:0:
64,64,71972,1,0,0:0:0:0:
64,64,72074,1,0,0:0:0:0:
64,64,72177,1,0,0:0:0:0:
448,64,72280,1,8,0:0:0:0:
448,64,72331,1,8,0:0:0:0:
64,64,72383,1,0,0:0:0:0:
448,64,72485,1,8,0:0:0:0:
64,64,72588,1,0,0:0:0:0:
64,64,72639,1,0,0:0:0:0:
448,64,72691,1,8,0:0:0:0:
448,64,72794,1,8,0:0:0:0:
64,64,72896,1,0,0:0:0:0:
64,64,72948,1,0,0:0:0:0:
64,64,72999,1,0,0:0:0:0:
64,64,73050,1,0,0:0:0:0:
448,64,73102,1,8,0:0:0:0:
64,64,73307,1,0,0:0:0:0:
64,64,73410,1,0,0:0:0:0:
448,64,73513,1,8,0:0:0:0:
448,64,73564,1,8,0:0:0:0:
64,64,73615,1,0,0:0:0:0:
448,64,73718,1,8,0:0:0:0:
448,64,73821,1,8,0:0:0:0:
64,64,73924,1,0,0:0:0:0:
64,64,73975,1,0,0:0:0:0:
448,64,74026,1,8,0:0:0:0:
64,64,74129,1,0,0:0:0:0:
64,64,74232,1,0,0:0:0:0:
448,64,74335,1,8,0:0:0:0:
448,64,74386,1,8,0:0:0:0:
64,64,74437,1,0,0:0:0:0:
448,64,74540,1,8,0:0:0:0:
448,64,74643,1,8,0:0:0:0:
64,64,74746,1,0,0:0:0:0:
64,64,74797,1,0,0:0:0:0:
448,64,74848,1,8,0:0:0:0:
64,64,74951,1,0,0:0:0:0:
64,64,75054,1,0,0:0:0:0:
448,64,75157,1,8,0:0:0:0:
448,64,75208,1,8,0:0:0:0:
64,64,75259,1,0,0:0:0:0:
448,64,75362,1,8,0:0:0:0:
448,64,75465,1,8,0:0:0:0:
64,64,75568,1,0,0:0:0:0:
64,64,75619,1,0,0:0:0:0:
448,64,75670,1,8,0:0:0:0:
64,64,75773,1,0,0:0:0:0:
64,64,75876,1,0,0:0:0:0:
448,64,75979,1,8,0:0:0:0:
448,64,76030,1,8,0:0:0:0:
64,64,76081,1,0,0:0:0:0:
448,64,76184,1,8,0:0:0:0:
64,64,76287,1,0,0:0:0:0:
448,64,76389,1,8,0:0:0:0:
448,64,76441,1,8,0:0:0:0:
448,64,76492,1,8,0:0:0:0:
448,64,76544,1,8,0:0:0:0:
64,64,76595,1,0,0:0:0:0:
64,64,76698,1,0,0:0:0:0:
448,64,76800,1,8,0:0:0:0:
448,64,76852,1,8,0:0:0:0:
64,64,76903,1,0,0:0:0:0:
64,64,77006,1,0,0:0:0:0:
64,64,77109,1,0,0:0:0:0:
448,64,77211,1,8,0:0:0:0:
448,64,77263,1,8,0:0:0:0:
64,64,77314,1,0,0:0:0:0:
64,64,77417,1,0,0:0:0:0:
64,64,77520,1,0,0:0:0:0:
448,64,77622,1,8,0:0:0:0:
448,64,77674,1,8,0:0:0:0:
64,64,77725,1,0,0:0:0:0:
64,64,77828,1,0,0:0:0:0:
64,64,77931,1,0,0:0:0:0:
448,64,78033,1,8,0:0:0:0:
448,64,78085,1,8,0:0:0:0:
64,64,78136,1,0,0:0:0:0:
64,64,78239,1,0,0:0:0:0:
64,64,78342,1,0,0:0:0:0:
448,64,78444,1,8,0:0:0:0:
448,64,78496,1,8,0:0:0:0:
64,64,78547,1,0,0:0:0:0:
64,64,78650,1,0,0:0:0:0:
64,64,78855,1,0,0:0:0:0:
64,64,78958,1,0,0:0:0:0:
448,64,79061,1,8,0:0:0:0:
448,64,79112,1,8,0:0:0:0:
64,64,79163,1,0,0:0:0:0:
448,64,79215,1,8,0:0:0:0:
64,64,79266,1,0,0:0:0:0:
448,64,79369,1,8,0:0:0:0:
64,64,79472,1,0,0:0:0:0:
64,64,79574,1,0,0:0:0:0:
448,64,79677,1,8,0:0:0:0:
64,64,79883,1,0,0:0:0:0:
64,64,79985,1,0,0:0:0:0:
64,64,80037,1,0,0:0:0:0:
448,64,80088,1,8,0:0:0:0:
64,64,80191,1,0,0:0:0:0:
448,64,80294,1,8,0:0:0:0:
448,64,80396,1,8,0:0:0:0:
64,64,80499,1,0,0:0:0:0:
64,64,80602,1,0,0:0:0:0:
448,64,80705,1,8,0:0:0:0:
448,64,80807,1,8,0:0:0:0:
448,64,80859,1,8,0:0:0:0:
64,64,80910,1,0,0:0:0:0:
448,64,81013,1,8,0:0:0:0:
64,64,81115,1,0,0:0:0:0:
64,64,81218,1,0,0:0:0:0:
448,64,81321,1,8,0:0:0:0:
448,64,81424,1,8,0:0:0:0:
64,64,81526,1,0,0:0:0:0:
64,64,81629,1,0,0:0:0:0:
64,64,81681,1,0,0:0:0:0:
448,64,81732,1,8,0:0:0:0:
64,64,81835,1,0,0:0:0:0:
448,64,81937,1,8,0:0:0:0:
448,64,82040,1,8,0:0:0:0:
64,64,82143,1,0,0:0:0:0:
64,64,82246,1,0,0:0:0:0:
448,64,82348,1,8,0:0:0:0:
448,64,82451,1,8,0:0:0:0:
448,64,82502,1,8,0:0:0:0:
64,64,82554,1,0,0:0:0:0:
448,64,82657,1,8,0:0:0:0:
64,64,82759,1,0,0:0:0:0:
64,64,82862,1,0,0:0:0:0:
448,64,82965,1,8,0:0:0:0:
64,64,83068,1,8,0:0:0:0:
448,64,83170,1,0,0:0:0:0:
448,64,83273,1,0,0:0:0:0:
448,64,83324,1,0,0:0:0:0:
64,64,83376,1,8,0:0:0:0:
448,64,83478,1,0,0:0:0:0:
64,64,83581,1,8,0:0:0:0:
64,64,83633,1,8,0:0:0:0:
64,64,83684,1,8,0:0:0:0:
448,64,83787,1,0,0:0:0:0:
448,64,83889,1,0,0:0:0:0:
64,64,83992,1,8,0:0:0:0:
64,64,84095,1,8,0:0:0:0:
64,64,84146,1,8,0:0:0:0:
448,64,84198,1,0,0:0:0:0:
64,64,84300,1,8,0:0:0:0:
448,64,84403,1,0,0:0:0:0:
448,64,84455,1,0,0:0:0:0:
448,64,84506,1,0,0:0:0:0:
64,64,84609,1,8,0:0:0:0:
64,64,84711,1,8,0:0:0:0:
448,64,84814,1,0,0:0:0:0:
448,64,84917,1,0,0:0:0:0:
448,64,84968,1,0,0:0:0:0:
64,64,85020,1,8,0:0:0:0:
448,64,85122,1,0,0:0:0:0:
64,64,85225,1,8,0:0:0:0:
64,64,85276,1,8,0:0:0:0:
64,64,85328,1,8,0:0:0:0:
448,64,85431,1,0,0:0:0:0:
64,64,85533,1,0,0:0:0:0:
448,64,85636,1,8,0:0:0:0:
448,64,85739,1,8,0:0:0:0:
448,64,85790,1,8,0:0:0:0:
64,64,85842,1,0,0:0:0:0:
448,64,85944,1,8,0:0:0:0:
64,64,86047,1,0,0:0:0:0:
64,64,86098,1,0,0:0:0:0:
64,64,86150,1,0,0:0:0:0:
448,64,86252,1,8,0:0:0:0:
64,64,86355,1,0,0:0:0:0:
448,64,86458,1,8,0:0:0:0:
448,64,86509,1,8,0:0:0:0:
448,64,86561,1,8,0:0:0:0:
448,64,86612,1,8,0:0:0:0:
64,64,86663,1,0,0:0:0:0:
448,64,86766,1,8,0:0:0:0:
64,64,86869,1,0,0:0:0:0:
64,64,86920,1,0,0:0:0:0:
64,64,86972,1,0,0:0:0:0:
448,64,87074,1,8,0:0:0:0:
448,64,87177,1,8,0:0:0:0:
64,64,87280,1,0,0:0:0:0:
64,64,87331,1,0,0:0:0:0:
64,64,87383,1,0,0:0:0:0:
64,64,87434,1,0,0:0:0:0:
448,64,87485,1,8,0:0:0:0:
64,64,87588,1,0,0:0:0:0:
448,64,87691,1,8,0:0:0:0:
448,64,87742,1,8,0:0:0:0:
448,64,87794,1,8,0:0:0:0:
64,64,87896,1,0,0:0:0:0:
64,64,87999,1,0,0:0:0:0:
448,64,88102,1,8,0:0:0:0:
448,64,88153,1,8,0:0:0:0:
448,64,88205,1,8,0:0:0:0:
448,64,88256,1,8,0:0:0:0:
64,64,88307,1,0,0:0:0:0:
448,64,88410,1,8,0:0:0:0:
64,64,88513,1,0,0:0:0:0:
64,64,88564,1,0,0:0:0:0:
64,64,88615,1,0,0:0:0:0:
448,64,88718,1,8,0:0:0:0:
448,64,88821,1,8,0:0:0:0:
64,64,88924,1,0,0:0:0:0:
64,64,88975,1,0,0:0:0:0:
64,64,89026,1,0,0:0:0:0:
64,64,89078,1,0,0:0:0:0:
448,64,89129,1,8,0:0:0:0:
64,64,89232,1,0,0:0:0:0:
448,64,89335,1,8,0:0:0:0:
448,64,89386,1,8,0:0:0:0:
448,64,89437,1,8,0:0:0:0:
64,64,89540,1,0,0:0:0:0:
64,64,89643,1,0,0:0:0:0:
448,64,89746,1,8,0:0:0:0:
448,64,89797,1,8,0:0:0:0:
448,64,89848,1,8,0:0:0:0:
448,64,89900,1,8,0:0:0:0:
64,64,89951,1,0,0:0:0:0:
448,64,90054,1,8,0:0:0:0:
448,64,90105,1,8,0:0:0:0:
64,64,90157,1,0,0:0:0:0:
448,64,90259,1,8,0:0:0:0:
448,64,90311,1,8,0:0:0:0:
64,64,90362,1,0,0:0:0:0:
448,64,90465,1,8,0:0:0:0:
448,64,90516,1,8,0:0:0:0:
64,64,90568,1,0,0:0:0:0:
448,64,90670,1,8,0:0:0:0:
448,64,90722,1,8,0:0:0:0:
64,64,90773,1,0,0:0:0:0:
448,64,90876,1,8,0:0:0:0:
448,64,90927,1,8,0:0:0:0:
64,64,90978,1,0,0:0:0:0:
448,64,91081,1,8,0:0:0:0:
448,64,91133,1,8,0:0:0:0:
64,64,91184,1,0,0:0:0:0:
448,64,91287,1,8,0:0:0:0:
448,64,91338,1,8,0:0:0:0:
64,320,91389,1,4,0:0:0:0:
448,64,91800,1,8,0:0:0:0:
448,64,92006,1,8,0:0:0:0:
448,64,92057,1,8,0:0:0:0:
448,64,92109,1,8,0:0:0:0:
448,64,92160,1,8,0:0:0:0:
64,64,92211,1,0,0:0:0:0:
64,64,92417,1,0,0:0:0:0:
64,64,92520,1,0,0:0:0:0:
64,64,92622,1,0,0:0:0:0:
64,64,92828,1,0,0:0:0:0:
64,320,93033,1,4,0:0:0:0:
64,64,93239,1,0,0:0:0:0:
448,64,93342,1,8,0:0:0:0:
64,64,93444,1,0,0:0:0:0:
64,64,93547,1,0,0:0:0:0:
448,64,93650,1,8,0:0:0:0:
448,64,93752,1,8,0:0:0:0:
64,64,93855,1,0,0:0:0:0:
64,64,94061,1,0,0:0:0:0:
448,64,94163,1,8,0:0:0:0:
64,64,94266,1,0,0:0:0:0:
448,64,94335,1,8,0:0:0:0:
448,64,94403,1,8,0:0:0:0:
64,64,94472,1,0,0:0:0:0:
64,64,94677,1,0,0:0:0:0:
64,64,94883,1,0,0:0:0:0:
64,64,94985,1,0,0:0:0:0:
64,64,95088,1,0,0:0:0:0:
64,64,95191,1,0,0:0:0:0:
448,64,95294,1,8,0:0:0:0:
448,64,95396,1,8,0:0:0:0:
64,64,95499,1,0,0:0:0:0:
64,64,95705,1,0,0:0:0:0:
448,64,95807,1,8,0:0:0:0:
64,64,95910,1,0,0:0:0:0:
64,64,95979,1,0,0:0:0:0:
64,64,96047,1,0,0:0:0:0:
448,64,96115,1,8,0:0:0:0:
64,64,96321,1,0,0:0:0:0:
64,64,96526,1,0,0:0:0:0:
64,64,96629,1,0,0:0:0:0:
448,64,96732,1,8,0:0:0:0:
448,64,96800,1,8,0:0:0:0:
448,64,96869,1,8,0:0:0:0:
448,64,96937,1,8,0:0:0:0:
64,64,97040,1,0,0:0:0:0:
64,64,97143,1,0,0:0:0:0:
448,64,97348,1,8,0:0:0:0:
64,64,97451,1,0,0:0:0:0:
64,64,97554,1,0,0:0:0:0:
64,64,97657,1,0,0:0:0:0:
448,64,97759,1,8,0:0:0:0:
448,64,97862,1,8,0:0:0:0:
64,64,97965,1,0,0:0:0:0:
64,64,98170,1,0,0:0:0:0:
448,64,98273,1,8,0:0:0:0:
64,64,98376,1,0,0:0:0:0:
448,64,98479,1,8,0:0:0:0:
448,64,98530,1,8,0:0:0:0:
448,64,98581,1,8,0:0:0:0:
448,64,98633,1,8,0:0:0:0:
64,64,98684,1,0,0:0:0:0:
448,64,98787,1,8,0:0:0:0:
64,64,98992,1,0,0:0:0:0:
448,64,99095,1,8,0:0:0:0:
64,64,99198,1,0,0:0:0:0:
448,64,99300,1,8,0:0:0:0:
64,64,99403,1,0,0:0:0:0:
64,64,99506,1,0,0:0:0:0:
448,320,99609,1,12,0:0:0:0:
64,64,99814,1,0,0:0:0:0:
64,64,99917,1,0,0:0:0:0:
64,64,100020,1,0,0:0:0:0:
64,64,100122,1,0,0:0:0:0:
448,64,100225,1,8,0:0:0:0:
448,64,100328,1,8,0:0:0:0:
64,64,100431,1,0,0:0:0:0:
64,64,100636,1,0,0:0:0:0:
448,64,100738,1,8,0:0:0:0:
64,64,100842,1,0,0:0:0:0:
448,64,100910,1,8,0:0:0:0:
448,64,100978,1,8,0:0:0:0:
64,64,101047,1,0,0:0:0:0:
64,64,101252,1,0,0:0:0:0:
448,64,101458,1,8,0:0:0:0:
64,64,101560,1,0,0:0:0:0:
448,64,101663,1,8,0:0:0:0:
448,64,101766,1,8,0:0:0:0:
64,64,101869,1,0,0:0:0:0:
448,64,101971,1,8,0:0:0:0:
64,64,102074,1,0,0:0:0:0:
64,64,102177,1,0,0:0:0:0:
448,64,102280,1,8,0:0:0:0:
448,64,102382,1,8,0:0:0:0:
64,64,102485,1,0,0:0:0:0:
64,64,102554,1,0,0:0:0:0:
64,64,102622,1,0,0:0:0:0:
448,64,102690,1,8,0:0:0:0:
64,320,102896,1,4,0:0:0:0:
64,320,102999,1,4,0:0:0:0:
64,320,103205,1,4,0:0:0:0:
64,320,103307,1,4,0:0:0:0:
64,320,103513,1,4,0:0:0:0:
64,320,103821,1,4,0:0:0:0:
64,320,103924,1,4,0:0:0:0:
64,320,104129,1,4,0:0:0:0:
99,254,104540,2,0,B|415:254|415:254|287:158|287:158|287:350|287:350|159:350|159:350|159:158|159:158|-1:158,1,1120
64,64,105568,1,0,0:0:0:0:
64,64,105619,1,0,0:0:0:0:
64,64,105670,1,0,0:0:0:0:
64,64,105722,1,0,0:0:0:0:
448,320,105773,1,12,0:0:0:0:
64,320,106184,1,4,0:0:0:0:
64,64,106389,1,0,0:0:0:0:
448,64,106492,1,8,0:0:0:0:
64,64,106595,1,0,0:0:0:0:
64,64,106698,1,0,0:0:0:0:
448,64,106800,1,8,0:0:0:0:
64,64,106903,1,0,0:0:0:0:
448,64,107006,1,8,0:0:0:0:
64,64,107109,1,0,0:0:0:0:
64,64,107211,1,0,0:0:0:0:
448,64,107314,1,8,0:0:0:0:
64,64,107417,1,0,0:0:0:0:
64,64,107468,1,0,0:0:0:0:
448,64,107520,1,8,0:0:0:0:
448,64,107571,1,8,0:0:0:0:
64,64,107622,1,0,0:0:0:0:
64,64,107725,1,0,0:0:0:0:
448,64,107828,1,8,0:0:0:0:
448,64,107931,1,8,0:0:0:0:
64,64,108033,1,0,0:0:0:0:
448,64,108136,1,8,0:0:0:0:
64,64,108239,1,0,0:0:0:0:
64,64,108342,1,0,0:0:0:0:
448,64,108444,1,8,0:0:0:0:
64,64,108547,1,0,0:0:0:0:
448,64,108650,1,8,0:0:0:0:
64,64,108752,1,0,0:0:0:0:
64,64,108855,1,0,0:0:0:0:
448,64,108958,1,8,0:0:0:0:
64,64,109061,1,0,0:0:0:0:
448,64,109112,1,8,0:0:0:0:
448,64,109163,1,8,0:0:0:0:
448,64,109215,1,8,0:0:0:0:
64,64,109266,1,0,0:0:0:0:
448,64,109472,1,8,0:0:0:0:
64,64,109574,1,0,0:0:0:0:
64,64,109677,1,0,0:0:0:0:
448,64,109780,1,8,0:0:0:0:
64,64,109883,1,0,0:0:0:0:
64,64,109934,1,0,0:0:0:0:
448,64,109985,1,8,0:0:0:0:
448,64,110037,1,8,0:0:0:0:
64,64,110088,1,0,0:0:0:0:
64,64,110191,1,0,0:0:0:0:
448,64,110294,1,8,0:0:0:0:
448,64,110396,1,8,0:0:0:0:
64,64,110499,1,0,0:0:0:0:
448,64,110602,1,8,0:0:0:0:
64,64,110705,1,0,0:0:0:0:
448,64,110807,1,8,0:0:0:0:
448,64,110910,1,8,0:0:0:0:
448,64,111013,1,8,0:0:0:0:
64,64,111115,1,0,0:0:0:0:
64,64,111218,1,0,0:0:0:0:
64,64,111321,1,0,0:0:0:0:
64,64,111424,1,0,0:0:0:0:
448,64,111526,1,12,0:0:0:0:
64,64,111629,1,0,0:0:0:0:
64,64,111681,1,0,0:0:0:0:
457,70,111732,1,0,0:0:0:0:
448,64,111835,1,0,0:0:0:0:
91,69,111937,1,12,0:0:0:0:
64,64,112143,1,0,0:0:0:0:
448,320,112246,1,12,0:0:0:0:
64,64,112348,1,0,0:0:0:0:
64,64,112451,1,0,0:0:0:0:
448,64,112554,1,8,0:0:0:0:
64,320,112759,1,4,0:0:0:0:
448,64,113170,1,8,0:0:0:0:
448,64,113992,1,8,0:0:0:0:
448,64,114044,1,8,0:0:0:0:
448,64,114095,1,8,0:0:0:0:
448,64,114146,1,8,0:0:0:0:
64,320,114198,1,4,0:0:0:0:
64,320,114403,1,4,0:0:0:0:
448,64,114814,1,8,0:0:0:0:
448,64,115636,1,8,0:0:0:0:
64,64,115687,1,0,0:0:0:0:
64,64,115739,1,0,0:0:0:0:
64,64,115790,1,0,0:0:0:0:
448,64,115842,1,8,0:0:0:0:
448,64,116047,1,8,0:0:0:0:
64,64,116150,1,0,0:0:0:0:
64,64,116252,1,0,0:0:0:0:
64,64,116355,1,0,0:0:0:0:
448,64,116458,1,8,0:0:0:0:
64,64,116561,1,0,0:0:0:0:
448,64,116663,1,8,0:0:0:0:
448,64,116766,1,8,0:0:0:0:
64,64,116869,1,0,0:0:0:0:
448,64,116972,1,8,0:0:0:0:
448,64,117074,1,8,0:0:0:0:
448,64,117177,1,8,0:0:0:0:
64,64,117280,1,0,0:0:0:0:
448,64,117383,1,8,0:0:0:0:
64,64,117485,1,0,0:0:0:0:
64,64,117588,1,0,0:0:0:0:
448,64,117691,1,8,0:0:0:0:
64,64,117794,1,0,0:0:0:0:
448,64,117896,1,8,0:0:0:0:
448,64,117999,1,8,0:0:0:0:
448,64,118307,1,8,0:0:0:0:
64,64,118410,1,0,0:0:0:0:
448,64,118513,1,8,0:0:0:0:
448,64,118615,1,8,0:0:0:0:
64,64,118718,1,0,0:0:0:0:
448,64,118821,1,8,0:0:0:0:
64,64,118924,1,0,0:0:0:0:
64,64,118975,1,0,0:0:0:0:
64,64,119026,1,0,0:0:0:0:
64,64,119078,1,0,0:0:0:0:
448,64,119129,1,8,0:0:0:0:
64,64,119335,1,0,0:0:0:0:
64,64,119540,1,0,0:0:0:0:
448,64,119643,1,8,0:0:0:0:
448,64,119848,1,8,0:0:0:0:
448,64,120054,1,8,0:0:0:0:
448,64,120259,1,8,0:0:0:0:
64,64,120362,1,0,0:0:0:0:
448,64,120465,1,8,0:0:0:0:
448,64,120670,1,8,0:0:0:0:
64,64,120773,1,0,0:0:0:0:
64,64,120876,1,0,0:0:0:0:
448,64,120979,1,8,0:0:0:0:
64,64,121081,1,0,0:0:0:0:
448,64,121184,1,8,0:0:0:0:
448,64,121287,1,8,0:0:0:0:
64,64,121389,1,0,0:0:0:0:
64,64,121441,1,0,0:0:0:0:
64,64,121492,1,0,0:0:0:0:
448,64,121595,1,8,0:0:0:0:
448,64,121698,1,8,0:0:0:0:
448,64,121903,1,8,0:0:0:0:
448,64,121955,1,8,0:0:0:0:
64,64,122006,1,0,0:0:0:0:
64,64,122109,1,0,0:0:0:0:
448,64,122211,1,8,0:0:0:0:
64,64,122314,1,0,0:0:0:0:
64,64,122365,1,0,0:0:0:0:
448,64,122417,1,8,0:0:0:0:
448,64,122520,1,8,0:0:0:0:
64,64,122622,1,0,0:0:0:0:
64,64,122828,1,0,0:0:0:0:
448,64,122931,1,8,0:0:0:0:
448,64,123136,1,8,0:0:0:0:
448,64,123342,1,8,0:0:0:0:
448,64,123547,1,8,0:0:0:0:
64,64,123650,1,0,0:0:0:0:
448,64,123752,1,8,0:0:0:0:
448,64,123958,1,8,0:0:0:0:
64,64,124061,1,0,0:0:0:0:
64,64,124163,1,0,0:0:0:0:
448,64,124266,1,8,0:0:0:0:
448,64,124369,1,8,0:0:0:0:
64,64,124472,1,0,0:0:0:0:
64,64,124574,1,0,0:0:0:0:
64,64,124626,1,0,0:0:0:0:
448,64,124677,1,8,0:0:0:0:
64,64,124780,1,0,0:0:0:0:
64,64,124831,1,0,0:0:0:0:
448,64,124883,1,8,0:0:0:0:
448,64,124985,1,8,0:0:0:0:
64,64,125088,1,0,0:0:0:0:
64,64,125191,1,0,0:0:0:0:
64,64,125242,1,0,0:0:0:0:
64,64,125294,1,0,0:0:0:0:
64,64,125396,1,0,0:0:0:0:
448,64,125499,1,8,0:0:0:0:
64,64,125602,1,0,0:0:0:0:
448,64,125705,1,8,0:0:0:0:
448,64,125807,1,8,0:0:0:0:
64,64,125910,1,0,0:0:0:0:
64,64,126115,1,0,0:0:0:0:
448,64,126218,1,8,0:0:0:0:
448,64,126424,1,8,0:0:0:0:
448,64,126629,1,8,0:0:0:0:
448,64,126835,1,8,0:0:0:0:
64,64,126937,1,0,0:0:0:0:
448,64,127040,1,8,0:0:0:0:
448,64,127246,1,8,0:0:0:0:
64,64,127348,1,0,0:0:0:0:
64,64,127451,1,0,0:0:0:0:
448,64,127554,1,8,0:0:0:0:
448,64,127657,1,8,0:0:0:0:
448,64,127708,1,8,0:0:0:0:
64,64,127759,1,0,0:0:0:0:
64,64,127862,1,0,0:0:0:0:
448,64,127965,1,8,0:0:0:0:
64,64,128068,1,0,0:0:0:0:
64,64,128119,1,0,0:0:0:0:
448,64,128170,1,8,0:0:0:0:
64,64,128376,1,0,0:0:0:0:
64,64,128427,1,0,0:0:0:0:
64,64,128478,1,0,0:0:0:0:
448,64,128581,1,8,0:0:0:0:
64,64,128684,1,0,0:0:0:0:
448,64,128786,1,8,0:0:0:0:
448,64,128838,1,8,0:0:0:0:
448,64,128889,1,8,0:0:0:0:
64,64,128992,1,0,0:0:0:0:
448,64,129095,1,8,0:0:0:0:
64,64,129198,1,0,0:0:0:0:
64,64,129403,1,0,0:0:0:0:
448,64,129506,1,8,0:0:0:0:
448,64,129711,1,8,0:0:0:0:
448,64,129917,1,8,0:0:0:0:
448,64,130122,1,8,0:0:0:0:
64,64,130225,1,0,0:0:0:0:
448,64,130328,1,8,0:0:0:0:
448,64,130533,1,8,0:0:0:0:
64,64,130636,1,0,0:0:0:0:
64,64,130739,1,0,0:0:0:0:
448,64,130842,1,8,0:0:0:0:
448,64,130944,1,8,0:0:0:0:
64,64,131150,1,0,0:0:0:0:
64,64,131252,1,0,0:0:0:0:
448,64,131355,1,8,0:0:0:0:
448,64,131407,1,8,0:0:0:0:
64,64,131458,1,0,0:0:0:0:
64,64,131509,1,0,0:0:0:0:
448,64,131561,1,8,0:0:0:0:
64,64,131663,1,0,0:0:0:0:
448,64,131715,1,8,0:0:0:0:
64,64,131766,1,0,0:0:0:0:
448,64,131869,1,8,0:0:0:0:
448,64,131937,1,8,0:0:0:0:
448,64,132006,1,8,0:0:0:0:
64,64,132074,1,0,0:0:0:0:
448,64,132177,1,8,0:0:0:0:
64,64,132280,1,0,0:0:0:0:
64,64,132485,1,0,0:0:0:0:
64,64,132691,1,0,0:0:0:0:
448,64,132794,1,8,0:0:0:0:
448,64,132999,1,8,0:0:0:0:
448,64,133050,1,8,0:0:0:0:
64,64,133102,1,0,0:0:0:0:
448,64,133205,1,8,0:0:0:0:
64,64,133410,1,0,0:0:0:0:
448,64,133513,1,8,0:0:0:0:
448,64,133564,1,8,0:0:0:0:
448,64,133615,1,8,0:0:0:0:
64,64,133718,1,0,0:0:0:0:
448,64,133821,1,8,0:0:0:0:
448,64,133924,1,8,0:0:0:0:
448,64,134026,1,8,0:0:0:0:
64,64,134129,1,0,0:0:0:0:
64,64,134232,1,0,0:0:0:0:
64,64,134283,1,0,0:0:0:0:
448,64,134335,1,8,0:0:0:0:
448,64,134540,1,8,0:0:0:0:
64,64,134592,1,0,0:0:0:0:
448,64,134643,1,8,0:0:0:0:
64,64,134746,1,0,0:0:0:0:
448,64,134848,1,8,0:0:0:0:
64,64,134951,1,0,0:0:0:0:
448,64,135157,1,8,0:0:0:0:
448,64,135259,1,8,0:0:0:0:
64,64,135362,1,0,0:0:0:0:
64,64,135465,1,0,0:0:0:0:
64,64,135516,1,0,0:0:0:0:
448,64,135568,1,8,0:0:0:0:
448,64,135670,1,8,0:0:0:0:
64,64,135773,1,0,0:0:0:0:
64,64,135979,1,0,0:0:0:0:
448,64,136081,1,8,0:0:0:0:
448,64,136287,1,8,0:0:0:0:
448,64,136338,1,8,0:0:0:0:
64,64,136389,1,0,0:0:0:0:
448,64,136492,1,8,0:0:0:0:
448,64,136698,1,8,0:0:0:0:
64,64,136749,1,0,0:0:0:0:
448,64,136800,1,8,0:0:0:0:
448,64,136903,1,8,0:0:0:0:
64,64,137006,1,0,0:0:0:0:
64,64,137057,1,0,0:0:0:0:
64,64,137109,1,0,0:0:0:0:
64,64,137211,1,0,0:0:0:0:
448,64,137314,1,8,0:0:0:0:
64,64,137417,1,0,0:0:0:0:
64,64,137520,1,0,0:0:0:0:
448,64,137622,1,8,0:0:0:0:
64,64,137725,1,0,0:0:0:0:
448,64,137828,1,8,0:0:0:0:
64,64,137931,1,0,0:0:0:0:
448,64,138033,1,8,0:0:0:0:
64,64,138239,1,0,0:0:0:0:
64,64,138342,1,0,0:0:0:0:
448,64,138444,1,8,0:0:0:0:
64,64,138547,1,0,0:0:0:0:
448,64,138650,1,8,0:0:0:0:
64,64,138855,1,0,0:0:0:0:
448,64,138958,1,8,0:0:0:0:
64,64,139061,1,0,0:0:0:0:
64,64,139112,1,0,0:0:0:0:
64,64,139163,1,0,0:0:0:0:
448,64,139266,1,8,0:0:0:0:
64,64,139369,1,0,0:0:0:0:
448,64,139472,1,8,0:0:0:0:
448,64,139523,1,8,0:0:0:0:
448,64,139574,1,8,0:0:0:0:
64,64,139677,1,0,0:0:0:0:
448,64,139780,1,8,0:0:0:0:
64,64,139883,1,0,0:0:0:0:
64,64,139934,1,0,0:0:0:0:
64,64,139985,1,0,0:0:0:0:
448,64,140088,1,8,0:0:0:0:
64,64,140191,1,0,0:0:0:0:
448,64,140294,1,8,0:0:0:0:
448,64,140345,1,8,0:0:0:0:
448,64,140396,1,8,0:0:0:0:
64,64,140499,1,0,0:0:0:0:
64,64,140602,1,0,0:0:0:0:
448,64,140705,1,8,0:0:0:0:
448,64,140756,1,8,0:0:0:0:
64,64,140807,1,0,0:0:0:0:
448,64,140910,1,8,0:0:0:0:
448,64,140961,1,8,0:0:0:0:
448,64,141013,1,8,0:0:0:0:
64,64,141115,1,0,0:0:0:0:
64,64,141167,1,0,0:0:0:0:
448,64,141218,1,8,0:0:0:0:
64,64,141321,1,0,0:0:0:0:
64,64,141372,1,0,0:0:0:0:
64,64,141424,1,0,0:0:0:0:
448,64,141526,1,8,0:0:0:0:
448,64,141578,1,8,0:0:0:0:
64,64,141629,1,0,0:0:0:0:
448,64,141732,1,8,0:0:0:0:
448,64,141783,1,8,0:0:0:0:
448,64,141835,1,8,0:0:0:0:
64,64,141937,1,0,0:0:0:0:
64,64,141989,1,0,0:0:0:0:
448,64,142040,1,8,0:0:0:0:
64,64,142143,1,0,0:0:0:0:
64,64,142194,1,0,0:0:0:0:
64,64,142246,1,0,0:0:0:0:
448,64,142348,1,8,0:0:0:0:
64,64,142400,1,0,0:0:0:0:
64,64,142451,1,0,0:0:0:0:
448,64,142554,1,8,0:0:0:0:
64,64,142605,1,0,0:0:0:0:
64,64,142657,1,0,0:0:0:0:
448,64,142759,1,8,0:0:0:0:
64,64,142811,1,0,0:0:0:0:
64,64,142862,1,0,0:0:0:0:
448,64,142965,1,8,0:0:0:0:
64,64,143016,1,0,0:0:0:0:
64,64,143068,1,0,0:0:0:0:
448,64,143170,1,8,0:0:0:0:
448,64,143222,1,8,0:0:0:0:
64,64,143273,1,0,0:0:0:0:
448,64,143376,1,8,0:0:0:0:
448,64,143427,1,8,0:0:0:0:
64,64,143479,1,0,0:0:0:0:
448,64,143581,1,8,0:0:0:0:
448,64,143633,1,8,0:0:0:0:
64,64,143684,1,0,0:0:0:0:
448,64,143787,1,8,0:0:0:0:
448,64,143838,1,8,0:0:0:0:
64,64,143889,1,0,0:0:0:0:
448,64,143992,1,8,0:0:0:0:
64,64,144198,1,0,0:0:0:0:
64,64,144403,1,0,0:0:0:0:
448,64,144609,1,8,0:0:0:0:
448,64,144814,1,8,0:0:0:0:
64,64,145020,1,0,0:0:0:0:
64,64,145225,1,0,0:0:0:0:
448,64,145431,1,8,0:0:0:0:
211,290,145636,2,0,L|261:290,1,46.662000656469
448,64,146047,1,8,0:0:0:0:
448,64,146115,1,8,0:0:0:0:
448,64,146184,1,8,0:0:0:0:
64,64,146252,1,0,0:0:0:0:
64,64,146458,1,0,0:0:0:0:
448,64,146561,1,8,0:0:0:0:
64,64,146663,1,0,0:0:0:0:
128,192,146869,2,0,L|129:246,1,52.5
64,64,147280,1,0,0:0:0:0:
64,64,147331,1,0,0:0:0:0:
448,64,147383,1,8,0:0:0:0:
448,64,147434,1,8,0:0:0:0:
64,64,147485,1,0,0:0:0:0:
64,64,147896,1,0,0:0:0:0:
64,64,148205,1,0,0:0:0:0:
64,64,148307,1,0,0:0:0:0:
448,320,148513,1,12,0:0:0:0:
64,64,148924,1,0,0:0:0:0:
64,64,148992,1,0,0:0:0:0:
64,64,149061,1,0,0:0:0:0:
64,64,149129,1,0,0:0:0:0:
448,64,149335,1,8,0:0:0:0:
448,64,149437,1,8,0:0:0:0:
64,64,149540,1,0,0:0:0:0:
448,320,149746,1,12,0:0:0:0:
64,64,149951,1,0,0:0:0:0:
64,64,150054,1,0,0:0:0:0:
448,64,150157,1,8,0:0:0:0:
64,64,150259,1,0,0:0:0:0:
64,64,150362,1,0,0:0:0:0:
448,64,150568,1,8,0:0:0:0:
448,64,150636,1,8,0:0:0:0:
64,64,150705,1,0,0:0:0:0:
448,64,150773,1,8,0:0:0:0:
448,64,150842,1,8,0:0:0:0:
448,64,150910,1,8,0:0:0:0:
64,64,150978,1,0,0:0:0:0:
64,64,151081,1,0,0:0:0:0:
448,64,151184,1,8,0:0:0:0:
64,64,151389,1,0,0:0:0:0:
64,64,151441,1,0,0:0:0:0:
448,64,151492,1,8,0:0:0:0:
64,64,151595,1,0,0:0:0:0:
185,195,151800,2,4,B|341:305,1,188.999994232178,0|0,0:0|0:0,0:0:0:0:
64,64,152211,1,0,0:0:0:0:
64,64,152280,1,0,0:0:0:0:
64,64,152348,1,0,0:0:0:0:
64,64,152417,1,0,0:0:0:0:
448,64,152622,1,8,0:0:0:0:
64,64,152725,1,0,0:0:0:0:
448,64,152828,1,8,0:0:0:0:
64,64,153033,1,0,0:0:0:0:
448,64,153136,1,8,0:0:0:0:
64,64,153239,1,0,0:0:0:0:
64,64,153342,1,0,0:0:0:0:
448,64,153444,1,8,0:0:0:0:
448,64,153513,1,8,0:0:0:0:
448,64,153581,1,8,0:0:0:0:
448,64,153650,1,8,0:0:0:0:
64,64,153855,1,0,0:0:0:0:
448,64,153907,1,8,0:0:0:0:
448,64,153958,1,8,0:0:0:0:
64,64,154061,1,0,0:0:0:0:
64,64,154095,1,0,0:0:0:0:
448,64,154266,1,8,0:0:0:0:
64,64,154369,1,0,0:0:0:0:
448,64,154472,1,8,0:0:0:0:
64,64,154677,1,0,0:0:0:0:
64,64,154780,1,0,0:0:0:0:
64,64,154883,1,0,0:0:0:0:
128,224,155088,2,0,L|343:343,1,209.850663092931
64,64,155499,1,0,0:0:0:0:
448,64,155910,1,8,0:0:0:0:
448,64,155979,1,8,0:0:0:0:
448,64,156047,1,8,0:0:0:0:
448,64,156115,1,8,0:0:0:0:
448,64,156218,1,8,0:0:0:0:
64,64,156321,1,0,0:0:0:0:
64,64,156389,1,0,0:0:0:0:
64,64,156458,1,0,0:0:0:0:
448,64,156526,1,8,0:0:0:0:
64,64,156629,1,0,0:0:0:0:
448,64,156732,1,8,0:0:0:0:
448,64,156783,1,8,0:0:0:0:
448,64,156835,1,8,0:0:0:0:
448,64,156886,1,8,0:0:0:0:
64,64,156937,1,0,0:0:0:0:
448,320,157143,1,12,0:0:0:0:
448,64,157554,1,8,0:0:0:0:
64,64,157657,1,0,0:0:0:0:
448,64,157759,1,8,0:0:0:0:
64,64,157862,1,0,0:0:0:0:
448,64,157965,1,8,0:0:0:0:
64,64,158068,1,0,0:0:0:0:
448,64,158170,1,8,0:0:0:0:
64,64,158376,1,0,0:0:0:0:
64,64,158444,1,0,0:0:0:0:
64,64,158513,1,0,0:0:0:0:
448,64,158581,1,8,0:0:0:0:
448,64,158684,1,8,0:0:0:0:
64,64,158787,1,0,0:0:0:0:
64,64,158855,1,0,0:0:0:0:
64,64,158924,1,0,0:0:0:0:
64,64,158992,1,0,0:0:0:0:
448,64,159198,1,8,0:0:0:0:
448,64,159301,1,8,0:0:0:0:
64,64,159404,1,0,0:0:0:0:
64,64,159609,1,0,0:0:0:0:
448,64,159712,1,8,0:0:0:0:
64,64,159815,1,0,0:0:0:0:
64,64,159918,1,0,0:0:0:0:
448,64,160020,1,8,0:0:0:0:
448,64,160089,1,8,0:0:0:0:
448,64,160157,1,8,0:0:0:0:
448,64,160226,1,8,0:0:0:0:
64,64,160431,1,0,0:0:0:0:
448,64,160482,1,8,0:0:0:0:
448,64,160533,1,8,0:0:0:0:
64,64,160637,1,0,0:0:0:0:
64,64,160670,1,0,0:0:0:0:
448,64,160842,1,8,0:0:0:0:
64,64,160945,1,0,0:0:0:0:
448,64,161048,1,8,0:0:0:0:
64,64,161253,1,0,0:0:0:0:
64,64,161356,1,0,0:0:0:0:
64,64,161459,1,0,0:0:0:0:
128,224,161663,2,0,L|274:315,1,168
64,64,162074,1,0,0:0:0:0:
64,64,162143,1,0,0:0:0:0:
64,64,162211,1,0,0:0:0:0:
64,64,162280,1,0,0:0:0:0:
448,64,162485,1,8,0:0:0:0:
448,64,162588,1,8,0:0:0:0:
64,64,162691,1,0,0:0:0:0:
448,320,162896,1,12,0:0:0:0:
64,64,163102,1,0,0:0:0:0:
64,64,163205,1,0,0:0:0:0:
448,64,163307,1,8,0:0:0:0:
64,64,163410,1,0,0:0:0:0:
64,64,163513,1,0,0:0:0:0:
128,192,163718,2,8,L|229:286,1,125.999996154785
64,64,164129,1,0,0:0:0:0:
448,64,164232,1,8,0:0:0:0:
64,64,164335,1,0,0:0:0:0:
64,64,164540,1,0,0:0:0:0:
64,64,164592,1,0,0:0:0:0:
448,64,164643,1,8,0:0:0:0:
64,64,164746,1,0,0:0:0:0:
64,64,164848,1,0,0:0:0:0:
320,192,164951,2,12,L|154:295,1,188.865596783638
448,64,165362,1,8,0:0:0:0:
64,64,165431,1,0,0:0:0:0:
64,64,165499,1,0,0:0:0:0:
448,64,165568,1,8,0:0:0:0:
64,64,165773,1,0,0:0:0:0:
448,64,165979,1,8,0:0:0:0:
64,64,166184,1,0,0:0:0:0:
448,64,166287,1,8,0:0:0:0:
64,64,166389,1,0,0:0:0:0:
64,64,166492,1,0,0:0:0:0:
448,64,166595,1,8,0:0:0:0:
448,64,166663,1,8,0:0:0:0:
448,64,166732,1,8,0:0:0:0:
448,64,166800,1,8,0:0:0:0:
64,64,167006,1,0,0:0:0:0:
448,64,167057,1,8,0:0:0:0:
448,64,167109,1,8,0:0:0:0:
64,64,167211,1,0,0:0:0:0:
64,64,167263,1,0,0:0:0:0:
448,64,167417,1,8,0:0:0:0:
64,64,167520,1,0,0:0:0:0:
448,64,167622,1,8,0:0:0:0:
64,64,167828,1,0,0:0:0:0:
64,64,167931,1,0,0:0:0:0:
64,64,168033,1,0,0:0:0:0:
448,64,168239,1,8,0:0:0:0:
64,64,168444,1,0,0:0:0:0:
64,64,168496,1,0,0:0:0:0:
64,64,168547,1,0,0:0:0:0:
64,64,168598,1,0,0:0:0:0:
64,224,168650,2,0,L|550:395,1,511.987924614231
448,64,169883,1,8,0:0:0:0:
64,64,170294,1,0,0:0:0:0:
448,64,170345,1,8,0:0:0:0:
64,64,170396,1,0,0:0:0:0:
448,64,170499,1,8,0:0:0:0:
448,64,170602,1,8,0:0:0:0:
64,64,170705,1,0,0:0:0:0:
64,64,170910,1,0,0:0:0:0:
64,64,170979,1,0,0:0:0:0:
64,64,171047,1,0,0:0:0:0:
448,64,171115,1,8,0:0:0:0:
64,64,171218,1,0,0:0:0:0:
448,64,171321,1,8,0:0:0:0:
64,64,171424,1,0,0:0:0:0:
448,64,171526,1,8,0:0:0:0:
448,64,171595,1,8,0:0:0:0:
448,64,171663,1,8,0:0:0:0:
64,64,171732,1,0,0:0:0:0:
64,64,171800,1,0,0:0:0:0:
64,64,171869,1,0,0:0:0:0:
448,64,171937,1,8,0:0:0:0:
64,64,172554,1,0,0:0:0:0:
64,64,172759,1,0,0:0:0:0:
64,64,173376,1,0,0:0:0:0:
64,64,173581,1,0,0:0:0:0:
64,64,174198,1,0,0:0:0:0:
64,64,174403,1,0,0:0:0:0:
64,64,175020,1,0,0:0:0:0:
64,64,175225,1,0,0:0:0:0:
64,64,175842,1,0,0:0:0:0:
64,64,176047,1,0,0:0:0:0:
64,64,176663,1,0,0:0:0:0:
64,64,176869,1,0,0:0:0:0:
64,64,177485,1,0,0:0:0:0:
64,64,177691,1,0,0:0:0:0:
64,64,178307,1,0,0:0:0:0:
448,64,178513,1,8,0:0:0:0:
64,64,179129,1,0,0:0:0:0:
64,64,179335,1,0,0:0:0:0:
64,64,179951,1,0,0:0:0:0:
64,64,180157,1,0,0:0:0:0:
64,64,180773,1,0,0:0:0:0:
64,64,180979,1,0,0:0:0:0:
64,64,181595,1,0,0:0:0:0:
64,64,181800,1,0,0:0:0:0:
64,64,182417,1,0,0:0:0:0:
64,64,182622,1,0,0:0:0:0:
64,64,183239,1,0,0:0:0:0:
64,64,183444,1,0,0:0:0:0:
64,64,184061,1,0,0:0:0:0:
64,64,184266,1,0,0:0:0:0:
64,64,184574,1,0,0:0:0:0:
64,64,184677,1,0,0:0:0:0:
64,64,184883,1,0,0:0:0:0:
448,64,185088,1,8,0:0:0:0:
448,64,185294,1,8,0:0:0:0:
448,64,185396,1,8,0:0:0:0:
448,64,185705,1,8,0:0:0:0:
448,64,185910,1,8,0:0:0:0:
448,64,186013,1,8,0:0:0:0:
448,64,186321,1,8,0:0:0:0:
448,64,186424,1,8,0:0:0:0:
448,64,186629,1,8,0:0:0:0:
448,64,186937,1,8,0:0:0:0:
448,64,187040,1,8,0:0:0:0:
448,64,187246,1,8,0:0:0:0:
448,64,187554,1,8,0:0:0:0:
448,64,187657,1,8,0:0:0:0:
448,64,187862,1,8,0:0:0:0:
448,64,188170,1,8,0:0:0:0:
448,64,188376,1,8,0:0:0:0:
448,64,188581,1,8,0:0:0:0:
448,64,188684,1,8,0:0:0:0:
448,64,188992,1,8,0:0:0:0:
448,64,189198,1,8,0:0:0:0:
448,64,189300,1,8,0:0:0:0:
448,64,189609,1,8,0:0:0:0:
448,64,189711,1,8,0:0:0:0:
448,64,189917,1,8,0:0:0:0:
448,64,190122,1,8,0:0:0:0:
448,64,190225,1,8,0:0:0:0:
448,64,190533,1,8,0:0:0:0:
448,64,190636,1,8,0:0:0:0:
448,64,190842,1,8,0:0:0:0:
448,64,190944,1,8,0:0:0:0:
448,64,191150,1,8,0:0:0:0:
448,64,191458,1,8,0:0:0:0:
448,64,191663,1,8,0:0:0:0:
448,64,191972,1,8,0:0:0:0:
448,64,192280,1,8,0:0:0:0:
448,64,192383,1,8,0:0:0:0:
448,64,192588,1,8,0:0:0:0:
448,64,192896,1,8,0:0:0:0:
448,64,192999,1,8,0:0:0:0:
448,64,193205,1,8,0:0:0:0:
448,64,193307,1,8,0:0:0:0:
448,64,193513,1,8,0:0:0:0:
448,64,193615,1,8,0:0:0:0:
448,64,193821,1,8,0:0:0:0:
448,64,194129,1,8,0:0:0:0:
448,64,194437,1,8,0:0:0:0:
448,64,194746,1,8,0:0:0:0:
448,64,194848,1,8,0:0:0:0:
448,64,194951,1,8,0:0:0:0:
448,64,195259,1,8,0:0:0:0:
448,64,195568,1,8,0:0:0:0:
448,64,195670,1,8,0:0:0:0:
448,64,195876,1,8,0:0:0:0:
448,64,196184,1,8,0:0:0:0:
448,64,196287,1,8,0:0:0:0:
448,64,196492,1,8,0:0:0:0:
448,64,196595,1,8,0:0:0:0:
448,64,196800,1,8,0:0:0:0:
448,64,196903,1,8,0:0:0:0:
448,64,197109,1,8,0:0:0:0:
448,64,197417,1,8,0:0:0:0:
448,64,197520,1,8,0:0:0:0:
448,64,197725,1,8,0:0:0:0:
448,64,197828,1,8,0:0:0:0:
448,64,198033,1,8,0:0:0:0:
64,320,198239,1,4,0:0:0:0:
448,64,198547,1,8,0:0:0:0:
448,64,198650,1,8,0:0:0:0:
64,64,198855,1,0,0:0:0:0:
64,64,199061,1,0,0:0:0:0:
448,64,199163,1,8,0:0:0:0:
448,64,199370,1,8,0:0:0:0:
448,64,199472,1,8,0:0:0:0:
64,64,199677,1,0,0:0:0:0:
448,64,199780,1,8,0:0:0:0:
64,64,199883,1,0,0:0:0:0:
448,64,200088,1,8,0:0:0:0:
448,64,200191,1,8,0:0:0:0:
448,64,200396,1,8,0:0:0:0:
64,64,200499,1,0,0:0:0:0:
64,64,200705,1,0,0:0:0:0:
448,64,200807,1,8,0:0:0:0:
448,64,201013,1,8,0:0:0:0:
448,64,201115,1,8,0:0:0:0:
64,64,201321,1,0,0:0:0:0:
64,64,201526,1,0,0:0:0:0:
448,64,201732,1,8,0:0:0:0:
448,64,201835,1,8,0:0:0:0:
448,64,202040,1,8,0:0:0:0:
64,64,202143,1,0,0:0:0:0:
64,64,202348,1,0,0:0:0:0:
448,64,202451,1,8,0:0:0:0:
448,64,202657,1,8,0:0:0:0:
448,64,202759,1,8,0:0:0:0:
64,64,202965,1,0,0:0:0:0:
448,64,203068,1,8,0:0:0:0:
64,64,203170,1,0,0:0:0:0:
448,64,203376,1,8,0:0:0:0:
448,64,203479,1,8,0:0:0:0:
448,64,203684,1,8,0:0:0:0:
64,64,203787,1,0,0:0:0:0:
64,64,203992,1,0,0:0:0:0:
448,64,204095,1,8,0:0:0:0:
448,64,204300,1,8,0:0:0:0:
448,64,204403,1,8,0:0:0:0:
64,64,204609,1,0,0:0:0:0:
448,64,204711,1,8,0:0:0:0:
64,64,204814,1,0,0:0:0:0:
448,64,205020,1,8,0:0:0:0:
448,64,205122,1,8,0:0:0:0:
448,64,205328,1,8,0:0:0:0:
64,64,205431,1,0,0:0:0:0:
64,64,205636,1,0,0:0:0:0:
448,64,205739,1,8,0:0:0:0:
448,64,205944,1,8,0:0:0:0:
448,64,206047,1,8,0:0:0:0:
64,64,206252,1,0,0:0:0:0:
448,64,206355,1,8,0:0:0:0:
64,64,206458,1,0,0:0:0:0:
448,64,206663,1,8,0:0:0:0:
448,64,206766,1,8,0:0:0:0:
448,64,206972,1,8,0:0:0:0:
64,64,207074,1,0,0:0:0:0:
64,64,207280,1,0,0:0:0:0:
448,64,207383,1,8,0:0:0:0:
448,64,207588,1,8,0:0:0:0:
448,64,207691,1,8,0:0:0:0:
64,64,207896,1,0,0:0:0:0:
64,64,208102,1,0,0:0:0:0:
448,64,208307,1,8,0:0:0:0:
448,64,208410,1,8,0:0:0:0:
448,64,208615,1,8,0:0:0:0:
64,64,208718,1,0,0:0:0:0:
64,64,208924,1,0,0:0:0:0:
448,64,209026,1,8,0:0:0:0:
448,64,209233,1,8,0:0:0:0:
448,64,209335,1,8,0:0:0:0:
64,64,209540,1,0,0:0:0:0:
448,64,209643,1,8,0:0:0:0:
64,64,209746,1,0,0:0:0:0:
448,64,209951,1,8,0:0:0:0:
448,64,210054,1,8,0:0:0:0:
448,64,210259,1,8,0:0:0:0:
64,64,210362,1,0,0:0:0:0:
64,64,210568,1,0,0:0:0:0:
448,64,210773,1,8,0:0:0:0:
64,64,210876,1,0,0:0:0:0:
448,320,210979,1,12,0:0:0:0:
448,320,211389,1,12,0:0:0:0:
64,64,211595,1,0,0:0:0:0:
64,64,211698,1,0,0:0:0:0:
448,64,211800,1,8,0:0:0:0:
64,64,212006,1,0,0:0:0:0:
64,64,212109,1,0,0:0:0:0:
64,64,212211,1,0,0:0:0:0:
64,64,212417,1,0,0:0:0:0:
64,64,212520,1,0,0:0:0:0:
448,64,212622,1,8,0:0:0:0:
64,64,212828,1,0,0:0:0:0:
64,64,212931,1,0,0:0:0:0:
64,64,213033,1,0,0:0:0:0:
64,64,213239,1,0,0:0:0:0:
64,64,213342,1,0,0:0:0:0:
448,64,213444,1,8,0:0:0:0:
64,64,213650,1,0,0:0:0:0:
64,64,213752,1,0,0:0:0:0:
64,64,213855,1,0,0:0:0:0:
448,64,214061,1,0,0:0:0:0:
64,64,214163,1,0,0:0:0:0:
448,64,214266,1,8,0:0:0:0:
448,64,214369,1,8,0:0:0:0:
64,64,214472,1,0,0:0:0:0:
64,320,214677,1,4,0:0:0:0:
448,64,214883,1,8,0:0:0:0:
448,64,214985,1,8,0:0:0:0:
64,64,215088,1,0,0:0:0:0:
448,64,215294,1,8,0:0:0:0:
64,64,215396,1,0,0:0:0:0:
448,64,215499,1,8,0:0:0:0:
448,64,215705,1,8,0:0:0:0:
448,64,215807,1,8,0:0:0:0:
64,64,215910,1,0,0:0:0:0:
448,64,216115,1,8,0:0:0:0:
64,64,216218,1,0,0:0:0:0:
448,64,216321,1,8,0:0:0:0:
448,64,216526,1,8,0:0:0:0:
448,64,216629,1,8,0:0:0:0:
64,64,216732,1,0,0:0:0:0:
448,64,216937,1,8,0:0:0:0:
64,64,217040,1,0,0:0:0:0:
448,64,217143,1,8,0:0:0:0:
448,64,217348,1,8,0:0:0:0:
64,64,217451,1,8,0:0:0:0:
448,64,217554,1,0,0:0:0:0:
448,64,217657,1,8,0:0:0:0:
64,64,217759,1,0,0:0:0:0:
448,320,217965,1,12,0:0:0:0:
64,64,218170,1,0,0:0:0:0:
448,64,218273,1,8,0:0:0:0:
64,64,218376,1,0,0:0:0:0:
64,64,218581,1,0,0:0:0:0:
64,64,218684,1,0,0:0:0:0:
448,64,218787,1,8,0:0:0:0:
64,64,218992,1,0,0:0:0:0:
448,64,219095,1,8,0:0:0:0:
64,64,219198,1,0,0:0:0:0:
64,64,219403,1,0,0:0:0:0:
64,64,219506,1,0,0:0:0:0:
448,64,219609,1,8,0:0:0:0:
64,64,219814,1,0,0:0:0:0:
448,64,219917,1,8,0:0:0:0:
64,64,220020,1,0,0:0:0:0:
64,64,220225,1,0,0:0:0:0:
64,64,220328,1,0,0:0:0:0:
448,64,220431,1,8,0:0:0:0:
448,64,220636,1,0,0:0:0:0:
64,64,220739,1,8,0:0:0:0:
448,64,220842,1,0,0:0:0:0:
448,64,220944,1,0,0:0:0:0:
64,64,221047,1,8,0:0:0:0:
64,320,221252,1,4,0:0:0:0:
448,64,221458,1,8,0:0:0:0:
448,64,221561,1,8,0:0:0:0:
64,64,221663,1,0,0:0:0:0:
64,64,221869,1,0,0:0:0:0:
448,64,221972,1,8,0:0:0:0:
448,64,222074,1,8,0:0:0:0:
448,64,222280,1,8,0:0:0:0:
448,64,222383,1,8,0:0:0:0:
64,64,222485,1,0,0:0:0:0:
64,64,222691,1,0,0:0:0:0:
448,64,222794,1,8,0:0:0:0:
448,64,222896,1,8,0:0:0:0:
448,64,223102,1,8,0:0:0:0:
448,64,223205,1,8,0:0:0:0:
64,64,223307,1,0,0:0:0:0:
64,64,223513,1,0,0:0:0:0:
448,64,223615,1,8,0:0:0:0:
448,64,223718,1,8,0:0:0:0:
448,64,223924,1,8,0:0:0:0:
64,64,224026,1,8,0:0:0:0:
64,64,224129,1,0,0:0:0:0:
64,64,224232,1,8,0:0:0:0:
448,64,224335,1,0,0:0:0:0:
448,320,224540,1,12,0:0:0:0:
64,64,224746,1,0,0:0:0:0:
64,64,224848,1,0,0:0:0:0:
448,64,224951,1,8,0:0:0:0:
64,64,225157,1,0,0:0:0:0:
64,64,225259,1,0,0:0:0:0:
64,64,225362,1,0,0:0:0:0:
64,64,225568,1,0,0:0:0:0:
64,64,225670,1,0,0:0:0:0:
448,64,225773,1,8,0:0:0:0:
64,64,225979,1,0,0:0:0:0:
64,64,226081,1,0,0:0:0:0:
64,64,226184,1,0,0:0:0:0:
64,64,226389,1,0,0:0:0:0:
64,64,226492,1,0,0:0:0:0:
448,64,226595,1,8,0:0:0:0:
64,64,226800,1,0,0:0:0:0:
64,64,226903,1,0,0:0:0:0:
64,64,227006,1,0,0:0:0:0:
448,64,227211,1,0,0:0:0:0:
64,64,227313,1,0,0:0:0:0:
448,64,227417,1,8,0:0:0:0:
448,64,227520,1,0,0:0:0:0:
64,64,227622,1,8,0:0:0:0:
64,320,227828,1,4,0:0:0:0:
448,64,228033,1,8,0:0:0:0:
448,64,228136,1,8,0:0:0:0:
64,64,228239,1,0,0:0:0:0:
448,64,228444,1,8,0:0:0:0:
64,64,228547,1,0,0:0:0:0:
448,64,228650,1,8,0:0:0:0:
448,64,228855,1,8,0:0:0:0:
448,64,228958,1,8,0:0:0:0:
64,64,229061,1,0,0:0:0:0:
448,64,229266,1,8,0:0:0:0:
64,64,229369,1,0,0:0:0:0:
448,64,229472,1,8,0:0:0:0:
448,64,229677,1,8,0:0:0:0:
448,64,229780,1,8,0:0:0:0:
64,64,229883,1,0,0:0:0:0:
448,64,230088,1,8,0:0:0:0:
64,64,230191,1,0,0:0:0:0:
448,64,230294,1,8,0:0:0:0:
448,64,230499,1,8,0:0:0:0:
64,64,230602,1,8,0:0:0:0:
448,64,230705,1,0,0:0:0:0:
448,64,230807,1,0,0:0:0:0:
64,64,230910,1,8,0:0:0:0:
448,320,231115,1,12,0:0:0:0:
64,64,231321,1,0,0:0:0:0:
448,64,231424,1,8,0:0:0:0:
64,64,231526,1,0,0:0:0:0:
64,64,231732,1,0,0:0:0:0:
64,64,231835,1,0,0:0:0:0:
448,64,231937,1,8,0:0:0:0:
64,64,232143,1,0,0:0:0:0:
448,64,232246,1,8,0:0:0:0:
64,64,232348,1,0,0:0:0:0:
64,64,232554,1,0,0:0:0:0:
64,64,232657,1,0,0:0:0:0:
448,64,232759,1,8,0:0:0:0:
64,64,232965,1,0,0:0:0:0:
448,64,233068,1,8,0:0:0:0:
64,64,233170,1,0,0:0:0:0:
64,64,233376,1,0,0:0:0:0:
64,64,233479,1,0,0:0:0:0:
448,64,233581,1,8,0:0:0:0:
448,64,233787,1,0,0:0:0:0:
64,64,233889,1,8,0:0:0:0:
448,64,233992,1,0,0:0:0:0:
448,64,234095,1,0,0:0:0:0:
64,64,234198,1,8,0:0:0:0:
448,320,234403,1,12,0:0:0:0:
448,64,234609,1,8,0:0:0:0:
448,64,234711,1,8,0:0:0:0:
64,64,234814,1,0,0:0:0:0:
448,64,235020,1,8,0:0:0:0:
64,64,235122,1,0,0:0:0:0:
448,64,235225,1,8,0:0:0:0:
448,64,235431,1,8,0:0:0:0:
448,64,235533,1,8,0:0:0:0:
64,64,235636,1,0,0:0:0:0:
448,64,235842,1,8,0:0:0:0:
64,64,235944,1,0,0:0:0:0:
448,320,236047,1,12,0:0:0:0:
448,64,236252,1,8,0:0:0:0:
448,64,236355,1,8,0:0:0:0:
64,64,236458,1,0,0:0:0:0:
448,64,236663,1,8,0:0:0:0:
64,64,236766,1,0,0:0:0:0:
448,64,236869,1,8,0:0:0:0:
64,64,237074,1,8,0:0:0:0:
64,64,237177,1,8,0:0:0:0:
448,64,237280,1,0,0:0:0:0:
64,64,237383,1,8,0:0:0:0:
448,64,237485,1,0,0:0:0:0:
448,320,237691,1,12,0:0:0:0:
64,64,237896,1,0,0:0:0:0:
64,64,237999,1,0,0:0:0:0:
448,64,238102,1,8,0:0:0:0:
64,64,238307,1,0,0:0:0:0:
448,64,238410,1,8,0:0:0:0:
64,64,238513,1,0,0:0:0:0:
448,64,238718,1,8,0:0:0:0:
448,64,238821,1,8,0:0:0:0:
64,64,238924,1,0,0:0:0:0:
448,64,239129,1,8,0:0:0:0:
64,64,239232,1,0,0:0:0:0:
448,320,239335,1,12,0:0:0:0:
448,64,239540,1,8,0:0:0:0:
64,64,239746,1,0,0:0:0:0:
64,64,239951,1,0,0:0:0:0:
64,64,240054,1,0,0:0:0:0:
448,64,240157,1,8,0:0:0:0:
64,64,240362,1,0,0:0:0:0:
448,64,240465,1,8,0:0:0:0:
64,64,240568,1,0,0:0:0:0:
64,64,240670,1,0,0:0:0:0:
448,64,240773,1,8,0:0:0:0:
64,320,240979,1,4,0:0:0:0:
64,64,241184,1,0,0:0:0:0:
64,64,241287,1,0,0:0:0:0:
448,64,241390,1,8,0:0:0:0:
64,64,241595,1,0,0:0:0:0:
448,64,241698,1,8,0:0:0:0:
64,64,241801,1,0,0:0:0:0:
448,64,242006,1,8,0:0:0:0:
448,64,242109,1,8,0:0:0:0:
64,64,242212,1,0,0:0:0:0:
448,64,242417,1,8,0:0:0:0:
64,64,242520,1,0,0:0:0:0:
448,320,242622,1,12,0:0:0:0:
448,64,242828,1,8,0:0:0:0:
64,64,243034,1,0,0:0:0:0:
64,64,243239,1,0,0:0:0:0:
64,64,243342,1,0,0:0:0:0:
448,64,243445,1,8,0:0:0:0:
64,64,243650,1,0,0:0:0:0:
448,64,243753,1,8,0:0:0:0:
64,64,243856,1,0,0:0:0:0:
64,64,243958,1,0,0:0:0:0:
448,64,244061,1,8,0:0:0:0:
64,320,244266,1,4,0:0:0:0:
448,64,244471,1,8,0:0:0:0:
64,64,244574,1,0,0:0:0:0:
448,320,244677,1,12,0:0:0:0:
448,64,244883,1,8,0:0:0:0:
448,64,244985,1,8,0:0:0:0:
64,320,245088,1,4,0:0:0:0:
64,64,245293,1,0,0:0:0:0:
64,64,245396,1,0,0:0:0:0:
448,320,245499,1,12,0:0:0:0:
64,64,245704,1,0,0:0:0:0:
448,64,245807,1,8,0:0:0:0:
64,320,245910,1,4,0:0:0:0:
448,64,246115,1,8,0:0:0:0:
448,320,246321,1,12,0:0:0:0:
448,64,246526,1,8,0:0:0:0:
448,64,246629,1,8,0:0:0:0:
64,320,246732,1,4,0:0:0:0:
64,64,246937,1,0,0:0:0:0:
64,64,247040,1,0,0:0:0:0:
448,320,247143,1,12,0:0:0:0:
448,64,247348,1,8,0:0:0:0:
64,64,247554,1,0,0:0:0:0:
64,64,247607,1,0,0:0:0:0:
64,64,247661,1,0,0:0:0:0:
64,64,247715,1,0,0:0:0:0:
448,64,247769,1,8,0:0:0:0:
448,64,247841,1,8,0:0:0:0:
448,64,247913,1,8,0:0:0:0:
64,64,247985,1,0,0:0:0:0:
64,64,248042,1,0,0:0:0:0:
64,64,248100,1,0,0:0:0:0:
64,64,248158,1,0,0:0:0:0:
448,64,248215,1,8,0:0:0:0:
448,64,248292,1,8,0:0:0:0:
448,64,248369,1,8,0:0:0:0:
64,64,248446,1,0,0:0:0:0:
64,64,248510,1,0,0:0:0:0:
64,64,248575,1,0,0:0:0:0:
64,64,248639,1,0,0:0:0:0:
448,64,248704,1,8,0:0:0:0:
448,64,248790,1,8,0:0:0:0:
448,64,248877,1,8,0:0:0:0:
64,64,248963,1,0,0:0:0:0:
64,64,249027,1,0,0:0:0:0:
64,64,249092,1,0,0:0:0:0:
64,64,249157,1,0,0:0:0:0:
448,64,249221,1,8,0:0:0:0:
448,64,249308,1,8,0:0:0:0:
448,64,249394,1,8,0:0:0:0:
64,64,249480,1,0,0:0:0:0:
64,64,249556,1,0,0:0:0:0:
64,64,249633,1,0,0:0:0:0:
64,64,249709,1,0,0:0:0:0:
448,64,249786,1,8,0:0:0:0:
448,64,249939,1,8,0:0:0:0:
64,64,250091,1,0,0:0:0:0:
64,64,250169,1,0,0:0:0:0:
64,64,250247,1,0,0:0:0:0:
64,64,250325,1,0,0:0:0:0:
448,64,250403,1,8,0:0:0:0:
448,64,250559,1,8,0:0:0:0:
64,64,250716,1,0,0:0:0:0:
64,64,250794,1,0,0:0:0:0:
64,64,250872,1,0,0:0:0:0:
64,64,250950,1,0,0:0:0:0:
64,64,251028,1,0,0:0:0:0:
64,64,251106,1,0,0:0:0:0:
64,64,251184,1,0,0:0:0:0:
64,64,251262,1,0,0:0:0:0:
256,192,251341,12,0,251966,0:0:0:0:
256,192,252604,12,0,253285,0:0:0:0:
256,192,253371,12,0,253541,0:0:0:0:
256,192,253626,12,0,253882,0:0:0:0:
256,192,253967,12,0,254223,0:0:0:0:
256,192,254308,12,0,254564,0:0:0:0:
256,192,254632,12,0,254899,0:0:0:0:
256,192,254989,12,0,255257,0:0:0:0:
256,192,255346,12,0,255667,0:0:0:0:
256,192,255774,12,0,256096,0:0:0:0:
256,192,256203,12,0,256612,0:0:0:0:
256,192,256748,12,0,257157,0:0:0:0:
64,64,257293,5,0,0:0:0:0:
64,64,257371,1,0,0:0:0:0:
448,64,257449,1,0,0:0:0:0:
448,64,257605,1,8,0:0:0:0:
448,64,257761,1,8,0:0:0:0:
64,64,257996,1,0,0:0:0:0:
448,320,258126,1,12,0:0:0:0:
448,64,258542,1,8,0:0:0:0:
448,64,258594,1,8,0:0:0:0:
64,64,258645,1,0,0:0:0:0:
64,64,258696,1,0,0:0:0:0:
64,64,258748,1,0,0:0:0:0:
448,64,259364,1,8,0:0:0:0:
448,64,259433,1,8,0:0:0:0:
448,64,259501,1,8,0:0:0:0:
64,64,259570,1,0,0:0:0:0:
64,64,259638,1,0,0:0:0:0:
64,64,259707,1,0,0:0:0:0:
448,64,259775,1,8,0:0:0:0:
448,64,259826,1,8,0:0:0:0:
448,64,259878,1,8,0:0:0:0:
448,64,259929,1,8,0:0:0:0:
64,64,259981,1,0,0:0:0:0:
64,64,260049,1,0,0:0:0:0:
64,64,260118,1,0,0:0:0:0:
448,64,260186,1,8,0:0:0:0:
448,64,260255,1,8,0:0:0:0:
64,64,260323,1,0,0:0:0:0:
64,64,260392,1,0,0:0:0:0:
448,64,260803,1,8,0:0:0:0:
448,64,260854,1,8,0:0:0:0:
448,64,260905,1,8,0:0:0:0:
448,64,260957,1,8,0:0:0:0:
64,64,261008,1,0,0:0:0:0:
64,64,261076,1,0,0:0:0:0:
64,64,261145,1,0,0:0:0:0:
64,64,261213,1,0,0:0:0:0:
448,64,261418,1,8,0:0:0:0:
448,64,261521,1,8,0:0:0:0:
64,64,261624,1,0,0:0:0:0:
64,64,261675,1,0,0:0:0:0:
448,64,261726,1,8,0:0:0:0:
448,64,261778,1,8,0:0:0:0:
64,320,261829,1,4,0:0:0:0:
64,320,262137,1,4,0:0:0:0:
64,320,262446,1,4,0:0:0:0:
64,320,262754,1,4,0:0:0:0:
256,192,263062,12,8,264295,0:0:0:0:
448,64,264706,5,8,0:0:0:0:
64,64,265117,1,0,0:0:0:0:
448,64,265168,1,8,0:0:0:0:
448,64,265219,1,8,0:0:0:0:
64,64,265271,1,0,0:0:0:0:
64,64,265322,1,0,0:0:0:0:
448,64,265938,1,8,0:0:0:0:
448,64,266007,1,8,0:0:0:0:
448,64,266075,1,8,0:0:0:0:
64,64,266144,1,0,0:0:0:0:
64,64,266212,1,0,0:0:0:0:
64,64,266281,1,0,0:0:0:0:
448,64,266349,1,8,0:0:0:0:
448,64,266400,1,8,0:0:0:0:
448,64,266452,1,8,0:0:0:0:
448,64,266504,1,8,0:0:0:0:
64,64,266555,1,0,0:0:0:0:
64,64,266623,1,0,0:0:0:0:
64,64,266692,1,0,0:0:0:0:
448,64,266760,1,8,0:0:0:0:
448,64,266829,1,8,0:0:0:0:
64,64,266897,1,0,0:0:0:0:
64,64,266966,1,0,0:0:0:0:
448,64,267377,1,8,0:0:0:0:
448,64,267428,1,8,0:0:0:0:
448,64,267479,1,8,0:0:0:0:
448,64,267531,1,8,0:0:0:0:
64,64,267582,1,0,0:0:0:0:
64,64,267650,1,0,0:0:0:0:
64,64,267719,1,0,0:0:0:0:
448,64,267788,1,8,0:0:0:0:
448,64,267839,1,8,0:0:0:0:
64,64,267891,1,0,0:0:0:0:
64,64,268199,1,0,0:0:0:0:
64,64,268250,1,0,0:0:0:0:
448,64,268302,1,8,0:0:0:0:
448,64,268353,1,8,0:0:0:0:
64,320,268405,1,4,0:0:0:0:
448,64,268507,1,8,0:0:0:0:
448,64,268558,1,8,0:0:0:0:
448,64,268610,1,8,0:0:0:0:
64,320,268712,1,4,0:0:0:0:
448,64,268815,1,8,0:0:0:0:
448,64,268867,1,8,0:0:0:0:
448,64,268918,1,8,0:0:0:0:
64,320,269020,1,4,0:0:0:0:
448,64,269123,1,8,0:0:0:0:
448,64,269175,1,8,0:0:0:0:
448,64,269226,1,8,0:0:0:0:
64,320,269329,1,4,0:0:0:0:
448,64,269432,1,8,0:0:0:0:
448,64,269483,1,8,0:0:0:0:
448,64,269535,1,8,0:0:0:0:
64,64,269637,1,0,0:0:0:0:
64,64,269689,1,0,0:0:0:0:
64,64,269740,1,0,0:0:0:0:
64,64,269792,1,0,0:0:0:0:
448,64,269843,1,8,0:0:0:0:
64,320,270048,1,4,0:0:0:0:
448,64,270151,1,8,0:0:0:0:
448,64,270202,1,8,0:0:0:0:
448,64,270254,1,8,0:0:0:0:
64,320,270356,1,4,0:0:0:0:
448,64,270459,1,8,0:0:0:0:
448,64,270511,1,8,0:0:0:0:
448,64,270562,1,8,0:0:0:0:
64,320,270664,1,4,0:0:0:0:
448,64,270767,1,8,0:0:0:0:
448,64,270819,1,8,0:0:0:0:
448,64,270870,1,8,0:0:0:0:
64,320,270973,1,4,0:0:0:0:
448,64,271076,1,8,0:0:0:0:
448,64,271127,1,8,0:0:0:0:
448,64,271178,1,8,0:0:0:0:
64,64,271281,1,0,0:0:0:0:
64,64,271333,1,0,0:0:0:0:
64,64,271384,1,0,0:0:0:0:
64,64,271435,1,0,0:0:0:0:
448,64,271487,1,8,0:0:0:0:
448,64,271538,1,8,0:0:0:0:
448,64,271589,1,8,0:0:0:0:
448,64,271641,1,8,0:0:0:0:
64,320,271692,1,4,0:0:0:0:
448,64,271898,1,8,0:0:0:0:
448,64,271949,1,8,0:0:0:0:
64,64,272000,1,0,0:0:0:0:
448,64,272103,1,8,0:0:0:0:
448,64,272206,1,8,0:0:0:0:
64,64,272309,1,0,0:0:0:0:
64,64,272360,1,0,0:0:0:0:
448,64,272411,1,8,0:0:0:0:
64,64,272514,1,0,0:0:0:0:
448,64,272720,1,8,0:0:0:0:
448,64,272771,1,8,0:0:0:0:
64,64,272822,1,0,0:0:0:0:
448,64,272925,1,8,0:0:0:0:
448,64,273028,1,8,0:0:0:0:
64,64,273131,1,0,0:0:0:0:
64,64,273182,1,0,0:0:0:0:
448,64,273233,1,8,0:0:0:0:
64,64,273336,1,0,0:0:0:0:
448,64,273542,1,8,0:0:0:0:
448,64,273593,1,8,0:0:0:0:
64,64,273644,1,0,0:0:0:0:
448,64,273747,1,8,0:0:0:0:
448,64,273850,1,8,0:0:0:0:
64,64,273952,1,0,0:0:0:0:
64,64,274004,1,0,0:0:0:0:
448,64,274055,1,8,0:0:0:0:
64,64,274158,1,0,0:0:0:0:
448,64,274363,1,8,0:0:0:0:
448,64,274415,1,8,0:0:0:0:
64,64,274466,1,0,0:0:0:0:
448,64,274569,1,8,0:0:0:0:
64,64,274774,1,0,0:0:0:0:
64,64,274826,1,0,0:0:0:0:
448,64,274877,1,8,0:0:0:0:
64,64,274980,1,0,0:0:0:0:
64,64,275083,1,0,0:0:0:0:
448,64,275185,1,8,0:0:0:0:
448,64,275237,1,8,0:0:0:0:
64,64,275288,1,0,0:0:0:0:
64,64,275391,1,0,0:0:0:0:
64,64,275494,1,0,0:0:0:0:
448,64,275596,1,8,0:0:0:0:
448,64,275648,1,8,0:0:0:0:
64,64,275699,1,0,0:0:0:0:
64,64,275802,1,0,0:0:0:0:
64,64,275905,1,0,0:0:0:0:
448,64,276007,1,8,0:0:0:0:
448,64,276059,1,8,0:0:0:0:
64,64,276110,1,0,0:0:0:0:
64,64,276213,1,0,0:0:0:0:
64,64,276315,1,0,0:0:0:0:
448,64,276418,1,8,0:0:0:0:
448,64,276470,1,8,0:0:0:0:
64,64,276521,1,0,0:0:0:0:
64,64,276624,1,0,0:0:0:0:
64,64,276726,1,0,0:0:0:0:
448,64,276829,1,8,0:0:0:0:
448,64,276881,1,8,0:0:0:0:
64,64,276932,1,0,0:0:0:0:
64,64,277035,1,0,0:0:0:0:
64,64,277137,1,0,0:0:0:0:
448,64,277240,1,8,0:0:0:0:
448,64,277292,1,8,0:0:0:0:
64,64,277343,1,0,0:0:0:0:
448,64,277446,1,8,0:0:0:0:
64,64,277548,1,0,0:0:0:0:
64,64,277600,1,0,0:0:0:0:
448,64,277651,1,8,0:0:0:0:
448,64,277754,1,8,0:0:0:0:
64,64,277857,1,0,0:0:0:0:
64,64,277908,1,0,0:0:0:0:
64,64,277959,1,0,0:0:0:0:
64,64,278011,1,0,0:0:0:0:
448,64,278062,1,8,0:0:0:0:
64,64,278268,1,0,0:0:0:0:
64,64,278370,1,0,0:0:0:0:
448,64,278473,1,8,0:0:0:0:
448,64,278524,1,8,0:0:0:0:
64,64,278576,1,0,0:0:0:0:
448,64,278678,1,8,0:0:0:0:
448,64,278781,1,8,0:0:0:0:
64,64,278884,1,0,0:0:0:0:
64,64,278935,1,0,0:0:0:0:
448,64,278987,1,8,0:0:0:0:
64,64,279089,1,0,0:0:0:0:
64,64,279192,1,0,0:0:0:0:
448,64,279295,1,8,0:0:0:0:
448,64,279346,1,8,0:0:0:0:
64,64,279398,1,0,0:0:0:0:
448,64,279500,1,8,0:0:0:0:
448,64,279603,1,8,0:0:0:0:
64,64,279706,1,0,0:0:0:0:
64,64,279757,1,0,0:0:0:0:
448,64,279809,1,8,0:0:0:0:
64,64,279911,1,0,0:0:0:0:
64,64,280014,1,0,0:0:0:0:
448,64,280117,1,8,0:0:0:0:
448,64,280168,1,8,0:0:0:0:
64,64,280220,1,0,0:0:0:0:
448,64,280322,1,8,0:0:0:0:
448,64,280425,1,8,0:0:0:0:
64,64,280528,1,0,0:0:0:0:
64,64,280579,1,0,0:0:0:0:
448,64,280631,1,8,0:0:0:0:
64,64,280733,1,0,0:0:0:0:
64,64,280836,1,0,0:0:0:0:
448,64,280939,1,8,0:0:0:0:
448,64,280990,1,8,0:0:0:0:
64,64,281042,1,0,0:0:0:0:
448,64,281144,1,8,0:0:0:0:
64,64,281247,1,0,0:0:0:0:
448,64,281350,1,8,0:0:0:0:
448,64,281401,1,8,0:0:0:0:
448,64,281452,1,8,0:0:0:0:
448,64,281504,1,8,0:0:0:0:
64,64,281555,1,0,0:0:0:0:
64,64,281658,1,0,0:0:0:0:
448,64,281761,1,8,0:0:0:0:
448,64,281812,1,8,0:0:0:0:
64,64,281863,1,0,0:0:0:0:
64,64,281966,1,0,0:0:0:0:
64,64,282069,1,0,0:0:0:0:
448,64,282172,1,8,0:0:0:0:
448,64,282223,1,8,0:0:0:0:
64,64,282274,1,0,0:0:0:0:
64,64,282377,1,0,0:0:0:0:
64,64,282480,1,0,0:0:0:0:
448,64,282583,1,8,0:0:0:0:
448,64,282634,1,8,0:0:0:0:
64,64,282685,1,0,0:0:0:0:
64,64,282788,1,0,0:0:0:0:
64,64,282891,1,0,0:0:0:0:
448,64,282994,1,8,0:0:0:0:
448,64,283045,1,8,0:0:0:0:
64,64,283096,1,0,0:0:0:0:
64,64,283199,1,0,0:0:0:0:
64,64,283302,1,0,0:0:0:0:
448,64,283405,1,8,0:0:0:0:
448,64,283456,1,8,0:0:0:0:
64,64,283507,1,0,0:0:0:0:
64,64,283610,1,0,0:0:0:0:
64,64,283815,1,0,0:0:0:0:
64,64,283918,1,0,0:0:0:0:
448,64,284021,1,8,0:0:0:0:
448,64,284072,1,8,0:0:0:0:
64,64,284124,1,0,0:0:0:0:
64,64,284175,1,0,0:0:0:0:
448,64,284226,1,8,0:0:0:0:
64,64,284329,1,0,0:0:0:0:
448,64,284432,1,8,0:0:0:0:
448,64,284483,1,8,0:0:0:0:
64,64,284535,1,0,0:0:0:0:
448,64,284637,1,8,0:0:0:0:
64,64,284843,1,0,0:0:0:0:
64,64,284946,1,0,0:0:0:0:
64,64,284997,1,0,0:0:0:0:
448,64,285048,1,8,0:0:0:0:
64,64,285151,1,0,0:0:0:0:
448,64,285254,1,8,0:0:0:0:
448,64,285357,1,8,0:0:0:0:
64,64,285459,1,0,0:0:0:0:
64,64,285562,1,0,0:0:0:0:
448,64,285665,1,8,0:0:0:0:
448,64,285768,1,8,0:0:0:0:
448,64,285819,1,8,0:0:0:0:
64,64,285870,1,0,0:0:0:0:
448,64,285973,1,8,0:0:0:0:
64,64,286076,1,0,0:0:0:0:
64,64,286178,1,0,0:0:0:0:
448,64,286281,1,8,0:0:0:0:
448,64,286384,1,8,0:0:0:0:
64,64,286487,1,0,0:0:0:0:
64,64,286589,1,0,0:0:0:0:
64,64,286641,1,0,0:0:0:0:
448,64,286692,1,8,0:0:0:0:
64,64,286795,1,0,0:0:0:0:
448,64,286898,1,8,0:0:0:0:
64,64,287000,1,0,0:0:0:0:
448,64,287103,1,8,0:0:0:0:
448,64,287206,1,8,0:0:0:0:
64,64,287309,1,0,0:0:0:0:
64,64,287411,1,0,0:0:0:0:
448,64,287514,1,8,0:0:0:0:
64,64,287617,1,0,0:0:0:0:
448,64,287720,1,8,0:0:0:0:
448,64,287822,1,8,0:0:0:0:
64,64,287925,1,0,0:0:0:0:
64,64,288028,1,0,0:0:0:0:
448,64,288131,1,8,0:0:0:0:
64,64,288234,1,0,0:0:0:0:
64,64,288285,1,0,0:0:0:0:
448,64,288336,1,8,0:0:0:0:
64,64,288440,1,0,0:0:0:0:
448,64,288542,1,8,0:0:0:0:
448,64,288594,1,8,0:0:0:0:
64,64,288644,1,0,0:0:0:0:
64,64,288696,1,0,0:0:0:0:
448,64,288747,1,8,0:0:0:0:
64,64,288850,1,0,0:0:0:0:
448,64,288952,1,8,0:0:0:0:
448,64,289055,1,8,0:0:0:0:
448,64,289107,1,8,0:0:0:0:
64,64,289158,1,0,0:0:0:0:
448,64,289261,1,8,0:0:0:0:
64,64,289363,1,0,0:0:0:0:
64,64,289415,1,0,0:0:0:0:
448,64,289466,1,8,0:0:0:0:
448,64,289518,1,8,0:0:0:0:
64,64,289569,1,0,0:0:0:0:
64,64,289672,1,0,0:0:0:0:
448,64,289774,1,8,0:0:0:0:
64,64,289878,1,0,0:0:0:0:
64,64,289929,1,0,0:0:0:0:
448,64,289980,1,8,0:0:0:0:
64,64,290084,1,0,0:0:0:0:
448,64,290186,1,8,0:0:0:0:
448,64,290238,1,8,0:0:0:0:
64,64,290288,1,0,0:0:0:0:
64,64,290340,1,0,0:0:0:0:
448,64,290391,1,8,0:0:0:0:
64,64,290494,1,0,0:0:0:0:
448,64,290597,1,8,0:0:0:0:
64,64,290699,1,0,0:0:0:0:
448,64,290802,1,8,0:0:0:0:
64,64,290905,1,0,0:0:0:0:
448,64,291007,1,8,0:0:0:0:
448,64,291110,1,8,0:0:0:0:
64,64,291213,1,0,0:0:0:0:
64,64,291315,1,0,0:0:0:0:
448,64,291418,1,8,0:0:0:0:
448,64,291470,1,8,0:0:0:0:
448,64,291521,1,8,0:0:0:0:
448,64,291572,1,8,0:0:0:0:
64,64,291624,1,0,0:0:0:0:
448,64,291726,1,8,0:0:0:0:
64,64,291829,1,0,0:0:0:0:
64,64,291881,1,0,0:0:0:0:
64,64,291932,1,0,0:0:0:0:
448,64,292035,1,8,0:0:0:0:
448,64,292137,1,8,0:0:0:0:
64,64,292240,1,0,0:0:0:0:
64,64,292291,1,0,0:0:0:0:
64,64,292343,1,0,0:0:0:0:
64,64,292394,1,0,0:0:0:0:
448,64,292446,1,8,0:0:0:0:
64,64,292548,1,0,0:0:0:0:
448,64,292651,1,8,0:0:0:0:
448,64,292702,1,8,0:0:0:0:
448,64,292754,1,8,0:0:0:0:
64,64,292857,1,0,0:0:0:0:
64,64,292959,1,0,0:0:0:0:
448,64,293062,1,8,0:0:0:0:
448,64,293113,1,8,0:0:0:0:
448,64,293165,1,8,0:0:0:0:
448,64,293216,1,8,0:0:0:0:
64,64,293268,1,0,0:0:0:0:
448,64,293370,1,8,0:0:0:0:
64,64,293473,1,0,0:0:0:0:
64,64,293524,1,0,0:0:0:0:
64,64,293576,1,0,0:0:0:0:
448,64,293678,1,8,0:0:0:0:
64,64,293781,1,0,0:0:0:0:
448,64,293884,1,8,0:0:0:0:
64,64,293987,1,0,0:0:0:0:
64,64,294038,1,0,0:0:0:0:
448,64,294089,1,8,0:0:0:0:
64,64,294192,1,0,0:0:0:0:
448,64,294295,1,8,0:0:0:0:
448,64,294346,1,8,0:0:0:0:
64,64,294398,1,0,0:0:0:0:
448,64,294500,1,8,0:0:0:0:
448,64,294603,1,8,0:0:0:0:
64,64,294706,1,0,0:0:0:0:
448,64,294809,1,8,0:0:0:0:
448,64,294860,1,8,0:0:0:0:
64,64,294911,1,0,0:0:0:0:
448,64,295014,1,8,0:0:0:0:
448,64,295065,1,8,0:0:0:0:
64,64,295117,1,0,0:0:0:0:
448,64,295220,1,8,0:0:0:0:
448,64,295271,1,8,0:0:0:0:
64,64,295322,1,0,0:0:0:0:
448,64,295425,1,8,0:0:0:0:
448,64,295476,1,8,0:0:0:0:
64,64,295528,1,0,0:0:0:0:
448,64,295631,1,8,0:0:0:0:
448,64,295682,1,8,0:0:0:0:
64,64,295733,1,0,0:0:0:0:
448,64,295836,1,8,0:0:0:0:
448,64,295887,1,8,0:0:0:0:
64,64,295939,1,0,0:0:0:0:
448,64,296042,1,8,0:0:0:0:
448,64,296093,1,8,0:0:0:0:
64,64,296144,1,0,0:0:0:0:
448,64,296247,1,8,0:0:0:0:
64,64,296350,1,0,0:0:0:0:
64,64,296401,1,0,0:0:0:0:
448,64,296452,1,8,0:0:0:0:
448,64,296504,1,8,0:0:0:0:
64,64,296555,1,0,0:0:0:0:
64,64,296658,1,0,0:0:0:0:
448,64,296761,1,8,0:0:0:0:
448,64,296829,1,8,0:0:0:0:
448,64,296898,1,8,0:0:0:0:
64,64,296966,1,0,0:0:0:0:
448,64,297069,1,8,0:0:0:0:
64,64,297172,1,0,0:0:0:0:
64,64,297223,1,0,0:0:0:0:
448,64,297274,1,8,0:0:0:0:
64,64,297326,1,0,0:0:0:0:
448,64,297377,1,8,0:0:0:0:
64,64,297480,1,0,0:0:0:0:
448,64,297583,1,8,0:0:0:0:
448,64,297651,1,8,0:0:0:0:
64,64,297720,1,0,0:0:0:0:
448,64,297788,1,8,0:0:0:0:
64,64,297891,1,0,0:0:0:0:
448,320,297994,1,12,0:0:0:0:
64,64,298096,1,0,0:0:0:0:
448,64,298148,1,8,0:0:0:0:
64,64,298199,1,0,0:0:0:0:
64,64,298250,1,0,0:0:0:0:
448,64,298302,1,8,0:0:0:0:
64,64,298405,1,0,0:0:0:0:
448,64,298507,1,8,0:0:0:0:
448,64,298559,1,8,0:0:0:0:
64,64,298610,1,0,0:0:0:0:
64,64,298713,1,0,0:0:0:0:
448,64,298815,1,8,0:0:0:0:
64,64,298918,1,0,0:0:0:0:
64,64,298970,1,0,0:0:0:0:
448,64,299021,1,8,0:0:0:0:
448,64,299072,1,8,0:0:0:0:
64,64,299124,1,0,0:0:0:0:
64,64,299226,1,0,0:0:0:0:
448,64,299329,1,8,0:0:0:0:
64,64,299381,1,0,0:0:0:0:
448,64,299432,1,8,0:0:0:0:
64,64,299535,1,0,0:0:0:0:
448,64,299637,1,8,0:0:0:0:
64,64,299740,1,0,0:0:0:0:
64,64,299792,1,0,0:0:0:0:
448,64,299843,1,8,0:0:0:0:
64,64,299894,1,0,0:0:0:0:
448,64,299946,1,8,0:0:0:0:
64,64,300048,1,0,0:0:0:0:
448,64,300151,1,8,0:0:0:0:
64,64,300254,1,0,0:0:0:0:
64,64,300305,1,0,0:0:0:0:
448,64,300357,1,8,0:0:0:0:
64,64,300459,1,0,0:0:0:0:
64,64,300511,1,0,0:0:0:0:
64,64,300562,1,0,0:0:0:0:
448,64,300665,1,8,0:0:0:0:
64,64,300768,1,0,0:0:0:0:
448,64,300870,1,8,0:0:0:0:
448,64,300922,1,8,0:0:0:0:
448,64,300973,1,8,0:0:0:0:
64,64,301076,1,0,0:0:0:0:
64,64,301178,1,0,0:0:0:0:
448,64,301281,1,8,0:0:0:0:
64,64,301384,1,0,0:0:0:0:
448,64,301435,1,8,0:0:0:0:
64,64,301487,1,0,0:0:0:0:
448,64,301589,1,8,0:0:0:0:
64,64,301692,1,0,0:0:0:0:
64,64,301744,1,0,0:0:0:0:
448,64,301795,1,8,0:0:0:0:
448,64,301846,1,8,0:0:0:0:
64,64,301898,1,0,0:0:0:0:
64,64,302000,1,0,0:0:0:0:
448,64,302103,1,8,0:0:0:0:
64,64,302206,1,0,0:0:0:0:
64,64,302257,1,0,0:0:0:0:
448,64,302309,1,8,0:0:0:0:
448,64,302411,1,8,0:0:0:0:
64,64,302514,1,0,0:0:0:0:
448,64,302565,1,8,0:0:0:0:
64,64,302617,1,0,0:0:0:0:
448,64,302720,1,8,0:0:0:0:
448,64,302822,1,8,0:0:0:0:
64,64,302925,1,0,0:0:0:0:
64,64,303028,1,0,0:0:0:0:
64,64,303079,1,0,0:0:0:0:
448,64,303131,1,8,0:0:0:0:
64,64,303233,1,0,0:0:0:0:
448,64,303336,1,8,0:0:0:0:
448,64,303387,1,8,0:0:0:0:
64,64,303439,1,0,0:0:0:0:
448,64,303541,1,8,0:0:0:0:
448,64,303644,1,8,0:0:0:0:
64,64,303747,1,0,0:0:0:0:
64,64,303798,1,0,0:0:0:0:
64,64,303850,1,0,0:0:0:0:
448,64,303952,1,8,0:0:0:0:
448,64,304055,1,8,0:0:0:0:
64,64,304158,1,0,0:0:0:0:
64,64,304226,1,0,0:0:0:0:
448,64,304295,1,8,0:0:0:0:
448,64,304363,1,8,0:0:0:0:
64,64,304432,1,0,0:0:0:0:
64,64,304500,1,0,0:0:0:0:
448,320,304569,1,12,0:0:0:0:
64,64,304671,1,0,0:0:0:0:
448,64,304723,1,8,0:0:0:0:
64,64,304774,1,0,0:0:0:0:
64,64,304825,1,0,0:0:0:0:
448,64,304877,1,8,0:0:0:0:
64,64,304980,1,0,0:0:0:0:
448,64,305082,1,8,0:0:0:0:
448,64,305134,1,8,0:0:0:0:
64,64,305185,1,0,0:0:0:0:
64,64,305288,1,0,0:0:0:0:
448,64,305390,1,8,0:0:0:0:
64,64,305494,1,0,0:0:0:0:
64,64,305545,1,0,0:0:0:0:
448,64,305596,1,8,0:0:0:0:
448,64,305647,1,8,0:0:0:0:
64,64,305699,1,0,0:0:0:0:
448,64,305801,1,8,0:0:0:0:
64,64,305904,1,0,0:0:0:0:
448,64,305956,1,8,0:0:0:0:
64,64,306007,1,0,0:0:0:0:
448,64,306110,1,8,0:0:0:0:
448,64,306212,1,8,0:0:0:0:
64,64,306315,1,0,0:0:0:0:
64,64,306367,1,0,0:0:0:0:
448,64,306418,1,8,0:0:0:0:
64,64,306469,1,0,0:0:0:0:
448,64,306521,1,8,0:0:0:0:
64,64,306623,1,0,0:0:0:0:
448,64,306726,1,8,0:0:0:0:
64,64,306829,1,0,0:0:0:0:
64,64,306880,1,0,0:0:0:0:
448,64,306932,1,8,0:0:0:0:
64,64,307034,1,0,0:0:0:0:
64,64,307086,1,0,0:0:0:0:
64,64,307137,1,0,0:0:0:0:
448,64,307240,1,8,0:0:0:0:
64,64,307343,1,0,0:0:0:0:
448,64,307445,1,8,0:0:0:0:
448,64,307497,1,8,0:0:0:0:
448,64,307548,1,8,0:0:0:0:
64,64,307651,1,0,0:0:0:0:
448,64,307754,1,8,0:0:0:0:
64,64,307857,1,0,0:0:0:0:
64,64,307908,1,0,0:0:0:0:
64,64,307959,1,0,0:0:0:0:
64,64,308011,1,0,0:0:0:0:
448,64,308062,1,8,0:0:0:0:
448,64,308165,1,8,0:0:0:0:
64,64,308268,1,0,0:0:0:0:
64,64,308319,1,0,0:0:0:0:
64,64,308370,1,0,0:0:0:0:
64,64,308422,1,0,0:0:0:0:
448,64,308473,1,8,0:0:0:0:
448,64,308576,1,8,0:0:0:0:
64,64,308678,1,0,0:0:0:0:
64,64,308730,1,0,0:0:0:0:
64,64,308781,1,0,0:0:0:0:
64,64,308833,1,0,0:0:0:0:
448,64,308884,1,8,0:0:0:0:
64,64,308987,1,0,0:0:0:0:
64,64,309038,1,0,0:0:0:0:
64,64,309089,1,0,0:0:0:0:
64,64,309141,1,0,0:0:0:0:
448,64,309192,1,8,0:0:0:0:
64,64,309295,1,0,0:0:0:0:
64,64,309346,1,0,0:0:0:0:
64,64,309398,1,0,0:0:0:0:
64,64,309449,1,0,0:0:0:0:
448,64,309500,1,8,0:0:0:0:
448,64,309552,1,8,0:0:0:0:
64,64,309603,1,0,0:0:0:0:
448,64,309706,1,8,0:0:0:0:
448,64,309809,1,8,0:0:0:0:
448,64,309860,1,8,0:0:0:0:
64,64,309911,1,0,0:0:0:0:
64,64,310014,1,0,0:0:0:0:
64,64,310065,1,0,0:0:0:0:
448,64,310117,1,8,0:0:0:0:
64,64,310168,1,0,0:0:0:0:
448,64,310220,1,8,0:0:0:0:
64,64,310322,1,0,0:0:0:0:
448,64,310374,1,8,0:0:0:0:
448,64,310425,1,8,0:0:0:0:
64,64,310528,1,0,0:0:0:0:
448,64,310579,1,8,0:0:0:0:
448,64,310631,1,8,0:0:0:0:
64,64,310733,1,0,0:0:0:0:
448,64,310785,1,8,0:0:0:0:
448,64,310836,1,8,0:0:0:0:
64,64,310887,1,0,0:0:0:0:
448,64,310939,1,8,0:0:0:0:
64,64,311144,1,0,0:0:0:0:
448,64,311247,1,8,0:0:0:0:
64,64,311298,1,0,0:0:0:0:
448,64,311350,1,8,0:0:0:0:
64,64,311452,1,0,0:0:0:0:
448,64,311555,1,8,0:0:0:0:
64,64,311607,1,0,0:0:0:0:
448,64,311658,1,8,0:0:0:0:
448,64,311709,1,8,0:0:0:0:
64,64,311761,1,0,0:0:0:0:
64,64,311863,1,0,0:0:0:0:
448,64,311966,1,8,0:0:0:0:
64,64,312069,1,0,0:0:0:0:
448,64,312120,1,8,0:0:0:0:
64,64,312172,1,0,0:0:0:0:
448,64,312274,1,8,0:0:0:0:
64,64,312377,1,0,0:0:0:0:
448,64,312480,1,8,0:0:0:0:
448,64,312531,1,8,0:0:0:0:
448,64,312583,1,8,0:0:0:0:
448,64,312634,1,8,0:0:0:0:
64,64,312685,1,0,0:0:0:0:
448,64,312788,1,8,0:0:0:0:
448,64,312891,1,8,0:0:0:0:
448,64,312942,1,8,0:0:0:0:
64,64,312994,1,0,0:0:0:0:
448,64,313096,1,8,0:0:0:0:
64,64,313199,1,0,0:0:0:0:
448,64,313302,1,8,0:0:0:0:
448,64,313353,1,8,0:0:0:0:
448,64,313405,1,8,0:0:0:0:
448,64,313507,1,8,0:0:0:0:
64,64,313610,1,0,0:0:0:0:
64,64,313713,1,0,0:0:0:0:
64,64,313764,1,0,0:0:0:0:
448,64,313815,1,8,0:0:0:0:
64,64,313918,1,0,0:0:0:0:
448,64,314021,1,8,0:0:0:0:
448,64,314124,1,8,0:0:0:0:
64,64,314226,1,0,0:0:0:0:
64,64,314278,1,0,0:0:0:0:
64,64,314329,1,0,0:0:0:0:
64,64,314381,1,0,0:0:0:0:
448,64,314432,1,8,0:0:0:0:
64,64,314535,1,0,0:0:0:0:
448,64,314586,1,8,0:0:0:0:
64,64,314637,1,0,0:0:0:0:
448,64,314740,1,8,0:0:0:0:
64,64,314843,1,0,0:0:0:0:
448,64,314946,1,8,0:0:0:0:
448,64,314997,1,8,0:0:0:0:
448,64,315048,1,8,0:0:0:0:
64,64,315151,1,0,0:0:0:0:
448,64,315254,1,8,0:0:0:0:
64,64,315357,1,0,0:0:0:0:
64,64,315408,1,0,0:0:0:0:
448,64,315459,1,8,0:0:0:0:
448,64,315562,1,8,0:0:0:0:
64,64,315665,1,0,0:0:0:0:
448,64,315768,1,8,0:0:0:0:
64,64,315819,1,0,0:0:0:0:
64,64,315870,1,0,0:0:0:0:
64,64,315922,1,0,0:0:0:0:
448,64,315973,1,8,0:0:0:0:
64,64,316076,1,0,0:0:0:0:
64,64,316178,1,0,0:0:0:0:
64,64,316230,1,0,0:0:0:0:
448,64,316281,1,8,0:0:0:0:
64,64,316384,1,0,0:0:0:0:
448,64,316487,1,8,0:0:0:0:
448,64,316538,1,8,0:0:0:0:
64,320,316589,1,4,0:0:0:0:
448,64,316692,1,8,0:0:0:0:
448,64,316744,1,8,0:0:0:0:
448,64,316795,1,8,0:0:0:0:
64,320,316898,1,4,0:0:0:0:
448,64,317000,1,8,0:0:0:0:
448,64,317052,1,8,0:0:0:0:
448,64,317103,1,8,0:0:0:0:
64,320,317206,1,4,0:0:0:0:
448,64,317309,1,8,0:0:0:0:
448,64,317360,1,8,0:0:0:0:
64,64,317411,1,0,0:0:0:0:
448,64,317514,1,8,0:0:0:0:
64,320,317720,1,4,0:0:0:0:
64,64,318028,1,0,0:0:0:0:
448,64,318131,1,8,0:0:0:0:
448,64,318233,1,8,0:0:0:0:
64,64,318336,1,0,0:0:0:0:
64,64,318542,1,0,0:0:0:0:
64,64,318850,1,0,0:0:0:0:
64,64,318952,1,0,0:0:0:0:
64,64,319004,1,0,0:0:0:0:
448,64,319055,1,8,0:0:0:0:
448,64,319107,1,8,0:0:0:0:
64,64,319158,1,0,0:0:0:0:
64,320,319363,1,4,0:0:0:0:
64,64,319672,1,0,0:0:0:0:
448,64,319774,1,8,0:0:0:0:
448,64,319877,1,8,0:0:0:0:
64,64,319980,1,0,0:0:0:0:
64,64,320185,1,0,0:0:0:0:
64,64,320494,1,0,0:0:0:0:
448,64,320596,1,8,0:0:0:0:
448,64,320648,1,8,0:0:0:0:
448,64,320699,1,8,0:0:0:0:
448,64,320750,1,8,0:0:0:0:
64,320,320802,1,4,0:0:0:0:
448,64,321007,1,8,0:0:0:0:
64,64,321110,1,0,0:0:0:0:
64,64,321213,1,0,0:0:0:0:
448,64,321315,1,8,0:0:0:0:
64,64,321418,1,0,0:0:0:0:
64,64,321521,1,0,0:0:0:0:
448,64,321624,1,8,0:0:0:0:
64,64,321726,1,0,0:0:0:0:
448,64,321829,1,8,0:0:0:0:
64,64,321932,1,0,0:0:0:0:
64,64,322035,1,0,0:0:0:0:
448,64,322137,1,8,0:0:0:0:
64,64,322240,1,0,0:0:0:0:
64,64,322343,1,0,0:0:0:0:
448,64,322446,1,8,0:0:0:0:
64,64,322548,1,0,0:0:0:0:
448,64,322651,1,8,0:0:0:0:
448,64,322754,1,8,0:0:0:0:
64,64,322857,1,0,0:0:0:0:
448,64,322959,1,8,0:0:0:0:
448,64,323062,1,8,0:0:0:0:
64,64,323165,1,0,0:0:0:0:
448,64,323268,1,8,0:0:0:0:
64,64,323370,1,0,0:0:0:0:
448,64,323473,1,8,0:0:0:0:
448,64,323576,1,8,0:0:0:0:
64,64,323678,1,0,0:0:0:0:
448,64,323781,1,8,0:0:0:0:
64,64,323884,1,0,0:0:0:0:
64,64,323935,1,0,0:0:0:0:
64,64,323987,1,0,0:0:0:0:
64,64,324038,1,0,0:0:0:0:
448,64,324089,1,8,0:0:0:0:
64,320,324295,1,4,0:0:0:0:
64,64,324500,1,0,0:0:0:0:
448,64,324603,1,8,0:0:0:0:
448,64,324809,1,8,0:0:0:0:
64,64,325014,1,0,0:0:0:0:
448,64,325220,1,8,0:0:0:0:
448,64,325322,1,8,0:0:0:0:
64,64,325425,1,0,0:0:0:0:
64,64,325631,1,0,0:0:0:0:
448,64,325733,1,8,0:0:0:0:
448,64,325836,1,8,0:0:0:0:
64,64,325939,1,0,0:0:0:0:
64,64,326042,1,0,0:0:0:0:
64,64,326093,1,0,0:0:0:0:
448,64,326144,1,8,0:0:0:0:
64,64,326350,1,0,0:0:0:0:
64,64,326401,1,0,0:0:0:0:
64,64,326452,1,0,0:0:0:0:
448,64,326555,1,8,0:0:0:0:
64,64,326658,1,0,0:0:0:0:
448,64,326761,1,8,0:0:0:0:
448,64,326812,1,8,0:0:0:0:
64,64,326863,1,0,0:0:0:0:
64,64,326966,1,0,0:0:0:0:
448,64,327069,1,8,0:0:0:0:
64,64,327172,1,0,0:0:0:0:
64,64,327223,1,0,0:0:0:0:
448,64,327274,1,8,0:0:0:0:
448,64,327377,1,8,0:0:0:0:
448,64,327480,1,8,0:0:0:0:
64,64,327583,1,0,0:0:0:0:
64,64,327685,1,0,0:0:0:0:
64,64,327788,1,0,0:0:0:0:
448,64,327891,1,8,0:0:0:0:
448,64,328097,1,8,0:0:0:0:
64,64,328302,1,0,0:0:0:0:
448,64,328507,1,8,0:0:0:0:
448,64,328610,1,8,0:0:0:0:
64,64,328713,1,0,0:0:0:0:
64,64,328918,1,0,0:0:0:0:
448,64,329021,1,8,0:0:0:0:
448,64,329124,1,8,0:0:0:0:
64,64,329226,1,0,0:0:0:0:
64,64,329329,1,0,0:0:0:0:
64,64,329381,1,0,0:0:0:0:
448,64,329432,1,8,0:0:0:0:
64,64,329535,1,0,0:0:0:0:
448,64,329637,1,8,0:0:0:0:
448,64,329689,1,8,0:0:0:0:
64,64,329740,1,0,0:0:0:0:
448,64,329843,1,8,0:0:0:0:
64,64,330048,1,0,0:0:0:0:
64,64,330100,1,0,0:0:0:0:
64,64,330151,1,0,0:0:0:0:
64,64,330254,1,0,0:0:0:0:
64,64,330357,1,0,0:0:0:0:
448,64,330459,1,8,0:0:0:0:
448,64,330562,1,8,0:0:0:0:
448,64,330613,1,8,0:0:0:0:
448,64,330665,1,8,0:0:0:0:
448,64,330768,1,8,0:0:0:0:
64,64,330870,1,0,0:0:0:0:
64,64,330973,1,0,0:0:0:0:
64,64,331076,1,0,0:0:0:0:
448,64,331178,1,8,0:0:0:0:
448,64,331384,1,8,0:0:0:0:
64,64,331589,1,0,0:0:0:0:
448,64,331795,1,8,0:0:0:0:
448,64,331898,1,8,0:0:0:0:
64,64,332000,1,0,0:0:0:0:
64,64,332206,1,0,0:0:0:0:
448,64,332309,1,8,0:0:0:0:
448,64,332411,1,8,0:0:0:0:
64,64,332514,1,0,0:0:0:0:
64,64,332617,1,0,0:0:0:0:
64,64,332668,1,0,0:0:0:0:
448,64,332720,1,8,0:0:0:0:
448,64,332925,1,8,0:0:0:0:
448,64,332976,1,8,0:0:0:0:
64,64,333028,1,0,0:0:0:0:
448,64,333131,1,8,0:0:0:0:
448,64,333233,1,8,0:0:0:0:
64,64,333336,1,0,0:0:0:0:
64,64,333439,1,0,0:0:0:0:
64,64,333490,1,0,0:0:0:0:
64,64,333542,1,0,0:0:0:0:
64,64,333644,1,0,0:0:0:0:
448,64,333747,1,8,0:0:0:0:
448,64,333850,1,8,0:0:0:0:
448,64,333901,1,8,0:0:0:0:
64,64,333952,1,0,0:0:0:0:
448,64,334055,1,8,0:0:0:0:
64,64,334158,1,0,0:0:0:0:
64,64,334261,1,0,0:0:0:0:
64,64,334363,1,0,0:0:0:0:
448,64,334466,1,8,0:0:0:0:
448,64,334672,1,8,0:0:0:0:
64,64,334877,1,0,0:0:0:0:
448,64,335083,1,8,0:0:0:0:
448,64,335185,1,8,0:0:0:0:
64,64,335288,1,0,0:0:0:0:
64,64,335494,1,0,0:0:0:0:
448,64,335596,1,8,0:0:0:0:
64,64,335699,1,0,0:0:0:0:
448,64,335802,1,8,0:0:0:0:
448,64,335905,1,8,0:0:0:0:
64,64,336110,1,0,0:0:0:0:
64,64,336213,1,0,0:0:0:0:
448,64,336315,1,8,0:0:0:0:
64,64,336418,1,0,0:0:0:0:
448,64,336470,1,8,0:0:0:0:
448,64,336521,1,8,0:0:0:0:
64,64,336624,1,0,0:0:0:0:
448,64,336675,1,8,0:0:0:0:
64,64,336726,1,0,0:0:0:0:
448,64,336829,1,8,0:0:0:0:
448,64,336898,1,8,0:0:0:0:
448,64,336966,1,8,0:0:0:0:
64,64,337035,1,0,0:0:0:0:
64,64,337137,1,0,0:0:0:0:
448,64,337240,1,8,0:0:0:0:
64,64,337446,1,0,0:0:0:0:
64,64,337548,1,0,0:0:0:0:
448,64,337651,1,8,0:0:0:0:
448,64,337754,1,8,0:0:0:0:
448,64,337959,1,8,0:0:0:0:
64,64,338062,1,0,0:0:0:0:
448,64,338165,1,8,0:0:0:0:
64,64,338268,1,0,0:0:0:0:
64,64,338370,1,0,0:0:0:0:
64,64,338473,1,0,0:0:0:0:
448,64,338576,1,8,0:0:0:0:
448,64,338781,1,8,0:0:0:0:
448,64,338884,1,8,0:0:0:0:
64,64,338987,1,0,0:0:0:0:
448,64,339089,1,8,0:0:0:0:
64,64,339192,1,0,0:0:0:0:
448,64,339295,1,8,0:0:0:0:
448,64,339500,1,8,0:0:0:0:
64,64,339603,1,0,0:0:0:0:
64,64,339655,1,0,0:0:0:0:
448,64,339706,1,8,0:0:0:0:
448,64,339809,1,8,0:0:0:0:
64,64,339911,1,0,0:0:0:0:
64,64,339963,1,0,0:0:0:0:
64,64,340014,1,0,0:0:0:0:
448,64,340117,1,8,0:0:0:0:
448,64,340220,1,8,0:0:0:0:
64,64,340322,1,0,0:0:0:0:
448,64,340425,1,8,0:0:0:0:
64,64,340476,1,0,0:0:0:0:
448,64,340528,1,8,0:0:0:0:
448,64,340631,1,8,0:0:0:0:
64,64,340733,1,0,0:0:0:0:
64,64,340836,1,0,0:0:0:0:
448,64,340939,1,8,0:0:0:0:
448,64,341042,1,8,0:0:0:0:
448,64,341247,1,8,0:0:0:0:
64,64,341350,1,0,0:0:0:0:
448,64,341452,1,8,0:0:0:0:
64,64,341555,1,0,0:0:0:0:
64,64,341658,1,0,0:0:0:0:
64,64,341761,1,0,0:0:0:0:
448,64,341863,1,8,0:0:0:0:
448,64,342069,1,8,0:0:0:0:
448,64,342172,1,8,0:0:0:0:
64,64,342274,1,0,0:0:0:0:
448,64,342377,1,8,0:0:0:0:
64,64,342480,1,0,0:0:0:0:
448,64,342583,1,8,0:0:0:0:
64,64,342788,1,0,0:0:0:0:
64,64,342839,1,0,0:0:0:0:
64,64,342891,1,0,0:0:0:0:
448,64,342994,1,8,0:0:0:0:
64,64,343199,1,0,0:0:0:0:
448,64,343302,1,8,0:0:0:0:
448,64,343353,1,8,0:0:0:0:
64,64,343405,1,0,0:0:0:0:
448,64,343507,1,8,0:0:0:0:
64,64,343610,1,0,0:0:0:0:
64,64,343661,1,0,0:0:0:0:
448,64,343713,1,8,0:0:0:0:
64,64,343764,1,0,0:0:0:0:
448,64,343815,1,8,0:0:0:0:
448,64,343918,1,8,0:0:0:0:
64,64,344021,1,0,0:0:0:0:
64,64,344124,1,0,0:0:0:0:
448,64,344226,1,8,0:0:0:0:
448,64,344329,1,8,0:0:0:0:
448,64,344535,1,8,0:0:0:0:
64,64,344637,1,0,0:0:0:0:
448,64,344740,1,8,0:0:0:0:
448,64,344946,1,8,0:0:0:0:
64,64,345048,1,0,0:0:0:0:
448,64,345151,1,8,0:0:0:0:
448,64,345357,1,8,0:0:0:0:
64,64,345459,1,0,0:0:0:0:
448,64,345562,1,8,0:0:0:0:
64,64,345768,1,0,0:0:0:0:
448,64,345870,1,8,0:0:0:0:
448,64,345973,1,8,0:0:0:0:
64,64,346076,1,0,0:0:0:0:
448,64,346281,1,8,0:0:0:0:
448,64,346384,1,8,0:0:0:0:
64,64,346487,1,0,0:0:0:0:
448,64,346692,1,8,0:0:0:0:
448,64,346795,1,8,0:0:0:0:
64,64,346898,1,0,0:0:0:0:
448,64,347103,1,8,0:0:0:0:
448,64,347206,1,8,0:0:0:0:
64,64,347309,1,0,0:0:0:0:
448,64,347514,1,8,0:0:0:0:
64,64,347720,1,0,0:0:0:0:
448,64,347925,1,8,0:0:0:0:
64,64,348131,1,0,0:0:0:0:
448,64,348336,1,8,0:0:0:0:
64,64,348542,1,0,0:0:0:0:
448,64,348747,1,8,0:0:0:0:
64,64,348952,1,0,0:0:0:0:
64,64,349055,1,0,0:0:0:0:
448,64,349158,1,8,0:0:0:0:
64,64,349261,1,0,0:0:0:0:
64,64,349363,1,0,0:0:0:0:
448,64,349569,1,8,0:0:0:0:
64,64,349672,1,0,0:0:0:0:
448,64,349774,1,8,0:0:0:0:
448,64,349877,1,8,0:0:0:0:
64,64,349980,1,0,0:0:0:0:
64,64,350048,1,0,0:0:0:0:
64,64,350117,1,0,0:0:0:0:
448,64,350185,1,8,0:0:0:0:
448,64,350254,1,8,0:0:0:0:
448,64,350322,1,8,0:0:0:0:
64,64,350391,1,0,0:0:0:0:
64,320,350596,1,4,0:0:0:0:
64,64,350905,1,0,0:0:0:0:
448,64,351007,1,8,0:0:0:0:
448,64,351213,1,8,0:0:0:0:
64,64,351418,1,0,0:0:0:0:
64,64,351624,1,0,0:0:0:0:
64,64,351726,1,0,0:0:0:0:
448,64,351829,1,8,0:0:0:0:
64,64,352240,1,0,0:0:0:0:
64,64,352446,1,0,0:0:0:0:
64,64,352548,1,0,0:0:0:0:
448,64,352651,1,8,0:0:0:0:
64,64,352857,1,0,0:0:0:0:
64,64,353062,1,0,0:0:0:0:
448,64,353268,1,8,0:0:0:0:
64,64,353370,1,0,0:0:0:0:
448,64,353473,1,8,0:0:0:0:
64,64,353884,1,0,0:0:0:0:
64,64,354089,1,0,0:0:0:0:
64,64,354192,1,0,0:0:0:0:
448,64,354294,1,8,0:0:0:0:
448,64,354500,1,8,0:0:0:0:
64,64,354705,1,0,0:0:0:0:
64,64,354911,1,0,0:0:0:0:
64,64,355013,1,0,0:0:0:0:
448,64,355116,1,8,0:0:0:0:
64,64,355527,1,0,0:0:0:0:
64,64,355733,1,0,0:0:0:0:
64,64,355835,1,0,0:0:0:0:
448,64,355938,1,8,0:0:0:0:
64,64,356144,1,0,0:0:0:0:
64,64,356349,1,0,0:0:0:0:
448,64,356555,1,8,0:0:0:0:
64,64,356657,1,0,0:0:0:0:
448,64,356760,1,8,0:0:0:0:
64,64,356966,1,0,0:0:0:0:
64,64,357172,1,0,0:0:0:0:
64,64,357377,1,0,0:0:0:0:
64,64,357480,1,0,0:0:0:0:
448,64,357583,1,8,0:0:0:0:
448,64,357788,1,8,0:0:0:0:
64,64,357994,1,0,0:0:0:0:
64,64,358199,1,0,0:0:0:0:
64,64,358302,1,0,0:0:0:0:
448,64,358405,1,8,0:0:0:0:
64,64,358815,1,0,0:0:0:0:
448,64,359021,1,8,0:0:0:0:
64,64,359124,1,0,0:0:0:0:
448,64,359226,1,8,0:0:0:0:
448,64,359432,1,8,0:0:0:0:
64,64,359637,1,0,0:0:0:0:
448,64,359843,1,8,0:0:0:0:
64,64,359946,1,0,0:0:0:0:
448,64,360048,1,8,0:0:0:0:
64,64,360459,1,0,0:0:0:0:
64,64,360665,1,0,0:0:0:0:
64,64,360768,1,0,0:0:0:0:
448,64,360870,1,8,0:0:0:0:
64,64,361076,1,0,0:0:0:0:
64,64,361281,1,0,0:0:0:0:
64,64,361487,1,0,0:0:0:0:
64,64,361589,1,0,0:0:0:0:
448,64,361692,1,8,0:0:0:0:
448,64,362103,1,8,0:0:0:0:
64,64,362309,1,0,0:0:0:0:
448,64,362411,1,8,0:0:0:0:
64,64,362514,1,0,0:0:0:0:
448,64,362720,1,8,0:0:0:0:
64,64,362925,1,0,0:0:0:0:
448,64,363131,1,8,0:0:0:0:
448,64,363233,1,8,0:0:0:0:
64,64,363336,1,0,0:0:0:0:
448,64,363542,1,8,0:0:0:0:
448,64,363747,1,8,0:0:0:0:
64,64,363952,1,0,0:0:0:0:
448,64,364055,1,8,0:0:0:0:
64,64,364158,1,0,0:0:0:0:
64,64,364363,1,0,0:0:0:0:
448,64,364569,1,8,0:0:0:0:
64,64,364774,1,0,0:0:0:0:
64,64,364877,1,0,0:0:0:0:
448,64,364980,1,8,0:0:0:0:
64,64,365391,1,0,0:0:0:0:
64,64,365596,1,0,0:0:0:0:
448,64,365699,1,8,0:0:0:0:
64,64,365802,1,0,0:0:0:0:
448,64,366007,1,8,0:0:0:0:
64,64,366213,1,0,0:0:0:0:
64,64,366418,1,0,0:0:0:0:
64,64,366521,1,0,0:0:0:0:
448,64,366624,1,8,0:0:0:0:
64,64,367035,1,0,0:0:0:0:
448,64,367240,1,8,0:0:0:0:
448,64,367343,1,8,0:0:0:0:
64,64,367446,1,0,0:0:0:0:
64,64,367651,1,0,0:0:0:0:
448,64,367857,1,8,0:0:0:0:
64,64,368062,1,0,0:0:0:0:
64,64,368165,1,0,0:0:0:0:
448,64,368268,1,8,0:0:0:0:
64,64,368678,1,0,0:0:0:0:
64,64,368884,1,0,0:0:0:0:
64,64,368987,1,0,0:0:0:0:
448,64,369089,1,8,0:0:0:0:
448,64,369295,1,8,0:0:0:0:
64,64,369500,1,0,0:0:0:0:
448,64,369706,1,8,0:0:0:0:
64,64,369809,1,0,0:0:0:0:
448,64,369911,1,8,0:0:0:0:
64,64,370117,1,0,0:0:0:0:
64,64,370322,1,0,0:0:0:0:
448,64,370528,1,8,0:0:0:0:
64,64,370631,1,0,0:0:0:0:
448,64,370733,1,8,0:0:0:0:
64,64,370939,1,0,0:0:0:0:
64,64,371144,1,0,0:0:0:0:
64,64,371350,1,0,0:0:0:0:
64,64,371452,1,0,0:0:0:0:
448,64,371555,1,8,0:0:0:0:
64,64,371966,1,0,0:0:0:0:
64,64,372172,1,0,0:0:0:0:
64,64,372274,1,0,0:0:0:0:
448,64,372377,1,8,0:0:0:0:
64,64,372583,1,0,0:0:0:0:
448,64,372788,1,8,0:0:0:0:
64,64,372994,1,0,0:0:0:0:
64,64,373096,1,0,0:0:0:0:
448,64,373199,1,8,0:0:0:0:
64,64,373610,1,0,0:0:0:0:
64,64,373815,1,0,0:0:0:0:
64,64,373918,1,0,0:0:0:0:
448,64,374021,1,8,0:0:0:0:
64,64,374226,1,0,0:0:0:0:
448,64,374432,1,8,0:0:0:0:
64,64,374637,1,0,0:0:0:0:
64,64,374740,1,0,0:0:0:0:
448,64,374843,1,8,0:0:0:0:
64,64,375254,1,0,0:0:0:0:
448,64,375459,1,8,0:0:0:0:
64,64,375562,1,0,0:0:0:0:
448,64,375665,1,8,0:0:0:0:
448,64,375870,1,8,0:0:0:0:
64,64,376076,1,0,0:0:0:0:
448,64,376281,1,8,0:0:0:0:
448,64,376384,1,8,0:0:0:0:
64,64,376487,1,0,0:0:0:0:
448,64,376692,1,8,0:0:0:0:
64,320,376898,1,4,0:0:0:0:
