osu file format v14

[General]
AudioFilename: audio.mp3
AudioLeadIn: 0
PreviewTime: 209910
Countdown: 0
SampleSet: Drum
StackLeniency: 0.7
Mode: 0
LetterboxInBreaks: 0
WidescreenStoryboard: 0

[Editor]
DistanceSpacing: 1
BeatDivisor: 8
GridSize: 32
TimelineZoom: 1

[Metadata]
Title:HET THOI
TitleUnicode:HẾT THỜI
Artist:Ngot
ArtistUnicode:Ngọt
Creator:tomatohung
Version:het thoi
Source:
Tags:album 3 tuyển tập nhạc ngọt band mới trẻ sôi động 2019 Nguyễn Hùng Nam Anh Phan Việt Hoàng Nguyễn Chí Hùng Vũ Đinh Trọng Thắng indie Vietnamese
BeatmapID:2447753
BeatmapSetID:1173589

[Difficulty]
HPDrainRate:5.2
CircleSize:4
OverallDifficulty:8.3
ApproachRate:9.3
SliderMultiplier:2
SliderTickRate:1

[Events]
//Background and Video events
0,0,"ngọt+3_upscaled_illustration_x4.jpg",0,0
//Break Periods
2,19408,26654
//Storyboard Layer 0 (Background)
//Storyboard Layer 1 (Fail)
//Storyboard Layer 2 (Pass)
//Storyboard Layer 3 (Foreground)
//Storyboard Layer 4 (Overlay)
//Storyboard Sound Samples

[TimingPoints]
-791.603305785124,500,4,3,0,45,1,0
5208,-66.6666666666667,4,3,0,45,0,0
5708,-100,4,3,0,45,0,0
6208,-66.6666666666667,4,3,0,45,0,0
6708,-100,4,3,0,45,0,0
8583,-50,4,3,0,45,0,0
8833,-50,4,3,0,5,0,0
8958,-50,4,3,0,45,0,0
9083,-50,4,3,0,5,0,0
9208,-100,4,3,0,45,0,0
9708,-133.333333333333,4,3,0,45,0,0
10208,-100,4,3,0,45,0,0
10708,-133.333333333333,4,3,0,45,0,0
11833,-100,4,3,0,45,0,0
12708,-50,4,3,0,45,0,0
12895,-50,4,3,0,5,0,0
12958,-50,4,3,0,45,0,0
13145,-50,4,3,0,5,0,0
13208,-100,4,3,0,45,0,0
13708,-50,4,3,0,45,0,0
18708,-200,4,3,0,45,0,0
27208,-100,4,3,0,20,0,0
29708,-133.333333333333,4,3,0,20,0,0
30208,-100,4,3,0,20,0,0
30708,-133.333333333333,4,3,0,20,0,0
31208,-100,4,3,0,20,0,0
31708,-133.333333333333,4,3,0,20,0,0
32208,-100,4,3,0,20,0,0
32708,-66.6666666666667,4,3,0,20,0,0
33208,-100,4,3,0,20,0,0
35208,-66.6666666666667,4,3,0,20,0,0
41208,-100,4,3,0,20,0,0
47208,-50,4,3,0,20,0,0
47708,-66.6666666666667,4,3,0,20,0,0
52208,-50,4,3,0,20,0,0
53208,-66.6666666666667,4,3,0,20,0,0
55208,-50,4,3,0,20,0,0
58458,-66.6666666666667,4,3,0,20,0,0
61208,-40,4,3,0,20,0,0
63208,-66.6666666666667,4,3,0,50,0,1
70708,-66.6666666666667,4,3,0,50,0,0
71208,-66.6666666666667,4,3,0,50,0,1
77208,-66.6666666666667,4,3,0,50,0,0
79208,-50,4,3,0,50,0,1
94708,-40,4,3,0,50,0,1
95208,-66.6666666666667,4,3,0,20,0,0
95958,-50,4,3,0,20,0,0
101208,-66.6666666666667,4,3,0,20,0,0
103958,-100,4,3,0,20,0,0
105208,-50,4,3,0,20,0,0
105708,-150,4,3,0,20,0,0
106208,-50,4,3,0,20,0,0
106708,-150,4,3,0,20,0,0
107333,-66.6666666666667,4,3,0,20,0,0
108581,-50,4,3,0,20,0,0
108708,-50,4,3,0,5,0,0
108958,-50,4,3,0,20,0,0
109085,-50,4,3,0,5,0,0
109208,-50,4,3,0,20,0,0
109708,-150,4,3,0,20,0,0
110208,-50,4,3,0,20,0,0
110708,-150,4,3,0,20,0,0
111833,-66.6666666666667,4,3,0,20,0,0
112708,-57.1428571428571,4,3,0,20,0,0
112833,-57.1428571428571,4,3,0,5,0,0
112958,-57.1428571428571,4,3,0,20,0,0
113083,-57.1428571428571,4,3,0,5,0,0
113208,-50,4,3,0,20,0,0
113708,-150,4,3,0,20,0,0
114208,-50,4,3,0,20,0,0
118583,-133.333333333333,4,3,0,20,0,0
118833,-66.6666666666667,4,3,0,20,0,0
119208,-40,4,3,0,20,0,0
120458,-100,4,3,0,20,0,0
121208,-50,4,3,0,20,0,0
122458,-100,4,3,0,20,0,0
123708,-66.6666666666667,4,3,0,20,0,0
129208,-50,4,3,0,20,0,0
130708,-66.6666666666667,4,3,0,20,0,0
131208,-50,4,3,0,20,0,0
132708,-66.6666666666667,4,3,0,20,0,0
133208,-50,4,3,0,20,0,0

[HitObjects]
225,266,458,5,0,0:0:0:0:
240,210,708,1,0,0:0:0:0:
207,130,958,1,0,0:0:0:0:
274,35,1208,6,0,L|450:52,1,150
121,28,2208,2,0,L|297:45,1,150
292,251,3208,5,0,0:0:0:0:
243,164,3333,2,0,L|239:104,1,50
301,258,3583,2,0,L|305:318,1,50
362,360,3833,1,0,0:0:0:0:
200,295,3958,6,0,B|95:259|113:359|8:327,1,200
161,371,4583,1,0,0:0:0:0:
41,251,4708,2,0,P|24:197|24:169,1,50
25,125,4958,1,0,0:0:0:0:
89,40,5208,6,0,P|149:14|188:151,1,225.000008583069
205,145,5708,2,0,P|255:117|247:140,1,150
234,227,6208,6,0,P|174:201|135:338,1,225.000008583069
118,332,6708,2,0,P|68:304|76:327,1,150
182,369,7208,1,0,0:0:0:0:
261,335,7333,1,0,0:0:0:0:
338,378,7458,1,0,0:0:0:0:
412,330,7583,2,0,L|422:266,1,50
369,208,7833,2,0,L|359:144,1,50
412,86,8083,2,0,L|422:22,1,50
349,172,8333,2,0,L|299:179,1,50
264,50,8583,6,0,L|319:84,1,50
451,164,8708,2,0,L|442:350,1,150
436,321,8958,2,0,L|428:171,1,150
248,335,9208,6,0,P|172:375|106:348,1,150
264,249,9708,2,0,P|273:294|264:330,1,75.0000028610231
182,168,10208,6,0,P|185:82|241:38,1,150
248,224,10708,2,0,P|204:209|177:183,1,75.0000028610231
258,222,11208,5,0,0:0:0:0:
173,191,11333,1,0,0:0:0:0:
176,102,11458,1,0,0:0:0:0:
261,78,11583,1,0,0:0:0:0:
311,151,11708,1,0,0:0:0:0:
385,93,11833,2,0,L|461:82,1,50
330,340,12083,2,0,L|254:329,1,50
201,252,12333,2,0,L|125:241,1,50
72,164,12583,1,0,0:0:0:0:
231,153,12708,6,0,P|245:55|230:-2,1,150
245,0,12958,2,0,P|322:61|379:76,1,150
395,178,13208,6,0,P|342:193|309:229,1,100
306,303,13583,1,0,0:0:0:0:
481,289,13708,2,0,P|477:208|367:171,1,200
303,305,14208,6,0,B|168:315|168:315|168:358|129:384,1,200
216,100,14583,2,0,B|292:211|292:211|329:190|371:211,1,200,0|0,2:0|2:0,2:0:0:0:
82,278,14958,6,0,B|140:156|140:156|103:134|100:87,1,200
90,268,15583,1,0,0:0:0:0:
108,348,15708,5,0,0:0:0:0:
219,308,15958,1,0,0:0:0:0:
334,354,16208,5,0,0:0:0:0:
418,142,16583,1,0,0:0:0:0:
400,222,16708,5,0,0:0:0:0:
289,182,16958,1,0,0:0:0:0:
174,228,17208,5,0,0:0:0:0:
90,16,17583,1,0,0:0:0:0:
108,96,17708,5,0,0:0:0:0:
219,56,17958,1,0,0:0:0:0:
338,21,18208,2,0,L|347:99,1,50
220,74,18583,1,0,0:0:0:0:
244,175,18708,2,0,L|253:253,1,50
150,329,19208,5,0,0:0:0:0:
276,224,27208,5,0,0:0:0:0:
285,255,28708,1,0,0:0:0:0:
165,284,28958,1,0,0:0:0:0:
299,236,29208,6,0,L|312:339,1,100
344,361,29583,1,0,0:0:0:0:
271,163,29708,2,0,P|210:163|195:172,1,75
348,175,30208,2,0,P|378:122|374:69,1,100
337,13,30583,1,0,0:0:0:0:
428,215,30708,2,0,L|515:206,1,75.0000028610231
501,218,31208,6,0,L|492:333,1,100
477,343,31583,1,0,0:0:0:0:
341,289,31708,2,0,P|283:286|259:299,1,75.0000028610231
259,308,32208,2,0,P|205:329|155:311,1,100
193,95,32708,6,0,L|205:249,1,150.000005722046
276,170,33208,2,0,L|376:147,1,100
447,197,33583,1,0,0:0:0:0:
282,243,33708,2,0,L|286:171,1,50
287,74,33958,6,0,P|222:44|184:65,1,100
145,127,34458,2,0,P|80:157|42:136,1,100
14,86,34958,1,0,0:0:0:0:
80,266,35208,6,0,B|168:238|139:317|251:273,1,150.000005722046
281,255,35583,1,0,0:0:0:0:
211,168,35708,2,0,P|210:123|217:92,1,75.0000028610231
289,264,35958,2,0,P|290:301|283:338,1,75.0000028610231
325,163,36208,5,0,0:0:0:0:
325,169,36458,2,0,P|392:153|430:137,1,75.0000028610231
289,264,36708,2,0,P|269:330|264:370,1,75.0000028610231
224,185,36958,2,0,P|176:134|143:110,1,75.0000028610231
63,67,37208,6,0,P|212:29|239:19,1,150.000005722046
288,82,37583,2,0,P|326:231|336:258,1,150.000005722046
273,307,37958,2,0,P|124:345|97:355,1,150.000005722046,0|0,3:0|3:0,3:0:0:0:
39,359,38458,1,0,0:0:0:0:
57,307,38583,1,0,0:0:0:0:
155,249,38708,5,0,0:0:0:0:
130,164,38958,1,0,0:0:0:0:
63,67,39208,6,0,B|101:72|103:49|127:54|127:54|158:54|158:54|169:41|169:41|187:40|187:40|198:47|228:25,1,150.000005722046
288,82,39583,2,0,B|285:109|285:109|283:120|295:115|295:115|306:122|301:146|301:146|295:153|295:153|301:177|301:177|314:188|314:188|321:207|321:207|308:217|319:235,1,150.000005722046
273,307,39958,2,0,B|250:318|250:318|249:327|249:327|230:317|223:308|215:322|215:322|210:331|210:331|208:320|197:329|197:329|192:320|186:325|178:316|165:336|165:336|171:346|157:342|139:340|134:343|132:345,1,150.000005722046,0|0,3:0|3:0,3:0:0:0:
39,359,40458,1,0,0:0:0:0:
57,307,40583,1,0,0:0:0:0:
155,249,40708,5,0,0:0:0:0:
130,164,40958,1,0,0:0:0:0:
219,184,41208,6,0,P|323:182|338:182,1,100
434,74,41583,2,0,P|384:73|334:72,1,100
431,288,41958,2,0,P|442:231|396:143,1,150
325,125,42458,1,0,0:0:0:0:
250,163,42583,1,0,0:0:0:0:
172,117,42708,2,0,L|165:66,1,50
252,175,42958,2,0,L|245:226,1,50
193,295,43208,5,0,0:0:0:0:
288,366,43333,2,0,L|281:315,1,50
261,235,43583,1,0,0:0:0:0:
343,261,43708,5,0,0:0:0:0:
357,182,43833,2,0,L|350:131,1,50
388,64,44083,1,0,0:0:0:0:
327,125,44208,5,0,0:0:0:0:
294,115,44333,1,0,0:0:0:0:
261,125,44458,1,0,0:0:0:0:
228,115,44583,1,0,0:0:0:0:
200,131,44708,5,0,0:0:0:0:
158,118,44833,1,0,0:0:0:0:
117,131,44958,1,0,0:0:0:0:
76,118,45083,1,0,0:0:0:0:
121,244,45208,6,0,P|166:222|173:221,1,50
288,341,45458,2,0,P|264:333|243:319,1,50
299,333,45708,1,0,0:0:0:0:
290,150,45833,2,0,P|291:172|289:203,1,50
321,183,46083,1,0,0:0:0:0:
312,0,46208,2,0,P|313:22|311:53,1,50
232,86,46458,2,0,P|210:87|179:85,1,50,0|0,3:0|3:0,3:0:0:0:
0,6,46708,6,0,P|22:5|53:7,1,50
86,86,46958,2,0,P|87:108|85:139,1,50,0|0,3:0|3:0,3:0:0:0:
21,226,47208,6,0,B|128:193|104:284|220:237,1,200
241,218,47583,1,0,0:0:0:0:
65,297,47708,2,0,P|61:345|65:376,1,75.0000028610231
165,168,47958,2,0,P|169:120|165:89,1,75.0000028610231
63,11,48208,6,0,P|161:26|242:11,1,150.000005722046
266,3,48583,1,0,0:0:0:0:
224,113,48708,6,0,L|226:200,1,75.0000028610231
288,279,48958,2,0,L|290:366,1,75.0000028610231
339,192,49208,6,0,P|402:171|434:297,1,225.000008583069
426,299,49708,6,0,P|383:293|349:304,1,75.0000028610231
362,116,49958,2,0,P|335:150|327:185,1,75.0000028610231
218,102,50208,1,0,0:0:0:0:
130,137,50333,1,0,0:0:0:0:
61,72,50458,2,0,P|50:36|26:7,1,75.0000028610231
118,166,50708,2,0,P|85:147|48:144,1,75.0000028610231
224,192,50958,2,0,P|188:202|159:226,1,75.0000028610231
317,135,51208,6,0,P|298:167|345:289,1,150.000005722046
388,302,51583,1,0,0:0:0:0:
196,288,51708,2,0,P|147:304|118:319,1,75.0000028610231
390,203,51958,2,0,P|439:219|468:234,1,75.0000028610231
212,183,52208,6,0,P|197:134|193:41,1,100
216,12,52458,1,0,0:0:0:0:
269,66,52583,1,0,0:0:0:0:
338,34,52708,2,0,P|423:31|448:31,1,100
203,188,52958,2,0,P|118:191|93:191,1,100
376,261,53208,6,0,P|369:308|370:344,1,75.0000028610231
476,200,53458,2,0,P|475:162|469:125,1,75.0000028610231
403,62,53708,1,0,0:0:0:0:
336,124,53833,6,0,L|254:133,1,75.0000028610231
172,143,54083,1,0,0:0:0:0:
105,205,54208,6,0,L|23:214,1,75.0000028610231
196,231,54458,2,0,B|219:263|219:263|216:319,1,75.0000028610231
261,132,54708,2,0,B|277:96|277:96|327:70,1,75.0000028610231
143,126,54958,2,0,B|103:129|103:129|56:99,1,75.0000028610231
119,322,55208,6,0,B|223:291|213:378|321:341,1,200
383,298,55583,1,0,0:0:0:0:
303,140,55708,2,0,B|286:195|286:195|313:273,1,100
459,230,55958,2,0,B|472:189|472:189|455:134,1,100
383,56,56208,1,0,0:0:0:0:
324,79,56333,1,0,0:0:0:0:
262,57,56458,1,0,0:0:0:0:
189,88,56583,1,0,0:0:0:0:
106,53,56708,6,0,B|52:43|52:43|-20:93,1,100
14,315,56958,2,0,B|51:341|51:341|106:331,1,100
327,176,57208,6,0,P|218:172|125:205,1,200
70,266,57583,1,0,0:0:0:0:
142,210,57708,6,0,P|145:105|144:100,1,100
335,188,57958,2,0,P|331:237|339:287,1,100
399,356,58207,1,0,0:0:0:0:
328,320,58333,1,0,0:0:0:0:
259,357,58458,6,0,P|212:358|183:344,1,75.0000028610231
141,189,58708,2,0,P|163:147|190:129,1,75.0000028610231
90,288,58958,2,0,L|-3:320,1,75.0000028610231
267,239,59208,5,0,0:0:0:0:
333,289,59333,1,0,0:0:0:0:
401,242,59458,1,0,0:0:0:0:
378,162,59583,1,0,0:0:0:0:
294,160,59708,5,0,0:0:0:0:
335,219,59958,1,0,0:0:0:0:
113,76,60208,5,0,0:0:0:0:
52,155,60333,1,0,0:0:0:0:
109,236,60458,1,0,0:0:0:0:
205,209,60583,1,0,0:0:0:0:
207,108,60708,5,0,0:0:0:0:
136,157,60958,1,0,0:0:0:0:
206,368,61208,6,0,L|219:297,1,62.5
222,228,61333,2,0,P|203:149|137:77,1,125
306,368,61583,6,0,L|293:297,1,62.5
290,228,61708,2,0,P|309:149|375:77,1,125
345,351,61958,6,0,L|304:292,1,62.5
257,241,62083,2,0,P|188:199|90:194,1,125
166,351,62333,6,0,L|207:292,1,62.5
254,241,62458,2,0,P|323:199|421:194,1,125
473,198,62708,5,0,0:0:0:0:
429,109,62958,1,0,0:0:0:0:
349,271,63208,6,0,P|283:287|248:288,1,75.0000028610231
172,260,63458,2,0,P|114:224|88:200,1,75.0000028610231
279,118,63708,6,0,P|325:167|344:196,1,75.0000028610231
357,276,63958,2,0,P|355:343|347:377,1,75.0000028610231
182,256,64208,6,0,P|201:190|217:160,1,75.0000028610231
280,108,64458,2,0,P|339:75|373:65,1,75.0000028610231
302,332,64708,6,0,P|282:266|266:236,1,75.0000028610231
204,184,64958,2,0,P|144:151|110:141,1,75.0000028610231
148,351,65208,6,0,P|180:291|190:257,1,75.0000028610231
235,162,65458,2,0,P|267:102|277:68,1,75.0000028610231
351,0,65708,6,0,P|383:59|393:93,1,75.0000028610231
438,189,65958,2,0,P|470:248|480:282,1,75.0000028610231
330,367,66208,5,0,0:0:0:0:
284,278,66333,1,0,0:0:0:0:
385,289,66458,2,0,P|327:294|291:292,1,75.0000028610231
243,196,66708,2,0,P|185:191|149:193,1,75.0000028610231
101,289,66958,2,0,P|43:294|7:292,1,75.0000028610231
347,113,67208,6,0,P|352:171|350:207,1,75.0000028610231
195,330,67458,2,0,P|242:296|274:280,1,75.0000028610231
459,354,67708,2,0,P|406:329|376:309,1,75.0000028610231
146,72,67958,1,0,0:0:0:0:
53,354,68208,6,0,P|105:329|135:309,1,75.0000028610231
366,72,68458,1,0,0:0:0:0:
201,262,68708,2,0,P|153:228|121:212,1,75.0000028610231
48,180,68958,2,0,P|43:238|45:274,1,75.0000028610231
128,115,69208,6,0,P|127:77|123:40,1,75.0000028610231
204,159,69458,2,0,P|230:132|253:102,1,75.0000028610231
226,243,69708,2,0,P|263:242|300:238,1,75.0000028610231
182,317,69958,2,0,P|208:343|238:366,1,75.0000028610231
268,89,70208,6,0,P|258:125|253:162,1,75.0000028610231
508,49,70458,2,0,P|471:58|437:72,1,75.0000028610231
198,190,70708,5,0,0:0:0:0:
378,209,70833,1,0,0:0:0:0:
385,35,70958,2,0,P|358:61|335:91,1,75.0000028610231
265,313,71208,6,0,P|274:349|288:383,1,75.0000028610231
266,307,71458,2,0,P|284:339|307:369,1,75.0000028610231
320,101,71708,6,0,P|310:64|296:30,1,75.0000028610231
319,107,71958,2,0,P|300:74|277:44,1,75.0000028610231
265,300,72208,6,0,P|291:326|321:349,1,75.0000028610231
320,114,72458,2,0,P|293:87|263:64,1,75.0000028610231
262,294,72708,6,0,P|294:312|328:327,1,75.0000028610231
323,120,72958,2,0,P|290:101|256:86,1,75.0000028610231
104,84,73208,6,0,P|67:93|32:107,1,75.0000028610231
319,130,73458,2,0,P|286:111|252:96,1,75.0000028610231
278,277,73708,6,0,P|311:258|341:236,1,75.0000028610231
425,114,73958,2,0,P|435:77|441:40,1,75.0000028610231
170,168,74208,5,0,0:0:0:0:
319,130,74333,1,0,0:0:0:0:
104,84,74458,6,0,P|67:93|32:107,1,75.0000028610231
160,367,74708,6,0,L|172:273,1,75.0000028610231
30,116,74958,2,0,L|39:190,1,75.0000028610231
143,189,75208,6,0,P|192:168|236:171,1,75.0000028610231
283,250,75458,2,0,P|332:271|376:268,1,75.0000028610231
447,216,75708,2,0,P|468:167|465:123,1,75.0000028610231
249,86,75958,2,0,P|228:135|231:179,1,75.0000028610231
430,359,76208,5,0,0:0:0:0:
263,86,76458,2,0,P|284:135|281:179,1,75.0000028610231
82,359,76708,5,0,0:0:0:0:
222,183,76958,6,0,B|258:169|258:169|293:182,1,75.0000028610231
389,236,77208,1,0,0:0:0:0:
388,238,77458,2,0,L|476:292,1,75.0000028610231
457,146,77708,2,0,L|385:164,1,75.0000028610231
329,112,77958,2,0,L|369:49,1,75.0000028610231
206,38,78208,6,0,L|223:110,1,75.0000028610231
140,184,78458,2,0,L|76:144,1,75.0000028610231
261,178,78708,6,0,L|188:239,1,75.0000028610231
63,55,78958,2,0,L|120:6,1,75.0000028610231
271,168,79208,6,0,P|275:296|272:313,1,100
248,343,79458,1,0,0:0:0:0:
337,327,79583,1,0,0:0:0:0:
423,347,79708,6,0,P|423:297|430:247,1,100
465,172,79958,1,0,0:0:0:0:
430,92,80083,1,0,0:0:0:0:
464,16,80208,6,0,P|414:15|364:8,1,100,0|0,3:0|3:0,3:0:0:0:
248,71,80458,2,0,P|198:71|148:78,1,100,0|0,3:0|3:0,3:0:0:0:
465,8,80708,6,0,P|415:7|365:0,1,100,0|0,3:0|3:0,3:0:0:0:
243,81,80958,2,0,P|193:81|143:88,1,100,0|0,3:0|3:0,3:0:0:0:
416,234,81208,6,0,P|416:184|423:134,1,100,0|0,3:0|3:0,3:0:0:0:
129,99,81458,2,0,P|79:98|29:91,1,100,0|0,3:0|3:0,3:0:0:0:
220,314,81708,1,0,3:0:0:0:
294,225,81833,1,0,3:0:0:0:
220,314,81958,6,0,P|269:314|319:321,1,100,0|0,3:0|3:0,3:0:0:0:
391,56,82208,2,0,L|400:163,1,100
292,124,82458,2,0,L|283:231,1,100
175,55,82708,2,0,L|183:154,1,100
76,123,82958,2,0,L|67:230,1,100
75,249,83208,6,0,L|239:240,1,150
318,259,83458,1,0,0:0:0:0:
232,286,83583,1,0,0:0:0:0:
314,164,83708,6,0,P|305:97|307:35,1,100
316,50,83958,2,0,P|365:51|415:59,1,100
248,243,84208,6,0,P|301:201|356:172,1,100
347,187,84458,2,0,P|370:230|388:277,1,100
146,225,84708,6,0,P|208:250|261:283,1,100
244,283,84958,2,0,P|217:325|186:364,1,100
239,99,85208,5,0,0:0:0:0:
242,108,85458,2,0,P|305:118|355:58,1,100
398,40,85708,2,0,P|461:30|511:90,1,100
512,112,85958,1,0,0:0:0:0:
427,237,86083,1,0,0:0:0:0:
242,115,86208,6,0,L|102:132,1,100
241,107,86458,2,0,L|101:124,1,100
51,137,86708,1,0,0:0:0:0:
136,262,86833,1,0,0:0:0:0:
256,56,86958,2,0,L|245:168,1,100
311,307,87208,6,0,B|373:301|373:301|413:250,1,100
440,157,87458,2,0,B|377:162|377:162|337:213,1,100
201,307,87708,6,0,B|138:301|138:301|98:250,1,100
72,157,87958,2,0,B|134:162|134:162|174:213,1,100
230,359,88208,6,0,L|217:249,1,100
300,147,88458,2,0,L|313:37,1,100
282,359,88708,6,0,L|295:249,1,100
212,147,88958,2,0,L|199:37,1,100
418,147,89208,6,0,L|318:158,1,100
188,246,89458,2,0,L|88:234,1,100
418,237,89708,6,0,L|318:225,1,100
188,138,89958,2,0,L|88:149,1,100
81,154,90208,6,0,P|104:104|71:66,1,100
160,164,90458,2,0,P|110:141|72:174,1,100
172,85,90708,2,0,P|149:135|182:173,1,100
92,74,90958,2,0,P|142:97|180:64,1,100
256,26,91208,6,0,L|389:33,1,100
451,38,91458,1,0,0:0:0:0:
362,49,91583,1,0,0:0:0:0:
465,138,91708,2,0,P|471:25|460:3,1,100
408,337,91958,2,0,P|402:224|413:202,1,100
451,148,92208,2,0,P|457:35|446:13,1,100
432,330,92458,2,0,P|426:217|437:195,1,100
325,138,92708,6,0,P|194:179|172:211,1,100
127,234,92958,2,0,P|-4:193|-26:161,1,100
184,174,93208,5,0,0:0:0:0:
221,271,93333,1,0,0:0:0:0:
155,351,93458,1,0,0:0:0:0:
176,174,93708,5,0,0:0:0:0:
221,267,93833,1,0,0:0:0:0:
162,353,93958,1,0,0:0:0:0:
226,264,94208,6,0,B|232:166|232:166|337:124|337:124|344:25,1,300
170,274,94708,6,0,B|208:157|208:157|349:140|349:140|389:23,1,375
330,250,95208,2,0,L|348:371,1,75.0000028610231
368,129,95458,2,0,L|379:54,1,75.0000028610231
426,207,95708,2,0,L|500:218,1,75.0000028610231
276,147,95958,6,0,B|127:66|150:255|1:170,1,300
58,51,96458,2,0,P|23:191|30:355,1,300
61,362,96958,1,0,0:0:0:0:
296,183,97708,5,0,0:0:0:0:
274,279,97958,1,0,0:0:0:0:
237,31,98208,1,0,0:0:0:0:
251,38,98458,1,0,0:0:0:0:
266,44,98708,1,0,0:0:0:0:
43,85,98958,1,0,0:0:0:0:
421,160,99208,5,0,0:0:0:0:
288,357,99458,1,0,0:0:0:0:
91,224,99708,1,0,0:0:0:0:
224,27,99958,1,0,0:0:0:0:
318,176,100208,5,0,0:0:0:0:
214,203,100333,1,0,0:0:0:0:
110,230,100458,1,0,0:0:0:0:
183,295,100583,1,0,0:0:0:0:
123,32,100708,5,0,0:0:0:0:
123,32,100958,1,0,0:0:0:0:
110,346,101208,6,0,P|237:310|380:313,1,225.000008583069
331,295,102208,2,0,P|218:301|111:334,1,225.000008583069
81,359,103208,5,0,0:0:0:0:
168,305,103333,2,0,P|201:243|205:209,1,75.0000028610231
17,207,103583,2,0,P|16:244|26:280,1,75.0000028610231
91,326,103833,1,0,0:0:0:0:
272,139,103958,2,0,B|179:94|174:181|80:140,1,200
39,84,104583,1,0,0:0:0:0:
297,160,104708,6,0,L|304:243,1,50
458,294,105208,2,0,P|397:351|319:206,1,300
305,208,105708,2,0,P|369:241|352:274,1,100
245,116,106208,2,0,P|306:173|384:28,1,300
398,30,106708,2,0,P|334:63|351:96,1,100
413,105,107208,5,0,0:0:0:0:
321,159,107333,1,0,0:0:0:0:
219,125,107458,1,0,0:0:0:0:
141,190,107583,2,0,L|63:193,1,75.0000028610231
385,156,107833,2,0,L|307:153,1,75.0000028610231
135,196,108083,2,0,L|57:199,1,75.0000028610231
251,360,108333,2,0,L|248:282,1,75.0000028610231
261,66,108583,6,0,L|265:149,1,50
230,216,108708,6,0,P|131:236|37:225,1,150
82,243,108958,2,0,P|156:243|229:260,1,150
337,308,109208,6,0,P|397:343|488:186,1,300
494,178,109708,2,0,P|426:149|390:155,1,100
387,168,110208,6,0,P|422:108|265:17,1,300
257,11,110708,2,0,P|228:79|234:115,1,100
296,164,111208,1,0,0:0:0:0:
223,118,111333,5,0,0:0:0:0:
219,198,111458,1,0,0:0:0:0:
305,81,111583,5,0,0:0:0:0:
313,1,111708,1,0,0:0:0:0:
293,258,111833,2,0,L|302:342,1,75.0000028610231
452,376,112083,2,0,L|377:368,1,75.0000028610231
208,289,112333,2,0,L|133:296,1,75.0000028610231
52,356,112583,1,0,0:0:0:0:
305,220,112708,6,0,L|318:66,1,131.250001251698
317,228,112958,2,0,L|329:359,1,131.250001251698
400,98,113208,6,0,B|266:19|239:191|110:98,1,300
106,86,113708,2,0,P|119:147|105:189,1,100
66,271,114208,2,0,P|151:321|165:246,1,200
186,153,114583,2,0,P|271:103|285:178,1,200
297,257,114958,2,0,L|508:225,1,200
473,253,115583,1,0,0:0:0:0:
459,104,115708,5,0,0:0:0:0:
74,116,115958,1,0,0:0:0:0:
110,124,116083,1,0,0:0:0:0:
147,132,116208,1,0,0:0:0:0:
183,141,116333,1,0,0:0:0:0:
220,149,116458,1,0,0:0:0:0:
20,135,116708,5,0,0:0:0:0:
50,312,116958,1,0,0:0:0:0:
242,317,117208,5,0,0:0:0:0:
37,332,117458,1,0,0:0:0:0:
374,124,117708,1,0,0:0:0:0:
294,156,117958,1,0,0:0:0:0:
285,192,118083,1,0,0:0:0:0:
277,229,118208,1,0,0:0:0:0:
284,232,118458,1,0,0:0:0:0:
195,313,118583,6,0,P|233:305|240:300,1,37.5000014305115
210,169,118833,2,0,P|200:232|226:261,1,75.0000028610231
512,237,119208,2,0,P|413:209|251:252,1,250
277,269,120458,6,0,P|279:236|251:224,1,50
211,158,120708,2,0,P|183:139|159:158,1,50
81,159,120958,2,0,P|51:173|55:204,1,50
153,285,121208,6,0,P|99:258|99:358,1,200
270,182,121583,2,0,P|266:121|179:171,1,200
417,231,121958,2,0,P|467:197|380:147,1,200
315,213,122458,6,0,P|255:207|268:183,1,100
266,188,122958,1,0,0:0:0:0:
127,350,123208,6,0,P|161:335|191:335,2,50
257,355,123583,1,0,0:0:0:0:
145,261,123708,2,0,P|143:176|174:119,1,150
254,93,124083,1,0,0:0:0:0:
140,269,124208,6,0,P|85:280|61:281,1,75.0000028610231
170,101,124458,2,0,P|225:90|249:89,1,75.0000028610231
342,283,124708,6,0,P|287:294|263:295,1,75.0000028610231
372,115,124958,2,0,P|427:104|451:103,1,75.0000028610231
361,126,125208,6,0,B|285:158|284:66|190:121,1,150.000005722046
185,129,125583,1,0,0:0:0:0:
380,272,125708,2,0,P|390:216|377:191,1,75.0000028610231
153,254,125958,2,0,P|143:310|156:335,1,75.0000028610231
177,125,126208,6,0,B|68:131|68:131|34:182,1,150.000005722046
202,35,126583,2,0,B|311:41|311:41|345:92,1,150.000005722046
396,145,126958,2,0,L|286:158,1,75.0000028610231
263,354,127208,6,0,P|263:317|232:300,1,75.0000028610231
178,215,127458,2,0,P|208:196|208:160,1,75.0000028610231
96,301,127708,6,0,L|19:321,1,75.0000028610231
215,157,127958,2,0,L|287:175,1,75.0000028610231
421,213,128208,1,0,0:0:0:0:
414,217,128458,6,0,P|387:255|394:287,1,75.0000028610231
359,140,128708,2,0,P|312:135|288:157,1,75.0000028610231
398,53,128958,2,0,P|378:10|347:0,1,75.0000028610231
292,151,129208,6,0,P|398:141|423:47,1,200
273,243,129583,2,0,P|229:340|298:409,1,200
202,181,129958,2,0,P|140:94|46:119,1,200
112,178,130458,1,0,0:0:0:0:
265,241,130583,1,0,0:0:0:0:
309,93,130708,6,0,L|329:11,1,75.0000028610231
109,188,130958,2,0,L|126:260,1,75.0000028610231
426,196,131208,2,0,B|313:165|334:248|217:217,1,200
404,66,131583,2,0,P|384:168|378:273,1,200
387,383,131958,2,0,P|380:283|360:185,1,200
304,103,132458,1,0,0:0:0:0:
366,180,132583,1,0,0:0:0:0:
494,60,132708,6,0,P|443:77|404:95,1,75.0000028610231
261,193,132958,2,0,P|210:176|171:158,1,75.0000028610231
48,59,133208,6,0,B|98:83|101:100|115:140|84:137|84:137|87:175|48:185|88:255,1,200
87,298,133583,2,0,B|159:304|159:304|175:275|187:309|217:337|232:286|261:284|305:282,1,200
340,141,133958,2,0,B|359:210|337:227|339:232|339:244|333:275|353:297|391:282|387:314|431:330|472:317|506:278|494:247|430:245,1,300
390,214,134458,2,0,B|339:187|313:329|230:137|260:325|192:223|186:252|159:269,1,200
106,242,134833,1,0,0:0:0:0:
