osu file format v14

[General]
AudioFilename: audio.mp3
AudioLeadIn: 0
PreviewTime: -1
Countdown: 1
SampleSet: None
StackLeniency: 0.7
Mode: 0
LetterboxInBreaks: 0
WidescreenStoryboard: 0

[Editor]
DistanceSpacing: 1
BeatDivisor: 4
GridSize: 4
TimelineZoom: 1

[Metadata]
Title:
TitleUnicode:Ngày Xuân Long Phụng
Artist:Ng
ArtistUnicode:Ngày Xuân Long Phụng
Creator:Ebisumat
Version:Easy
Source:
Tags:
BeatmapID:1551408
BeatmapSetID:734862

[Difficulty]
HPDrainRate:5
CircleSize:5
OverallDifficulty:5
ApproachRate:5
SliderMultiplier:0.600000005960464
SliderTickRate:1

[Events]
//Background and Video events
0,0,"maxresdefault (2).jpg",0,0
//Break Periods
2,74975,79698
2,121527,125616
2,128916,137544
2,179267,186629
//Storyboard Layer 0 (Background)
//Storyboard Layer 1 (Fail)
//Storyboard Layer 2 (Pass)
//Storyboard Layer 3 (Foreground)
//Storyboard Sound Samples

[TimingPoints]
3523.46478873239,422.235211267606,4,1,0,100,1,0

[HitObjects]
72,48,6690,5,0,0:0:0:0:
184,48,8906,1,0,0:0:0:0:
256,48,9962,1,0,0:0:0:0:
328,48,11123,1,0,0:0:0:0:
408,48,12073,1,0,0:0:0:0:
392,128,13762,5,0,0:0:0:0:
324,136,14607,1,0,0:0:0:0:
248,136,15451,1,0,0:0:0:0:
172,144,16296,1,0,0:0:0:0:
96,148,17246,1,0,0:0:0:0:
144,68,19251,5,0,0:0:0:0:
140,144,20096,1,0,0:0:0:0:
136,232,20940,1,0,0:0:0:0:
400,44,22946,5,0,0:0:0:0:
404,144,23896,1,0,0:0:0:0:
408,236,26640,1,0,0:0:0:0:
104,52,29385,2,0,L|312:48,2,195.000001937151
408,68,33502,2,0,L|412:232,1,165.000001639128
376,224,35930,2,0,L|164:136,2,225.000002235174
168,144,40257,2,0,L|168:292,1,135.000001341104
192,284,42052,2,0,L|404:280,1,210.000002086163
408,256,44480,2,0,L|480:124,2,150.000001490116
476,124,47330,2,0,L|324:84,2,150.000001490116
128,88,51024,6,0,L|156:248,2,150.000001490116
200,228,53452,2,0,L|356:176,2,165.000001639128
388,152,55563,2,0,L|448:288,2,135.000001341104
424,284,57464,2,0,L|240:276,1,180.000001788139
224,272,59258,2,0,L|160:156,2,120.000001192093
164,136,61158,2,0,L|340:64,2,180.000001788139
352,80,63269,2,0,L|428:196,2,135.000001341104
416,208,65486,2,0,L|296:284,1,135.000001341104
264,284,66964,2,0,L|176:212,2,105.000001043081
176,208,68547,2,0,L|264:112,2,120.000001192093
272,112,70342,2,0,L|400:96,1,120.000001192093
48,168,73192,2,0,L|276:128,1,225.000002235174
420,52,80898,6,0,L|88:296,1,405.000004023313
88,296,84381,2,0,L|464:64,1,435.000004321337
464,64,88076,2,0,L|460:300,1,225.000002235174
456,292,89976,2,0,L|168:124,1,330.000003278255
256,192,94409,12,0,94620,0:0:0:0:
256,192,97470,12,0,98209,0:0:0:0:
144,124,100743,5,0,0:0:0:0:
280,132,101693,1,0,0:0:0:0:
384,128,102432,1,0,0:0:0:0:
416,156,105282,5,0,0:0:0:0:
288,164,105915,1,0,0:0:0:0:
180,164,106548,1,0,0:0:0:0:
72,212,107076,1,0,0:0:0:0:
152,100,110032,5,0,0:0:0:0:
256,104,110560,1,0,0:0:0:0:
356,100,111087,1,0,0:0:0:0:
428,120,111826,1,0,0:0:0:0:
424,96,112671,5,0,0:0:0:0:
368,184,113093,1,0,0:0:0:0:
212,200,113515,1,0,0:0:0:0:
200,128,113937,1,0,0:0:0:0:
268,100,114254,1,0,0:0:0:0:
336,184,115415,5,0,0:0:0:0:
192,244,115732,1,0,0:0:0:0:
112,152,116154,1,0,0:0:0:0:
256,88,116682,1,0,0:0:0:0:
392,108,117632,5,0,0:0:0:0:
344,216,117949,1,0,0:0:0:0:
328,216,118265,1,0,0:0:0:0:
276,144,119004,1,0,0:0:0:0:
392,88,120271,5,0,0:0:0:0:
384,168,120693,1,0,0:0:0:0:
368,224,121327,1,0,0:0:0:0:
320,152,126816,5,0,0:0:0:0:
160,132,127238,1,0,0:0:0:0:
176,28,127660,1,0,0:0:0:0:
340,56,127977,1,0,0:0:0:0:
276,152,128399,1,0,0:0:0:0:
160,264,128716,1,0,0:0:0:0:
132,64,138744,6,0,L|340:288,1,300.000002980232
444,92,141383,2,0,L|100:304,1,405.000004023313
112,296,144550,2,0,L|232:92,1,225.000002235174
232,92,146450,2,0,L|408:236,1,225.000002235174
136,120,148983,1,0,0:0:0:0:
332,112,149405,1,0,0:0:0:0:
424,112,149722,1,0,0:0:0:0:
372,256,150250,1,0,0:0:0:0:
364,120,151728,5,0,0:0:0:0:
164,188,152044,1,0,0:0:0:0:
184,288,152361,1,0,0:0:0:0:
224,284,152783,5,0,0:0:0:0:
240,104,156267,1,0,0:0:0:0:
348,108,156689,1,0,0:0:0:0:
432,112,157111,1,0,0:0:0:0:
436,200,157428,1,0,0:0:0:0:
472,100,158589,5,0,0:0:0:0:
320,132,159011,1,0,0:0:0:0:
160,152,159750,1,0,0:0:0:0:
264,88,161650,5,0,0:0:0:0:
368,120,162283,1,0,0:0:0:0:
364,88,164183,5,0,0:0:0:0:
260,144,164711,1,0,0:0:0:0:
140,208,165239,1,0,0:0:0:0:
148,96,168300,6,0,L|388:304,1,315.000003129244
256,192,172628,12,0,172734,0:0:0:0:
256,192,174106,12,0,177484,0:0:0:0:
256,192,178751,12,0,179067,0:0:0:0:
32,64,187829,5,0,0:0:0:0:
