osu file format v14

[General]
AudioFilename: Helblinde - Life starts at 200bpm - 12 Grief & Malice.mp3
AudioLeadIn: 0
PreviewTime: -1
Countdown: 0
SampleSet: None
StackLeniency: 0.7
Mode: 0
LetterboxInBreaks: 1
WidescreenStoryboard: 0

[Editor]
Bookmarks: 16800,45600,60000,73200,78000,85200,92400,102000,111600,164400,174000,183600,207600,212400,217200,222000
DistanceSpacing: 1
BeatDivisor: 4
GridSize: 8
TimelineZoom: 1

[Metadata]
Title:Cheat
TitleUnicode:Cheat
Artist:Next
ArtistUnicode:Next
Creator:caren_sk
Version:CRN is Girl
Source:
Tags:
BeatmapID:1543030
BeatmapSetID:731150

[Difficulty]
HPDrainRate:6
CircleSize:4
OverallDifficulty:8
ApproachRate:10
SliderMultiplier:1.7
SliderTickRate:1

[Events]
//Background and Video events
0,0,"BG.jpg",0,0
//Break Periods
//Storyboard Layer 0 (Background)
//Storyboard Layer 1 (Fail)
//Storyboard Layer 2 (Pass)
//Storyboard Layer 3 (Foreground)
//Storyboard Sound Samples

[TimingPoints]
0,300,4,1,0,100,1,0
111600,-80,4,3,0,40,0,1
132000,-66.6666666666667,4,3,0,40,0,0
133200,-66.6666666666667,4,3,0,40,0,1
150600,-200,4,3,0,40,0,1
152400,-100,4,3,0,40,0,1
154800,-100,4,3,0,40,0,0
183600,-80,4,3,0,40,0,1
202800,-80,4,3,0,40,0,0

[HitObjects]
309,130,111600,6,0,P|401:84|515:85,1,212.5,0|0,0:0|0:0,0:0:0:0:
264,204,112050,2,0,P|206:207|155:200,1,106.25,0|0,0:0|0:0,0:0:0:0:
19,160,112350,1,0,0:0:0:0:
124,268,112500,2,0,L|110:379,1,106.25,0|0,0:0|0:0,0:0:0:0:
146,124,112800,1,0,0:0:0:0:
13,287,112950,1,0,0:0:0:0:
188,383,113100,2,0,L|202:272,1,106.25
301,22,113400,6,0,L|315:133,1,106.25
342,296,113700,1,0,0:0:0:0:
512,192,113850,1,0,0:0:0:0:
445,383,114000,2,0,L|431:272,1,106.25
389,74,114300,1,0,0:0:0:0:
256,224,114450,1,0,0:0:0:0:
507,311,114600,1,0,0:0:0:0:
324,383,114750,1,0,0:0:0:0:
324,383,114825,1,0,0:0:0:0:
324,383,114900,2,0,L|310:272,1,106.25
211,22,115200,6,0,L|197:133,1,106.25
170,296,115500,1,0,0:0:0:0:
0,192,115650,1,0,0:0:0:0:
67,383,115800,2,0,L|81:272,1,106.25
104,68,116100,1,0,0:0:0:0:
256,320,116250,1,0,0:0:0:0:
408,68,116400,1,0,0:0:0:0:
386,178,116550,1,0,0:0:0:0:
491,131,116700,2,0,P|499:189|491:249,1,106.25
378,357,117000,5,0,0:0:0:0:
322,254,117150,2,0,P|380:246|440:254,1,106.25
289,145,117450,1,0,0:0:0:0:
256,320,117600,2,0,P|198:328|138:320,1,106.25
18,337,117900,2,0,P|13:284|21:231,1,106.25
48,99,118200,1,0,0:0:0:0:
189,261,118350,1,0,0:0:0:0:
224,95,118500,1,0,0:0:0:0:
91,285,118650,1,0,0:0:0:0:
256,320,118800,6,0,P|263:263|256:210,1,106.25
217,24,119100,1,0,0:0:0:0:
14,200,119250,1,0,0:0:0:0:
189,261,119400,2,0,P|196:204|189:151,1,106.25
155,95,119625,1,0,0:0:0:0:
155,95,119700,2,0,L|43:100,1,106.25
357,289,120000,2,0,L|469:284,1,106.25
407,44,120300,1,0,0:0:0:0:
512,148,120450,1,0,0:0:0:0:
323,206,120600,6,0,P|316:149|323:96,1,106.25
217,21,120900,2,0,P|224:78|217:131,1,106.25
198,197,121125,1,0,0:0:0:0:
198,197,121200,2,0,P|141:204|88:197,1,106.25
0,152,121500,1,0,0:0:0:0:
82,377,121650,2,0,L|99:272,1,106.25
129,104,121950,1,0,0:0:0:0:
208,304,122100,1,0,0:0:0:0:
329,54,122250,1,0,0:0:0:0:
406,221,122400,6,0,L|516:217,1,106.25
304,304,122700,1,0,0:0:0:0:
128,144,122850,2,0,L|18:148,1,106.25
208,304,123150,1,0,0:0:0:0:
384,144,123300,2,0,L|494:148,1,106.25
326,227,123600,1,0,0:0:0:0:
189,58,123750,1,0,0:0:0:0:
21,147,123900,2,0,L|128:144,1,106.25
304,16,124200,5,0,0:0:0:0:
384,297,124350,1,0,0:0:0:0:
490,147,124500,2,0,L|384:144,1,106.25
130,203,124800,2,0,P|121:141|125:96,1,106.25
387,97,125100,2,0,P|390:150|382:203,1,106.25
86,266,125400,2,0,P|47:216|28:175,1,106.25
483,177,125700,2,0,P|459:225|426:265,1,106.25
386,328,125925,1,0,0:0:0:0:
386,328,126000,6,0,L|509:337,1,106.25
345,199,126300,1,0,0:0:0:0:
200,305,126450,1,0,0:0:0:0:
297,353,126600,2,0,P|304:295|294:233,1,106.25
280,184,126825,1,0,0:0:0:0:
280,184,126900,2,0,L|157:193,1,106.25
85,143,127200,1,0,0:0:0:0:
200,305,127350,1,0,0:0:0:0:
27,360,127500,2,0,P|21:305|30:240,1,106.25
217,82,127800,6,0,P|223:137|214:202,1,106.25
217,187,128025,1,0,0:0:0:0:
217,187,128100,1,0,0:0:0:0:
85,143,128250,1,0,0:0:0:0:
427,241,128400,1,0,0:0:0:0:
137,287,128550,1,0,0:0:0:0:
289,317,128700,6,0,P|294:264|289:211,1,106.25
289,211,128924,1,0,0:0:0:0:
289,211,128999,1,0,0:0:0:0:
137,287,129150,1,0,0:0:0:0:
372,79,129300,1,0,0:0:0:0:
457,314,129450,1,0,0:0:0:0:
512,155,129600,6,0,L|387:170,1,106.25
406,167,129825,1,0,0:0:0:0:
406,167,129900,1,0,0:0:0:0:
279,37,130050,1,0,0:0:0:0:
178,231,130200,1,0,0:0:0:0:
0,155,130350,5,0,0:0:0:0:
0,155,130425,1,0,0:0:0:0:
0,155,130500,2,0,L|125:170,1,106.25
221,296,130800,2,0,L|96:311,1,106.25
291,296,131100,2,0,L|416:311,1,106.25
254,370,131400,1,0,0:0:0:0:
178,231,131550,1,0,0:0:0:0:
371,138,131700,1,0,0:0:0:0:
113,97,131850,1,0,0:0:0:0:
254,14,132000,5,0,0:0:0:0:
140,165,132150,1,0,0:0:0:0:
334,223,132300,1,0,0:0:0:0:
254,370,132450,1,0,0:0:0:0:
254,370,132600,1,0,0:0:0:0:
140,165,133050,5,0,0:0:0:0:
431,12,133200,2,0,P|463:124|417:261,1,255.000009727478
358,342,133650,2,0,L|491:334,1,127.500004863739
256,192,133950,1,0,0:0:0:0:
40,247,134100,2,0,P|24:183|37:114,1,127.500004863739
478,123,134400,2,0,P|487:185|472:247,1,127.500004863739
256,320,134700,2,0,L|256:192,1,127.500004863739
256,24,135000,5,0,0:0:0:0:
184,192,135150,1,0,0:0:0:0:
352,88,135300,1,0,0:0:0:0:
160,88,135450,1,0,0:0:0:0:
328,192,135600,1,0,0:0:0:0:
128,272,135750,1,0,0:0:0:0:
472,311,135900,2,0,P|488:247|475:178,1,127.500004863739
33,187,136200,2,0,P|23:249|39:310,1,127.500004863739
256,384,136500,2,0,L|256:256,1,127.500004863739
256,24,136800,5,0,0:0:0:0:
328,192,136950,1,0,0:0:0:0:
160,88,137100,1,0,0:0:0:0:
352,88,137250,1,0,0:0:0:0:
184,192,137400,1,0,0:0:0:0:
384,272,137550,1,0,0:0:0:0:
40,311,137700,2,0,P|24:249|33:187,1,127.500004863739
479,187,138000,2,0,P|488:249|472:310,1,127.500004863739
256,384,138299,2,0,L|256:256,1,127.500004863739
256,24,138600,5,0,0:0:0:0:
184,192,138750,1,0,0:0:0:0:
160,88,138900,2,0,P|89:93|29:102,1,127.500004863739
352,88,139200,2,0,P|423:93|483:102,1,127.500004863739
256,384,139500,2,0,L|256:256,1,127.500004863739
256,24,139800,5,0,0:0:0:0:
184,192,139950,1,0,0:0:0:0:
352,88,140100,1,0,0:0:0:0:
160,88,140250,1,0,0:0:0:0:
328,192,140400,2,0,L|353:332,1,127.500004863739,0|0,0:0|0:0,0:0:0:0:
161,317,140700,2,0,L|184:192,1,127.500004863739,0|0,0:0|0:0,0:0:0:0:
256,24,141000,5,0,0:0:0:0:
352,88,141150,2,0,L|478:108,1,127.500004863739
256,256,141450,1,0,0:0:0:0:
160,88,141600,2,0,L|34:108,1,127.500004863739
256,24,141900,2,0,L|256:176,1,127.500004863739
256,368,142200,5,0,0:0:0:0:
120,248,142350,1,0,0:0:0:0:
471,311,142500,2,0,P|487:249|478:187,1,127.500004863739
32,187,142800,2,0,P|23:249|39:310,1,127.500004863739
256,384,143099,2,0,L|256:256,1,127.500004863739
256,24,143400,5,0,0:0:0:0:
328,192,143550,1,0,0:0:0:0:
160,88,143700,1,0,0:0:0:0:
352,88,143850,1,0,0:0:0:0:
184,192,144000,2,0,L|159:332,1,127.500004863739,0|0,0:0|0:0,0:0:0:0:
350,317,144300,2,0,L|328:192,1,127.500004863739,0|0,0:0|0:0,0:0:0:0:
256,24,144600,5,0,0:0:0:0:
160,88,144750,2,0,L|34:108,1,127.500004863739
256,256,145050,1,0,0:0:0:0:
352,88,145200,2,0,L|478:108,1,127.500004863739
256,24,145500,2,0,L|256:176,1,127.500004863739
256,368,145800,5,0,0:0:0:0:
392,248,145950,1,0,0:0:0:0:
40,311,146100,2,0,P|24:249|33:187,1,127.500004863739
479,187,146400,2,0,P|488:249|472:310,1,127.500004863739
256,384,146699,2,0,L|256:256,1,127.500004863739
256,24,147000,5,0,0:0:0:0:
184,192,147150,1,0,0:0:0:0:
352,88,147300,1,0,0:0:0:0:
160,88,147450,1,0,0:0:0:0:
328,192,147600,2,0,L|353:332,1,127.500004863739,0|0,0:0|0:0,0:0:0:0:
161,317,147900,2,0,L|184:192,1,127.500004863739,0|0,0:0|0:0,0:0:0:0:
464,261,148200,6,0,L|486:135,1,127.500004863739,0|0,0:0|0:0,0:0:0:0:
25,135,148500,2,0,L|48:261,1,127.500004863739,0|0,0:0|0:0,0:0:0:0:
256,384,148800,2,0,L|256:240,1,127.500004863739
256,0,149100,2,0,L|256:144,1,127.500004863739
256,320,149400,5,0,0:0:0:0:
256,64,149550,1,0,0:0:0:0:
346,174,149700,2,0,L|480:185,1,127.500004863739
166,174,150000,2,0,L|32:185,1,127.500004863739
328,104,150300,5,0,0:0:0:0:
256,232,150450,1,0,0:0:0:0:
339,299,150600,2,0,P|353:239|345:171,1,127.5
184,104,151200,1,0,0:0:0:0:
256,232,151350,1,0,0:0:0:0:
173,299,151500,2,0,P|159:239|167:171,1,127.5
256,24,152100,5,0,0:0:0:0:
256,152,152250,1,0,0:0:0:0:
328,104,152400,2,0,L|422:114,1,85
184,104,152700,2,0,L|90:114,1,85
33,52,153000,1,0,0:0:0:0:
149,180,153150,1,0,0:0:0:0:
10,271,153300,1,0,0:0:0:0:
99,112,153450,1,0,0:0:0:0:
275,246,153600,1,0,0:0:0:0:
275,246,153675,1,0,0:0:0:0:
275,246,153750,1,0,0:0:0:0:
275,246,153825,1,0,0:0:0:0:
275,246,153900,1,0,0:0:0:0:
275,246,153975,1,0,0:0:0:0:
275,246,154050,1,0,0:0:0:0:
275,246,154125,1,0,0:0:0:0:
275,246,154200,1,0,0:0:0:0:
275,246,154275,1,0,0:0:0:0:
275,246,154350,1,0,0:0:0:0:
275,246,154425,1,0,0:0:0:0:
275,246,154500,5,0,0:0:0:0:
