osu file format v14

[General]
AudioFilename: audio.mp3
AudioLeadIn: 0
PreviewTime: 26128
Countdown: 0
SampleSet: Soft
StackLeniency: 0.4
Mode: 0
LetterboxInBreaks: 0
WidescreenStoryboard: 1

[Editor]
DistanceSpacing: 1
BeatDivisor: 2
GridSize: 8
TimelineZoom: 2.4

[Metadata]
Title:Zero (Cut Ver.)
TitleUnicode:Zero (Cut Ver.)
Artist:NewJeans
ArtistUnicode:뉴진스
Creator:Nabori
Version:Normal
Source:
Tags:kpop k pop k-pop korean pop ador hybe ent entertainment nwjns new jeans coca cola cocacola commercial diet coke ad advertisement single ep 민지 minji 하니 hanni 다니엘 danielle 해린 haerin 혜인 hyein short version syph Yamakudzi chuuwon jennifer jennglebells coca-cola
BeatmapID:4087722
BeatmapSetID:1968652

[Difficulty]
HPDrainRate:3
CircleSize:3
OverallDifficulty:4
ApproachRate:6
SliderMultiplier:1
SliderTickRate:1

[Events]
//Background and Video events
0,0,"bg.jpg",0,0
//Break Periods
2,44965,48803
//Storyboard Layer 0 (Background)
//Storyboard Layer 1 (Fail)
//Storyboard Layer 2 (Pass)
//Storyboard Layer 3 (Foreground)
//Storyboard Layer 4 (Overlay)
//Storyboard Sound Samples

[TimingPoints]
-29,348.837209302325,4,2,1,50,1,0
22291,-100,4,2,1,50,0,0
22296,-100,4,2,1,55,0,0
32756,-100,4,2,1,55,0,0
32761,-100,4,2,1,60,0,0
44622,-100,4,2,1,60,0,0
54389,-100,4,2,1,35,0,0
55784,-90.9090909090909,4,2,2,75,0,0
56482,-90.9090909090909,4,2,2,75,0,1
66947,-90.9090909090909,4,2,2,75,0,0
67645,-90.9090909090909,4,2,2,75,0,1
78110,-90.9090909090909,4,2,2,75,0,0

[Colours]
Combo1 : 255,170,213
Combo2 : 213,213,255
Combo3 : 255,64,64
Combo4 : 255,191,128

[HitObjects]
28,82,11133,5,2,3:0:0:0:
111,137,11482,2,0,L|208:119,1,100,8|2,0:0|3:0,0:0:0:0:
281,48,12180,2,0,L|333:38,1,50,2|0,0:0|0:0,0:0:0:0:
375,61,12529,2,0,L|472:43,1,100,2|10,0:0|0:0,0:0:0:0:
492,140,13226,2,0,L|394:157,1,100,2|2,0:0|0:0,0:0:0:0:
366,201,13750,1,2,0:0:0:0:
366,201,13924,2,0,L|267:218,1,100,2|10,0:0|0:0,0:0:0:0:
70,253,14970,6,0,L|79:305,1,50,2|2,0:0|0:0,0:0:0:0:
116,335,15319,2,0,P|159:311|208:317,1,100,2|10,0:0|0:0,0:0:0:0:
300,356,16017,2,0,P|344:375|393:364,1,100,2|10,0:0|0:0,0:0:0:0:
432,332,16540,1,2,3:0:0:0:
432,332,16715,2,0,P|411:286|423:238,1,100,2|10,0:0|0:0,0:0:0:0:
385,44,17761,6,0,L|333:34,1,50,2|2,0:0|0:0,0:0:0:0:
290,55,18110,2,0,L|193:37,1,100,2|10,0:0|0:0,0:0:0:0:
99,0,18807,2,0,L|82:98,1,100,2|2,0:0|0:0,0:0:0:0:
46,133,19331,1,2,0:0:0:0:
46,133,19505,2,0,L|29:232,1,100,2|10,0:0|0:0,0:0:0:0:
127,252,20203,2,0,L|144:153,1,100,2|2,3:0|3:0,0:0:0:0:
242,174,20901,2,0,L|225:273,1,100,2|8,3:0|0:0,0:0:0:0:
246,324,21424,1,2,0:0:0:0:
246,324,21598,2,0,L|236:376,2,50,2|10|10,0:0|0:0|0:0,0:0:0:0:
336,279,22296,5,0,3:0:0:0:
433,305,22645,2,0,L|451:202,1,100,8|2,0:0|3:0,0:0:0:0:
480,111,23343,2,0,L|430:102,1,50,2|2,0:0|0:0,0:0:0:0:
384,120,23691,1,2,0:0:0:0:
321,42,24040,2,0,L|271:33,1,50,10|2,0:0|3:0,0:0:0:0:
228,58,24389,2,0,L|130:41,1,100,2|2,0:0|0:0,0:0:0:0:
86,62,24913,1,2,0:0:0:0:
86,62,25087,2,0,L|69:161,2,100,2|10|2,0:0|0:0|3:0,0:0:0:0:
176,19,26133,6,0,L|228:27,1,50,2|2,0:0|0:0,0:0:0:0:
260,63,26482,1,2,0:0:0:0:
342,6,26831,2,0,L|391:15,1,50,10|2,0:0|3:0,0:0:0:0:
427,50,27180,2,0,L|444:150,1,100,2|10,0:0|0:0,0:0:0:0:
484,188,27703,1,2,3:0:0:0:
484,188,27877,2,0,L|501:287,1,100,2|10,0:0|0:0,0:0:0:0:
437,364,28575,6,0,L|388:355,1,50,2|10,0:0|0:0,0:0:0:0:
360,313,28924,1,2,0:0:0:0:
261,327,29273,2,0,L|162:309,1,100,2|10,0:0|0:0,0:0:0:0:
97,233,29970,6,0,L|105:184,1,50,2|10,0:0|0:0,0:0:0:0:
79,141,30319,1,2,0:0:0:0:
140,62,30668,2,0,P|191:70|235:48,1,100,2|10,0:0|0:0,0:0:0:0:
324,7,31366,6,0,L|373:16,1,50,2|10,0:0|0:0,0:0:0:0:
423,10,31715,1,2,0:0:0:0:
475,95,32064,2,0,L|457:194,1,100,2|10,0:0|0:0,0:0:0:0:
392,270,32761,6,0,L|343:261,1,50,2|10,3:0|0:0,0:0:0:0:
310,223,33110,2,0,L|261:214,1,50,10|2,0:0|0:0,0:0:0:0:
213,230,33459,1,2,1:2:0:0:
133,170,33808,2,0,L|143:116,2,50,10|2|2,0:0|0:0|3:0,0:0:0:0:
90,191,34331,1,10,3:2:0:0:
90,191,34505,2,0,L|79:249,1,50,2|2,0:0|3:0,0:0:0:0:
50,279,34854,5,0,1:3:0:0:
111,357,35203,2,0,L|159:365,1,50,10|2,0:0|0:0,0:0:0:0:
203,339,35552,2,0,L|251:347,1,50,2|10,3:0|3:2,0:0:0:0:
293,377,35901,1,2,0:0:0:0:
379,326,36250,6,0,L|387:276,1,50,2|2,1:3|0:0,0:0:0:0:
364,232,36598,2,0,L|372:182,1,50,10|2,0:0|3:0,0:0:0:0:
412,151,36947,2,0,L|420:101,1,50,2|10,3:0|0:0,0:0:0:0:
402,55,37296,2,0,P|355:64|307:39,1,100,2|2,0:0|1:2,0:0:0:0:
219,0,37994,5,10,0:0:0:0:
131,48,38343,2,0,B|139:95|139:95|141:96|141:96|150:145,2,100,2|10|2,0:0|0:0|1:2,0:0:0:0:
219,0,39389,1,10,0:0:0:0:
297,62,39738,6,0,L|351:52,1,50,2|10,0:0|0:0,0:0:0:0:
381,17,40087,2,0,L|435:7,1,50,2|2,0:0|0:0,0:0:0:0:
473,34,40436,1,2,1:2:0:0:
420,118,40784,1,10,0:0:0:0:
463,208,41133,6,0,L|512:216,2,50,2|10|2,0:0|0:0|0:0,0:0:0:0:
428,244,41657,1,2,0:0:0:0:
428,244,41831,1,2,1:2:0:0:
475,332,42180,1,10,0:0:0:0:
387,380,42529,2,0,L|338:371,1,50,2|10,0:0|0:0,0:0:0:0:
307,332,42877,2,0,L|258:323,1,50,2|2,0:0|0:0,0:0:0:0:
211,342,43226,5,2,1:2:0:0:
136,276,43575,2,0,B|144:228|144:228|146:227|146:227|155:178,2,100,10|2|10,0:0|0:0|0:0,0:0:0:0:
52,331,44622,1,10,0:0:0:0:
256,192,50203,12,2,54389,0:0:0:0:
256,192,55784,5,6,2:0:0:0:
256,192,56482,6,0,L|310:182,1,55.0000016784668,2|8,1:3|0:0,0:0:0:0:
347,141,56831,2,0,L|401:131,1,55.0000016784668,2|2,3:2|3:0,0:0:0:0:
452,152,57180,2,0,B|471:260,1,110.000003356934,2|10,1:2|0:0,0:0:0:0:
422,359,57877,1,2,3:2:0:0:
319,319,58226,2,0,L|261:330,1,55.0000016784668,2|0,1:2|3:2,0:0:0:0:
215,353,58575,6,0,L|104:333,1,110.000003356934,2|2,1:2|0:0,0:0:0:0:
31,253,59273,2,0,L|41:198,1,55.0000016784668,2|8,1:3|0:0,0:0:0:0:
75,156,59622,2,0,L|85:101,1,55.0000016784668,2|2,3:0|3:0,0:0:0:0:
122,61,59970,2,0,B|230:80,1,110.000003356934,2|10,1:2|0:0,0:0:0:0:
324,138,60668,1,2,0:0:0:0:
260,228,61017,2,0,L|206:238,1,55.0000016784668,2|2,1:2|3:2,0:0:0:0:
165,275,61366,6,0,P|151:327|173:376,1,110.000003356934,2|2,1:2|0:0,0:0:0:0:
282,361,62064,2,0,L|337:351,1,55.0000016784668,2|8,3:0|0:0,0:0:0:0:
373,311,62412,2,0,L|428:301,1,55.0000016784668,2|2,3:0|3:0,0:0:0:0:
464,260,62761,2,0,P|442:209|454:157,1,110.000003356934,2|10,1:2|0:0,0:0:0:0:
489,116,63284,1,2,1:3:0:0:
489,116,63459,2,0,L|478:57,1,55.0000016784668,2|8,0:0|0:0,0:0:0:0:
444,19,63808,1,2,1:2:0:0:
357,87,64157,6,0,B|274:100|274:100|248:89,1,110.000003356934,2|10,1:2|0:0,0:0:0:0:
204,63,64680,1,2,3:0:0:0:
204,63,64854,2,0,B|180:52|180:52|97:66,1,110.000003356934,2|2,1:2|3:2,0:0:0:0:
70,115,65377,6,0,L|15:124,2,55.0000016784668,2|2|2,0:0|1:2|0:0,0:0:0:0:
100,162,65901,2,0,L|110:219,1,55.0000016784668,10|2,0:0|1:2,0:0:0:0:
91,268,66250,2,0,L|102:330,1,55.0000016784668,2|10,0:0|0:0,0:0:0:0:
134,364,66598,1,2,1:2:0:0:
239,51,67645,6,0,L|294:41,1,55.0000016784668,6|8,0:0|0:0,0:0:0:0:
341,68,67994,2,0,L|395:58,1,55.0000016784668,2|2,3:0|3:0,0:0:0:0:
445,36,68343,2,0,P|426:86|446:136,1,110.000003356934,2|10,1:2|0:0,0:0:0:0:
511,226,69040,1,2,3:0:0:0:
478,331,69389,2,0,L|424:322,1,55.0000016784668,2|2,1:2|0:0,0:0:0:0:
386,282,69738,6,0,P|342:308|282:300,1,110.000003356934,6|10,0:0|0:0,0:0:0:0:
228,208,70436,2,0,L|174:199,1,55.0000016784668,6|8,0:0|0:0,0:0:0:0:
130,232,70784,2,0,L|76:223,1,55.0000016784668,2|2,3:0|3:0,0:0:0:0:
35,186,71133,2,0,P|44:132|19:84,1,110.000003356934,2|10,1:2|0:0,0:0:0:0:
91,0,71831,1,2,3:2:0:0:
171,75,72180,2,0,L|230:64,1,55.0000016784668,2|2,1:2|0:0,0:0:0:0:
257,20,72529,6,0,L|367:0,1,110.000003356934,6|10,0:0|0:0,0:0:0:0:
459,57,73227,2,0,L|468:113,1,55.0000016784668,6|8,0:0|0:0,0:0:0:0:
442,160,73575,2,0,L|451:216,1,55.0000016784668,2|2,3:0|3:0,0:0:0:0:
471,265,73924,2,0,P|418:255|366:281,1,110.000003356934,2|10,1:2|0:0,0:0:0:0:
330,317,74447,1,2,1:2:0:0:
330,317,74622,2,0,L|276:307,1,55.0000016784668,2|8,0:0|0:0,0:0:0:0:
231,274,74971,1,2,1:2:0:0:
244,165,75319,6,0,B|192:155|192:155|190:157|190:157|134:147,1,110.000003356934,6|10,0:0|0:0,0:0:0:0:
89,172,75843,1,2,3:0:0:0:
89,172,76017,2,0,L|79:227,1,55.0000016784668,6|10,0:0|3:2,0:0:0:0:
101,276,76366,2,0,L|91:331,1,55.0000016784668,2|2,0:0|0:0,0:0:0:0:
125,373,76715,6,0,B|178:363|178:363|180:365|180:365|236:355,1,110.000003356934,2|10,1:2|0:0,0:0:0:0:
279,324,77238,1,2,1:2:0:0:
279,324,77413,2,0,L|334:314,1,55.0000016784668,2|10,3:0|0:0,0:0:0:0:
383,337,77761,2,0,L|438:327,1,55.0000016784668,2|2,1:2|3:0,0:0:0:0:
