osu file format v14

[General]
AudioFilename: audio.ogg
AudioLeadIn: 0
PreviewTime: 2348
Countdown: 0
SampleSet: Soft
StackLeniency: 0.7
Mode: 3
LetterboxInBreaks: 0
SpecialStyle: 0
WidescreenStoryboard: 1

[Editor]
DistanceSpacing: 0.5
BeatDivisor: 3
GridSize: 32
TimelineZoom: 1

[Metadata]
Title:Get Up
TitleUnicode:Get Up
Artist:NewJeans
ArtistUnicode:뉴진스
Creator:Ilham
Version:7K Advanced
Source:
Tags:2nd EP ADOR HYBE 하이브 Entertainment 민지 MINJI 하니 HANNI 다니엘 DANIELLE 해린 HAERIN 혜인 HYEIN freekind. 250 English Korean Pop K-Pop Kpop slow lounge
BeatmapID:4286179
BeatmapSetID:2052165

[Difficulty]
HPDrainRate:7.5
CircleSize:7
OverallDifficulty:7.5
ApproachRate:5
SliderMultiplier:1.4
SliderTickRate:1

[Events]
//Background and Video events
0,0,"BG.jpg",0,0
//Break Periods
//Storyboard Layer 0 (Background)
//Storyboard Layer 1 (Fail)
//Storyboard Layer 2 (Pass)
//Storyboard Layer 3 (Foreground)
//Storyboard Layer 4 (Overlay)
//Storyboard Sound Samples

[TimingPoints]
2348,500.0,4,2,1,50,1,0

[HitObjects]
51,192,348,128,0,1348:0:0:0:0:
182,192,348,128,0,848:0:0:0:0:
358,192,848,128,0,1348:0:0:0:0:
182,192,1348,128,0,1848:0:0:0:0:
475,192,1348,128,0,2348:0:0:0:0:
329,192,1848,128,0,2348:0:0:0:0:
109,192,2348,1,2,0:0:0:0:
402,192,2348,1,0,0:0:0:0:
256,192,2514,128,0,2848:0:0:0:0:
51,192,2848,128,4,3348:0:0:0:0:
256,192,3348,1,8,0:0:0:0:
460,192,3348,1,0,0:0:0:0:
153,192,3681,1,8,0:0:0:0:
402,192,3681,1,0,0:0:0:0:
460,192,3848,1,0,0:0:0:0:
256,192,4014,1,0,0:0:0:0:
358,192,4181,1,2,0:0:0:0:
402,192,4181,1,0,0:0:0:0:
51,192,4348,1,2,0:0:0:0:
109,192,4348,1,0,0:0:0:0:
329,192,4681,1,0,0:0:0:0:
192,192,4848,1,0,0:0:0:0:
402,192,5181,1,0,0:0:0:0:
64,192,5348,1,8,0:0:0:0:
256,192,5348,1,0,0:0:0:0:
320,192,5848,1,0,0:0:0:0:
109,192,6348,1,2,0:0:0:0:
192,192,6348,1,0,0:0:0:0:
329,192,6514,128,0,6848:0:0:0:0:
448,192,6848,128,4,7348:0:0:0:0:
64,192,7348,1,8,0:0:0:0:
256,192,7348,1,0,0:0:0:0:
358,192,7681,1,0,0:0:0:0:
153,192,7848,1,0,0:0:0:0:
358,192,8014,1,0,0:0:0:0:
51,192,8181,1,2,0:0:0:0:
109,192,8181,1,0,0:0:0:0:
460,192,8264,1,8,0:0:0:25:soft-hitclap.wav
256,192,8348,1,2,0:0:0:0:
402,192,8681,1,2,0:0:0:0:
448,192,8681,1,0,0:0:0:0:
182,192,8848,1,0,0:0:0:0:
36,192,9181,1,2,0:0:0:0:
109,192,9181,1,0,0:0:0:0:
256,192,9348,1,8,0:0:0:0:
402,192,9348,1,0,0:0:0:0:
358,192,9848,1,8,0:0:0:0:
475,192,9848,1,0,0:0:0:0:
36,192,10014,1,8,0:0:0:0:
109,192,10014,1,0,0:0:0:0:
402,192,10181,1,8,0:0:0:0:
475,192,10181,1,0,0:0:0:0:
109,192,10348,1,2,0:0:0:0:
153,192,10348,1,0,0:0:0:0:
329,192,10514,128,0,10848:0:0:0:0:
182,192,10848,128,4,11348:0:0:0:0:
51,192,11348,1,8,0:0:0:0:
460,192,11348,1,0,0:0:0:0:
256,192,11681,1,2,0:0:0:0:
329,192,11681,1,0,0:0:0:0:
109,192,11848,1,0,0:0:0:0:
329,192,12014,1,2,0:0:0:0:
402,192,12014,1,0,0:0:0:0:
402,192,12348,1,2,0:0:0:0:
460,192,12348,128,0,14348:0:0:0:0:
36,192,12848,1,0,0:0:0:0:
51,192,13348,1,8,0:0:0:0:
358,192,13348,1,0,0:0:0:0:
109,192,13848,1,0,0:0:0:0:
51,192,14348,128,2,15181:0:0:0:0:
329,192,14348,1,0,0:0:0:0:
182,192,14514,1,8,0:0:0:0:
329,192,14681,1,8,0:0:0:0:
460,192,14848,128,4,15181:0:0:0:0:
182,192,15181,1,2,0:0:0:0:
256,192,15181,1,0,0:0:0:0:
109,192,15348,1,8,0:0:0:0:
402,192,15348,1,0,0:0:0:0:
256,192,15514,1,2,0:0:0:0:
329,192,15514,1,0,0:0:0:0:
182,192,15681,1,8,0:0:0:0:
402,192,15681,1,0,0:0:0:0:
109,192,15848,1,0,0:0:0:0:
358,192,16181,1,2,0:0:0:0:
402,192,16181,1,0,0:0:0:0:
109,192,16348,1,2,0:0:0:0:
153,192,16348,1,0,0:0:0:0:
358,192,16514,128,0,16848:0:0:0:0:
51,192,16848,1,2,0:0:0:0:
109,192,16848,1,0,0:0:0:0:
402,192,17181,1,2,0:0:0:0:
475,192,17181,1,0,0:0:0:0:
329,192,17264,1,0,0:0:0:0:
51,192,17348,1,8,0:0:0:0:
256,192,17348,1,0,0:0:0:0:
36,192,17848,1,2,0:0:0:0:
182,192,17848,1,8,0:0:0:0:
358,192,18014,1,8,0:0:0:0:
475,192,18014,1,0,0:0:0:0:
109,192,18181,1,8,0:0:0:0:
153,192,18181,1,0,0:0:0:0:
358,192,18348,1,2,0:0:0:0:
402,192,18348,1,0,0:0:0:0:
36,192,18514,128,0,18848:0:0:0:0:
475,192,18848,128,4,19348:0:0:0:0:
36,192,19348,1,8,0:0:0:0:
256,192,19348,1,0,0:0:0:0:
109,192,19681,1,8,0:0:0:0:
329,192,19681,1,0,0:0:0:0:
36,192,19848,1,0,0:0:0:0:
256,192,20014,1,0,0:0:0:0:
109,192,20181,1,2,0:0:0:0:
182,192,20181,1,0,0:0:0:0:
402,192,20348,1,2,0:0:0:0:
475,192,20348,1,0,0:0:0:0:
182,192,20681,1,0,0:0:0:0:
329,192,20848,1,0,0:0:0:0:
109,192,21181,1,0,0:0:0:0:
256,192,21348,1,8,0:0:0:0:
475,192,21348,1,0,0:0:0:0:
182,192,21848,1,0,0:0:0:0:
329,192,22348,1,2,0:0:0:0:
402,192,22348,1,0,0:0:0:0:
182,192,22514,128,0,22848:0:0:0:0:
36,192,22848,128,4,23348:0:0:0:0:
256,192,23348,1,8,0:0:0:0:
475,192,23348,1,0,0:0:0:0:
182,192,23681,1,0,0:0:0:0:
329,192,23848,1,0,0:0:0:0:
182,192,24014,1,0,0:0:0:0:
402,192,24181,1,2,0:0:0:0:
475,192,24181,1,0,0:0:0:0:
36,192,24264,1,8,0:0:0:25:soft-hitclap.wav
256,192,24348,1,2,0:0:0:0:
36,192,24681,1,2,0:0:0:0:
109,192,24681,1,0,0:0:0:0:
329,192,24848,1,0,0:0:0:0:
402,192,25181,1,2,0:0:0:0:
475,192,25181,1,0,0:0:0:0:
109,192,25348,1,8,0:0:0:0:
256,192,25348,1,0,0:0:0:0:
36,192,25848,1,8,0:0:0:0:
182,192,25848,1,0,0:0:0:0:
402,192,26014,1,8,0:0:0:0:
475,192,26014,1,0,0:0:0:0:
109,192,26181,1,8,0:0:0:0:
182,192,26181,1,0,0:0:0:0:
329,192,26348,1,2,0:0:0:0:
402,192,26348,1,0,0:0:0:0:
182,192,26514,128,0,26848:0:0:0:0:
329,192,26848,128,4,27348:0:0:0:0:
36,192,27348,1,8,0:0:0:0:
475,192,27348,1,0,0:0:0:0:
182,192,27681,1,2,0:0:0:0:
256,192,27681,1,0,0:0:0:0:
402,192,27848,1,0,0:0:0:0:
109,192,28014,1,2,0:0:0:0:
182,192,28014,1,0,0:0:0:0:
36,192,28348,128,2,30348:0:0:0:0:
109,192,28348,1,0,0:0:0:0:
475,192,28848,1,0,0:0:0:0:
182,192,29348,1,8,0:0:0:0:
475,192,29348,1,0,0:0:0:0:
402,192,29848,1,0,0:0:0:0:
182,192,30348,1,2,0:0:0:0:
475,192,30348,128,0,31181:0:0:0:0:
329,192,30514,1,8,0:0:0:0:
182,192,30681,1,8,0:0:0:0:
36,192,30848,128,4,31181:0:0:0:0:
256,192,31181,1,2,0:0:0:0:
329,192,31181,1,0,0:0:0:0:
109,192,31348,1,8,0:0:0:0:
402,192,31348,1,0,0:0:0:0:
182,192,31514,1,2,0:0:0:0:
256,192,31514,1,0,0:0:0:0:
109,192,31681,1,8,0:0:0:0:
329,192,31681,1,0,0:0:0:0:
402,192,31848,1,0,0:0:0:0:
109,192,32181,1,2,0:0:0:0:
182,192,32181,1,0,0:0:0:0:
329,192,32348,1,2,0:0:0:0:
402,192,32348,1,0,0:0:0:0:
182,192,32514,128,0,32848:0:0:0:0:
402,192,32848,1,2,0:0:0:0:
475,192,32848,1,0,0:0:0:0:
36,192,33181,1,2,0:0:0:0:
109,192,33181,1,0,0:0:0:0:
182,192,33264,1,0,0:0:0:0:
256,192,33348,1,8,0:0:0:0:
475,192,33348,1,0,0:0:0:0:
329,192,33848,1,2,0:0:0:0:
475,192,33848,1,8,0:0:0:0:
36,192,34014,1,8,0:0:0:0:
182,192,34014,1,0,0:0:0:0:
329,192,34181,1,8,0:0:0:0:
402,192,34181,1,0,0:0:0:0:
