osu file format v14

[General]
AudioFilename: audio.ogg
AudioLeadIn: 0
PreviewTime: 2348
Countdown: 0
SampleSet: Soft
StackLeniency: 0.7
Mode: 3
LetterboxInBreaks: 0
SpecialStyle: 0
WidescreenStoryboard: 1

[Editor]
DistanceSpacing: 0.5
BeatDivisor: 3
GridSize: 32
TimelineZoom: 1

[Metadata]
Title:Get Up
TitleUnicode:Get Up
Artist:NewJeans
ArtistUnicode:뉴진스
Creator:Ilham
Version:5K Standard
Source:
Tags:2nd EP ADOR HYBE 하이브 Entertainment 민지 MINJI 하니 HANNI 다니엘 DANIELLE 해린 HAERIN 혜인 HYEIN freekind. 250 English Korean Pop K-Pop Kpop slow lounge
BeatmapID:4286174
BeatmapSetID:2052165

[Difficulty]
HPDrainRate:7
CircleSize:5
OverallDifficulty:7
ApproachRate:5
SliderMultiplier:1.4
SliderTickRate:1

[Events]
//Background and Video events
0,0,"BG.jpg",0,0
//Break Periods
//Storyboard Layer 0 (Background)
//Storyboard Layer 1 (Fail)
//Storyboard Layer 2 (Pass)
//Storyboard Layer 3 (Foreground)
//Storyboard Layer 4 (Overlay)
//Storyboard Sound Samples

[TimingPoints]
2348,500.0,4,2,1,50,1,0

[HitObjects]
153,192,348,128,0,848:0:0:0:0:
448,192,848,128,0,1348:0:0:0:0:
51,192,1348,128,0,1848:0:0:0:0:
256,192,1848,128,0,2348:0:0:0:0:
358,192,2348,1,2,0:0:0:0:
460,192,2348,1,0,0:0:0:0:
153,192,2848,1,4,0:0:0:0:
256,192,3348,1,8,0:0:0:0:
460,192,3348,1,0,0:0:0:0:
192,192,3681,1,8,0:0:0:0:
358,192,3681,1,0,0:0:0:0:
64,192,4181,1,2,0:0:0:0:
153,192,4181,1,0,0:0:0:0:
320,192,4348,1,2,0:0:0:0:
448,192,4348,1,0,0:0:0:0:
256,192,4848,1,0,0:0:0:0:
64,192,5348,1,8,0:0:0:0:
448,192,5348,1,0,0:0:0:0:
320,192,5848,1,0,0:0:0:0:
64,192,6348,1,2,0:0:0:0:
192,192,6348,1,0,0:0:0:0:
448,192,6848,1,4,0:0:0:0:
51,192,7348,1,8,0:0:0:0:
256,192,7348,1,0,0:0:0:0:
358,192,8181,1,2,0:0:0:0:
448,192,8181,1,0,0:0:0:0:
64,192,8348,1,2,0:0:0:0:
192,192,8348,1,0,0:0:0:0:
320,192,8681,1,2,0:0:0:0:
460,192,8681,1,0,0:0:0:0:
64,192,9181,1,2,0:0:0:0:
153,192,9181,1,0,0:0:0:0:
256,192,9348,1,8,0:0:0:0:
448,192,9348,1,0,0:0:0:0:
320,192,9848,1,8,0:0:0:0:
192,192,10014,1,8,0:0:0:0:
256,192,10181,1,8,0:0:0:0:
320,192,10348,1,2,0:0:0:0:
448,192,10348,1,0,0:0:0:0:
51,192,10848,1,4,0:0:0:0:
153,192,11348,1,8,0:0:0:0:
358,192,11348,1,0,0:0:0:0:
64,192,11681,1,2,0:0:0:0:
192,192,11681,1,0,0:0:0:0:
320,192,12014,1,2,0:0:0:0:
448,192,12014,1,0,0:0:0:0:
64,192,12348,128,2,14348:0:0:0:0:
460,192,12348,1,0,0:0:0:0:
192,192,12848,1,0,0:0:0:0:
358,192,13348,1,8,0:0:0:0:
448,192,13348,1,0,0:0:0:0:
192,192,13848,1,0,0:0:0:0:
358,192,14348,128,2,14848:0:0:0:0:
448,192,14348,128,0,15348:0:0:0:0:
153,192,14848,128,4,15348:0:0:0:0:
64,192,15348,1,8,0:0:0:0:
358,192,15348,1,0,0:0:0:0:
153,192,15681,1,8,0:0:0:0:
460,192,15681,1,0,0:0:0:0:
64,192,16181,1,2,0:0:0:0:
153,192,16181,1,0,0:0:0:0:
320,192,16348,1,2,0:0:0:0:
448,192,16348,1,0,0:0:0:0:
51,192,16848,1,2,0:0:0:0:
192,192,16848,1,0,0:0:0:0:
256,192,17181,1,2,0:0:0:0:
320,192,17181,1,0,0:0:0:0:
64,192,17348,1,8,0:0:0:0:
448,192,17348,1,0,0:0:0:0:
192,192,17848,1,10,0:0:0:0:
320,192,18014,1,8,0:0:0:0:
256,192,18181,1,8,0:0:0:0:
64,192,18348,1,2,0:0:0:0:
192,192,18348,1,0,0:0:0:0:
460,192,18848,1,4,0:0:0:0:
51,192,19348,1,8,0:0:0:0:
256,192,19348,1,0,0:0:0:0:
153,192,19681,1,8,0:0:0:0:
358,192,19681,1,0,0:0:0:0:
358,192,20181,1,2,0:0:0:0:
460,192,20181,1,0,0:0:0:0:
51,192,20348,1,2,0:0:0:0:
153,192,20348,1,0,0:0:0:0:
256,192,20848,1,0,0:0:0:0:
51,192,21348,1,8,0:0:0:0:
460,192,21348,1,0,0:0:0:0:
153,192,21848,1,0,0:0:0:0:
358,192,22348,1,2,0:0:0:0:
460,192,22348,1,0,0:0:0:0:
51,192,22848,1,4,0:0:0:0:
256,192,23348,1,8,0:0:0:0:
460,192,23348,1,0,0:0:0:0:
51,192,24181,1,2,0:0:0:0:
153,192,24181,1,0,0:0:0:0:
358,192,24348,1,2,0:0:0:0:
460,192,24348,1,0,0:0:0:0:
51,192,24681,1,2,0:0:0:0:
153,192,24681,1,0,0:0:0:0:
358,192,25181,1,2,0:0:0:0:
460,192,25181,1,0,0:0:0:0:
51,192,25348,1,8,0:0:0:0:
256,192,25348,1,0,0:0:0:0:
153,192,25848,1,8,0:0:0:0:
358,192,26014,1,8,0:0:0:0:
256,192,26181,1,8,0:0:0:0:
51,192,26348,1,2,0:0:0:0:
153,192,26348,1,0,0:0:0:0:
460,192,26848,1,4,0:0:0:0:
153,192,27348,1,8,0:0:0:0:
358,192,27348,1,0,0:0:0:0:
358,192,27681,1,2,0:0:0:0:
460,192,27681,1,0,0:0:0:0:
51,192,28014,1,2,0:0:0:0:
153,192,28014,1,0,0:0:0:0:
51,192,28348,1,2,0:0:0:0:
460,192,28348,128,0,30348:0:0:0:0:
358,192,28848,1,0,0:0:0:0:
51,192,29348,1,8,0:0:0:0:
153,192,29348,1,0,0:0:0:0:
358,192,29848,1,0,0:0:0:0:
51,192,30348,128,2,31348:0:0:0:0:
153,192,30348,128,0,30848:0:0:0:0:
358,192,30848,128,4,31348:0:0:0:0:
153,192,31348,1,8,0:0:0:0:
460,192,31348,1,0,0:0:0:0:
51,192,31681,1,8,0:0:0:0:
358,192,31681,1,0,0:0:0:0:
358,192,32181,1,2,0:0:0:0:
460,192,32181,1,0,0:0:0:0:
51,192,32348,1,2,0:0:0:0:
153,192,32348,1,0,0:0:0:0:
358,192,32848,1,2,0:0:0:0:
460,192,32848,1,0,0:0:0:0:
153,192,33181,1,2,0:0:0:0:
256,192,33181,1,0,0:0:0:0:
51,192,33348,1,8,0:0:0:0:
460,192,33348,1,0,0:0:0:0:
358,192,33848,1,10,0:0:0:0:
153,192,34014,1,8,0:0:0:0:
256,192,34181,1,8,0:0:0:0:
