osu file format v14

[General]
AudioFilename: audio.ogg
AudioLeadIn: 0
PreviewTime: 2348
Countdown: 0
SampleSet: Soft
StackLeniency: 0.7
Mode: 3
LetterboxInBreaks: 0
SpecialStyle: 0
WidescreenStoryboard: 0

[Editor]
DistanceSpacing: 0.5
BeatDivisor: 3
GridSize: 32
TimelineZoom: 1

[Metadata]
Title:Get Up
TitleUnicode:Get Up
Artist:NewJeans
ArtistUnicode:뉴진스
Creator:Ilham
Version:4K Beginner
Source:
Tags:2nd EP ADOR HYBE 하이브 Entertainment 민지 MINJI 하니 HANNI 다니엘 DANIELLE 해린 HAERIN 혜인 HYEIN freekind. 250 English Korean Pop K-Pop Kpop slow lounge
BeatmapID:4286168
BeatmapSetID:2052165

[Difficulty]
HPDrainRate:6.5
CircleSize:4
OverallDifficulty:6.5
ApproachRate:5
SliderMultiplier:1.4
SliderTickRate:1

[Events]
//Background and Video events
0,0,"BG.jpg",0,0
//Break Periods
//Storyboard Layer 0 (Background)
//Storyboard Layer 1 (Fail)
//Storyboard Layer 2 (Pass)
//Storyboard Layer 3 (Foreground)
//Storyboard Layer 4 (Overlay)
//Storyboard Sound Samples

[TimingPoints]
2348,500.0,4,2,1,50,1,0

[HitObjects]
192,192,348,128,0,1348:0:0:0:0:
320,192,1348,128,0,2348:0:0:0:0:
64,192,2348,1,2,0:0:0:0:
448,192,2848,1,4,0:0:0:0:
192,192,3348,1,8,0:0:0:0:
320,192,3681,1,8,0:0:0:0:
192,192,4348,128,2,4848:0:0:0:0:
320,192,4848,128,0,5348:0:0:0:0:
64,192,5348,128,8,5848:0:0:0:0:
448,192,5848,128,0,6348:0:0:0:0:
192,192,6348,1,2,0:0:0:0:
320,192,6848,1,4,0:0:0:0:
64,192,7348,1,8,0:0:0:0:
64,192,8348,128,2,8848:0:0:0:0:
320,192,8848,128,0,9348:0:0:0:0:
192,192,9348,128,8,9848:0:0:0:0:
448,192,9848,128,8,10348:0:0:0:0:
64,192,10348,1,2,0:0:0:0:
320,192,10848,1,4,0:0:0:0:
192,192,11348,1,8,0:0:0:0:
448,192,11681,1,2,0:0:0:0:
192,192,12014,1,2,0:0:0:0:
64,192,12348,128,2,14348:0:0:0:0:
320,192,13348,1,8,0:0:0:0:
448,192,14348,128,2,15348:0:0:0:0:
320,192,15348,1,8,0:0:0:0:
192,192,15681,1,8,0:0:0:0:
320,192,16348,128,2,16848:0:0:0:0:
64,192,16848,128,2,17348:0:0:0:0:
448,192,17348,1,8,0:0:0:0:
192,192,17848,128,10,18348:0:0:0:0:
320,192,18348,1,2,0:0:0:0:
64,192,18848,1,4,0:0:0:0:
448,192,19348,1,8,0:0:0:0:
192,192,19681,1,8,0:0:0:0:
448,192,20348,128,2,20848:0:0:0:0:
192,192,20848,128,0,21348:0:0:0:0:
320,192,21348,128,8,21848:0:0:0:0:
64,192,21848,128,0,22348:0:0:0:0:
448,192,22348,1,2,0:0:0:0:
192,192,22848,1,4,0:0:0:0:
320,192,23348,1,8,0:0:0:0:
448,192,24348,128,2,24848:0:0:0:0:
192,192,24848,128,0,25348:0:0:0:0:
320,192,25348,128,8,25848:0:0:0:0:
64,192,25848,128,8,26348:0:0:0:0:
448,192,26348,1,2,0:0:0:0:
192,192,26848,1,4,0:0:0:0:
320,192,27348,1,8,0:0:0:0:
64,192,27681,1,2,0:0:0:0:
320,192,28014,1,2,0:0:0:0:
448,192,28348,128,2,30348:0:0:0:0:
192,192,29348,1,8,0:0:0:0:
64,192,30348,128,2,31348:0:0:0:0:
320,192,30848,1,4,0:0:0:0:
192,192,31348,1,8,0:0:0:0:
320,192,31681,1,8,0:0:0:0:
192,192,32348,128,2,32848:0:0:0:0:
448,192,32848,128,2,33348:0:0:0:0:
64,192,33348,1,8,0:0:0:0:
320,192,33848,128,10,34348:0:0:0:0:
