osu file format v14

[General]
AudioFilename: audio.mp3
AudioLeadIn: 0
PreviewTime: 86243
Countdown: 0
SampleSet: Soft
StackLeniency: 1
Mode: 0
LetterboxInBreaks: 0
WidescreenStoryboard: 1

[Editor]
Bookmarks: 184750
DistanceSpacing: 1
BeatDivisor: 4
GridSize: 4
TimelineZoom: 1.5

[Metadata]
Title:Ditto
TitleUnicode:Ditto
Artist:NewJeans
ArtistUnicode:뉴진스
Creator:Nijika Ijichi
Version:normal
Source:
Tags:potatodew english kpop korean pop k-pop ₍⑅ᐢ..ᐢ₎ bunny nwjns new jeans 민지 minji 하니 hanni 다니엘 danielle 해린 haerin 혜인 hyein
BeatmapID:4054578
BeatmapSetID:1940274

[Difficulty]
HPDrainRate:3
CircleSize:3
OverallDifficulty:4
ApproachRate:6
SliderMultiplier:1
SliderTickRate:1

[Events]
//Background and Video events
0,0,"bunn.jpg",0,0
//Break Periods
2,57786,63700
2,115099,126387
2,175994,179377
//Storyboard Layer 0 (Background)
//Storyboard Layer 1 (Fail)
//Storyboard Layer 2 (Pass)
//Storyboard Layer 3 (Foreground)
//Storyboard Layer 4 (Overlay)
//Storyboard Sound Samples

[TimingPoints]
273,447.761194029851,4,2,1,40,1,0
14601,-100,4,2,1,40,0,0
28929,-100,4,2,1,50,0,0
57586,-100,4,2,1,40,0,0
71019,-100,4,2,1,50,0,0
71914,-100,4,2,1,60,0,0
86243,-90.9090909090909,4,2,1,60,0,0
113108,-100,4,2,1,50,0,0
114452,-100,4,2,1,40,0,0
114899,-100,4,2,1,40,0,1
122064,-100,4,2,1,40,0,0
141765,-100,4,2,1,50,0,0
143556,-90.9090909090909,4,2,1,60,0,0
170422,-100,4,2,1,50,0,0
179377,-100,4,2,1,40,0,0
180944,-100,4,2,1,30,0,0
181840,-100,4,2,1,20,0,0

[Colours]
Combo1 : 255,206,231
Combo2 : 255,198,255

[HitObjects]
95,159,14601,6,0,P|90:113|90:73,2,75,2|0|8,0:0|0:0|0:0,0:0:0:0:
71,203,15496,1,2,0:3:0:0:
267,242,16392,2,0,P|271:204|272:167,2,75,2|0|8,0:0|0:0|0:0,0:0:0:0:
291,286,17287,1,2,0:3:0:0:
410,125,18183,2,0,P|365:97|250:89,1,150,2|8,0:0|0:0,0:0:0:0:
228,113,19078,1,2,0:3:0:0:
401,212,19974,6,0,P|417:154|388:-1,2,200,2|2|2,0:0|0:3|0:0,0:0:0:0:
234,322,22661,1,2,0:3:0:0:
89,184,23556,2,0,P|171:150|288:157,2,200,2|2|2,0:0|0:3|0:0,0:0:0:0:
207,22,26243,1,2,0:3:0:0:
360,149,27138,2,0,P|356:226|367:312,2,150,0|0|0,3:0|3:0|3:0,0:0:0:0:
276,93,28929,6,0,P|211:87|162:99,1,100,4|8,3:2|0:0,0:0:0:0:
106,165,29825,2,0,L|117:231,1,50,2|0,0:0|0:0,0:0:0:0:
143,254,30273,2,0,L|132:321,2,50,8|2|0,0:0|0:0|3:0,0:0:0:0:
224,195,31168,1,8,0:0:0:0:
303,255,31616,2,0,P|354:264|389:264,2,75,2|2|2,3:2|0:0|0:0,3:0:0:0:
266,289,32511,2,0,P|186:299|148:315,1,100,0|8,3:0|0:0,0:0:0:0:
100,231,33407,1,2,0:0:0:0:
147,142,33855,2,0,L|137:91,2,50,8|2|0,0:0|0:0|3:0,0:0:0:0:
236,187,34750,1,8,0:0:0:0:
313,123,35198,2,0,P|363:118|405:104,2,75,2|2|2,0:0|0:0|0:0,0:0:0:0:
273,91,36093,6,8,P|202:41|86:51,1,200,2|0,3:2|3:0,0:0:0:0:
20,117,37437,2,0,L|30:177,1,50,8|2,0:0|3:2,0:0:0:0:
64,200,37884,2,0,P|143:152|254:168,1,200,2|0,3:2|3:0,0:0:0:0:
325,225,39228,2,0,L|387:216,1,50,8|2,0:0|3:2,0:0:0:0:
415,246,39675,2,0,P|442:182|422:92,2,150,2|2|8,3:2|3:2|0:0,0:0:0:0:
355,326,41467,1,0,3:0:0:0:
34,86,43258,6,0,P|85:81|141:98,1,100,8|8,0:0|0:0,0:0:0:0:
198,168,44153,2,0,L|186:225,2,50,0|0|8,3:2|3:2|0:0,0:0:0:0:
273,101,45049,1,8,0:0:0:0:
273,101,45273,1,2,0:0:0:0:
273,101,45496,1,8,0:0:0:0:
342,172,45944,2,0,P|328:242|329:289,1,100,2|8,3:2|0:0,0:0:0:0:
240,320,46840,2,0,L|249:381,2,50,8|2|8,0:0|0:0|0:0,0:0:0:0:
171,246,47735,2,0,L|183:174,1,50,2|0,3:2|3:0,0:0:0:0:
157,151,48183,1,8,0:0:0:0:
232,85,48631,2,0,P|286:74|345:72,1,100,8|8,0:0|0:0,0:0:0:0:
402,140,49526,2,0,L|394:198,1,50,0|0,3:0|3:0,3:0:0:0:
364,229,49974,2,0,L|372:287,1,50,8|2,0:0|3:2,0:0:0:0:
346,322,50422,6,0,P|407:344|495:246,1,200,8|0,0:0|3:0,0:0:0:0:
451,169,51765,2,0,L|440:113,1,50,8|2,0:0|3:2,0:0:0:0:
458,72,52213,2,0,P|397:50|309:148,1,200,8|0,0:0|3:0,0:0:0:0:
245,211,53556,2,0,L|181:221,1,50,8|2,0:0|3:2,0:0:0:0:
149,198,54004,2,0,P|135:160|149:97,1,100,8|10,0:0|0:0,0:0:0:0:
131,54,54675,2,0,P|60:66|26:144,1,150,2|8,3:2|0:0,0:0:0:0:
38,229,55795,5,2,0:0:0:0:
135,207,56243,1,2,0:0:0:0:
232,185,56690,1,2,0:0:0:0:
329,163,57138,1,2,0:0:0:0:
426,142,57586,1,2,0:1:0:0:
67,250,64750,6,0,P|55:188|64:136,1,100,0|8,3:0|0:0,0:0:0:0:
127,78,65646,2,0,P|175:66|225:70,1,100,2|8,0:0|0:0,0:0:0:0:
299,138,66541,2,0,P|310:186|306:236,1,100,0|8,3:0|0:0,0:0:0:0:
227,297,67437,2,0,P|180:284|147:281,2,75,2|2|2,0:0|0:0|0:0,0:0:0:0:
257,336,68332,2,0,P|307:353|363:342,1,100,2|8,3:1|0:0,0:0:0:0:
431,286,69228,2,0,P|448:235|437:179,1,100,0|8,0:0|0:0,0:0:0:0:
407,154,69899,1,2,0:0:0:0:
407,154,70123,5,2,0:1:0:0:
307,167,70571,1,2,0:1:0:0:
207,180,71019,2,0,L|141:188,1,50,2|0,0:1|3:0,0:0:0:0:
107,193,71467,2,0,L|41:201,1,50,2|0,0:1|3:0,0:0:0:0:
22,163,71914,5,6,3:2:0:0:
80,81,72362,1,8,0:0:0:0:
127,95,72586,1,2,3:0:0:0:
172,73,72810,2,0,P|229:46|250:40,2,75,0|2|2,3:0|3:0|0:0,0:0:0:0:
156,120,73705,2,0,P|150:189|150:239,1,100,2|8,0:0|0:0,0:0:0:0:
216,294,74601,2,0,P|285:300|335:300,1,100,2|10,0:0|0:1,0:0:0:0:
344,259,75273,1,2,0:0:0:0:
322,214,75496,6,0,P|310:161|333:109,1,100,2|8,3:2|0:0,0:0:0:0:
362,85,76168,1,2,3:2:0:0:
409,100,76392,1,2,3:0:0:0:
445,193,76840,1,8,0:0:0:0:
407,225,77064,1,2,0:0:0:0:
358,214,77287,2,0,P|277:196|238:194,1,100,2|8,3:2|0:0,0:0:0:0:
221,226,77959,1,2,3:2:0:0:
237,273,78183,1,0,3:0:0:0:
156,332,78631,1,8,0:2:0:0:
85,261,79078,6,0,P|42:258|5:250,2,75,2|2|2,3:1|0:0|0:0,0:0:0:0:
123,228,79974,2,0,P|166:225|203:217,2,75,2|2|2,3:2|3:2|0:0,0:0:0:0:
82,198,80870,2,0,P|93:156|148:112,1,100,2|8,3:2|0:0,0:0:0:0:
221,70,81765,2,0,P|265:54|303:48,2,75,2|2|2,3:2|3:2|3:2,3:2:0:0:
188,31,82661,2,0,P|122:28|81:21,1,100,2|8,3:1|0:0,0:0:0:0:
15,91,83556,2,0,P|12:157|5:198,1,100,0|8,3:0|0:0,0:0:0:0:
4,240,84228,1,2,3:0:0:0:
14,288,84452,6,0,L|81:297,1,50,2|0,3:1|3:0,0:0:0:0:
113,301,84899,1,10,3:1:0:0:
212,313,85347,2,0,L|279:322,1,50,2|0,3:1|3:0,0:0:0:0:
310,325,85795,2,0,L|377:334,1,50,10|10,3:1|3:2,0:0:0:0:
400,293,86243,6,0,P|459:276|503:270,2,82.5000025177003,6|2|2,3:1|3:2|3:2,0:0:0:0:
358,257,87138,1,2,3:1:0:0:
411,160,87586,2,0,L|421:95,1,55.0000016784668,8|2,0:0|3:0,0:0:0:0:
368,84,88034,2,0,P|358:42|351:3,2,82.5000025177003,2|10|2,3:1|0:0|3:2,0:0:0:0:
382,137,88929,1,2,0:1:0:0:
294,203,89377,1,8,0:2:0:0:
244,226,89601,1,2,3:0:0:0:
190,211,89825,2,0,P|122:227|94:240,2,82.5000025177003,2|2|2,3:1|3:2|0:0,0:0:0:0:
234,178,90720,1,2,3:1:0:0:
176,87,91168,2,0,L|109:75,1,55.0000016784668,8|0,0:0|3:0,0:0:0:0:
73,51,91616,2,0,P|36:30|-9:-1,2,82.5000025177003,2|10|2,3:1|3:2|3:2,0:0:0:0:
78,105,92511,2,0,P|52:161|38:201,2,82.5000025177003,2|2|2,3:2|3:2|3:2,0:0:0:0:
116,64,93407,6,0,P|168:57|237:85,1,110.000003356934,2|8,3:1|0:0,0:0:0:0:
242,125,94078,1,2,0:0:0:0:
205,166,94302,1,2,3:1:0:0:
270,254,94750,2,0,L|336:239,1,55.0000016784668,8|2,0:0|3:0,0:0:0:0:
370,271,95198,2,0,P|414:285|466:291,2,82.5000025177003,2|2|0,3:1|3:2|3:2,0:0:0:0:
352,218,96093,2,0,P|353:151|358:117,2,82.5000025177003,2|2|2,3:1|3:1|3:1,0:0:0:0:
318,261,96989,2,0,P|250:272|195:301,1,110.000003356934,2|0,3:1|0:0,0:0:0:0:
161,269,97661,1,2,0:2:0:0:
112,294,97884,1,2,3:1:0:0:
189,372,98332,2,0,L|251:381,1,55.0000016784668,8|2,0:0|3:0,0:0:0:0:
285,344,98780,5,2,3:1:0:0:
269,235,99228,2,0,L|257:157,1,55.0000016784668,10|0,3:1|3:0,0:0:0:0:
252,126,99675,2,0,L|240:48,1,55.0000016784668,2|0,3:1|3:0,0:0:0:0:
234,17,100123,1,10,3:1:0:0:
150,88,100571,6,0,P|88:103|53:106,2,82.5000025177003,6|2|2,3:1|3:1|3:1,0:0:0:0:
191,124,101467,1,2,3:1:0:0:
129,215,101914,2,0,L|133:282,1,55.0000016784668,8|2,0:0|3:1,0:0:0:0:
96,312,102362,2,0,P|52:327|7:327,2,82.5000025177003,2|2|2,3:1|3:1|3:1,0:0:0:0:
151,308,103258,1,2,3:1:0:0:
213,254,103593,2,0,P|250:257|297:275,1,82.5000025177003,2|2,3:1|3:1,0:0:0:0:
324,227,104153,2,0,P|340:187|336:141,2,82.5000025177003,2|2|2,3:1|3:1|3:1,0:0:0:0:
335,281,105049,1,2,3:1:0:0:
252,353,105496,1,8,0:0:0:0:
200,371,105720,1,2,3:3:0:0:
149,348,105944,2,0,P|101:327|55:321,2,82.5000025177003,2|2|2,3:1|3:1|3:1,0:0:0:0:
196,319,106840,1,2,3:1:0:0:
160,244,107175,2,0,P|144:192|141:157,1,82.5000025177003,2|2,3:1|3:1,0:0:0:0:
96,132,107735,6,0,P|50:145|5:146,2,82.5000025177003,2|2|2,3:1|3:1|3:1,0:0:0:0:
146,109,108631,1,2,3:1:0:0:
220,189,109078,2,0,L|291:200,1,55.0000016784668,8|2,0:0|3:0,0:0:0:0:
327,182,109526,2,0,P|379:171|419:174,2,82.5000025177003,2|2|2,3:1|3:1|3:1,0:0:0:0:
301,231,110422,1,2,3:1:0:0:
266,306,110758,2,0,P|197:317|180:315,1,82.5000025177003,2|2,3:1|3:1,0:0:0:0:
135,292,111317,2,0,P|80:287|48:286,2,82.5000025177003,2|2|2,3:1|3:1|3:1,0:0:0:0:
176,254,112213,1,2,3:1:0:0:
114,162,112661,1,10,3:1:0:0:
94,110,112884,1,2,3:1:0:0:
130,69,113108,2,0,P|195:72|301:91,2,150,0|8|8,3:0|3:2|0:0,0:0:0:0:
52,5,114899,1,4,0:0:0:0:
489,206,127437,5,2,0:0:0:0:
390,192,127884,1,2,0:0:0:0:
290,178,128332,1,2,0:0:0:0:
190,165,128780,2,0,P|113:175|85:181,1,100,2|2,0:0|0:1,0:0:0:0:
36,263,129675,1,8,0:0:0:0:
212,357,130571,1,8,0:0:0:0:
273,278,131019,2,0,P|285:227|288:171,1,100,2|10,0:0|0:0,0:0:0:0:
189,163,131914,2,0,P|177:214|174:270,1,100,2|10,0:0|0:1,0:0:0:0:
254,320,132810,2,0,P|322:278|450:285,1,200,2|2,0:0|0:0,0:0:0:0:
496,198,134153,1,8,0:0:0:0:
444,111,134601,2,0,P|376:69|248:76,1,200
125,220,136392,6,0,L|138:323,1,100,2|0,0:0|0:0,0:0:0:0:
232,288,137287,2,0,L|219:185,1,100,2|0,0:0|0:0,0:0:0:0:
313,156,138183,2,0,L|326:256,1,100,2|8,0:0|0:0,0:0:0:0:
412,206,139078,2,0,L|424:126,2,75,2|2|2,0:0|0:0|0:0,0:0:0:0:
374,236,139974,6,0,L|269:220,1,100,2|8,0:1|0:0,0:0:0:0:
181,255,140870,2,0,L|76:239,1,100,0|8,0:0|0:0,0:0:0:0:
19,162,141765,2,0,P|27:135|10:2,2,150,8|2|8,3:0|3:0|3:2,0:0:0:0:
104,231,143556,6,0,P|109:268|105:328,2,82.5000025177003,6|2|2,3:1|3:3|3:0,0:0:0:0:
141,190,144451,1,2,3:1:0:0:
232,251,144899,2,0,L|297:259,1,55.0000016784668,8|0,0:0|3:0,0:0:0:0:
328,294,145347,2,0,P|390:282|424:282,2,82.5000025177003,2|2|2,3:1|3:0|3:0,0:0:0:0:
275,309,146242,1,2,3:1:0:0:
176,357,146690,1,8,0:0:0:0:
132,323,146914,1,0,3:0:0:0:
141,268,147138,2,0,P|135:203|130:176,2,82.5000025177003,2|2|2,3:1|3:0|3:0,0:0:0:0:
175,310,148033,1,2,3:1:0:0:
260,240,148481,2,0,L|331:231,1,55.0000016784668,8|2,0:0|3:0,0:0:0:0:
356,269,148929,2,0,P|368:321|382:358,2,82.5000025177003,2|2|2,3:1|3:3|3:0,0:0:0:0:
368,215,149825,2,0,P|387:170|426:127,2,82.5000025177003,2|2|2,3:1|3:1|3:1,0:0:0:0:
319,240,150720,6,0,P|266:221|187:216,1,110.000003356934,2|8,3:1|0:0,0:0:0:0:
179,258,151391,1,2,3:0:0:0:
130,284,151615,1,2,3:1:0:0:
67,192,152064,2,0,L|80:130,1,55.0000016784668,8|0,0:0|3:0,0:0:0:0:
57,87,152511,2,0,P|37:44|21:-3,2,82.5000025177003,2|2|0,3:1|3:0|3:0,0:0:0:0:
109,104,153407,2,0,P|177:92|203:82,2,82.5000025177003,2|2|2,3:1|3:1|0:1,0:0:0:0:
67,139,154302,6,0,P|50:205|69:253,1,110.000003356934,2|8,3:1|0:0,0:0:0:0:
112,267,154974,1,2,3:0:0:0:
159,239,155197,1,2,3:1:0:0:
220,330,155645,2,0,L|282:339,1,55.0000016784668,8|2,0:0|3:0,0:0:0:0:
318,371,156093,5,2,3:1:0:0:
334,262,156541,2,0,L|346:184,1,55.0000016784668,10|0,3:1|3:0,0:0:0:0:
351,153,156988,2,0,L|363:75,1,55.0000016784668,2|0,3:1|3:0,0:0:0:0:
369,44,157436,1,10,3:1:0:0:
461,104,157884,6,0,P|472:176|473:195,2,82.5000025177003,2|2|2,3:1|3:1|3:1,0:0:0:0:
412,76,158780,1,2,3:1:0:0:
324,142,159228,2,0,L|256:131,1,55.0000016784668,8|2,0:0|3:1,0:0:0:0:
224,102,159675,2,0,P|200:54|192:20,2,82.5000025177003,2|2|2,3:1|3:1|3:1,0:0:0:0:
232,156,160571,1,2,3:1:0:0:
182,222,160907,2,0,P|158:270|150:304,1,82.5000025177003,2|2,3:1|0:1,0:0:0:0:
104,327,161467,2,0,P|58:316|14:288,2,82.5000025177003,2|2|2,3:1|3:1|3:1,0:0:0:0:
150,356,162362,1,2,3:1:0:0:
246,303,162809,1,8,0:0:0:0:
294,328,163033,1,2,3:0:0:0:
344,304,163258,2,0,P|407:285|447:284,2,82.5000025177003,2|2|2,3:1|3:1|3:1,0:0:0:0:
298,273,164153,1,0,3:1:0:0:
342,203,164489,2,0,P|358:139|357:113,1,82.5000025177003,2|2,3:1|3:1,0:0:0:0:
399,86,165049,6,0,P|453:104|496:109,2,82.5000025177003,2|2|2,3:1|3:1|3:1,0:0:0:0:
347,66,165944,1,2,3:1:0:0:
257,130,166392,2,0,L|184:141,1,55.0000016784668,8|2,0:0|3:0,0:0:0:0:
151,116,166840,2,0,P|174:57|199:26,2,82.5000025177003,2|2|2,3:1|3:1|3:1,0:0:0:0:
164,169,167735,1,2,3:1:0:0:
182,249,168071,2,0,P|159:308|134:339,1,82.5000025177003,2|2,3:1|3:1,0:0:0:0:
170,373,168631,2,0,P|215:356|264:351,2,82.5000025177003,2|2|2,3:1|3:1|3:1,0:0:0:0:
115,367,169526,1,2,3:1:0:0:
41,284,169974,1,8,0:0:0:0:
63,234,170197,1,2,3:0:0:0:
33,186,170422,2,0,P|32:135|49:16,2,150,8|2|8,0:0|3:0|0:0,0:0:0:0:
97,262,172213,1,2,0:1:0:0:
383,60,173780,5,2,0:1:0:0:
383,60,174004,2,2,L|392:176,1,100,2|0,0:1|0:0,0:1:0:0:
426,194,174675,2,2,L|160:156,1,250,2|0,0:1|3:0,0:1:0:0:
220,370,180944,5,2,0:1:0:0:
220,370,181168,2,2,L|193:255,1,100,2|0,0:1|0:0,0:1:0:0:
225,231,181840,2,2,B|456:315|456:315|177:15,1,650,2|0,0:1|0:0,0:1:0:0:
