osu file format v14

[General]
AudioFilename: audio.mp3
AudioLeadIn: 0
PreviewTime: 86243
Countdown: 0
SampleSet: Soft
StackLeniency: 1
Mode: 0
LetterboxInBreaks: 0
WidescreenStoryboard: 1

[Editor]
Bookmarks: 184750
DistanceSpacing: 0.5
BeatDivisor: 4
GridSize: 8
TimelineZoom: 1.5

[Metadata]
Title:Ditto
TitleUnicode:Ditto
Artist:NewJeans
ArtistUnicode:뉴진스
Creator:Nijika Ijichi
Version:insane
Source:
Tags:potatodew english kpop korean pop k-pop ₍⑅ᐢ..ᐢ₎ bunny nwjns new jeans 민지 minji 하니 hanni 다니엘 danielle 해린 haerin 혜인 hyein
BeatmapID:4055977
BeatmapSetID:1940274

[Difficulty]
HPDrainRate:4.5
CircleSize:4
OverallDifficulty:8
ApproachRate:8.8
SliderMultiplier:1.5
SliderTickRate:1

[Events]
//Background and Video events
0,0,"bunn.jpg",0,0
//Break Periods
2,115099,126808
//Storyboard Layer 0 (Background)
//Storyboard Layer 1 (Fail)
//Storyboard Layer 2 (Pass)
//Storyboard Layer 3 (Foreground)
//Storyboard Layer 4 (Overlay)
//Storyboard Sound Samples

[TimingPoints]
273,447.761194029851,4,2,1,40,1,0
14601,-125,4,2,1,40,0,0
28929,-90.9090909090909,4,2,1,50,0,0
42250,-125,4,2,1,50,0,0
43481,-90.9090909090909,4,2,1,50,0,0
55795,-76.9230769230769,4,2,1,50,0,0
56243,-66.6666666666667,4,2,1,50,0,0
56690,-52.6315789473684,4,2,1,50,0,0
57138,-66.6666666666667,4,2,1,50,0,0
57586,-66.6666666666667,4,2,1,40,0,0
59377,-142.857142857143,4,2,1,40,0,0
70123,-100,4,2,1,40,0,0
70571,-76.923076923077,4,2,1,40,0,0
71019,-62.5,4,2,1,50,0,0
71914,-66.6666666666667,4,2,1,60,0,0
86243,-58.8235294117647,4,2,1,60,0,0
113108,-58.8235294117647,4,2,1,50,0,0
114452,-58.8235294117647,4,2,1,40,0,0
114899,-58.8235294117647,4,2,1,40,0,1
122064,-58.8235294117647,4,2,1,40,0,0
127437,-76.9230769230769,4,2,1,40,0,0
127884,-66.6666666666667,4,2,1,40,0,0
128332,-52.6315789473684,4,2,1,40,0,0
128780,-66.6666666666667,4,2,1,40,0,0
130571,-111.111111111111,4,2,1,40,0,0
141765,-83.3333333333333,4,2,1,50,0,0
143556,-58.8235294117647,4,2,1,60,0,0
170422,-58.8235294117647,4,2,1,50,0,0
172213,-250,4,2,1,50,0,0
174004,-76.9230769230769,4,2,1,50,0,0
179377,-250,4,2,1,40,0,0
180944,-76.9230769230769,4,2,1,30,0,0
181168,-125,4,2,1,30,0,0
181840,-200,4,2,1,20,0,0

[Colours]
Combo1 : 255,206,231
Combo2 : 255,198,255

[HitObjects]
367,109,14601,6,0,P|414:102|475:102,2,90,2|0|8,0:0|0:0|0:0,0:0:0:0:
289,61,15496,1,2,0:3:0:0:
289,61,15608,2,0,P|238:54|218:51,1,60,2|0,0:0|0:0,0:0:0:0:
199,25,15944,2,0,P|203:73|196:102,1,60,0|8,0:0|0:0,0:0:0:0:
93,145,16392,6,0,P|89:98|96:46,2,90,2|0|8,0:0|0:0|0:0,0:0:0:0:
154,202,17287,1,2,0:3:0:0:
154,202,17399,2,0,P|161:246|160:269,1,60,2|0,0:0|0:0,0:0:0:0:
131,289,17735,2,0,L|215:278,1,60,0|8,0:0|0:0,0:0:0:0:
287,363,18183,6,0,L|177:385,2,90,2|0|8,0:0|0:0|0:0,0:0:0:0:
381,379,19078,1,2,0:3:0:0:
381,379,19190,2,0,P|382:337|389:301,1,60,2|0,0:0|0:0,0:0:0:0:
417,290,19526,2,0,P|371:284|339:276,1,60,0|8,0:0|0:0,0:0:0:0:
285,185,19974,6,0,P|312:157|372:143,2,90,2|2|8,0:0|0:0|0:0,0:0:0:0:
198,193,20870,2,0,P|162:188|135:165,1,60,2|0,0:3|0:0,0:0:0:0:
109,171,21205,2,0,P|95:138|99:104,1,60,2|0,0:0|0:0,0:0:0:0:
121,86,21541,1,8,0:0:0:0:
213,17,21765,6,0,P|227:63|221:112,2,90,2|0|8,0:0|0:0|0:0,0:0:0:0:
316,59,22661,1,2,0:3:0:0:
316,59,22773,2,0,L|390:72,1,60,2|0,0:0|0:0,0:0:0:0:
410,44,23108,2,0,P|409:94|403:129,1,60,0|8,0:0|0:0,0:0:0:0:
349,224,23556,6,0,P|391:210|450:206,2,90,2|2|8,0:0|0:0|0:0,0:0:0:0:
280,285,24452,2,0,P|237:278|208:267,1,60,2|0,0:3|0:0,0:0:0:0:
187,253,24787,2,0,P|149:261|110:278,1,60,2|0,0:0|0:0,0:0:0:0:
107,300,25123,1,8,0:0:0:0:
20,225,25347,6,0,P|26:170|19:121,2,90,2|0|8,0:0|0:0|0:0,0:0:0:0:
118,180,26243,1,2,0:3:0:0:
118,180,26355,2,0,L|187:168,1,60,2|0,0:0|0:0,0:0:0:0:
211,196,26690,2,0,P|207:147|210:112,1,60,0|8,0:0|0:0,0:0:0:0:
276,28,27138,5,0,3:0:0:0:
276,28,27362,1,0,3:0:0:0:
276,28,27586,1,0,3:0:0:0:
348,65,27810,1,0,3:0:0:0:
348,65,27922,2,0,L|423:55,1,60,0|0,3:0|3:0,0:0:0:0:
433,32,28258,1,0,3:0:0:0:
505,72,28481,1,0,3:0:0:0:
505,72,28705,1,0,3:0:0:0:
434,183,28929,6,0,P|422:251|426:361,1,165.000005035401,4|8,3:2|0:0,0:0:0:0:
305,273,29601,1,0,3:0:0:0:
305,273,29713,1,0,3:0:0:0:
305,273,29825,2,0,P|232:263|193:261,1,82.5000025177003,2|0,0:0|0:0,0:0:0:0:
182,282,30161,1,2,0:0:0:0:
140,285,30273,2,0,P|87:273|43:273,1,82.5000025177003,8|2,0:0|0:0,0:0:0:0:
0,185,30720,5,0,3:0:0:0:
0,185,30944,1,0,3:0:0:0:
201,55,31168,2,0,P|191:114|174:165,1,82.5000025177003,8|0,0:0|0:0,0:0:0:0:
139,238,31616,2,0,P|103:182|84:100,2,123.75000377655,2|2|2,3:2|0:0|0:0,3:0:0:0:
299,148,32511,6,0,P|383:121|475:129,1,165.000005035401,0|8,3:0|0:0,0:0:0:0:
498,253,33183,1,0,3:0:0:0:
498,253,33295,1,0,3:0:0:0:
498,253,33407,2,0,P|446:257|397:241,1,82.5000025177003,2|0,0:0|0:0,0:0:0:0:
378,231,33743,1,2,0:0:0:0:
341,261,33855,2,0,P|293:271|243:262,2,82.5000025177003,8|2|0,0:0|0:0|3:0,0:0:0:0:
195,154,34526,6,0,P|240:125|263:87,1,82.5000025177003,2|8,0:0|0:0,0:0:0:0:
71,162,34974,1,2,3:2:0:0:
71,162,35086,1,0,3:2:0:0:
71,162,35198,2,0,P|100:92|99:13,1,123.75000377655,2|2,0:0|0:0,0:0:0:0:
68,9,35646,2,0,P|70:59|92:110,1,82.5000025177003,8|2,0:0|0:0,0:0:0:0:
26,288,36093,6,8,P|119:244|211:244,1,165.000005035401,2|8,3:2|0:0,0:0:0:0:
288,348,36765,2,0,P|236:344|196:332,1,82.5000025177003,2|0,0:0|3:0,0:0:0:0:
354,220,37325,1,0,0:0:0:0:
354,220,37437,6,0,P|302:244|255:252,1,82.5000025177003,8|2,0:0|3:2,0:0:0:0:
74,241,37884,2,0,P|63:187|106:60,1,165.000005035401,2|8,3:2|0:0,0:0:0:0:
246,15,38556,2,0,P|261:63|256:111,1,82.5000025177003,2|0,0:0|3:0,0:0:0:0:
195,212,39116,1,0,0:0:0:0:
195,212,39228,6,0,P|174:147|173:103,1,82.5000025177003,8|2,0:0|3:2,0:0:0:0:
362,161,39675,2,0,P|443:178|492:179,1,123.75000377655,2|0,3:2|0:0,0:0:0:0:
510,152,40123,1,8,0:0:0:0:
397,253,40347,2,0,P|328:273|177:275,1,206.250006294251,2|0,3:2|0:0,0:0:0:0:
169,251,41019,2,0,P|119:243|54:236,1,82.5000025177003,8|2,0:0|3:2,0:0:0:0:
18,356,41467,5,0,3:0:0:0:
18,356,41690,1,0,3:0:0:0:
18,356,41914,1,0,3:0:0:0:
98,333,42138,1,0,3:0:0:0:
98,333,42250,2,0,L|174:341,1,60,0|0,3:0|3:0,3:0:0:0:
184,360,42586,1,0,3:0:0:0:
260,325,42810,2,0,L|334:311,1,60,0|0,3:0|3:0,3:0:0:0:
188,127,43258,5,8,0:0:0:0:
106,175,43481,1,2,0:0:0:0:
85,172,43593,1,0,3:0:0:0:
64,169,43705,1,8,0:0:0:0:
43,166,43817,1,0,3:0:0:0:
22,163,43929,1,2,0:0:0:0:
62,44,44153,2,0,L|70:91,3,41.2500012588501,0|0|0|2,3:2|3:2|3:2|3:2,0:0:0:0:
35,18,44601,2,0,L|111:5,1,41.2500012588501,8|0,0:0|0:0,0:0:0:0:
158,64,44825,2,0,P|216:77|266:84,1,82.5000025177003,2|8,0:0|0:0,0:0:0:0:
401,26,45273,5,2,0:0:0:0:
422,45,45384,1,0,3:0:0:0:
434,71,45496,1,8,0:0:0:0:
436,99,45608,1,0,3:0:0:0:
427,126,45720,1,2,0:0:0:0:
342,226,45944,2,0,L|352:175,3,41.2500012588501,2|0|0|2,3:2|3:2|3:2|3:2,0:0:0:0:
327,151,46392,2,0,L|320:90,1,41.2500012588501,8|0,0:0|0:0,0:0:0:0:
438,230,46616,2,0,P|446:285|457:330,1,82.5000025177003,2|8,0:0|0:0,0:0:0:0:
295,323,47064,5,2,0:0:0:0:
261,307,47175,1,0,3:0:0:0:
225,297,47287,1,8,0:0:0:0:
188,292,47399,1,0,3:0:0:0:
150,293,47511,1,2,0:0:0:0:
239,203,47735,2,0,L|304:214,3,41.2500012588501,2|0|0|2,3:2|3:0|3:0|3:2,0:0:0:0:
210,184,48183,2,0,L|145:198,1,41.2500012588501,8|0,0:0|0:0,0:0:0:0:
67,338,48407,2,0,P|62:272|76:220,1,82.5000025177003,2|8,0:0|0:0,0:0:0:0:
32,72,48855,5,2,0:0:0:0:
32,72,48967,1,0,3:0:0:0:
32,72,49078,2,0,L|38:128,2,41.2500012588501,8|0|2,0:0|3:0|0:0,0:0:0:0:
136,23,49526,1,0,3:0:0:0:
136,23,49638,1,0,3:0:0:0:
136,23,49750,2,0,L|130:86,1,41.2500012588501,0|0,3:0|0:0,0:0:0:0:
222,110,49974,2,0,L|235:204,1,82.5000025177003,8|2,0:0|3:2,0:0:0:0:
411,349,50422,6,0,P|411:296|421:254,1,82.5000025177003,8|0,0:0|3:0,0:0:0:0:
444,248,50758,1,0,3:0:0:0:
476,249,50870,1,8,0:0:0:0:
496,223,50981,1,0,3:0:0:0:
486,191,51093,1,2,0:0:0:0:
390,118,51317,2,0,L|399:174,3,41.2500012588501,0|0|0|0,3:0|3:0|3:0|3:0,3:0:0:0:
356,89,51765,2,0,L|364:32,1,41.2500012588501,8|0,0:0|0:0,0:0:0:0:
275,117,51989,2,0,L|269:62,1,41.2500012588501,2|0,3:2|0:0,0:0:0:0:
299,228,52213,6,0,P|234:220|178:217,1,82.5000025177003,8|0,0:0|3:0,0:0:0:0:
189,237,52549,1,0,3:0:0:0:
180,268,52661,1,8,0:0:0:0:
199,294,52773,1,0,3:0:0:0:
182,322,52884,1,2,0:0:0:0:
106,375,53108,2,0,L|93:319,3,41.2500012588501,0|0|0|0,3:0|3:0|3:0|3:0,3:0:0:0:
56,310,53556,2,0,L|67:240,1,41.2500012588501,8|0,0:0|0:0,0:0:0:0:
132,205,53780,2,0,L|147:272,1,41.2500012588501,2|0,3:2|0:0,0:0:0:0:
287,275,54004,6,0,P|334:288|381:288,1,82.5000025177003,8|0,0:0|3:0,0:0:0:0:
401,259,54340,1,0,3:0:0:0:
391,216,54452,2,0,L|379:155,1,41.2500012588501,10|0,0:0|3:0,0:0:0:0:
480,106,54675,1,2,3:2:0:0:
459,101,54787,1,0,3:0:0:0:
438,96,54899,1,0,3:0:0:0:
417,91,55011,1,0,3:0:0:0:
396,87,55123,1,0,3:0:0:0:
375,83,55235,1,0,3:0:0:0:
354,78,55347,2,0,P|302:80|247:86,1,82.5000025177003,8|2,0:0|0:0,0:0:0:0:
195,212,55795,6,0,P|256:172|313:219,1,146.249993305207,2|0,0:0|0:0,0:0:0:0:
336,184,56243,6,0,P|256:160|176:184,1,168.750006437302,2|0,0:0|0:0,0:0:0:0:
160,296,56690,6,0,P|256:251|352:296,1,213.749994292259,2|0,0:0|0:0,0:0:0:0:
336,312,57138,6,0,P|256:336|176:312,1,168.750006437302,2|0,0:0|0:0,0:0:0:0:
124,246,57586,5,2,0:1:0:0:
124,246,58034,1,0,0:3:0:0:
124,246,58481,1,0,0:0:0:0:
82,139,58817,1,0,0:0:0:0:
176,57,59153,1,2,0:0:0:0:
296,109,59377,6,0,P|354:96|415:86,1,104.999996795654,2|2,0:2|0:0,0:0:0:0:
358,184,60273,2,0,P|409:193|436:200,2,78.7499975967408,2|2|2,0:0|0:0|0:0,0:0:0:0:
208,283,61168,5,2,0:1:0:0:
208,283,61616,1,0,0:0:0:0:
208,283,62064,1,0,0:0:0:0:
363,328,62399,1,0,0:0:0:0:
394,179,62735,1,2,0:0:0:0:
255,133,62959,6,0,P|199:144|133:164,1,104.999996795654,2|2,0:0|0:0,0:0:0:0:
101,66,63855,2,0,P|71:88|39:128,2,78.7499975967408,2|2|2,0:0|0:0|0:0,0:0:0:0:
207,13,64750,5,0,3:0:0:0:
207,13,65198,1,8,0:0:0:0:
368,62,65646,1,2,0:0:0:0:
292,118,65981,1,2,0:0:0:0:
292,118,66093,2,0,P|284:82|278:57,1,52.4999983978272,8|2,0:0|0:0,0:0:0:0:
380,153,66541,2,0,P|366:210|351:270,1,104.999996795654,0|8,3:0|0:0,0:0:0:0:
182,326,67437,6,0,P|147:318|94:310,2,78.7499975967408,2|2|2,0:0|0:0|0:0,0:0:0:0:
36,378,68332,2,0,P|19:339|21:254,1,104.999996795654,2|8,3:1|0:0,0:0:0:0:
94,189,69228,2,0,P|111:150|109:65,1,104.999996795654,0|8,0:0|0:0,0:0:0:0:
46,37,69899,1,2,0:0:0:0:
30,127,70123,6,0,P|95:123|156:143,1,112.5,2|0,0:1|0:0,0:0:0:0:
196,188,70571,6,0,P|279:188|352:146,1,146.249993305207,2|0,0:1|0:0,0:0:0:0:
318,265,71019,6,0,L|302:348,2,60,2|0|0,0:1|3:0|3:0,0:0:0:0:
269,94,71467,6,0,L|259:23,1,60,2|0,0:1|0:0,0:0:0:0:
345,64,71690,2,0,L|335:-7,1,60,0|0,3:0|0:0,0:0:0:0:
174,217,71914,6,0,P|107:195|46:203,1,112.500004291535,6|0,3:2|3:0,0:0:0:0:
27,240,72250,1,0,3:0:0:0:
46,288,72362,2,0,L|53:357,2,56.2500021457673,8|2|2,0:0|3:0|3:0,0:0:0:0:
187,190,72810,1,0,3:0:0:0:
205,142,72922,1,0,3:0:0:0:
193,92,73034,1,0,3:0:0:0:
159,53,73146,1,2,3:0:0:0:
111,35,73258,2,0,P|49:48|0:49,1,112.500004291535,8|2,0:2|0:0,0:0:0:0:
287,69,73705,6,0,P|352:59|465:64,1,168.750006437302,2|0,0:0|3:0,0:0:0:0:
511,116,74153,1,8,0:0:0:0:
465,147,74265,1,0,3:0:0:0:
416,138,74377,1,2,3:0:0:0:
336,246,74601,1,2,0:0:0:0:
285,239,74713,1,0,0:0:0:0:
250,202,74825,1,2,3:0:0:0:
247,151,74937,1,2,3:0:0:0:
275,108,75049,2,0,P|299:182|307:242,1,112.500004291535,10|2,0:1|0:0,0:0:0:0:
175,324,75496,6,0,P|133:299|-18:309,1,168.750006437302,2|0,3:2|3:0,0:0:0:0:
1,328,75944,2,0,P|50:329|82:300,1,56.2500021457673,8|0,0:0|3:0,0:0:0:0:
158,192,76168,2,0,P|109:191|77:220,1,56.2500021457673,2|0,3:2|3:0,0:0:0:0:
234,250,76392,1,2,3:0:0:0:
250,244,76504,1,2,3:0:0:0:
266,239,76616,1,2,3:0:0:0:
282,234,76728,1,2,3:0:0:0:
298,229,76840,2,0,L|296:309,1,56.2500021457673,8|0,0:0|3:0,0:0:0:0:
476,144,77064,2,0,L|474:224,1,56.2500021457673,2|0,0:0|0:0,0:0:0:0:
357,9,77287,6,0,P|373:82|374:165,1,112.500004291535,2|0,3:2|3:0,0:0:0:0:
339,151,77623,1,0,3:0:0:0:
302,128,77735,2,0,L|228:115,2,56.2500021457673,8|2|2,0:0|3:3|3:2,0:0:0:0:
395,256,78183,1,0,3:0:0:0:
350,251,78295,1,0,3:0:0:0:
307,266,78407,1,0,3:0:0:0:
276,299,78519,1,0,3:0:0:0:
231,293,78631,2,0,L|166:278,1,56.2500021457673,8|0,0:2|0:0,0:0:0:0:
100,326,78855,2,0,L|88:258,1,56.2500021457673,0|0,3:0|0:0,0:0:0:0:
12,186,79078,6,0,P|77:184|131:149,1,112.500004291535,2|0,3:1|3:0,0:0:0:0:
160,91,79414,2,0,L|149:29,2,56.2500021457673,2|8|0,0:0|0:0|3:0,0:0:0:0:
216,149,79750,2,0,L|199:228,1,56.2500021457673,2|0,0:0|0:0,0:0:0:0:
321,232,79974,5,2,3:2:0:0:
363,246,80086,1,2,3:0:0:0:
406,234,80198,1,2,3:0:0:0:
432,197,80310,2,0,L|417:128,2,56.2500021457673,2|8|2,3:2|3:2|3:0,0:0:0:0:
344,84,80646,2,0,L|323:161,1,56.2500021457673,2|0,0:0|0:0,0:0:0:0:
227,287,80870,6,0,P|201:228|214:156,1,112.500004291535,2|0,3:2|3:0,0:0:0:0:
227,142,81205,1,2,0:0:0:0:
213,98,81317,1,8,0:0:0:0:
171,79,81429,1,2,3:0:0:0:
129,96,81541,1,2,3:0:0:0:
19,221,81765,6,0,L|85:238,2,56.2500021457673,2|0|0,3:2|3:2|3:2,3:2:0:0:
120,302,82101,2,0,L|186:319,2,56.2500021457673,2|8|0,3:2|3:2|3:2,3:2:0:0:
236,264,82437,2,0,L|319:243,1,56.2500021457673,2|0,3:2|0:2,3:2:0:0:
170,185,82661,6,0,L|38:214,1,112.500004291535,2|0,3:1|3:0,0:0:0:0:
31,242,82996,1,0,3:0:0:0:
31,242,83108,2,0,L|17:312,2,56.2500021457673,8|0|0,0:0|3:0|3:0,0:0:0:0:
79,157,83556,1,0,3:0:0:0:
88,124,83668,1,0,3:0:0:0:
90,90,83780,1,0,3:0:0:0:
84,56,83892,1,0,3:0:0:0:
71,24,84004,2,0,P|141:40|197:46,1,112.500004291535,8|2,0:0|3:0,0:0:0:0:
343,192,84452,6,0,P|273:182|208:174,1,112.500004291535,2|0,3:1|3:0,0:0:0:0:
162,210,84787,1,2,3:0:0:0:
162,210,84899,2,0,P|248:196|297:190,1,112.500004291535,10|0,3:1|3:0,0:0:0:0:
346,103,85235,1,2,3:0:0:0:
346,103,85347,2,0,P|336:64|334:15,2,56.2500021457673,2|0|0,3:1|0:0|3:0,0:0:0:0:
405,167,85683,1,2,3:0:0:0:
378,250,85795,2,0,L|366:330,1,56.2500021457673,10|0,3:1|3:0,0:0:0:0:
180,187,86019,2,0,L|192:107,1,56.2500021457673,10|0,3:2|3:0,3:0:0:0:
92,90,86243,6,0,P|60:172|137:259,1,191.250003647804,6|2,3:1|3:2,0:0:0:0:
121,347,86690,2,0,P|176:324|213:318,1,63.7500012159348,8|0,0:0|3:0,0:0:0:0:
264,357,86914,1,2,3:2:0:0:
87,336,87138,5,2,3:1:0:0:
201,236,87250,2,0,P|208:146|201:57,1,127.50000243187,2|0,0:1|3:0,3:1:0:0:
114,161,87586,2,0,P|107:71|114:-18,1,127.50000243187,8|2,0:0|3:0,0:0:0:0:
311,175,88034,6,0,P|395:228|503:207,1,191.250003647804,2|10,3:1|0:0,0:0:0:0:
497,132,88481,2,0,P|442:142|416:158,1,63.7500012159348,0|0,0:0|3:0,0:0:0:0:
365,254,88705,1,2,3:2:0:0:
458,110,88929,5,2,0:1:0:0:
332,26,89041,2,0,P|249:40|186:40,1,127.50000243187,2|0,0:1|0:0,0:0:0:0:
125,80,89377,2,0,L|115:18,1,63.7500012159348,8|0,0:2|0:0,0:0:0:0:
34,200,89601,5,2,3:0:0:0:
110,177,89713,1,0,0:0:0:0:
174,222,89825,2,0,P|255:254|364:253,2,191.250003647804,2|2|2,3:1|3:2|0:0,0:0:0:0:
379,233,90720,5,2,3:1:0:0:
246,277,90832,2,0,P|151:281|70:313,1,127.50000243187,2|0,0:1|3:0,0:0:0:0:
39,335,91168,2,0,L|25:241,2,63.7500012159348,8|0|0,0:0|3:0|3:0,0:0:0:0:
127,126,91616,6,0,P|168:73|176:0,1,127.50000243187,2|0,3:1|3:0,0:0:0:0:
248,118,91952,2,0,P|318:103|366:47,1,127.50000243187,10|0,3:2|3:0,0:0:0:0:
379,168,92287,2,0,P|416:179|451:206,1,63.7500012159348,2|0,3:2|0:0,0:0:0:0:
512,150,92511,6,0,P|415:181|365:292,1,191.250003647804,2|2,3:2|3:2,0:0:0:0:
439,336,92959,2,0,P|457:301|465:261,1,63.7500012159348
285,210,93183,2,0,P|271:162|251:117,1,63.7500012159348,2|0,3:2|0:0,0:0:0:0:
171,38,93407,6,0,P|144:134|129:246,2,191.250003647804,2|2|2,3:1|3:2|0:0,0:0:0:0:
151,252,94302,5,2,3:1:0:0:
118,106,94414,2,0,P|69:78|-9:93,1,127.50000243187,2|0,0:1|3:0,0:0:0:0:
67,185,94750,2,0,P|139:195|211:149,1,127.50000243187,8|2,0:0|3:0,0:0:0:0:
332,29,95198,6,0,P|353:109|358:227,1,191.250003647804,2|2,3:1|3:2,0:0:0:0:
331,252,95646,1,8,0:0:0:0:
338,295,95758,1,0,3:0:0:0:
375,318,95870,2,0,P|415:296|462:291,1,63.7500012159348,0|0,3:2|0:0,0:0:0:0:
311,134,96093,6,0,P|258:187|235:283,1,127.50000243187,2|0,3:1|3:0,0:0:0:0:
71,263,96429,2,0,P|95:340|175:400,1,127.50000243187,2|0,3:1|3:0,0:0:0:0:
166,266,96765,2,0,P|151:235|158:184,1,63.7500012159348,2|0,3:1|0:0,0:0:0:0:
191,51,96989,6,0,P|110:83|-2:66,2,191.250003647804,2|10|2,3:1|3:2|0:2,0:0:0:0:
29,43,97884,5,2,3:1:0:0:
128,113,97996,2,0,P|204:149|282:145,1,127.50000243187,2|0,0:1|3:0,0:0:0:0:
284,75,98332,2,0,L|272:-19,1,63.7500012159348,8|0,0:0|0:0,0:0:0:0:
400,234,98556,5,2,3:0:0:0:
400,234,98668,1,2,3:0:0:0:
400,234,98780,2,0,P|415:307|413:373,1,127.50000243187,2|0,3:1|3:0,0:0:0:0:
285,291,99116,1,2,3:0:0:0:
285,291,99228,2,0,P|300:206|318:141,1,127.50000243187,10|0,3:1|3:0,0:0:0:0:
180,225,99564,1,2,3:0:0:0:
180,225,99675,2,0,L|100:236,2,63.7500012159348,2|0|0,3:1|0:0|3:0,0:0:0:0:
55,172,100011,1,2,3:0:0:0:
34,259,100123,2,0,L|59:356,1,63.7500012159348,10|0,3:1|3:0,0:0:0:0:
155,129,100347,2,0,L|180:32,1,63.7500012159348,10|0,3:2|3:0,0:0:0:0:
245,14,100571,6,0,P|320:61|437:48,1,191.250003647804,6|2,3:1|3:1,0:0:0:0:
500,120,101019,2,0,P|462:149|438:196,1,63.7500012159348,8|0,0:0|3:0,0:0:0:0:
382,221,101243,1,2,3:1:0:0:
512,157,101467,5,2,3:1:0:0:
360,127,101578,2,0,P|262:117|177:120,1,127.50000243187,2|2,0:1|3:0,0:0:0:0:
145,61,101914,1,8,0:0:0:0:
145,61,102138,2,0,L|58:74,1,63.7500012159348,2|0,3:1|0:0,0:0:0:0:
11,268,102362,6,0,P|87:242|173:242,1,127.50000243187,2|2,3:1|3:0,0:0:0:0:
194,287,102698,1,2,3:1:0:0:
246,347,102810,2,0,P|322:373|408:373,1,127.50000243187,8|2,0:0|3:1,0:0:0:0:
33,290,103258,6,0,P|96:282|155:260,1,127.50000243187,2|0,3:1|0:0,0:0:0:0:
227,213,103593,1,2,3:1:0:0:
301,272,103705,2,0,P|377:246|463:246,1,127.50000243187,8|2,3:2|3:1,0:0:0:0:
281,77,104153,6,0,P|208:26|83:50,1,191.250003647804,2|2,3:1|3:1,0:0:0:0:
11,23,104601,2,0,P|36:74|46:117,1,63.7500012159348,8|2,0:0|3:0,0:0:0:0:
45,171,104825,1,2,3:1:0:0:
1,61,105049,5,2,3:1:0:0:
142,127,105161,2,0,P|134:237|141:305,1,127.50000243187,2|2,0:1|3:0,0:0:0:0:
51,333,105496,1,8,0:0:0:0:
51,333,105720,2,0,L|33:240,1,63.7500012159348,2|0,3:3|0:0,0:0:0:0:
222,325,105944,6,0,P|297:305|371:298,1,127.50000243187,2|2,3:1|3:0,0:0:0:0:
411,260,106280,1,2,3:1:0:0:
455,194,106392,2,0,P|458:117|437:56,1,127.50000243187,8|2,0:0|3:1,0:0:0:0:
262,315,106840,5,2,3:1:0:0:
262,315,106952,2,0,L|379:336,1,63.7500012159348,2|0,3:0|0:0,0:0:0:0:
432,232,107175,1,2,3:1:0:0:
432,232,107287,2,0,L|391:120,1,63.7500012159348,8|0,0:0|0:0,0:0:0:0:
276,127,107511,2,0,L|199:217,1,63.7500012159348,2|0,3:1|0:0,0:0:0:0:
112,268,107735,6,0,P|100:179|114:58,2,191.250003647804,2|2|2,3:1|3:1|3:1,0:0:0:0:
140,111,108631,5,2,3:1:0:0:
62,202,108743,2,0,P|71:283|63:354,1,127.50000243187,2|2,0:1|3:0,0:0:0:0:
142,372,109078,1,8,0:0:0:0:
142,372,109302,2,0,L|214:356,1,63.7500012159348,2|0,3:0|0:0,0:0:0:0:
407,255,109526,6,0,P|333:265|272:216,1,127.50000243187,2|2,3:1|3:0,0:0:0:0:
239,181,109862,1,2,3:1:0:0:
172,137,109974,2,0,L|99:153,2,63.7500012159348,8|2|2,0:0|3:0|3:1,0:0:0:0:
376,255,110422,5,2,3:1:0:0:
376,255,110534,2,0,L|301:240,1,63.7500012159348,2|0,3:0|0:0,0:0:0:0:
179,292,110758,1,2,3:1:0:0:
179,292,110870,2,0,L|154:219,1,63.7500012159348,8|0,0:0|0:0,0:0:0:0:
48,139,111093,2,0,L|98:81,1,63.7500012159348,2|0,3:1|0:0,0:0:0:0:
172,137,111317,6,0,P|256:96|376:100,2,191.250003647804,2|2|2,3:1|3:1|3:1,0:0:0:0:
370,116,112213,5,2,3:1:0:0:
233,60,112325,2,0,P|167:47|108:-2,1,127.50000243187,2|0,0:1|3:0,0:0:0:0:
8,99,112661,2,0,P|29:162|16:238,1,127.50000243187,10|2,3:1|3:1,0:0:0:0:
210,257,113108,5,0,3:0:0:0:
137,312,113332,1,0,3:0:0:0:
137,312,113444,1,0,3:0:0:0:
137,312,113556,1,2,3:0:0:0:
137,312,113668,1,2,3:0:0:0:
137,312,113780,1,8,3:2:0:0:
131,214,114004,1,0,3:0:0:0:
131,214,114116,1,0,3:0:0:0:
131,214,114228,1,0,3:0:0:0:
131,214,114340,1,0,3:0:0:0:
131,214,114452,2,0,L|250:202,1,63.7500012159348,8|0,0:0|0:0,0:0:0:0:
278,241,114675,2,0,L|397:229,1,63.7500012159348,0|0,3:0|0:0,0:0:0:0:
505,192,114899,1,4,0:0:0:0:
55,252,127437,6,0,P|27:196|59:111,1,146.249993305207,2|0,0:0|0:0,0:0:0:0:
160,106,127884,6,0,P|122:192|184:278,1,168.750006437302,2|0,0:0|0:0,0:0:0:0:
314,283,128332,6,0,P|355:193|290:72,1,213.749994292259,2|0,0:0|0:0,0:0:0:0:
237,213,128780,6,0,P|331:171|478:205,1,225.000008583069,2|2,0:0|0:1,0:0:0:0:
448,187,129675,1,8,0:0:0:0:
448,187,130571,2,0,P|449:243|455:277,1,67.4999979400635,8|0,0:0|0:0,0:0:0:0:
324,136,131019,2,0,P|323:71|312:-9,2,134.999995880127,2|10|2,0:0|0:0|0:0,0:0:0:0:
266,374,132362,2,0,P|274:334|294:281,1,67.4999979400635,10|0,0:1|0:0,0:0:0:0:
194,172,132810,6,0,P|128:180|63:239,1,134.999995880127,2|8,0:0|0:0,0:0:0:0:
74,220,133481,1,0,0:0:0:0:
226,156,133705,2,0,P|218:90|159:25,1,134.999995880127,2|8,0:0|0:0,0:0:0:0:
178,36,134376,1,2,0:0:0:0:
242,188,134602,2,0,P|308:180|373:121,1,134.999995880127,0|8,0:0|0:0,0:0:0:0:
362,140,135273,1,2,0:0:0:0:
210,204,135497,2,0,P|218:270|277:335,1,134.999995880127,0|8,0:0|0:0,0:0:0:0:
473,76,136392,6,0,P|425:65|380:31,2,101.249996910095,2|0|0,0:0|0:0|0:0,0:0:0:0:
365,141,137287,2,0,P|326:150|260:191,2,101.249996910095,2|0|0,0:0|0:0|0:0,0:0:0:0:
301,70,138183,2,0,P|229:54|142:42,1,134.999995880127,2|8,0:0|0:0,0:0:0:0:
40,175,139078,5,2,0:0:0:0:
111,125,139414,1,2,0:0:0:0:
111,125,139526,2,0,L|124:199,1,67.4999979400635,8|2,0:0|0:0,0:0:0:0:
74,260,139974,2,0,L|227:197,3,134.999995880127,2|8|0|8,0:1|0:0|0:0|0:0,0:0:0:0:
306,162,141541,1,2,0:0:0:0:
401,289,141765,6,0,L|431:164,1,89.9999972534181,8|0,3:0|3:0,0:0:0:0:
479,151,142101,1,0,3:0:0:0:
474,124,142213,1,2,3:0:0:0:
470,97,142325,1,2,3:0:0:0:
466,70,142437,1,2,3:0:0:0:
355,103,142661,1,0,3:0:0:0:
342,79,142773,1,0,3:0:0:0:
329,55,142884,1,0,3:0:0:0:
316,31,142996,1,0,3:0:0:0:
303,6,143108,2,0,L|290:71,1,44.999998626709,8|0,3:2|0:0,0:0:0:0:
195,41,143332,2,0,L|215:92,1,44.999998626709,8|0,0:2|0:0,0:0:0:0:
76,176,143556,6,0,P|144:213|259:202,1,191.250003647804,6|2,3:1|3:3,0:0:0:0:
340,249,144004,2,0,P|383:232|426:225,1,63.7500012159348,8|0,0:0|3:0,0:0:0:0:
485,267,144228,1,2,3:0:0:0:
355,213,144452,5,2,3:1:0:0:
397,348,144564,2,0,P|289:329|229:305,1,127.50000243187,2|0,0:1|3:0,0:0:0:0:
151,240,144899,2,0,P|165:330|163:390,1,127.50000243187,8|0,0:0|3:0,0:0:0:0:
14,114,145347,6,0,P|91:97|209:102,1,191.250003647804,2|2,3:1|3:0,0:0:0:0:
297,23,145795,2,0,P|292:76|302:119,1,63.7500012159348,8|0,0:0|3:0,0:0:0:0:
312,175,146019,1,2,3:0:0:0:
270,5,146243,5,2,3:1:0:0:
411,74,146355,2,0,P|422:166|412:226,1,127.50000243187,2|0,0:1|3:0,0:0:0:0:
448,293,146690,2,0,L|356:277,1,63.7500012159348,8|0,0:0|0:0,0:0:0:0:
239,255,146914,5,0,3:0:0:0:
171,285,147026,1,0,0:0:0:0:
101,252,147138,2,0,P|70:179|116:62,1,191.250003647804,2|2,3:1|3:0,0:0:0:0:
36,22,147586,1,8,0:0:0:0:
36,22,147698,1,0,3:0:0:0:
36,22,147810,1,2,3:0:0:0:
130,96,148034,5,2,3:1:0:0:
34,199,148146,2,0,P|9:271|23:334,1,127.50000243187,2|0,0:1|3:0,0:0:0:0:
86,370,148481,2,0,L|176:349,2,63.7500012159348,8|0|2,0:0|0:0|3:0,0:0:0:0:
287,288,148929,6,0,P|260:219|205:167,1,127.50000243187,2|0,3:1|3:0,0:0:0:0:
435,201,149265,2,0,P|368:164|288:166,1,127.50000243187,2|0,3:3|3:0,0:0:0:0:
425,46,149601,2,0,P|385:62|359:85,1,63.7500012159348,2|0,3:0|3:0,0:0:0:0:
373,268,149825,6,0,P|413:172|489:109,1,191.250003647804,2|2,3:1|3:1,0:0:0:0:
480,221,150273,2,0,P|490:256|507:286,1,63.7500012159348,8|0,0:0|3:0,0:0:0:0:
286,315,150496,2,0,P|312:340|341:357,1,63.7500012159348,2|0,3:1|0:0,0:0:0:0:
197,214,150720,6,0,P|117:160|19:118,1,191.250003647804,2|2,3:1|3:0,0:0:0:0:
31,220,151168,1,8,0:0:0:0:
31,220,151280,1,0,3:0:0:0:
31,220,151392,1,2,3:0:0:0:
199,250,151616,5,2,3:1:0:0:
121,127,151728,2,0,P|108:55|104:-17,1,127.50000243187,2|0,0:1|3:0,0:0:0:0:
262,66,152064,2,0,P|275:138|279:210,1,127.50000243187,8|0,0:0|3:0,0:0:0:0:
131,352,152511,6,0,P|225:304|335:303,1,191.250003647804,2|2,3:1|3:0,0:0:0:0:
345,324,152959,1,8,0:0:0:0:
389,317,153071,1,0,3:0:0:0:
419,284,153183,2,0,P|399:236|364:210,1,63.7500012159348,0|0,3:0|0:0,0:0:0:0:
255,213,153407,6,0,P|216:276|208:348,1,127.50000243187,2|0,3:1|0:0,0:0:0:0:
265,124,153743,2,0,P|187:139|126:200,1,127.50000243187,2|0,3:1|0:0,0:0:0:0:
337,65,154078,2,0,P|299:42|256:35,1,63.7500012159348,2|0,0:1|0:0,0:0:0:0:
144,257,154302,6,0,P|223:294|353:278,1,191.250003647804,2|2,3:1|3:3,0:0:0:0:
400,245,154750,1,8,0:0:0:0:
400,245,154862,1,0,3:0:0:0:
400,245,154974,1,2,3:0:0:0:
158,284,155198,5,2,3:1:0:0:
294,199,155310,2,0,P|333:141|326:74,1,127.50000243187,2|0,0:1|3:0,0:0:0:0:
258,30,155646,2,0,L|168:11,1,63.7500012159348,8|0,0:0|0:0,0:0:0:0:
19,141,155870,5,2,3:0:0:0:
19,141,155981,1,2,3:0:0:0:
19,141,156093,2,0,P|31:234|21:303,1,127.50000243187,2|0,3:1|3:0,0:0:0:0:
151,192,156429,1,2,3:0:0:0:
151,192,156541,2,0,P|139:296|143:347,1,127.50000243187,10|0,3:1|3:0,0:0:0:0:
270,156,156877,1,2,3:0:0:0:
270,156,156989,2,0,L|356:173,2,63.7500012159348,2|0|0,3:1|0:0|3:0,0:0:0:0:
381,268,157325,1,2,3:0:0:0:
442,182,157437,2,0,L|414:103,1,63.7500012159348,10|0,3:1|0:0,0:0:0:0:
262,57,157661,2,0,L|181:13,1,63.7500012159348,10|0,3:2|0:0,0:0:0:0:
134,84,157884,6,0,P|225:43|332:39,1,191.250003647804,2|2,3:1|3:1,0:0:0:0:
409,17,158332,2,0,P|447:33|498:66,1,63.7500012159348,8|0,0:0|3:0,0:0:0:0:
484,141,158556,1,2,3:1:0:0:
454,6,158780,5,2,3:1:0:0:
354,137,158892,2,0,P|394:222|411:297,1,127.50000243187,2|0,0:1|3:0,0:0:0:0:
342,338,159228,1,8,0:0:0:0:
342,338,159452,2,0,L|250:318,1,63.7500012159348,2|0,3:1|0:0,0:0:0:0:
158,168,159675,6,0,P|83:167|27:209,1,127.50000243187,2|2,3:1|3:0,0:0:0:0:
10,267,160011,1,2,3:1:0:0:
65,323,160123,2,0,P|140:324|196:282,1,127.50000243187,10|2,0:0|3:1,0:0:0:0:
310,131,160571,6,0,P|245:92|176:101,1,127.50000243187,2|0,3:1|0:0,0:0:0:0:
232,174,160907,1,2,3:1:0:0:
151,218,161019,2,0,P|215:256|284:247,1,127.50000243187,8|2,0:0|0:1,0:0:0:0:
452,79,161467,6,0,P|425:174|410:294,1,191.250003647804,2|2,3:1|3:1,0:0:0:0:
330,375,161914,2,0,P|368:351|417:342,1,63.7500012159348,8|2,0:0|3:0,0:0:0:0:
481,345,162138,1,2,3:1:0:0:
296,354,162362,5,2,3:1:0:0:
319,217,162474,2,0,P|340:134|345:81,1,127.50000243187,2|0,0:1|3:0,0:0:0:0:
246,48,162810,1,8,0:0:0:0:
246,48,163034,2,0,L|256:148,1,63.7500012159348,2|0,3:0|0:0,0:0:0:0:
376,305,163258,6,0,P|307:311|238:285,1,127.50000243187,2|2,3:1|3:0,0:0:0:0:
189,246,163593,1,2,3:1:0:0:
140,184,163705,2,0,P|79:165|16:172,1,127.50000243187,0|2,0:0|3:1,0:0:0:0:
350,278,164153,5,0,3:1:0:0:
350,278,164265,2,0,L|255:296,1,63.7500012159348,2|2,3:0|3:0,0:0:0:0:
194,206,164489,1,2,3:1:0:0:
194,206,164601,2,0,L|99:224,1,63.7500012159348,8|0,0:0|3:0,0:0:0:0:
107,365,164825,2,0,L|12:383,1,63.7500012159348,2|0,3:1|0:0,0:0:0:0:
43,264,165049,6,0,P|53:165|40:55,1,191.250003647804,2|2,3:1|3:1,0:0:0:0:
100,18,165496,1,8,0:0:0:0:
100,18,165608,1,2,3:0:0:0:
100,18,165720,1,2,3:1:0:0:
20,228,165944,5,2,3:1:0:0:
140,143,166056,2,0,P|207:119|275:117,1,127.50000243187,2|0,0:1|3:0,0:0:0:0:
409,73,166392,1,8,0:0:0:0:
409,73,166616,2,0,L|311:59,1,63.7500012159348,2|0,3:0|0:0,0:0:0:0:
245,227,166840,6,0,P|224:295|239:363,1,127.50000243187,2|0,3:1|0:0,0:0:0:0:
304,378,167175,1,2,3:1:0:0:
372,341,167287,2,0,L|445:333,2,63.7500012159348,8|0|2,0:0|0:0|3:1,0:0:0:0:
154,188,167735,5,2,3:1:0:0:
154,188,167847,2,0,L|179:288,1,63.7500012159348,2|0,3:0|0:0,0:0:0:0:
296,254,168071,1,2,3:1:0:0:
296,254,168183,2,0,L|367:328,1,63.7500012159348,8|0,0:0|0:0,0:0:0:0:
451,240,168407,2,0,L|550:268,1,63.7500012159348,2|0,3:1|0:0,0:0:0:0:
471,132,168631,6,0,P|384:136|285:77,1,191.250003647804,2|2,3:1|3:1,0:0:0:0:
259,11,169078,1,8,0:0:0:0:
259,11,169190,1,2,3:0:0:0:
259,11,169302,1,2,3:1:0:0:
481,109,169526,5,2,3:1:0:0:
346,164,169638,2,0,P|277:189|214:245,1,127.50000243187,2|0,0:1|3:0,0:0:0:0:
273,332,169974,2,0,P|294:287|316:262,1,63.7500012159348,8|0,0:0|0:0,0:0:0:0:
155,188,170198,2,0,P|159:140|171:102,1,63.7500012159348,2|0,3:0|0:0,0:0:0:0:
234,81,170422,5,8,0:0:0:0:
156,44,170646,1,0,3:0:0:0:
156,44,170758,1,0,3:0:0:0:
156,44,170870,2,0,L|74:56,1,63.7500012159348,8|2,3:2|3:0,0:0:0:0:
36,112,171093,1,2,3:0:0:0:
184,212,171317,1,0,3:0:0:0:
184,212,171429,1,0,3:0:0:0:
184,212,171541,1,0,3:0:0:0:
184,212,171653,1,0,3:0:0:0:
184,212,171765,2,0,L|98:226,1,63.7500012159348,8|0,0:0|0:0,0:0:0:0:
55,275,171989,1,2,3:0:0:0:
237,337,172213,6,0,P|359:338|446:312,1,210,8|2,0:0|0:1,0:0:0:0:
290,243,174004,6,2,P|213:246|92:285,1,194.999991073609,2|0,0:1|0:0,0:1:0:0:
213,350,174675,2,2,B|253:307|253:222|132:272|69:116|118:81|141:12|291:14|289:107|273:148,1,487.5,2|0,0:1|3:0,0:1:0:0:
341,198,176019,1,0,3:0:0:0:
341,198,176243,1,0,3:0:0:0:
419,161,176467,1,0,0:0:0:0:
419,161,176578,1,8,0:0:0:0:
466,229,176802,1,0,0:0:0:0:
466,229,176914,1,8,0:0:0:0:
401,273,177138,1,8,0:0:0:0:
401,273,177362,1,8,0:0:0:0:
321,233,177586,1,0,0:0:0:0:
321,233,177810,1,0,0:0:0:0:
321,233,178034,1,8,0:0:0:0:
251,287,178258,1,0,0:0:0:0:
251,287,178370,1,8,0:0:0:0:
165,248,178593,1,0,0:0:0:0:
165,248,178705,1,8,0:0:0:0:
100,291,178929,1,8,0:0:0:0:
36,252,179153,1,2,0:0:0:0:
78,260,179377,6,0,P|137:243|259:146,1,210,2|2,0:0|0:1,0:0:0:0:
334,291,181168,6,2,P|244:262|207:259,1,120,2|0,0:1|0:0,0:1:0:0:
263,359,181840,2,2,B|239:305|268:225|365:313|478:188|443:138|445:66|304:16|273:104|275:149,1,487.5,2|0,0:1|0:0,0:1:0:0:
