osu file format v14

[General]
AudioFilename: audio.mp3
AudioLeadIn: 0
PreviewTime: 86243
Countdown: 0
SampleSet: Soft
StackLeniency: 1
Mode: 0
LetterboxInBreaks: 0
WidescreenStoryboard: 1

[Editor]
Bookmarks: 184750
DistanceSpacing: 1.4
BeatDivisor: 4
GridSize: 4
TimelineZoom: 1.5

[Metadata]
Title:Ditto
TitleUnicode:Ditto
Artist:NewJeans
ArtistUnicode:뉴진스
Creator:Nijika Ijichi
Version:hard
Source:
Tags:potatodew english kpop korean pop k-pop ₍⑅ᐢ..ᐢ₎ bunny nwjns new jeans 민지 minji 하니 hanni 다니엘 danielle 해린 haerin 혜인 hyein
BeatmapID:4054577
BeatmapSetID:1940274

[Difficulty]
HPDrainRate:4
CircleSize:4
OverallDifficulty:6.5
ApproachRate:8
SliderMultiplier:1.3
SliderTickRate:1

[Events]
//Background and Video events
0,0,"bunn.jpg",0,0
//Break Periods
2,115099,126687
2,175994,179377
//Storyboard Layer 0 (Background)
//Storyboard Layer 1 (Fail)
//Storyboard Layer 2 (Pass)
//Storyboard Layer 3 (Foreground)
//Storyboard Layer 4 (Overlay)
//Storyboard Sound Samples

[TimingPoints]
273,447.761194029851,4,2,1,40,1,0
14601,-125,4,2,1,40,0,0
28929,-100,4,2,1,50,0,0
41467,-125,4,2,1,50,0,0
43481,-100,4,2,1,50,0,0
57586,-142.857142857143,4,2,1,40,0,0
71019,-90.909090909091,4,2,1,50,0,0
71914,-76.9230769230769,4,2,1,60,0,0
86243,-71.4285714285714,4,2,1,60,0,0
113108,-71.4285714285714,4,2,1,50,0,0
114452,-71.4285714285714,4,2,1,40,0,0
114899,-71.4285714285714,4,2,1,40,0,1
122064,-71.4285714285714,4,2,1,40,0,0
128780,-100,4,2,1,40,0,0
141765,-83.3333333333333,4,2,1,50,0,0
143556,-71.4285714285714,4,2,1,60,0,0
170422,-71.4285714285714,4,2,1,50,0,0
173780,-83.3333333333333,4,2,1,50,0,0
179377,-83.3333333333333,4,2,1,40,0,0
180944,-100,4,2,1,30,0,0
181840,-100,4,2,1,20,0,0

[Colours]
Combo1 : 255,206,231
Combo2 : 255,198,255

[HitObjects]
131,71,14601,6,0,P|188:60|221:60,2,78,2|0|8,0:0|0:0|0:0,0:0:0:0:
75,139,15496,1,2,0:3:0:0:
75,139,15608,2,0,P|88:195|85:234,1,78,2|0,0:0|0:0,0:0:0:0:
228,337,16392,2,0,P|285:348|318:348,2,78,2|0|8,0:0|0:0|0:0,0:0:0:0:
172,269,17287,1,2,0:3:0:0:
172,269,17399,2,0,P|185:213|182:174,1,78,2|0,0:0|0:0,0:0:0:0:
375,175,18183,2,0,P|432:186|465:186,2,78,2|0|8,0:0|0:0|0:0,0:0:0:0:
273,127,19078,1,2,0:3:0:0:
273,127,19190,2,0,P|286:183|283:222,1,78,2|0,0:0|0:0,0:0:0:0:
145,305,19974,2,0,P|92:295|65:280,2,78,2|2|8,0:0|0:0|0:0,0:0:0:0:
220,354,20870,2,0,P|273:344|300:329,2,78,2|2|8,0:3|0:0|0:0,0:0:0:0:
231,262,21765,6,0,P|241:209|256:182,2,78,2|0|8,0:0|0:0|0:0,0:0:0:0:
280,350,22661,1,2,0:3:0:0:
280,350,22773,2,0,P|315:365|353:370,1,78,2|0,0:0|0:0,0:0:0:0:
463,232,23556,2,0,P|458:186|443:144,2,78,2|2|8,0:0|0:0|0:0,0:0:0:0:
357,289,24452,2,0,P|362:243|377:201,2,78,2|2|8,0:3|0:0|0:0,0:0:0:0:
265,248,25347,6,0,P|226:259|172:258,2,78,2|0|8,0:0|0:0|0:0,0:0:0:0:
315,166,26243,1,2,0:3:0:0:
315,166,26355,2,0,P|313:127|302:89,1,78,2|0,0:0|0:0,0:0:0:0:
230,41,26914,1,8,0:0:0:0:
152,86,27138,6,0,L|83:76,2,52,0|0|0,3:0|3:0|3:0,0:0:0:0:
108,162,27810,1,0,3:0:0:0:
108,162,27922,2,0,L|39:152,1,52,0|0,3:0|3:0,0:0:0:0:
29,151,28258,1,0,3:0:0:0:
70,243,28481,2,0,L|121:250,1,52,0|0,3:0|3:0,0:0:0:0:
227,336,28929,6,0,P|218:267|236:194,1,130,4|8,3:2|0:0,0:0:0:0:
395,85,29825,2,0,P|405:126|391:184,1,97.5,2|2,0:0|0:0,0:0:0:0:
372,204,30273,1,8,0:0:0:0:
303,137,30496,2,0,L|229:125,1,65,2|0,0:0|3:0,0:0:0:0:
165,66,30944,1,0,3:0:0:0:
165,66,31168,2,0,L|96:78,1,65,8|0,0:0|0:0,0:0:0:0:
22,154,31616,2,0,P|11:103|12:45,2,97.5,2|2|2,3:2|0:0|0:0,3:0:0:0:
15,273,32511,6,0,P|71:231|140:232,1,130,0|8,3:0|0:0,0:0:0:0:
262,320,33407,2,0,P|297:337|361:338,1,97.5,2|2,0:0|0:0,0:0:0:0:
386,315,33855,1,8,0:0:0:0:
330,238,34078,2,0,L|343:165,1,65,2|0,0:0|3:0,0:0:0:0:
432,158,34526,2,0,L|419:231,1,65,2|8,0:0|0:0,0:0:0:0:
473,298,34974,1,2,3:2:0:0:
473,298,35086,1,0,3:2:0:0:
473,298,35198,2,0,P|415:316|374:338,2,97.5,2|2|2,0:0|0:0|0:0,0:0:0:0:
345,242,36093,6,8,P|258:233|163:165,1,195,2|2,3:2|0:0,0:0:0:0:
205,92,36989,1,0,3:0:0:0:
205,92,37437,2,0,L|191:18,1,65,8|2,0:0|3:2,0:0:0:0:
99,59,37884,2,0,P|65:108|24:251,1,195,2|2,3:2|0:0,0:0:0:0:
85,300,38780,1,0,3:0:0:0:
85,300,39228,2,0,L|156:285,1,65,8|2,0:0|3:2,0:0:0:0:
240,344,39675,6,0,P|247:271|211:195,1,130,2|8,3:2|0:0,0:0:0:0:
311,170,40347,2,0,P|340:231|466:275,1,195,2|8,3:2|0:0,0:0:0:0:
497,202,41243,1,2,3:2:0:0:
453,127,41467,2,0,L|462:60,2,52,0|0|0,3:0|3:0|3:0,3:0:0:0:
369,142,42138,1,0,3:0:0:0:
369,142,42250,2,0,L|378:75,1,52,0|0,3:0|3:0,3:0:0:0:
380,68,42586,1,0,3:0:0:0:
304,17,42810,2,0,L|297:68,1,52,0|0,3:0|3:0,3:0:0:0:
219,134,43258,5,8,0:0:0:0:
140,104,43481,1,2,0:0:0:0:
140,104,43593,1,0,3:0:0:0:
140,104,43705,2,0,L|94:113,2,32.5,8|0|2,0:0|3:0|0:0,0:0:0:0:
202,46,44153,2,0,L|212:6,2,32.5,0|0|0,3:2|3:2|3:2,0:0:0:0:
219,134,44601,2,0,L|232:213,1,65,8|2,0:0|0:0,0:0:0:0:
168,295,45049,5,8,0:0:0:0:
96,340,45273,1,2,0:0:0:0:
96,340,45384,1,0,3:0:0:0:
96,340,45496,1,8,0:0:0:0:
94,245,45720,2,0,L|75:212,2,32.5,2|0|2,0:0|0:0|3:2,0:0:0:0:
168,295,46168,2,0,L|212:301,2,32.5,0|2|8,3:2|3:2|0:0,3:2:0:0:
270,243,46616,2,0,L|360:257,1,65,2|8,0:0|0:0,0:0:0:0:
431,187,47064,5,2,0:0:0:0:
431,187,47175,1,0,3:0:0:0:
431,186,47287,2,0,L|442:137,2,32.5,8|0|2,0:0|3:0|0:0,0:0:0:0:
425,273,47735,2,0,L|461:307,2,32.5,2|0|0,3:2|3:0|3:0,0:0:0:0:
346,221,48183,1,8,0:0:0:0:
346,221,48407,2,0,L|255:233,1,65,2|8,0:0|0:0,0:0:0:0:
174,167,48855,6,0,L|142:141,2,32.5,2|0|8,0:0|3:0|0:0,0:0:0:0:
262,155,49302,1,2,0:0:0:0:
262,155,49414,1,0,3:0:0:0:
262,155,49526,1,0,3:0:0:0:
230,233,49750,2,0,L|239:273,2,32.5,0|0|8,3:0|0:0|0:0,0:0:0:0:
149,202,50198,1,2,3:2:0:0:
174,118,50422,6,0,P|176:62|169:36,1,65,8|0,0:0|3:0,0:0:0:0:
148,23,50758,1,0,3:0:0:0:
148,23,50870,2,0,L|94:34,2,32.5,8|0|2,0:0|3:0|0:0,0:0:0:0:
257,30,51317,2,0,L|320:17,1,65,0|0,3:0|3:0,3:0:0:0:
400,74,51765,1,8,0:0:0:0:
400,74,51989,1,2,3:2:0:0:
343,157,52213,6,0,P|341:213|348:239,1,65,8|0,0:0|3:0,0:0:0:0:
369,252,52549,1,0,3:0:0:0:
369,252,52661,2,0,L|423:241,2,32.5,8|0|2,0:0|3:0|0:0,0:0:0:0:
260,245,53108,2,0,L|196:257,1,65,0|0,3:0|3:0,3:0:0:0:
126,178,53556,1,8,0:0:0:0:
126,178,53780,1,2,3:2:0:0:
103,289,54004,6,0,P|94:331|98:362,1,65,8|0,0:0|3:0,0:0:0:0:
128,384,54340,1,0,3:0:0:0:
128,384,54452,1,10,0:0:0:0:
204,334,54675,1,2,3:2:0:0:
288,358,54899,2,0,L|325:367,2,32.5,0|0|0,3:0|3:0|3:0,0:0:0:0:
272,267,55347,2,0,P|279:226|272:189,1,65,8|2,0:0|0:0,0:0:0:0:
213,135,55795,5,2,0:0:0:0:
174,294,56243,5,2,0:0:0:0:
358,338,56690,5,2,0:0:0:0:
397,137,57138,5,2,0:0:0:0:
184,83,57586,6,0,L|79:93,1,90.9999972229005,2|0,0:1|0:3,0:0:0:0:
147,201,58481,2,0,L|79:207,2,68.2499979171754,0|0|2,0:0|0:0|0:0,0:0:0:0:
193,265,59377,2,0,P|238:285|288:282,1,90.9999972229005,2|2,0:2|0:0,0:0:0:0:
346,166,60273,2,0,P|308:176|271:178,2,68.2499979171754,2|2|2,0:0|0:0|0:0,0:0:0:0:
421,218,61168,6,0,L|436:115,1,90.9999972229005,2|0,0:1|0:0,0:0:0:0:
310,44,62064,2,0,L|300:111,2,68.2499979171754,0|0|2,0:0|0:0|0:0,0:0:0:0:
241,5,62959,2,0,P|192:26|145:27,1,90.9999972229005,2|2,0:0|0:0,0:0:0:0:
77,114,63855,2,0,P|109:128|149:127,2,68.2499979171754,2|2|2,0:0|0:0|0:0,0:0:0:0:
20,172,64750,6,0,L|32:271,1,90.9999972229005,0|8,3:0|0:0,0:0:0:0:
161,222,65646,2,0,L|150:312,1,90.9999972229005,2|8,0:0|0:0,0:0:0:0:
210,373,66317,1,2,0:0:0:0:
210,373,66541,2,0,L|300:383,1,90.9999972229005,0|8,3:0|0:0,0:0:0:0:
261,266,67437,2,0,L|343:256,2,68.2499979171754,2|2|2,0:0|0:0|0:0,0:0:0:0:
198,188,68332,6,0,L|288:177,1,90.9999972229005,2|8,3:1|0:0,0:0:0:0:
386,61,69228,2,0,L|295:50,1,90.9999972229005,0|8,0:0|0:0,0:0:0:0:
229,9,69899,1,2,0:0:0:0:
229,9,70123,2,0,P|208:53|214:107,1,90.9999972229005,2|2,0:1|0:1,0:0:0:0:
109,175,71019,2,0,L|99:124,2,35.7500010910034,2|0|0,0:1|3:0|3:0,0:0:0:0:
61,243,71467,2,0,L|48:333,1,71.5000021820069,2|0,0:1|3:0,0:0:0:0:
157,270,71914,6,0,P|215:264|276:264,1,84.4999961318971,6|0,3:2|3:0,0:0:0:0:
270,280,72250,1,0,3:0:0:0:
284,310,72362,2,0,L|269:363,2,42.2499980659486,8|2|2,0:0|3:0|3:0,0:0:0:0:
366,247,72810,2,0,P|376:204|369:151,1,84.4999961318971,0|0,3:0|3:0,0:0:0:0:
342,148,73146,1,2,3:0:0:0:
306,122,73258,2,0,P|294:68|300:18,1,84.4999961318971,8|2,0:2|0:0,0:0:0:0:
186,82,73705,6,0,L|74:94,1,84.4999961318971,2|0,0:0|3:0,0:0:0:0:
36,174,74153,2,0,L|98:182,2,42.2499980659486,8|0|2,0:0|3:0|3:0,0:0:0:0:
155,262,74601,1,2,0:0:0:0:
155,262,74713,1,0,0:0:0:0:
155,262,74825,1,2,3:0:0:0:
155,262,74937,1,2,3:0:0:0:
155,262,75049,2,0,L|260:276,1,84.4999961318971,10|2,0:1|0:0,0:0:0:0:
364,352,75496,6,0,P|342:297|396:183,1,168.999992263794,2|8,3:2|0:0,0:0:0:0:
440,117,76168,1,2,3:2:0:0:
440,117,76280,1,0,3:0:0:0:
440,117,76392,2,0,P|414:73|417:24,1,84.4999961318971,2|2,3:0|3:0,0:0:0:0:
299,13,76840,1,8,0:0:0:0:
279,129,77064,1,2,0:0:0:0:
156,102,77287,6,0,P|82:106|6:125,1,126.749994197846,2|0,3:2|3:0,0:0:0:0:
7,144,77735,2,0,L|24:250,1,84.4999961318971,8|2,0:0|3:2,0:0:0:0:
102,316,78183,1,0,3:0:0:0:
102,316,78295,1,0,3:0:0:0:
102,316,78407,2,0,L|112:263,1,42.2499980659486,0|0,3:0|3:0,0:0:0:0:
137,246,78631,2,0,L|249:222,1,84.4999961318971,8|0,0:2|3:0,0:0:0:0:
316,129,79078,6,0,P|256:119|191:91,2,126.749994197846,2|2|2,3:1|0:0|0:0,0:0:0:0:
415,78,79974,2,0,L|422:176,1,84.4999961318971,2|2,3:2|3:0,0:0:0:0:
447,190,80310,2,0,L|454:288,1,84.4999961318971,2|2,3:2|3:0,0:0:0:0:
427,306,80646,1,2,0:0:0:0:
330,253,80870,6,0,P|274:255|224:268,1,84.4999961318971,2|0,3:2|3:0,0:0:0:0:
222,279,81205,1,2,0:0:0:0:
208,311,81317,2,0,L|218:356,2,42.2499980659486,8|2|2,0:0|3:0|3:0,0:0:0:0:
124,228,81765,1,2,3:2:0:0:
104,219,81877,1,0,3:2:0:0:
84,210,81989,1,0,3:2:0:0:
64,202,82101,2,0,L|79:66,1,126.749994197846,2|2,3:2|3:2,3:2:0:0:
225,151,82661,6,0,P|284:178|370:165,1,126.749994197846,2|0,3:1|3:0,0:0:0:0:
371,147,83108,2,0,L|360:95,2,42.2499980659486,8|0|0,0:0|3:0|3:0,0:0:0:0:
443,239,83556,1,0,3:0:0:0:
443,239,83668,1,0,3:0:0:0:
443,239,83780,2,0,L|432:298,1,42.2499980659486,0|0,3:0|3:0,0:0:0:0:
405,312,84004,2,0,P|352:315|298:333,1,84.4999961318971,8|2,0:0|3:0,0:0:0:0:
177,362,84452,6,0,P|170:305|171:242,1,84.4999961318971,2|0,3:1|3:0,0:0:0:0:
225,154,84899,2,0,L|232:204,2,42.2499980659486,10|0|0,3:1|0:0|3:0,0:0:0:0:
70,257,85347,2,0,L|63:207,2,42.2499980659486,2|0|0,3:1|0:0|3:0,0:0:0:0:
126,111,85795,1,10,3:1:0:0:
126,111,86019,1,10,3:2:0:0:
290,162,86243,6,0,P|234:126|236:51,1,136.499995834351,6|2,3:1|3:2,0:0:0:0:
263,32,86690,2,0,L|326:23,2,45.4999986114502,8|0|2,0:0|3:0|3:2,0:0:0:0:
121,1,87138,1,2,3:1:0:0:
121,1,87250,2,0,P|128:80|123:127,1,90.9999972229005,2|0,0:1|3:0,3:1:0:0:
117,135,87586,2,0,P|196:128|243:133,1,90.9999972229005,8|2,0:0|3:0,0:0:0:0:
349,165,88034,6,0,P|414:147|446:144,1,90.9999972229005,2|0,3:1|3:0,0:0:0:0:
476,171,88370,1,10,0:0:0:0:
476,171,88481,2,0,P|494:236|497:268,1,90.9999972229005,0|2,0:0|3:2,0:0:0:0:
364,348,88929,1,2,0:1:0:0:
364,348,89041,2,0,P|314:342|240:349,1,90.9999972229005,2|0,0:1|0:0,0:0:0:0:
247,370,89377,1,8,0:2:0:0:
229,212,89601,1,2,3:0:0:0:
62,247,89825,6,0,P|38:185|37:109,2,136.499995834351,2|2|2,3:1|3:2|0:0,0:0:0:0:
191,194,90720,1,2,3:1:0:0:
191,194,90832,2,0,P|189:148|173:105,1,90.9999972229005,2|0,0:1|3:0,0:0:0:0:
137,95,91168,1,8,0:0:0:0:
96,239,91392,1,0,3:0:0:0:
255,290,91616,6,0,L|372:273,1,90.9999972229005,2|0,3:1|3:0,0:0:0:0:
370,250,91952,2,0,L|487:233,1,90.9999972229005,10|0,3:2|3:0,0:0:0:0:
491,205,92287,1,2,3:2:0:0:
415,123,92511,2,0,L|315:109,1,90.9999972229005,2|0,3:2|0:0,0:0:0:0:
294,82,92847,1,2,3:2:0:0:
273,53,92959,2,0,L|173:39,1,90.9999972229005,0|2,0:0|3:2,0:0:0:0:
228,162,93407,6,0,P|244:219|246:299,2,136.499995834351,2|2|2,3:1|3:2|0:0,0:0:0:0:
85,131,94302,1,2,3:1:0:0:
85,131,94414,2,0,P|72:87|69:41,1,90.9999972229005,2|0,0:1|3:0,0:0:0:0:
94,17,94750,2,0,P|151:12|203:-1,1,90.9999972229005,8|2,0:0|3:0,0:0:0:0:
128,175,95198,6,0,P|64:184|15:204,1,90.9999972229005,2|0,3:1|3:0,0:0:0:0:
12,229,95534,1,2,3:2:0:0:
26,267,95646,2,0,P|27:304|31:348,2,45.4999986114502,8|0|0,0:0|3:0|3:2,0:0:0:0:
153,280,96093,2,0,L|267:257,1,90.9999972229005,2|0,3:1|3:0,0:0:0:0:
270,231,96429,2,0,L|247:117,1,90.9999972229005,2|0,3:1|3:0,0:0:0:0:
221,110,96765,1,2,3:1:0:0:
307,22,96989,6,0,P|369:29|416:24,1,90.9999972229005,2|0,3:1|3:0,0:0:0:0:
431,50,97325,1,10,3:2:0:0:
431,50,97437,2,0,P|454:107|442:148,1,90.9999972229005,0|2,0:0|0:2,0:0:0:0:
378,220,97884,1,2,3:1:0:0:
378,220,97996,2,0,P|316:200|276:196,1,90.9999972229005,2|0,0:1|3:0,0:0:0:0:
257,223,98332,1,8,0:0:0:0:
331,102,98556,1,2,3:0:0:0:
196,48,98780,6,0,P|125:56|47:72,1,136.499995834351,2|2,3:1|3:0,0:0:0:0:
34,98,99228,2,0,L|42:152,2,45.4999986114502,10|0|0,3:1|0:0|3:0,0:0:0:0:
137,226,99675,1,2,3:1:0:0:
137,226,99787,1,0,0:0:0:0:
137,226,99899,1,0,3:0:0:0:
137,226,100011,1,2,3:0:0:0:
137,226,100123,2,0,P|144:167|154:126,1,90.9999972229005,10|10,3:1|3:2,0:0:0:0:
295,213,100571,6,0,P|293:280|272:352,1,136.499995834351,6|2,3:1|3:1,0:0:0:0:
235,368,101019,2,0,L|178:355,2,45.4999986114502,8|0|2,0:0|3:0|3:1,0:0:0:0:
370,322,101467,1,2,3:1:0:0:
370,322,101578,2,0,P|428:301|474:299,1,90.9999972229005,2|2,0:1|3:0,0:0:0:0:
500,311,101914,2,0,P|506:243|492:191,1,90.9999972229005,8|2,0:0|3:1,0:0:0:0:
419,126,102362,6,0,L|315:111,1,90.9999972229005,2|2,3:1|3:0,0:0:0:0:
306,84,102698,2,0,L|202:69,1,90.9999972229005,2|2,3:1|3:0,0:0:0:0:
183,90,103034,1,2,3:1:0:0:
247,181,103258,1,2,3:1:0:0:
265,207,103370,1,2,3:0:0:0:
273,237,103481,1,0,0:0:0:0:
266,268,103593,2,0,L|134:285,1,90.9999972229005,2|0,3:1|0:0,0:0:0:0:
144,304,103929,1,2,3:1:0:0:
38,178,104153,6,0,P|105:171|162:120,2,136.499995834351,2|2|2,3:1|3:1|3:1,0:0:0:0:
126,36,105049,1,2,3:1:0:0:
126,36,105161,2,0,P|182:37|233:62,1,90.9999972229005,2|2,0:1|3:0,0:0:0:0:
234,85,105496,1,8,0:0:0:0:
375,39,105720,1,2,3:3:0:0:
345,186,105944,6,0,P|331:243|332:289,1,90.9999972229005,2|2,3:1|3:0,0:0:0:0:
343,309,106280,1,2,3:1:0:0:
322,339,106392,2,0,L|327:385,2,45.4999986114502,8|2|2,0:0|3:0|3:1,0:0:0:0:
218,281,106840,2,0,P|159:272|105:267,1,90.9999972229005,2|0,3:1|0:0,0:0:0:0:
95,289,107175,1,2,3:1:0:0:
51,272,107287,1,8,0:0:0:0:
137,131,107511,1,2,3:1:0:0:
288,182,107735,6,0,P|347:161|427:158,2,136.499995834351,2|2|2,3:1|3:1|3:1,0:0:0:0:
336,317,108631,1,2,3:1:0:0:
336,317,108743,2,0,P|389:311|435:291,1,90.9999972229005,2|2,0:1|3:0,0:0:0:0:
469,307,109078,2,0,P|471:243|489:197,1,90.9999972229005,8|2,0:0|3:0,0:0:0:0:
415,84,109526,6,0,L|314:70,1,90.9999972229005,2|2,3:1|3:0,0:0:0:0:
295,44,109862,1,2,3:1:0:0:
295,44,109974,2,0,L|194:60,1,90.9999972229005,8|2,0:0|3:1,0:0:0:0:
108,128,110422,1,2,3:1:0:0:
124,155,110534,1,2,3:0:0:0:
126,186,110646,1,0,0:0:0:0:
114,215,110758,2,0,P|93:290|95:338,1,90.9999972229005,2|0,3:1|0:0,0:0:0:0:
109,335,111093,1,2,3:1:0:0:
224,280,111317,6,0,P|284:268|324:265,1,90.9999972229005,2|2,3:1|3:0,0:0:0:0:
346,287,111653,1,2,3:1:0:0:
348,325,111765,2,0,L|336:374,2,45.4999986114502,8|0|2,0:0|3:0|3:1,0:0:0:0:
229,247,112213,1,2,3:1:0:0:
229,247,112325,2,0,P|217:173|224:119,1,90.9999972229005,2|0,0:1|3:0,0:0:0:0:
245,127,112661,1,10,3:1:0:0:
361,104,112884,1,2,3:1:0:0:
484,78,113108,6,0,P|495:133|494:184,1,90.9999972229005,0|0,3:0|3:0,0:0:0:0:
484,194,113444,1,0,3:0:0:0:
484,194,113556,2,0,L|405:180,2,45.4999986114502,2|2|8,3:0|3:0|3:2,0:0:0:0:
381,282,114004,1,0,3:0:0:0:
381,282,114116,1,0,3:0:0:0:
381,282,114228,2,0,L|445:274,2,45.4999986114502,0|0|8,3:0|3:0|0:0,0:0:0:0:
294,219,114675,1,0,3:0:0:0:
187,202,114899,5,4,0:0:0:0:
299,249,127437,5,2,0:0:0:0:
338,90,127885,5,2,0:0:0:0:
147,32,128332,5,2,0:0:0:0:
91,253,128780,6,0,P|28:341|2:365,1,130,2|2,0:0|0:1,0:0:0:0:
12,355,129675,1,8,0:0:0:0:
12,355,130571,2,0,L|86:343,1,65,8|0,0:0|0:0,0:0:0:0:
167,311,131019,6,0,P|225:337|301:336,1,130,2|10,0:0|0:0,0:0:0:0:
451,368,131914,2,0,P|438:325|448:257,1,97.5,2|0,0:0|0:0,0:0:0:0:
475,253,132362,2,0,L|493:177,1,65,10|0,0:1|0:0,0:0:0:0:
430,88,132810,6,0,P|370:82|341:159,1,130,2|8,0:0|0:0,0:0:0:0:
285,193,133481,1,0,0:0:0:0:
207,206,133705,2,0,P|149:189|131:120,1,130,2|8,0:0|0:0,0:0:0:0:
179,69,134377,1,2,0:0:0:0:
246,109,134601,2,0,P|270:167|231:227,1,130,0|8,0:0|0:0,0:0:0:0:
196,286,135273,1,2,0:0:0:0:
217,359,135496,2,0,P|286:356|318:293,1,130,0|8,0:0|0:0,0:0:0:0:
412,155,136392,6,0,P|458:173|508:176,2,97.5,2|0|0,0:0|0:0|0:0,0:0:0:0:
333,148,137287,2,0,P|340:196|362:241,2,97.5,2|0|0,0:0|0:0|0:0,0:0:0:0:
293,79,138183,2,0,P|254:109|215:194,1,130,2|8,0:0|0:0,0:0:0:0:
316,296,139078,2,0,P|271:318|249:321,1,65,2|0,0:0|0:0,0:0:0:0:
224,298,139414,2,0,P|176:300|142:295,1,65,2|0,0:0|0:0,0:0:0:0:
127,265,139750,2,0,P|85:246|46:217,1,65,2|2,0:0|0:1,0:0:0:0:
173,137,140422,1,8,0:0:0:0:
173,137,141317,2,0,L|183:66,1,65,8|2,0:0|0:0,0:0:0:0:
282,175,141765,6,0,L|295:282,1,77.999997619629,8|0,3:0|3:0,0:0:0:0:
324,274,142101,1,0,3:0:0:0:
324,274,142213,2,0,L|381:267,2,38.9999988098145,2|2|2,3:0|3:0|3:0,0:0:0:0:
222,330,142661,2,0,P|178:346|137:343,1,77.999997619629,0|0,3:0|3:0,0:0:0:0:
118,322,142996,1,0,3:0:0:0:
118,322,143108,1,8,3:2:0:0:
181,239,143332,1,8,0:2:0:0:
66,182,143556,6,0,P|128:148|203:142,1,136.499995834351,6|2,3:1|3:3,0:0:0:0:
226,116,144004,2,0,L|235:59,2,45.4999986114502,8|0|2,0:0|3:0|3:0,0:0:0:0:
305,222,144452,1,2,3:1:0:0:
305,222,144564,2,0,P|368:258|410:257,1,90.9999972229005,2|0,0:1|3:0,0:0:0:0:
405,226,144899,2,0,P|458:200|504:201,1,90.9999972229005,8|0,0:0|3:0,0:0:0:0:
491,28,145347,6,0,P|435:36|390:44,1,90.9999972229005,2|0,3:1|3:0,0:0:0:0:
372,76,145683,1,2,3:0:0:0:
372,76,145795,2,0,P|311:64|264:56,1,90.9999972229005,8|2,0:0|3:0,0:0:0:0:
178,13,146243,1,2,3:1:0:0:
178,13,146355,2,0,P|161:67|155:120,1,90.9999972229005,2|0,0:1|3:0,0:0:0:0:
181,131,146690,1,8,0:0:0:0:
37,93,146914,1,0,3:0:0:0:
89,240,147138,6,0,P|178:258|228:273,2,136.499995834351,2|2|2,3:1|3:0|3:0,0:0:0:0:
193,130,148034,1,2,3:1:0:0:
193,130,148146,2,0,P|249:144|289:152,1,90.9999972229005,2|0,0:1|3:0,0:0:0:0:
310,182,148481,2,0,P|325:237|309:279,1,90.9999972229005,8|2,0:0|3:0,0:0:0:0:
165,348,148929,6,0,L|152:249,1,90.9999972229005,2|0,3:1|3:0,0:0:0:0:
130,231,149265,2,0,L|117:132,1,90.9999972229005,2|0,3:3|3:0,0:0:0:0:
141,107,149601,1,2,3:0:0:0:
267,26,149825,2,0,L|251:128,1,90.9999972229005,2|0,3:1|3:0,0:0:0:0:
272,145,150161,1,2,3:1:0:0:
293,178,150273,2,0,L|277:280,1,90.9999972229005,8|2,0:0|3:1,0:0:0:0:
394,357,150720,6,0,P|428:305|408:218,2,136.499995834351,2|2|2,3:1|3:0|3:0,0:0:0:0:
257,278,151616,1,2,3:1:0:0:
257,278,151728,2,0,P|191:278|145:302,1,90.9999972229005,2|0,0:1|3:0,0:0:0:0:
138,311,152064,2,0,P|76:323|38:316,1,90.9999972229005,8|0,0:0|3:0,0:0:0:0:
100,185,152511,6,0,L|88:84,1,90.9999972229005,2|0,3:1|3:0,0:0:0:0:
114,60,152847,1,2,3:0:0:0:
154,48,152959,2,0,L|169:-21,2,45.4999986114502,8|0|0,0:0|3:0|3:0,0:0:0:0:
232,154,153407,2,0,L|341:129,1,90.9999972229005,2|0,3:1|0:0,0:0:0:0:
355,149,153743,2,0,L|464:124,1,90.9999972229005,2|0,3:1|0:0,0:0:0:0:
476,141,154078,1,2,0:1:0:0:
423,280,154302,6,0,P|374:293|320:283,1,90.9999972229005,2|0,3:1|3:0,0:0:0:0:
304,263,154638,1,2,3:3:0:0:
304,263,154750,2,0,P|280:313|284:365,1,90.9999972229005,8|2,0:0|3:0,0:0:0:0:
157,257,155198,1,2,3:1:0:0:
157,257,155310,2,0,P|162:182|145:140,1,90.9999972229005,2|0,0:1|3:0,0:0:0:0:
122,139,155646,1,8,0:0:0:0:
229,54,155870,1,2,3:0:0:0:
325,161,156093,6,0,P|420:180|473:184,1,136.499995834351,2|2,3:1|3:0,0:0:0:0:
498,156,156541,2,0,L|490:95,2,45.4999986114502,10|0|0,3:1|0:0|3:0,0:0:0:0:
417,269,156989,1,2,3:1:0:0:
417,269,157101,1,0,0:0:0:0:
417,269,157213,1,0,3:0:0:0:
417,269,157325,1,2,3:0:0:0:
417,269,157437,2,0,P|425:342|436:379,1,90.9999972229005,10|10,3:1|3:2,0:0:0:0:
274,305,157884,6,0,P|213:290|136:281,1,136.499995834351,2|2,3:1|3:1,0:0:0:0:
108,305,158332,2,0,L|48:316,2,45.4999986114502,8|0|2,0:0|3:0|3:1,0:0:0:0:
167,187,158780,1,2,3:1:0:0:
167,187,158892,2,0,P|168:122|141:82,1,90.9999972229005,2|0,0:1|3:0,0:0:0:0:
123,79,159228,2,0,P|74:83|31:107,1,90.9999972229005,8|2,0:0|3:1,0:0:0:0:
5,246,159675,6,0,L|117:269,1,90.9999972229005,2|2,3:1|3:0,0:0:0:0:
118,291,160011,2,0,L|230:314,1,90.9999972229005,2|2,3:1|3:0,0:0:0:0:
242,285,160347,1,2,3:1:0:0:
188,175,160571,1,2,3:1:0:0:
168,139,160683,1,2,3:0:0:0:
166,98,160795,1,0,0:0:0:0:
180,59,160907,2,0,L|307:83,1,90.9999972229005,2|0,3:1|0:0,0:0:0:0:
297,109,161243,1,2,0:1:0:0:
399,34,161467,6,0,P|428:111|426:181,2,136.499995834351,2|2|2,3:1|3:1|3:1,0:0:0:0:
250,84,162362,1,2,3:1:0:0:
250,84,162474,2,0,P|258:144|277:178,1,90.9999972229005,2|0,0:1|3:0,0:0:0:0:
304,193,162810,1,8,0:0:0:0:
280,342,163034,1,2,3:0:0:0:
116,308,163258,6,0,P|53:309|13:319,1,90.9999972229005,2|2,3:1|3:0,0:0:0:0:
1,282,163593,1,2,3:1:0:0:
13,240,163705,2,0,L|5:187,2,45.4999986114502,0|0|2,0:0|3:0|3:1,0:0:0:0:
131,178,164153,2,0,P|137:120|123:78,1,90.9999972229005,0|2,3:1|3:0,0:0:0:0:
101,61,164489,1,2,3:1:0:0:
114,19,164601,1,8,0:0:0:0:
281,3,164825,1,2,3:1:0:0:
297,173,165049,6,0,P|367:193|443:191,2,136.499995834351,2|2|2,3:1|3:1|3:1,0:0:0:0:
152,228,165944,1,2,3:1:0:0:
152,228,166056,2,0,P|103:214|58:212,1,90.9999972229005,2|0,0:1|3:0,0:0:0:0:
32,195,166392,2,0,P|12:140|10:90,1,90.9999972229005,8|2,0:0|3:0,0:0:0:0:
152,25,166840,6,0,L|138:122,1,90.9999972229005,2|0,3:1|0:0,0:0:0:0:
162,147,167175,2,0,L|148:244,1,90.9999972229005,2|0,3:1|0:0,0:0:0:0:
126,265,167511,1,2,3:1:0:0:
242,350,167735,1,2,3:1:0:0:
271,321,167847,1,2,3:0:0:0:
310,311,167959,1,0,0:0:0:0:
350,319,168071,2,0,L|454:294,1,90.9999972229005,2|0,3:1|0:0,0:0:0:0:
474,313,168407,1,2,3:1:0:0:
502,200,168631,6,0,P|508:146|501:98,1,90.9999972229005,2|2,3:1|3:0,0:0:0:0:
471,82,168967,1,2,3:1:0:0:
449,45,169078,2,0,L|455:-5,2,45.4999986114502,8|2|2,0:0|3:0|3:1,0:0:0:0:
357,152,169526,1,2,3:1:0:0:
357,152,169638,2,0,P|285:133|231:133,1,90.9999972229005,2|0,0:1|3:0,0:0:0:0:
238,101,169974,1,8,0:0:0:0:
222,227,170198,1,2,3:0:0:0:
207,353,170422,6,0,P|145:359|106:353,1,90.9999972229005,8|0,0:0|3:0,0:0:0:0:
88,332,170758,1,0,3:0:0:0:
88,332,170870,2,0,L|79:281,2,45.4999986114502,8|2|2,3:2|3:0|3:0,0:0:0:0:
7,215,171317,1,0,3:0:0:0:
7,215,171429,1,0,3:0:0:0:
7,215,171541,1,0,3:0:0:0:
7,215,171653,1,0,3:0:0:0:
7,215,171765,2,0,P|75:200|114:197,1,90.9999972229005,8|2,0:0|3:0,0:0:0:0:
188,255,172213,1,2,0:1:0:0:
463,113,173780,5,2,0:1:0:0:
463,113,174004,2,2,B|397:133|391:90|292:112,1,155.999995239258,2|0,0:1|0:0,0:1:0:0:
283,226,174675,2,2,B|241:152|301:84|362:107|438:166|404:341|319:335|281:248,1,389.999988098145,2|0,0:1|3:0,0:1:0:0:
106,307,180944,5,2,0:1:0:0:
106,307,181168,2,2,B|172:293|221:261|203:230,1,130,2|0,0:1|0:0,0:1:0:0:
127,196,181840,2,2,B|262:189|196:257|367:273|426:227|403:129|339:71|317:161|237:268|130:70|145:-18|366:-40|392:110|401:111|491:7|433:-165|600:85|586:165|437:235|342:153|475:111,1,845,2|0,0:1|0:0,0:1:0:0:
