osu file format v14

[General]
AudioFilename: audio.mp3
AudioLeadIn: 0
PreviewTime: 86243
Countdown: 0
SampleSet: Soft
StackLeniency: 1
Mode: 0
LetterboxInBreaks: 0
WidescreenStoryboard: 1

[Editor]
Bookmarks: 184750
DistanceSpacing: 0.5
BeatDivisor: 4
GridSize: 4
TimelineZoom: 1.5

[Metadata]
Title:Ditto
TitleUnicode:Ditto
Artist:NewJeans
ArtistUnicode:뉴진스
Creator:Nijika Ijichi
Version:1e-9
Source:
Tags:potatodew english kpop korean pop k-pop ₍⑅ᐢ..ᐢ₎ bunny nwjns new jeans 민지 minji 하니 hanni 다니엘 danielle 해린 haerin 혜인 hyein
BeatmapID:4011742
BeatmapSetID:1940274

[Difficulty]
HPDrainRate:5
CircleSize:4
OverallDifficulty:8.5
ApproachRate:9.2
SliderMultiplier:1.7
SliderTickRate:1

[Events]
//Background and Video events
0,0,"bunn.jpg",0,0
//Break Periods
2,115099,126837
//Storyboard Layer 0 (Background)
//Storyboard Layer 1 (Fail)
//Storyboard Layer 2 (Pass)
//Storyboard Layer 3 (Foreground)
//Storyboard Layer 4 (Overlay)
//Storyboard Sound Samples

[TimingPoints]
273,447.761194029851,4,2,1,40,1,0
14601,-125,4,2,1,40,0,0
28929,-76.9230769230769,4,2,1,50,0,0
41467,-125,4,2,1,50,0,0
43258,-76.9230769230769,4,2,1,50,0,0
55795,-100,4,2,1,50,0,0
56243,-66.6666666666667,4,2,1,50,0,0
56690,-50,4,2,1,50,0,0
57138,-83.3333333333333,4,2,1,50,0,0
57586,-83.3333333333333,4,2,1,40,0,0
64750,-100,4,2,1,40,0,0
70123,-125,4,2,1,40,0,0
70571,-76.9230769230769,4,2,1,40,0,0
71019,-55.5555555555556,4,2,1,50,0,0
71467,-76.9230769230769,4,2,1,50,0,0
71914,-62.5,4,2,1,60,0,0
84899,-50,4,2,1,60,0,0
85347,-40,4,2,1,60,0,0
86243,-50,4,2,1,60,0,0
92511,-62.5,4,2,1,60,0,0
93407,-50,4,2,1,60,0,0
96093,-43.4782608695652,4,2,1,60,0,0
96989,-50,4,2,1,60,0,0
99228,-41.6666666666667,4,2,1,60,0,0
99675,-35.7142857142857,4,2,1,60,0,0
100011,-31.25,4,2,1,60,0,0
100571,-45.4545454545455,4,2,1,60,0,0
113108,-45.4545454545455,4,2,1,50,0,0
114452,-62.5,4,2,1,40,0,0
114899,-62.5,4,2,1,40,0,1
122064,-62.5,4,2,1,40,0,0
127437,-100,4,2,1,40,0,0
127884,-71.4285714285714,4,2,1,40,0,0
128332,-55.5555555555556,4,2,1,40,0,0
128780,-71.4285714285714,4,2,1,40,0,0
130571,-100,4,2,1,40,0,0
141765,-66.6666666666667,4,2,1,50,0,0
143556,-50,4,2,1,60,0,0
152511,-58.8235294117647,4,2,1,60,0,0
153407,-45.4545454545455,4,2,1,60,0,0
154302,-50,4,2,1,60,0,0
156541,-41.6666666666667,4,2,1,60,0,0
156989,-35.7142857142857,4,2,1,60,0,0
157437,-31.25,4,2,1,60,0,0
157884,-45.4545454545455,4,2,1,60,0,0
160683,-38.4615384615385,4,2,1,60,0,0
161467,-45.4545454545455,4,2,1,60,0,0
163258,-40,4,2,1,60,0,0
164601,-45.4545454545455,4,2,1,60,0,0
167847,-38.4615384615385,4,2,1,60,0,0
168631,-45.4545454545455,4,2,1,60,0,0
170422,-45.4545454545455,4,2,1,50,0,0
171765,-62.5,4,2,1,50,0,0
172213,-100,4,2,1,50,0,0
179377,-100,4,2,1,40,0,0
180944,-100,4,2,1,30,0,0
181840,-137.551581843191,4,2,1,20,0,0

[Colours]
Combo1 : 255,206,231
Combo2 : 255,198,255

[HitObjects]
99,60,14601,6,0,P|163:58|222:63,2,102,2|0|8,0:0|0:0|0:0,0:0:0:0:
36,136,15496,1,2,0:3:0:0:
36,136,15608,2,0,L|53:211,1,68,2|0,0:0|0:0,0:0:0:0:
65,233,15944,2,0,L|42:314,1,68,0|8,0:0|0:0,0:0:0:0:
207,307,16392,6,0,P|201:252|204:183,1,102,2|0,0:0|0:0,0:0:0:0:
232,181,16840,2,0,L|284:193,2,34,0|0|8,0:0|0:0|0:0,0:0:0:0:
312,283,17287,1,2,0:3:0:0:
312,283,17399,1,2,0:0:0:0:
312,283,17511,2,0,L|358:271,1,34,0|0,0:0|0:0,0:0:0:0:
407,319,17735,2,0,P|359:308|309:309,1,68,0|8,0:0|0:0,0:0:0:0:
398,144,18183,6,0,P|457:135|511:132,2,102,2|0|8,0:0|0:0|0:0,0:0:0:0:
325,68,19078,1,2,0:3:0:0:
325,68,19190,2,0,L|243:53,1,68,2|0,0:0|0:0,0:0:0:0:
227,76,19526,2,0,L|145:61,1,68,0|8,0:0|0:0,0:0:0:0:
241,194,19974,6,0,P|247:238|246:270,1,68,2|0,0:0|0:0,0:0:0:0:
226,287,20310,2,0,P|220:331|221:363,1,68,2|0,0:0|0:0,0:0:0:0:
243,378,20646,1,8,0:0:0:0:
129,302,20870,2,0,P|86:293|53:281,1,68,2|0,0:3|0:0,0:0:0:0:
65,245,21205,2,0,P|22:236|-11:224,1,68,2|0,0:0|0:0,0:0:0:0:
12,185,21541,1,8,0:0:0:0:
170,198,21765,6,0,P|176:142|166:87,2,102,2|0|8,0:0|0:0|0:0,0:0:0:0:
246,260,22661,1,2,0:3:0:0:
246,260,22773,2,0,L|326:245,1,68,2|0,0:0|0:0,0:0:0:0:
346,273,23108,2,0,L|361:359,1,68,0|8,0:0|0:0,0:0:0:0:
459,268,23556,6,0,P|464:209|455:149,1,102,2|2,0:0|0:0,0:0:0:0:
482,131,24004,2,0,L|524:142,2,34,0|0|8,0:0|0:0|0:0,0:0:0:0:
389,63,24452,1,2,0:3:0:0:
389,63,24564,2,0,L|332:76,1,34
284,110,24787,1,2,0:0:0:0:
284,110,24899,2,0,L|202:83,1,68,0|8,0:0|0:0,0:0:0:0:
79,207,25347,6,0,P|145:196|207:190,2,102,2|0|8,0:0|0:0|0:0,0:0:0:0:
11,145,26243,1,2,0:3:0:0:
11,145,26355,2,0,L|23:60,1,68,2|0,0:0|0:0,0:0:0:0:
48,47,26690,2,0,L|105:59,1,34
140,112,26914,2,0,L|184:102,1,34,8|0,0:0|0:0,0:0:0:0:
249,52,27138,5,0,3:0:0:0:
249,52,27362,1,0,3:0:0:0:
249,52,27586,1,0,3:0:0:0:
311,117,27810,1,0,3:0:0:0:
311,117,27922,1,0,3:0:0:0:
251,187,28146,1,0,3:0:0:0:
251,187,28258,1,0,3:0:0:0:
182,124,28481,1,0,3:0:0:0:
182,124,28593,1,0,3:0:0:0:
182,124,28705,1,0,3:0:0:0:
368,290,28929,6,0,B|428:303|486:245,1,110.499994941712,4|0,3:2|0:0,0:0:0:0:
471,260,29377,1,8,0:0:0:0:
261,353,29601,5,0,3:0:0:0:
261,353,29713,1,0,3:0:0:0:
261,353,29825,2,0,P|255:290|266:225,1,110.499994941712,2|0,0:0|0:0,0:0:0:0:
169,293,30161,1,2,0:0:0:0:
80,223,30273,2,0,P|84:277|75:332,1,110.499994941712,8|2,0:0|0:0,0:0:0:0:
359,320,30720,5,0,3:0:0:0:
359,320,30944,1,0,3:0:0:0:
484,259,31168,2,0,L|411:268,1,55.2499974708558,8|0,0:0|0:0,0:0:0:0:
279,140,31392,2,0,L|206:149,1,55.2499974708558
137,167,31616,6,0,L|148:90,2,55.2499974708558,2|0|0,3:2|3:0|3:0,3:0:0:0:
158,206,31952,1,2,0:0:0:0:
76,232,32064,2,0,L|31:171,1,55.2499974708558,8|0,0:0|0:0,0:0:0:0:
56,322,32287,2,0,L|-13:288,1,55.2499974708558,2|0,0:0|0:0,0:0:0:0:
267,288,32511,6,0,P|335:273|504:276,1,220.999989883423,0|8,3:0|0:0,0:0:0:0:
231,123,33183,1,0,3:0:0:0:
231,123,33295,1,0,3:0:0:0:
231,123,33407,2,0,P|150:134|110:132,1,110.499994941712,2|0,0:0|0:0,0:0:0:0:
49,83,33743,1,2,0:0:0:0:
1,176,33855,2,0,P|56:175|110:165,1,110.499994941712,8|2,0:0|0:0,0:0:0:0:
254,23,34302,5,0,3:0:0:0:
254,23,34526,2,0,P|265:85|272:142,1,110.499994941712,2|8,0:0|0:0,0:0:0:0:
226,212,34974,1,2,3:2:0:0:
226,212,35086,1,0,3:2:0:0:
226,212,35198,2,0,P|230:277|245:336,1,110.499994941712,2|0,0:0|0:0,0:0:0:0:
308,376,35534,1,2,0:0:0:0:
221,338,35646,2,0,P|209:284|206:228,1,110.499994941712,8|2,0:0|0:0,0:0:0:0:
85,61,36093,6,8,P|164:71|318:100,1,220.999989883423,2|8,3:2|0:0,0:0:0:0:
466,35,36765,1,2,0:0:0:0:
391,163,36989,2,0,P|380:66|356:-6,1,165.749992412567,0|0,3:0|0:0,0:0:0:0:
279,32,37437,2,0,L|223:78,1,55.2499974708558,8|0,0:0|0:0,0:0:0:0:
304,212,37661,2,0,L|275:281,1,55.2499974708558,2|0,3:2|0:0,0:0:0:0:
333,357,37884,6,0,P|222:344|112:288,1,220.999989883423,2|8,3:2|0:0,0:0:0:0:
50,176,38556,1,2,0:0:0:0:
43,357,38780,2,0,P|31:284|80:196,1,165.749992412567,0|0,3:0|0:0,0:0:0:0:
142,260,39228,2,0,L|198:300,1,55.2499974708558,8|0,0:0|0:0,0:0:0:0:
335,254,39452,2,0,L|363:317,1,55.2499974708558,2|0,3:2|0:0,0:0:0:0:
465,351,39675,6,0,P|456:277|462:145,1,165.749992412567,2|0,3:2|0:0,0:0:0:0:
480,162,40123,2,0,L|487:91,1,55.2499974708558,8|0,0:0|0:0,0:0:0:0:
361,16,40347,1,2,3:2:0:0:
361,16,40459,1,0,3:2:0:0:
361,16,40571,2,0,P|367:96|360:147,1,110.499994941712,0|0,3:0|0:0,0:0:0:0:
277,67,40907,1,0,0:0:0:0:
208,126,41019,2,0,L|196:194,1,55.2499974708558,8|0,0:0|0:0,0:0:0:0:
115,54,41243,2,2,L|101:-16,1,55.2499974708558,2|2,3:2|0:0,0:0:0:0:
24,141,41467,6,0,L|103:156,2,68,0|0|0,3:0|3:0|3:0,3:0:0:0:
41,227,42138,1,0,3:0:0:0:
41,227,42250,2,0,L|124:242,1,68,0|0,3:0|3:0,3:0:0:0:
140,224,42586,1,0,3:0:0:0:
56,314,42810,2,0,L|139:329,1,68,0|0,3:0|3:0,3:0:0:0:
457,234,43258,5,8,0:0:0:0:
409,305,43481,1,2,0:0:0:0:
376,267,43593,1,0,3:0:0:0:
373,217,43705,1,8,0:0:0:0:
394,172,43817,1,0,3:0:0:0:
439,152,43929,1,2,0:0:0:0:
379,0,44153,1,0,3:2:0:0:
381,16,44265,1,0,3:2:0:0:
383,32,44377,1,0,3:2:0:0:
385,48,44489,1,2,3:2:0:0:
387,66,44601,2,0,L|509:53,1,110.499994941712,8|2,0:0|0:0,0:0:0:0:
291,133,45049,5,8,0:0:0:0:
206,79,45273,1,2,0:0:0:0:
159,61,45384,1,0,3:0:0:0:
113,81,45496,2,0,L|123:164,1,55.2499974708558,8|0,0:0|3:0,0:0:0:0:
201,184,45720,1,2,0:0:0:0:
111,276,45944,1,2,3:2:0:0:
111,276,46056,1,0,3:2:0:0:
111,276,46168,2,0,L|124:190,1,55.2499974708558,0|2,3:2|3:2,3:2:0:0:
193,275,46392,2,0,L|209:403,1,110.499994941712,8|2,0:0|0:0,0:0:0:0:
331,218,46840,5,8,0:0:0:0:
282,139,47064,1,2,0:0:0:0:
234,150,47175,1,0,3:0:0:0:
187,131,47287,1,8,0:0:0:0:
156,91,47399,1,0,3:0:0:0:
158,41,47511,1,2,0:0:0:0:
64,89,47735,1,2,3:2:0:0:
62,105,47847,1,0,3:0:0:0:
60,121,47959,1,0,3:0:0:0:
58,137,48071,1,2,3:2:0:0:
57,153,48183,2,0,P|63:245|60:286,1,110.499994941712,8|2,0:0|0:0,0:0:0:0:
215,365,48631,5,8,0:0:0:0:
168,279,48855,1,2,0:0:0:0:
168,279,48967,1,0,3:0:0:0:
168,279,49078,2,0,L|176:209,1,55.2499974708558,8|0,0:0|3:0,0:0:0:0:
248,164,49302,1,2,0:0:0:0:
248,164,49414,1,0,3:0:0:0:
248,164,49526,2,0,L|256:94,2,55.2499974708558,0|0|0,3:0|3:0|3:0,3:0:0:0:
153,19,49974,2,0,L|166:102,1,55.2499974708558,8|0,0:0|0:0,0:0:0:0:
352,83,50198,2,0,L|365:166,1,55.2499974708558,2|0,3:2|0:0,0:0:0:0:
431,220,50422,6,0,P|367:222|308:246,1,110.499994941712,8|0,0:0|3:0,0:0:0:0:
308,284,50758,1,0,3:0:0:0:
330,328,50870,1,8,0:0:0:0:
378,339,50981,1,0,3:0:0:0:
421,314,51093,1,2,0:0:0:0:
229,232,51317,2,0,L|163:250,3,55.2499974708558,0|0|0|0,3:0|3:0|3:0|3:0,3:0:0:0:
141,322,51765,2,0,L|158:255,1,55.2499974708558,8|0,0:0|0:0,0:0:0:0:
107,200,51989,2,0,L|155:248,1,55.2499974708558,2|0,3:2|0:0,0:0:0:0:
253,334,52213,6,0,P|326:316|376:316,1,110.499994941712,8|0,0:0|3:0,0:0:0:0:
408,298,52549,1,0,3:0:0:0:
437,257,52661,1,8,0:0:0:0:
450,209,52773,1,0,3:0:0:0:
438,161,52884,1,2,0:0:0:0:
367,30,53108,2,0,L|380:111,3,55.2499974708558,0|0|0|0,3:0|3:0|3:0|3:0,3:0:0:0:
303,120,53556,2,0,L|316:201,1,55.2499974708558,8|0,0:0|0:0,0:0:0:0:
369,233,53780,2,0,L|382:314,1,55.2499974708558,2|0,3:2|0:0,0:0:0:0:
246,273,54004,6,0,P|173:250|111:245,1,110.499994941712,8|0,0:0|3:0,0:0:0:0:
101,213,54340,1,0,3:0:0:0:
96,163,54452,2,0,L|111:86,1,55.2499974708558,10|0,0:0|3:0,0:0:0:0:
221,44,54675,2,0,L|206:121,1,55.2499974708558,2|0,3:2|3:0,0:0:0:0:
284,173,54899,1,0,3:0:0:0:
322,175,55011,1,0,3:0:0:0:
359,166,55123,1,0,3:0:0:0:
394,150,55235,1,0,3:0:0:0:
426,127,55347,1,8,0:0:0:0:
426,127,55571,2,0,L|438:205,1,55.2499974708558,2|0,0:0|0:0,0:0:0:0:
319,207,55795,6,0,P|260:203|172:177,1,127.5,2|0,0:0|0:0,0:0:0:0:
79,173,56243,6,0,P|170:207|269:223,1,191.250007295609,2|0,0:0|0:0,0:0:0:0:
396,265,56690,6,0,P|263:260|129:219,1,255,2|0,0:0|0:0,0:0:0:0:
62,265,57138,6,0,P|129:280|227:284,1,152.999995330811,2|0,0:0|0:0,0:0:0:0:
20,373,57586,5,2,0:1:0:0:
20,373,58034,1,0,0:3:0:0:
20,373,58481,1,0,0:0:0:0:
20,373,58817,1,0,0:0:0:0:
153,270,59153,1,2,0:0:0:0:
136,95,59377,5,2,0:2:0:0:
209,47,59825,1,2,0:0:0:0:
291,62,60273,1,2,0:0:0:0:
363,145,60608,1,2,0:0:0:0:
369,291,60944,1,2,0:0:0:0:
488,69,61168,5,2,0:1:0:0:
488,69,61616,1,0,0:0:0:0:
488,69,62064,1,0,0:0:0:0:
488,69,62399,1,0,0:0:0:0:
337,20,62735,1,2,0:0:0:0:
179,150,62959,5,2,0:0:0:0:
209,68,63407,1,2,0:0:0:0:
69,103,63855,1,2,0:0:0:0:
137,274,64190,1,2,0:0:0:0:
334,164,64526,1,2,0:0:0:0:
120,25,64750,6,0,L|90:212,1,170,0|8,3:0|0:0,0:0:0:0:
93,192,65422,1,0,0:0:0:0:
0,147,65646,2,0,L|20:272,2,127.5,2|2|2,0:0|0:0|0:0,0:0:0:0:
221,91,66541,2,0,P|298:113|417:113,1,170,0|8,3:0|0:0,0:0:0:0:
387,116,67437,2,0,L|400:227,1,85,2|0,0:0|0:0,0:0:0:0:
374,228,67773,2,0,L|387:339,1,85,2|0,0:0|0:0,0:0:0:0:
409,335,68108,1,2,0:0:0:0:
189,246,68332,6,0,P|178:171|232:87,1,170,2|8,3:1|0:0,0:0:0:0:
224,92,69228,2,0,P|179:163|183:228,2,127.5,0|0|2,0:0|0:0|0:0,0:0:0:0:
415,17,70123,6,0,P|425:69|426:132,1,102,2|0,0:1|0:0,0:0:0:0:
312,227,70571,6,0,P|311:164|341:64,1,165.749992412568,2|0,0:1|0:0,0:0:0:0:
220,10,71019,6,0,L|235:112,2,76.4999976654053,2|0|0,0:1|3:0|3:0,0:0:0:0:
141,69,71467,6,0,L|130:148,1,55.2499974708558,2|0,0:1|0:0,0:0:0:0:
62,20,71690,2,0,L|51:99,1,55.2499974708558,0|0,3:0|0:0,0:0:0:0:
25,274,71914,6,0,P|111:273|171:253,1,136,6|0,3:2|3:0,0:0:0:0:
233,287,72250,1,0,3:0:0:0:
278,221,72362,2,0,L|258:142,2,68,8|2|2,0:0|3:0|3:0,0:0:0:0:
493,373,72810,1,0,3:0:0:0:
425,379,72922,1,0,3:0:0:0:
370,338,73034,1,0,3:0:0:0:
361,270,73146,1,2,3:0:0:0:
397,212,73258,2,0,L|484:192,1,68,8|0,0:2|3:0,0:0:0:0:
483,104,73481,2,0,L|396:124,1,68,2|0,0:0|0:0,0:0:0:0:
208,113,73705,6,0,P|279:106|343:157,1,136,2|0,0:0|3:0,0:0:0:0:
331,139,74041,1,0,3:0:0:0:
261,234,74153,2,0,L|163:246,1,68,8|0,0:0|3:0,0:0:0:0:
110,167,74377,2,0,L|169:245,1,68,2|0,3:0|3:0,0:0:0:0:
128,332,74601,2,0,L|166:241,1,68,2|0,0:0|0:0,0:0:0:0:
247,37,74825,5,2,3:0:0:0:
180,88,74937,1,2,3:0:0:0:
260,124,75049,2,0,L|356:108,1,68,10|0,0:1|3:0,0:0:0:0:
430,47,75273,2,0,L|526:31,1,68,2|0,0:0|0:0,0:0:0:0:
436,199,75496,6,0,P|428:297|441:356,1,136,2|0,3:2|3:0,0:0:0:0:
368,365,75832,1,0,3:0:0:0:
298,325,75944,2,0,L|221:303,1,68,8|0,0:0|3:0,0:0:0:0:
97,233,76168,2,0,L|174:255,1,68,2|0,3:2|3:0,0:0:0:0:
247,217,76392,1,2,3:0:0:0:
289,163,76504,1,2,3:0:0:0:
276,96,76616,1,2,3:0:0:0:
218,59,76728,1,2,3:0:0:0:
151,70,76840,2,0,L|173:169,1,68,8|0,0:0|3:0,0:0:0:0:
76,210,77064,2,0,L|54:111,1,68,2|0,0:0|0:0,0:0:0:0:
6,293,77287,6,0,P|96:316|184:318,1,136,2|0,3:2|3:0,0:0:0:0:
200,271,77623,1,0,3:0:0:0:
274,266,77735,1,8,0:0:0:0:
338,303,77847,1,2,3:3:0:0:
365,372,77959,1,2,3:2:0:0:
111,227,78183,1,0,3:0:0:0:
89,184,78295,1,0,3:0:0:0:
98,137,78407,1,0,3:0:0:0:
129,101,78519,1,0,3:0:0:0:
176,93,78631,2,0,L|291:122,1,68,8|0,0:2|0:0,0:0:0:0:
65,16,78855,2,0,L|-50:-13,1,68,0|0,3:0|0:0,0:0:0:0:
203,201,79078,6,0,P|302:181|374:172,1,136,2|0,3:1|3:0,0:0:0:0:
336,176,79414,1,2,0:0:0:0:
298,293,79526,2,0,P|347:268|384:254,1,68,8|0,0:0|3:0,0:0:0:0:
207,295,79750,2,0,P|182:318|161:345,1,68,2|0,0:0|0:0,0:0:0:0:
121,248,79974,1,2,3:2:0:0:
102,211,80086,1,2,3:0:0:0:
112,171,80198,1,2,3:0:0:0:
165,108,80310,1,2,3:2:0:0:
181,70,80422,1,8,3:2:0:0:
167,31,80534,1,2,3:0:0:0:
86,74,80646,2,0,P|68:125|65:150,1,68,2|0,0:0|0:0,0:0:0:0:
253,212,80870,6,0,P|274:133|274:72,1,136,2|0,3:2|3:0,0:0:0:0:
309,28,81205,1,2,0:0:0:0:
369,19,81317,1,8,0:0:0:0:
423,46,81429,1,2,3:0:0:0:
445,102,81541,1,2,3:0:0:0:
188,190,81765,2,0,L|128:131,2,68,2|0|0,3:2|3:2|3:2,3:2:0:0:
102,230,82101,2,0,L|81:310,2,68,2|8|0,3:2|3:2|3:2,3:2:0:0:
176,282,82437,2,0,L|256:260,1,68,2|0,3:2|0:2,3:2:0:0:
469,223,82661,6,0,P|395:197|338:162,1,136,2|0,3:1|3:0,0:0:0:0:
322,117,82996,1,0,3:0:0:0:
343,65,83108,2,0,P|303:38|271:29,2,68,8|0|0,0:0|3:0|3:0,0:0:0:0:
238,161,83556,1,0,3:0:0:0:
198,171,83668,1,0,3:0:0:0:
160,155,83780,1,0,3:0:0:0:
135,122,83892,1,0,3:0:0:0:
135,81,84004,2,0,L|150:7,1,68,8|0,0:0|0:0,0:0:0:0:
58,171,84228,1,2,3:0:0:0:
24,243,84340,1,2,3:0:0:0:
66,307,84452,6,0,P|163:272|223:265,1,136,2|0,3:1|3:0,0:0:0:0:
290,304,84787,1,2,3:0:0:0:
372,309,84899,6,0,P|269:277|193:213,1,170,10|0,3:1|3:0,0:0:0:0:
130,120,85235,1,2,3:0:0:0:
128,36,85347,6,0,P|175:148|195:251,1,212.5,2|0,3:1|3:0,0:0:0:0:
215,366,85683,1,2,3:0:0:0:
84,230,85795,2,0,P|44:187|-24:159,1,106.25,10|0,3:1|3:0,0:0:0:0:
283,152,86019,2,0,P|289:103|286:13,1,106.25,10|0,3:2|3:0,3:0:0:0:
394,96,86243,6,0,P|389:219|397:326,1,170,6|0,3:1|3:0,0:0:0:0:
392,266,86578,1,2,3:2:0:0:
212,263,86690,2,0,L|322:240,1,85,8|0,0:0|3:0,0:0:0:0:
464,348,86914,2,0,L|354:371,1,85,2|0,3:2|0:0,0:0:0:0:
123,304,87138,5,2,3:1:0:0:
23,342,87250,2,0,P|34:245|23:134,1,170,2|0,0:1|3:0,3:1:0:0:
2,307,87586,1,8,0:0:0:0:
66,199,87810,1,2,3:0:0:0:
66,199,87922,1,2,3:0:0:0:
9,85,88034,6,0,P|85:22|171:58,1,170,2|0,3:1|3:0,0:0:0:0:
206,101,88370,2,0,P|294:105|357:48,1,170,10|0,0:0|3:0,0:0:0:0:
121,120,88705,2,0,L|100:232,1,85,2|0,3:2|0:0,0:0:0:0:
73,283,88929,5,2,0:1:0:0:
73,283,89041,2,0,P|114:290|154:276,1,85,2|0,0:1|3:0,0:0:0:0:
322,133,89265,1,0,0:0:0:0:
268,59,89377,2,0,P|241:92|235:134,1,85,8|0,0:2|0:0,0:0:0:0:
363,341,89601,2,0,P|348:301|316:275,1,85,2|0,3:0|0:0,0:0:0:0:
237,223,89825,6,0,P|123:242|18:269,1,170,2|0,3:1|3:0,0:0:0:0:
137,337,90161,1,2,3:2:0:0:
141,143,90273,2,0,L|151:32,1,85,8|0,0:0|3:0,0:0:0:0:
61,11,90496,2,0,L|54:96,1,85,2|0,0:0|0:0,0:0:0:0:
326,106,90720,5,2,3:1:0:0:
411,67,90832,2,0,P|279:77|200:96,1,170,2|0,0:1|3:0,0:0:0:0:
429,46,91168,2,0,L|515:62,2,85,8|0|0,0:0|3:0|3:0,0:0:0:0:
98,297,91616,6,0,P|58:204|55:116,1,170,2|0,3:1|3:0,0:0:0:0:
101,0,91952,2,0,P|145:103|149:206,1,170,10|0,3:2|3:0,0:0:0:0:
0,303,92287,2,0,P|31:244|61:219,1,85,2|0,3:2|0:0,0:0:0:0:
349,96,92511,6,0,P|469:91|538:115,1,136,2|0,3:2|0:0,0:0:0:0:
370,209,92847,2,0,P|280:176|225:123,1,136,2|0,3:2|0:0,0:0:0:0:
332,1,93183,2,0,P|350:40|355:79,1,68,2|0,3:2|0:0,0:0:0:0:
121,80,93407,6,0,P|145:188|181:261,1,170,2|0,3:1|3:0,0:0:0:0:
169,241,93743,1,2,3:2:0:0:
333,207,93855,2,0,L|214:182,1,85,8|0,0:0|3:0,0:0:0:0:
394,287,94078,2,0,L|477:304,1,85,2|0,0:0|0:0,0:0:0:0:
220,333,94302,5,2,3:1:0:0:
119,375,94414,2,0,P|37:334|54:256,1,170,2|0,0:1|3:0,0:0:0:0:
211,361,94750,1,8,0:0:0:0:
11,182,94974,2,0,P|46:163|106:167,1,85,2|0,3:0|0:0,0:0:0:0:
300,207,95198,6,0,P|401:187|487:185,1,170,2|0,3:1|3:0,0:0:0:0:
318,297,95534,2,0,P|262:308|221:308,1,85,2|8,3:2|0:0,0:0:0:0:
163,253,95758,1,0,3:0:0:0:
257,117,95870,2,0,P|324:103|368:99,1,85,0|0,3:2|0:0,0:0:0:0:
191,291,96093,6,0,P|85:270|-12:241,1,195.500003728867,2|0,3:1|3:0,0:0:0:0:
291,208,96429,1,2,3:1:0:0:
348,283,96541,2,0,P|394:296|443:304,1,97.7500018644333,10|0,3:2|3:0,0:0:0:0:
176,178,96765,2,0,P|126:164|69:156,1,97.7500018644333,2|0,3:1|0:0,0:0:0:0:
265,14,96989,6,0,P|308:92|411:80,1,170,2|0,3:1|3:0,0:0:0:0:
454,29,97325,2,0,P|411:115|477:193,1,170,10|0,3:2|3:0,0:0:0:0:
359,272,97661,2,0,L|341:170,1,85,2|0,0:2|0:0,0:0:0:0:
151,85,97884,5,2,3:1:0:0:
151,1,97996,2,0,P|129:123|121:193,1,170,2|0,0:1|3:0,0:0:0:0:
116,18,98332,1,8,0:0:0:0:
150,193,98556,1,2,3:0:0:0:
150,193,98668,1,2,3:0:0:0:
65,299,98780,6,0,P|169:284|267:274,1,170,2|0,3:1|3:0,0:0:0:0:
352,237,99116,1,2,3:0:0:0:
442,240,99228,6,0,P|318:206|216:194,1,203.999993774414,10|0,3:1|3:0,0:0:0:0:
134,104,99564,1,2,3:0:0:0:
41,158,99675,6,0,P|218:112|346:104,1,237.999992736817,2|0,3:1|3:0,0:0:0:0:
384,11,100011,1,2,3:0:0:0:
490,85,100123,6,0,P|316:27|247:18,1,136,10|0,3:1|3:0,0:0:0:0:
167,85,100347,2,0,P|-7:27|-76:18,1,136,10|0,3:2|3:0,0:0:0:0:
132,227,100571,6,0,P|215:292|307:269,1,187.000005706787,6|2,3:1|3:0,0:0:0:0:
352,213,100907,1,2,3:1:0:0:
464,326,101019,2,0,P|407:305|364:294,1,93.5000028533936,8|0,0:0|3:0,0:0:0:0:
249,108,101243,2,0,P|259:167|271:210,1,93.5000028533936,2|0,3:1|0:0,0:0:0:0:
129,384,101467,5,2,3:1:0:0:
298,372,101578,2,0,P|245:357|187:337,1,93.5000028533936,2|0,0:1|0:0,0:0:0:0:
71,236,101802,1,2,3:0:0:0:
131,299,101914,2,0,P|111:240|102:181,1,93.5000028533936,8|0,0:0|0:0,0:0:0:0:
363,295,102138,2,0,P|383:354|392:413,1,93.5000028533936,2|0,3:1|0:0,0:0:0:0:
476,245,102362,6,0,L|507:48,1,187.000005706787,2|2,3:1|3:0,0:0:0:0:
427,0,102698,2,0,L|411:92,1,93.5000028533936,2|8,3:1|0:0,0:0:0:0:
410,92,102922,1,2,3:0:0:0:
309,159,103034,2,0,L|327:52,1,93.5000028533936,2|0,3:1|0:0,0:0:0:0:
321,362,103258,5,2,3:1:0:0:
475,276,103370,2,0,P|419:283|350:312,1,93.5000028533936,2|0,3:0|0:0,0:0:0:0:
175,209,103593,1,2,3:1:0:0:
298,275,103705,2,0,P|242:282|173:311,1,93.5000028533936,8|0,3:2|0:0,0:0:0:0:
27,306,103929,2,0,P|83:299|152:270,1,93.5000028533936,2|0,3:1|0:0,0:0:0:0:
220,93,104153,6,0,P|148:17|45:50,1,187.000005706787,2|2,3:1|3:0,0:0:0:0:
199,181,104489,2,0,P|265:172|304:129,1,93.5000028533936,2|8,3:1|0:0,0:0:0:0:
133,116,104713,1,2,3:0:0:0:
309,76,104825,2,0,P|364:77|411:114,1,93.5000028533936,2|0,3:1|0:0,0:0:0:0:
486,358,105049,5,2,3:1:0:0:
337,315,105161,2,0,P|227:322|165:331,1,93.5000028533936,2|0,0:1|0:0,0:0:0:0:
406,382,105384,1,2,3:0:0:0:
424,293,105496,2,0,P|418:239|403:179,1,93.5000028533936,8|0,0:0|0:0,0:0:0:0:
146,290,105720,2,0,P|152:344|167:404,1,93.5000028533936,2|0,3:3|0:0,0:0:0:0:
4,143,105944,6,0,P|82:125|195:115,1,187.000005706787,2|2,3:1|3:0,0:0:0:0:
308,113,106280,2,0,P|230:95|194:93,1,93.5000028533936,2|8,3:1|0:0,0:0:0:0:
4,57,106504,1,2,3:0:0:0:
82,19,106616,2,0,P|160:1|196:-1,1,93.5000028533936,2|0,3:1|0:0,0:0:0:0:
332,6,106840,5,2,3:1:0:0:
413,47,106952,2,0,L|431:161,1,93.5000028533936,2|0,3:0|0:0,0:0:0:0:
427,139,107175,1,2,3:1:0:0:
373,228,107287,2,0,L|317:127,1,93.5000028533936,8|0,0:0|0:0,0:0:0:0:
349,333,107511,2,0,L|261:257,1,93.5000028533936,2|0,3:1|0:0,0:0:0:0:
45,78,107735,6,0,P|73:184|74:288,1,187.000005706787,2|2,3:1|3:0,0:0:0:0:
209,346,108071,1,2,3:1:0:0:
23,356,108183,2,0,P|70:348|116:343,1,93.5000028533936,8|0,0:0|3:0,0:0:0:0:
262,247,108407,2,0,P|215:254|169:259,1,93.5000028533936,2|0,3:1|0:0,0:0:0:0:
355,114,108631,5,2,3:1:0:0:
464,2,108743,2,0,P|447:71|440:116,1,93.5000028533936,2|0,0:1|0:0,0:0:0:0:
425,172,108967,1,2,3:0:0:0:
276,33,109078,2,0,P|347:24|379:15,1,93.5000028533936,8|0,0:0|0:0,0:0:0:0:
507,181,109302,2,0,P|436:190|404:199,1,93.5000028533936,2|0,3:0|0:0,0:0:0:0:
344,308,109526,6,0,P|377:336|518:321,1,187.000005706787,2|2,3:1|3:0,0:0:0:0:
261,274,109862,2,0,P|253:316|284:372,1,93.5000028533936,2|8,3:1|0:0,0:0:0:0:
272,361,110086,1,2,3:0:0:0:
246,185,110198,2,0,P|205:199|172:254,1,93.5000028533936,2|0,3:1|0:0,0:0:0:0:
445,151,110422,5,2,3:1:0:0:
380,88,110534,2,0,P|320:75|263:70,1,93.5000028533936,2|0,3:0|0:0,0:0:0:0:
45,126,110758,1,2,3:1:0:0:
109,56,110870,2,0,P|169:43|226:38,1,93.5000028533936,8|0,0:0|0:0,0:0:0:0:
358,181,111093,2,0,P|298:168|241:163,1,93.5000028533936,2|0,3:1|0:0,0:0:0:0:
133,377,111317,6,0,P|77:301|109:212,1,187.000005706787,2|2,3:1|3:0,0:0:0:0:
161,158,111653,1,2,3:1:0:0:
277,265,111765,2,0,P|221:253|169:229,1,93.5000028533936,8|0,0:0|3:0,0:0:0:0:
73,135,111989,2,0,P|66:82|69:8,1,93.5000028533936,2|0,3:1|0:0,0:0:0:0:
353,74,112213,5,2,3:1:0:0:
451,129,112325,2,0,P|348:103|239:88,1,187.000005706787,2|0,0:1|3:0,0:0:0:0:
276,184,112661,2,0,P|329:170|379:153,1,93.5000028533936,10|0,3:1|0:0,0:0:0:0:
290,0,112884,2,0,P|237:14|187:31,1,93.5000028533936,2|0,3:1|0:0,0:0:0:0:
88,187,113108,5,0,3:0:0:0:
183,303,113332,1,0,3:0:0:0:
151,337,113444,1,0,3:0:0:0:
104,338,113556,1,2,3:0:0:0:
63,314,113668,1,2,3:0:0:0:
48,269,113780,1,8,3:2:0:0:
280,191,114004,5,0,3:0:0:0:
310,213,114116,1,0,3:0:0:0:
347,210,114228,1,0,3:0:0:0:
379,191,114340,1,0,3:0:0:0:
393,160,114452,2,0,P|402:121|414:75,1,68,8|0,0:0|0:0,0:0:0:0:
433,17,114675,1,0,3:0:0:0:
166,92,114899,5,4,0:0:0:0:
139,72,127437,6,0,P|128:150|106:214,1,127.5,2|0,0:0|0:0,0:0:0:0:
111,309,127884,6,0,P|130:211|163:117,1,178.499994552612,2|0,0:0|0:0,0:0:0:0:
224,22,128332,6,0,P|175:150|144:268,1,229.499992996216,2|0,0:0|0:0,0:0:0:0:
198,340,128780,6,0,P|190:262|265:120,1,237.999992736817,2|2,0:0|0:1,0:0:0:0:
27,257,129675,1,8,0:0:0:0:
27,257,130571,2,0,P|55:274|143:275,1,85,8|0,0:0|0:0,0:0:0:0:
244,195,131019,6,0,P|325:164|400:157,1,127.5,2|0,0:0|0:0,0:0:0:0:
399,170,131467,2,0,L|414:61,1,85,10|0,0:0|0:0,0:0:0:0:
232,78,131914,2,0,P|158:47|76:34,1,127.5,2|0,0:0|0:0,0:0:0:0:
44,75,132362,2,0,P|6:44|4:-2,1,85,10|0,0:1|0:0,0:0:0:0:
118,184,132810,6,0,P|125:259|117:374,1,170,2|8,0:0|0:0,0:0:0:0:
120,353,133481,1,0,0:0:0:0:
264,135,133705,2,0,P|257:210|265:325,1,170,2|8,0:0|0:0,0:0:0:0:
117,187,134377,1,2,0:0:0:0:
429,80,134601,2,0,P|434:169|418:269,1,170,0|8,0:0|0:0,0:0:0:0:
423,248,135273,1,2,0:0:0:0:
250,10,135496,2,0,P|239:87|247:199,1,170,0|8,0:0|0:0,0:0:0:0:
432,344,136392,6,0,P|391:314|310:302,2,127.5,2|0|0,0:0|0:0|0:0,0:0:0:0:
135,254,137287,2,0,P|82:288|19:296,2,127.5,2|0|0,0:0|0:0|0:0,0:0:0:0:
242,376,138183,2,0,P|224:285|247:217,1,127.5,2|2,0:0|0:0,0:0:0:0:
262,219,138631,1,8,0:0:0:0:
83,47,139078,6,0,L|96:141,1,85,2|0,0:0|0:0,0:0:0:0:
49,197,139414,1,2,0:0:0:0:
120,149,139526,2,0,L|133:243,1,85,8|2,0:0|0:0,0:0:0:0:
300,90,139974,6,0,P|384:69|479:63,1,170,2|8,0:1|0:0,0:0:0:0:
466,62,140870,2,0,P|382:69|300:90,1,170,0|8,0:0|0:0,0:0:0:0:
100,140,141541,2,0,L|46:128,1,42.5,2|0,0:0|0:0,0:0:0:0:
177,1,141765,6,0,L|203:179,1,127.500004863739,8|0,3:0|3:0,0:0:0:0:
233,170,142101,1,0,3:0:0:0:
289,160,142213,1,2,3:0:0:0:
319,111,142325,1,2,3:0:0:0:
295,58,142437,1,2,3:0:0:0:
156,231,142661,1,0,3:0:0:0:
108,263,142773,1,0,3:0:0:0:
53,246,142884,1,0,3:0:0:0:
41,189,142996,1,0,3:0:0:0:
80,147,143108,2,0,L|92:245,1,63.7500024318696,8|0,3:2|0:0,0:0:0:0:
162,124,143332,2,0,L|174:222,1,63.7500024318696,8|0,0:2|0:0,0:0:0:0:
392,344,143556,6,0,P|388:263|394:169,1,170,6|0,3:1|3:0,0:0:0:0:
437,112,143892,1,2,3:3:0:0:
393,50,144004,1,8,0:0:0:0:
320,73,144116,1,0,3:0:0:0:
320,150,144228,1,2,3:0:0:0:
91,64,144452,5,2,3:1:0:0:
126,192,144564,2,0,P|212:250|305:265,1,170,2|0,0:1|3:0,0:0:0:0:
371,253,144899,1,8,0:0:0:0:
381,345,145011,1,0,3:0:0:0:
290,355,145123,2,0,L|180:367,1,85,0|0,3:0|0:0,0:0:0:0:
17,196,145347,6,0,P|102:169|101:66,1,170,2|0,3:1|3:0,0:0:0:0:
47,44,145683,1,2,3:0:0:0:
218,26,145795,2,0,L|124:11,2,85,8|0|2,0:0|3:0|3:0,0:0:0:0:
342,142,146243,5,2,3:1:0:0:
417,185,146355,2,0,P|470:174|509:167,1,85,2|0,0:1|0:0,0:0:0:0:
500,168,146578,1,0,3:0:0:0:
336,262,146690,2,0,P|277:247|233:242,1,85,8|0,0:0|0:0,0:0:0:0:
110,190,146914,2,0,P|169:175|213:170,1,85,0|0,3:0|0:0,0:0:0:0:
383,0,147138,6,0,P|285:27|270:130,1,170,2|0,3:1|3:0,0:0:0:0:
310,143,147474,1,2,3:0:0:0:
382,117,147586,1,8,0:0:0:0:
441,165,147698,1,0,3:0:0:0:
436,241,147810,2,0,P|439:303|445:348,1,85,2|0,3:0|3:0,0:0:0:0:
223,301,148034,5,2,3:1:0:0:
104,355,148146,2,0,P|105:243|96:155,1,170,2|0,0:1|3:0,0:0:0:0:
210,327,148481,1,8,0:0:0:0:
15,248,148705,1,2,3:0:0:0:
15,248,148817,1,2,3:0:0:0:
12,112,148929,6,0,P|77:86|199:99,1,170,2|0,3:1|3:0,0:0:0:0:
329,209,149265,2,0,P|288:221|234:217,1,85,2|8,3:3|0:0,0:0:0:0:
329,58,149489,1,0,3:0:0:0:
482,126,149601,2,0,P|441:138|387:134,1,85,2|0,3:0|3:0,0:0:0:0:
205,8,149825,5,2,3:1:0:0:
154,1,149937,1,0,3:0:0:0:
111,29,150049,1,0,3:0:0:0:
0,46,150161,1,2,3:1:0:0:
43,74,150273,1,8,0:0:0:0:
94,67,150385,1,0,3:0:0:0:
216,97,150496,2,0,L|112:49,1,85,2|0,3:1|0:0,0:0:0:0:
111,191,150720,6,0,L|185:343,1,170,2|0,3:1|3:0,0:0:0:0:
258,367,151056,1,2,3:0:0:0:
307,308,151168,1,8,0:0:0:0:
375,273,151280,1,0,3:0:0:0:
440,311,151392,1,2,3:0:0:0:
286,161,151616,5,2,3:1:0:0:
170,233,151728,2,0,P|54:223|-53:223,1,170,2|0,0:1|3:0,0:0:0:0:
268,329,152064,2,0,L|252:211,1,85,8|0,0:0|0:0,0:0:0:0:
182,54,152287,2,0,L|198:172,1,85,0|0,3:0|0:0,0:0:0:0:
443,194,152511,6,0,P|453:104|433:36,1,144.500002756119,2|0,3:1|3:0,0:0:0:0:
368,20,152847,1,2,3:0:0:0:
314,82,152959,2,0,P|338:131|355:155,1,72.2500013780594,8|0,0:0|3:0,0:0:0:0:
365,267,153183,2,0,P|410:297|437:309,1,72.2500013780594,0|0,3:0|0:0,0:0:0:0:
212,179,153407,5,2,3:1:0:0:
124,141,153519,2,0,P|86:141|7:157,1,93.5000028533936,2|0,3:0|0:0,0:0:0:0:
67,336,153743,1,2,3:1:0:0:
251,282,153855,2,0,P|229:153|185:68,1,187.000005706787,8|2,0:0|0:1,0:0:0:0:
508,15,154302,6,0,P|454:95|370:79,1,170,2|0,3:1|3:0,0:0:0:0:
313,76,154638,1,2,3:3:0:0:
254,125,154750,1,8,0:0:0:0:
264,200,154862,1,0,3:0:0:0:
322,248,154974,2,0,P|380:235|427:229,1,85,2|0,3:0|3:0,0:0:0:0:
476,172,155198,5,2,3:1:0:0:
374,354,155310,2,0,P|240:324|163:309,1,170,2|0,0:1|3:0,0:0:0:0:
46,198,155646,2,0,P|23:151|40:103,1,85,8|0,0:0|0:0,0:0:0:0:
111,259,155870,1,2,3:0:0:0:
111,259,155981,1,2,3:0:0:0:
55,339,156093,6,0,P|64:248|67:158,1,170,2|0,3:1|3:0,0:0:0:0:
105,56,156429,1,2,3:0:0:0:
188,7,156541,6,0,P|201:202|222:304,1,203.999993774414,10|0,3:1|3:0,0:0:0:0:
296,338,156877,1,2,3:0:0:0:
414,384,156989,6,0,P|440:218|453:105,1,237.999992736817,2|0,3:1|3:0,0:0:0:0:
352,12,157325,1,2,3:0:0:0:
216,0,157437,6,0,P|194:65|178:152,1,136,10|0,3:1|0:0,0:0:0:0:
286,254,157661,2,0,P|272:320|250:384,1,136,10|0,3:2|0:0,0:0:0:0:
21,283,157884,6,0,P|89:227|197:247,1,187.000005706787,2|2,3:1|3:0,0:0:0:0:
254,289,158220,1,2,3:1:0:0:
313,132,158332,2,0,P|273:169|269:228,1,93.5000028533936,8|0,0:0|3:0,0:0:0:0:
172,324,158556,2,0,P|116:298|101:247,1,93.5000028533936,2|0,3:1|0:0,0:0:0:0:
86,8,158780,5,2,3:1:0:0:
8,131,158892,2,0,P|138:105|234:92,1,187.000005706787,2|0,0:1|3:0,0:0:0:0:
349,40,159228,2,0,P|295:28|236:17,1,93.5000028533936,8|0,0:0|0:0,0:0:0:0:
397,184,159452,2,0,P|451:196|510:207,1,93.5000028533936,2|0,3:1|0:0,0:0:0:0:
310,270,159675,5,2,3:1:0:0:
271,228,159787,1,2,3:0:0:0:
216,239,159899,1,2,3:0:0:0:
142,300,160011,1,2,3:1:0:0:
91,274,160123,1,10,0:0:0:0:
38,293,160235,1,2,3:0:0:0:
18,345,160347,2,0,L|115:384,1,93.5000028533936,2|0,3:1|0:0,0:0:0:0:
137,187,160571,5,2,3:1:0:0:
77,138,160683,2,0,P|66:72|45:2,1,110.499994941712,2|0,3:0|0:0,0:0:0:0:
281,6,160907,1,2,3:1:0:0:
345,110,161019,2,0,P|425:120|513:4,1,220.999989883423,8|2,0:0|0:1,0:0:0:0:
395,325,161467,6,0,P|266:308|169:300,1,187.000005706787,2|2,3:1|3:0,0:0:0:0:
146,343,161802,1,2,3:1:0:0:
75,316,161914,1,8,0:0:0:0:
62,242,162026,1,2,3:0:0:0:
113,188,162138,2,0,P|104:140|72:76,1,93.5000028533936,2|0,3:1|0:0,0:0:0:0:
10,157,162362,5,2,3:1:0:0:
206,213,162474,2,0,P|251:95|260:-2,1,187.000005706787,2|0,0:1|3:0,0:0:0:0:
294,255,162810,2,0,P|344:216|379:162,1,93.5000028533936,8|0,0:0|0:0,0:0:0:0:
329,338,163034,2,0,P|395:334|442:313,1,93.5000028533936,2|0,3:0|0:0,0:0:0:0:
490,23,163258,6,0,P|385:87|285:57,1,212.5,2|2,3:1|3:0,0:0:0:0:
37,77,163593,2,0,P|127:65|230:160,1,212.5,2|0,3:1|3:0,0:0:0:0:
366,249,163929,2,0,P|324:210|314:143,1,106.25,2|0,3:1|0:0,0:0:0:0:
106,246,164153,5,0,3:1:0:0:
132,315,164265,1,2,3:0:0:0:
200,344,164377,1,2,3:0:0:0:
271,324,164489,1,2,3:1:0:0:
341,359,164601,2,0,P|396:348|447:343,1,93.5000028533936,8|0,0:0|3:0,0:0:0:0:
486,284,164825,2,0,P|475:229|470:178,1,93.5000028533936,2|0,3:1|0:0,0:0:0:0:
237,16,165049,6,0,P|224:152|190:238,1,187.000005706787,2|2,3:1|3:0,0:0:0:0:
135,218,165384,1,2,3:1:0:0:
75,172,165496,1,8,0:0:0:0:
87,98,165608,1,2,3:0:0:0:
156,70,165720,2,0,P|197:101|253:110,1,93.5000028533936,2|0,3:1|0:0,0:0:0:0:
508,157,165944,5,2,3:1:0:0:
489,12,166056,2,0,P|413:134|390:213,1,187.000005706787,2|0,0:1|3:0,0:0:0:0:
329,294,166392,2,0,P|315:246|309:170,1,93.5000028533936,8|0,0:0|0:0,0:0:0:0:
308,10,166616,2,0,P|322:58|328:134,1,93.5000028533936,2|0,3:0|0:0,0:0:0:0:
202,234,166840,5,2,3:1:0:0:
169,262,166952,2,0,P|114:246|63:215,1,93.5000028533936,2|0,3:0|0:0,0:0:0:0:
229,355,167175,1,2,3:1:0:0:
196,383,167287,2,0,P|141:367|90:336,1,93.5000028533936,8|0,0:0|0:0,0:0:0:0:
379,310,167511,2,0,P|324:294|273:263,1,93.5000028533936,2|0,3:1|0:0,0:0:0:0:
94,78,167735,5,2,3:1:0:0:
168,23,167847,2,0,P|221:20|306:32,1,110.499994941712,2|0,3:0|0:0,0:0:0:0:
469,211,168071,1,2,3:1:0:0:
373,123,168183,2,0,P|320:120|235:132,1,110.499994941712,8|0,0:0|0:0,0:0:0:0:
102,215,168407,2,0,P|155:212|240:224,1,110.499994941712,2|0,3:1|0:0,0:0:0:0:
376,384,168631,6,0,P|324:296|347:201,1,187.000005706787,2|2,3:1|3:0,0:0:0:0:
397,170,168967,1,2,3:1:0:0:
428,102,169078,1,8,0:0:0:0:
393,35,169190,1,2,3:0:0:0:
321,14,169302,2,0,P|259:23|199:27,1,93.5000028533936,2|0,3:1|0:0,0:0:0:0:
47,151,169526,5,2,3:1:0:0:
269,119,169638,2,0,P|139:92|61:65,1,187.000005706787,2|0,0:1|3:0,0:0:0:0:
240,224,169974,2,0,P|310:208|368:201,1,93.5000028533936,8|0,0:0|0:0,0:0:0:0:
452,106,170198,2,0,P|382:122|324:129,1,93.5000028533936,2|0,3:0|0:0,0:0:0:0:
158,178,170422,5,8,0:0:0:0:
70,308,170646,1,0,3:0:0:0:
55,273,170758,1,0,3:0:0:0:
48,236,170870,1,8,3:2:0:0:
48,198,170981,1,2,3:0:0:0:
55,161,171093,1,2,3:0:0:0:
262,284,171317,1,0,3:0:0:0:
269,247,171429,1,0,3:0:0:0:
269,209,171540,1,0,3:0:0:0:
262,172,171652,1,0,3:0:0:0:
247,137,171765,2,0,L|260:50,1,68,8|0,0:0|0:0,0:0:0:0:
340,54,171989,2,0,L|327:141,1,68,2|0,3:0|0:0,0:0:0:0:
444,259,172213,5,2,0:1:0:0:
386,322,172437,1,0,0:0:0:0:
386,322,172549,1,0,0:0:0:0:
386,322,172661,1,8,0:0:0:0:
301,283,172884,1,0,0:0:0:0:
301,283,172996,1,8,0:0:0:0:
235,340,173220,1,0,0:0:0:0:
235,340,173332,1,8,0:0:0:0:
153,293,173556,1,8,0:0:0:0:
109,203,173780,2,0,L|123:129,1,42.5,2|0,0:1|0:0,0:0:0:0:
19,99,174004,2,2,P|97:76|188:15,1,170,2|0,0:1|0:0,0:1:0:0:
416,248,174675,2,2,P|338:225|194:110,1,255,2|0,0:1|0:0,0:1:0:0:
250,47,175571,1,8,0:0:0:0:
465,29,175795,6,0,L|445:135,2,85,0|0|0,3:0|3:0|3:0,0:0:0:0:
366,149,176467,1,0,0:0:0:0:
366,149,176578,1,8,0:0:0:0:
398,233,176802,1,0,0:0:0:0:
398,233,176914,1,8,0:0:0:0:
483,194,177138,1,8,0:0:0:0:
449,112,177362,1,8,0:0:0:0:
336,142,177586,1,0,0:0:0:0:
336,142,177810,1,0,0:0:0:0:
336,142,178034,1,8,0:0:0:0:
363,266,178258,1,0,0:0:0:0:
363,266,178370,1,8,0:0:0:0:
498,238,178593,1,0,0:0:0:0:
498,238,178705,1,8,0:0:0:0:
478,112,178929,1,8,0:0:0:0:
478,112,179153,1,2,0:0:0:0:
256,192,179377,5,2,0:0:0:0:
180,232,179601,2,0,L|172:187,4,42.5,0|0|0|0|0,0:0|0:0|0:0|0:0|0:0,0:0:0:0:
88,206,180273,2,0,L|96:161,4,42.5,0|0|0|0|0,0:0|0:0|0:0|0:0|0:0,0:0:0:0:
8,235,180944,2,0,L|-4:178,1,42.5,2|0,0:1|0:0,0:0:0:0:
115,63,181168,6,2,P|189:62|284:130,1,170,2|0,0:1|0:0,0:1:0:0:
224,343,181840,2,2,B|197:321|181:205|278:265|426:123|303:40|203:35|178:120|178:120|136:58|25:70|-26:181|89:307|152:202|170:261|192:298,1,803.335041676928,2|0,0:1|0:0,0:1:0:0:
