osu file format v14

[General]
AudioFilename: audio.mp3
AudioLeadIn: 0
PreviewTime: 58219
Countdown: 1
SampleSet: Normal
StackLeniency: 0.3
Mode: 0
LetterboxInBreaks: 0
WidescreenStoryboard: 1

[Editor]
Bookmarks: 12881,14695,27389,34643,43711,58219,72727,100388,102267,118719,120533,135041,149549,156803,159523,164057,178368,193065,215567,222613,228251,252154,280263,293373,294279,308787,309694,316948,323295,324202,338710
DistanceSpacing: 1.1
BeatDivisor: 6
GridSize: 4
TimelineZoom: 1.699998

[Metadata]
Title:Flute (Dj Key FULL mash up)
TitleUnicode:Flute (Dj Key FULL mash up)
Artist:New World Sound & Thomas Newson
ArtistUnicode:New World Sound & Thomas Newson
Creator:Bewww
Version:Flute
Source:
Tags:club mix electronic Spinnin' Records big room house edm
BeatmapID:1247809
BeatmapSetID:589521

[Difficulty]
HPDrainRate:6.5
CircleSize:4
OverallDifficulty:8
ApproachRate:9.4
SliderMultiplier:1.5
SliderTickRate:1

[Events]
//Background and Video events
0,0,"look.com.ua-36678.jpg",0,0
//Break Periods
2,149598,156263
//Storyboard Layer 0 (Background)
//Storyboard Layer 1 (Fail)
//Storyboard Layer 2 (Pass)
//Storyboard Layer 3 (Foreground)
//Storyboard Sound Samples

[TimingPoints]
187,453.377663593774,4,1,0,65,1,0
56405,-133.333333333333,4,1,0,65,0,0
58219,-66.6666666666667,4,1,0,65,0,0
59126,-133.333333333333,4,1,0,65,0,0
59579,-66.6666666666667,4,1,0,65,0,0
60939,-133.333333333333,4,1,0,65,0,0
61392,-66.6666666666667,4,1,0,65,0,0
62753,-133.333333333333,4,1,0,65,0,0
63206,-66.6666666666667,4,1,0,65,0,0
66380,-133.333333333333,4,1,0,65,0,0
66833,-66.6666666666667,4,1,0,65,0,0
68193,-133.333333333333,4,1,0,65,0,0
68647,-66.6666666666667,4,1,0,65,0,0
72727,-133.333333333333,4,1,0,65,0,0
75901,-100,4,1,0,65,0,0
85422,-80,4,1,0,65,0,0
87235,469.777638584403,4,1,0,65,1,0
87704,-66.6666666666667,4,1,0,65,0,0
88644,-100,4,1,0,65,0,0
106025,453.377663593774,4,1,0,65,1,1
106025,-80,4,1,0,65,0,1
119626,-133.333333333333,4,1,0,65,0,1
120533,-80,4,1,0,65,0,1
134134,-133.333333333333,4,1,0,65,0,1
135041,-100,4,1,0,65,0,0
156803,-100,4,1,0,12,0,0
158616,-100,4,1,0,25,0,0
160430,-100,4,1,0,40,0,0
162243,-100,4,1,0,53,0,0
164057,-100,4,1,0,65,0,0
176751,-133.333333333333,4,1,0,65,0,0
178565,-66.6666666666667,4,1,0,65,0,0
179472,-133.333333333333,4,1,0,65,0,0
179925,-66.6666666666667,4,1,0,65,0,0
181285,-133.333333333333,4,1,0,65,0,0
181738,-66.6666666666667,4,1,0,65,0,0
183099,-133.333333333333,4,1,0,65,0,0
183552,-66.6666666666667,4,1,0,65,0,0
186726,-133.333333333333,4,1,0,65,0,0
187179,-66.6666666666667,4,1,0,65,0,0
188539,-133.333333333333,4,1,0,65,0,0
188993,-66.6666666666667,4,1,0,65,0,0
193073,-133.333333333333,4,1,0,65,0,0
196247,-100,4,1,0,65,0,0
205768,-80,4,1,0,65,0,0
207581,469.777638584403,4,1,0,65,1,0
208050,-66.6666666666667,4,1,0,65,0,0
208990,-100,4,1,0,65,0,0
221674,-200,4,1,0,65,0,0
222613,-100,4,1,0,65,0,0
237634,453.377663593774,4,1,0,65,1,0
250328,-86.9565217391304,4,1,0,65,0,0
252142,-66.6666666666667,4,1,0,65,0,0
253048,-133.333333333333,4,1,0,65,0,0
253502,-66.6666666666667,4,1,0,65,0,0
254862,-133.333333333333,4,1,0,65,0,0
255315,-66.6666666666667,4,1,0,65,0,0
256675,-133.333333333333,4,1,0,65,0,0
257129,-66.6666666666667,4,1,0,65,0,0
260302,-133.333333333333,4,1,0,65,0,0
260756,-66.6666666666667,4,1,0,65,0,0
262116,-133.333333333333,4,1,0,65,0,0
262569,-66.6666666666667,4,1,0,65,0,0
266650,-133.333333333333,4,1,0,65,0,0
269823,-100,4,1,0,65,0,0
277531,-100,4,1,0,40,0,0
277984,-100,4,1,0,46,0,0
278437,-100,4,1,0,53,0,0
278891,-100,4,1,0,59,0,0
279344,-80,4,1,0,65,0,0
280251,-133.333333333333,4,1,0,65,0,0
281132,453.377663593774,4,1,0,65,1,1
281132,-80,4,1,0,65,0,1
295186,453.377663593774,4,1,0,65,1,1
295639,-66.6666666666667,4,1,0,65,0,1
308787,-100,4,1,0,65,0,1
309694,-79.9999999999999,4,1,0,65,0,0
324202,-100,4,1,0,65,0,0

[Colours]
Combo1 : 255,255,255
Combo2 : 0,255,168
Combo3 : 244,250,37
Combo4 : 255,0,0

[HitObjects]
140,164,187,5,2,0:0:0:0:
280,224,640,1,0,0:0:0:0:
424,176,1093,1,4,0:0:0:0:
432,136,1547,1,0,0:0:0:0:
364,268,2000,5,2,0:0:0:0:
224,320,2453,1,0,0:0:0:0:
96,240,2907,1,4,0:0:0:0:
88,208,3360,1,0,0:0:0:0:
320,360,3814,5,2,0:0:0:0:
264,220,4267,1,0,0:0:0:0:
356,104,4720,1,4,0:0:0:0:
384,92,5174,1,0,0:0:0:0:
404,240,5627,5,2,0:0:0:0:
272,164,6080,1,0,0:0:0:0:
132,224,6534,1,4,0:0:0:0:
120,256,6987,1,0,0:0:0:0:
244,8,7441,5,2,0:0:0:0:
332,132,7894,1,0,0:0:0:0:
284,276,8347,1,4,0:0:0:0:
260,292,8801,1,0,0:0:0:0:
168,172,9254,5,2,0:0:0:0:
300,104,9707,1,0,0:0:0:0:
436,172,10161,1,4,0:0:0:0:
448,200,10614,1,0,0:0:0:0:
192,308,11068,5,2,0:0:0:0:
332,256,11521,1,0,0:0:0:0:
224,152,11974,1,4,0:0:0:0:
272,8,12428,1,0,0:0:0:0:
256,192,12881,12,0,14241,0:0:0:0:
214,124,14695,6,0,P|266:119|314:124,1,100,2|0,0:0|0:0,0:0:0:0:
451,285,15148,2,0,L|452:226,1,50,8|0,0:0|0:0,0:0:0:0:
512,169,15450,1,4,0:0:0:0:
411,93,15601,2,0,L|410:152,1,50,8|0,0:0|0:0,0:0:0:0:
350,209,15903,1,4,0:0:0:0:
188,294,16055,2,0,P|138:299|88:294,1,100,8|0,0:0|0:0,0:0:0:0:
64,86,16508,6,0,L|60:135,1,50,2|0,0:0|0:0,0:0:0:0:
130,207,16810,1,4,0:0:0:0:
240,143,16961,2,0,L|236:93,1,50,8|0,0:0|0:0,0:0:0:0:
306,22,17263,1,4,0:0:0:0:
387,133,17415,2,0,L|383:182,1,50,8|0,0:0|0:0,0:0:0:0:
453,254,17717,1,4,0:0:0:0:
324,360,17868,2,0,P|311:313|321:263,1,100,8|0,0:0|0:0,0:0:0:0:
136,176,18322,6,0,P|83:175|33:201,1,100,2|0,0:0|0:0,0:0:0:0:
176,368,18775,2,0,L|184:308,1,50,8|0,0:0|0:0,0:0:0:0:
106,254,19077,1,4,0:0:0:0:
268,236,19228,2,0,L|260:180,1,50
344,128,19531,1,4,0:0:0:0:
400,232,19682,2,0,P|452:237|500:232,1,100,8|0,0:0|0:0,0:0:0:0:
316,344,20135,6,0,L|266:346,1,50,2|0,0:0|0:0,0:0:0:0:
167,339,20437,1,4,0:0:0:0:
56,239,20588,2,0,L|105:237,1,50,8|0,0:0|0:0,0:0:0:0:
205,244,20890,1,4,0:0:0:0:
323,150,21042,2,0,L|273:151,1,50
173,144,21344,1,4,0:0:0:0:
56,239,21495,2,0,P|47:190|52:141,1,100,8|0,0:0|0:0,0:0:0:0:
218,55,21949,6,0,P|169:50|119:54,1,100,2|0,0:0|0:0,0:0:0:0:
288,136,22402,2,0,P|316:112|325:90,1,50,8|0,0:0|0:0,0:0:0:0:
305,3,22704,1,4,0:0:0:0:
368,180,22855,2,0,P|396:188|426:179,1,50
487,123,23157,1,4,0:0:0:0:
288,232,23309,2,0,P|283:284|288:332,1,100,8|0,0:0|0:0,0:0:0:0:
104,284,23762,6,0,P|80:284|55:291,1,50,2|0,0:0|0:0,0:0:0:0:
0,375,24064,1,4,0:0:0:0:
146,208,24215,2,0,P|128:188|105:178,1,50,8|0,0:0|0:0,0:0:0:0:
7,198,24517,1,4,0:0:0:0:
212,156,24669,2,0,P|212:128|206:107,1,50,8|0,0:0|0:0,0:0:0:0:
122,48,24971,1,4,0:0:0:0:
296,130,25122,2,0,P|348:134|406:128,1,100,8|0,0:0|0:0,0:0:0:0:
490,284,25576,6,0,P|438:289|390:284,1,100,2|0,0:0|0:0,0:0:0:0:
503,93,26029,2,0,L|500:152,1,50,8|0,0:0|0:0,0:0:0:0:
392,204,26331,1,4,0:0:0:0:
305,350,26482,2,0,L|303:287,1,50
232,204,26784,1,4,0:0:0:0:
68,292,26936,2,0,P|120:297|168:292,1,100,8|0,0:0|0:0,0:0:0:0:
88,68,27389,6,0,L|90:117,1,50,2|0,0:0|0:0,0:0:0:0:
147,194,27691,1,4,0:0:0:0:
280,147,27843,2,0,L|282:97,1,50,8|0,0:0|0:0,0:0:0:0:
339,21,28145,1,4,0:0:0:0:
452,112,28296,2,0,L|454:161,1,50
511,238,28598,1,4,0:0:0:0:
396,344,28749,2,0,P|389:289|403:244,1,100,8|0,0:0|0:0,0:0:0:0:
272,216,29203,6,0,P|216:228|172:216,1,100,2|0,0:0|0:0,0:0:0:0:
132,140,29656,2,0,L|135:85,2,50,8|0|4,0:0|0:0|0:0,0:0:0:0:
248,306,30109,2,0,L|299:302,1,50
280,180,30411,1,4,0:0:0:0:
149,249,30563,2,0,L|86:269,2,50,8|0|0,0:0|0:0|0:0,0:0:0:0:
292,92,31016,6,0,L|296:40,1,50,2|0,0:0|0:0,0:0:0:0:
456,160,31318,1,4,0:0:0:0:
392,240,31469,2,0,L|396:290,2,50,8|0|4,0:0|0:0|0:0,0:0:0:0:
208,272,31923,6,0,L|204:321,1,50,8|0,0:0|0:0,0:0:0:0:
300,224,32225,1,4,0:0:0:0:
368,144,32376,2,0,L|363:94,1,50,8|0,0:0|0:0,0:0:0:0:
268,28,32679,1,0,0:0:0:0:
124,128,32830,6,0,P|172:140|224:128,1,100,2|0,0:0|0:0,0:0:0:0:
60,64,33283,2,0,L|52:4,1,50,8|0,0:0|0:0,0:0:0:0:
172,44,33585,1,4,0:0:0:0:
16,148,33736,2,0,L|4:212,1,50
56,312,34038,1,4,0:0:0:0:
184,264,34190,2,0,P|232:280|264:320,1,100,8|0,0:0|0:0,0:0:0:0:
456,52,34643,6,0,L|407:54,1,50,2|0,0:0|0:0,0:0:0:0:
330,111,34945,1,4,0:0:0:0:
432,208,35097,2,0,L|434:158,1,50,8|0,0:0|0:0,0:0:0:0:
330,111,35399,1,4,0:0:0:0:
224,160,35550,2,0,L|226:209,1,50
52,116,35852,1,4,0:0:0:0:
136,68,36003,2,0,P|143:123|129:168,1,100,8|0,0:0|0:0,0:0:0:0:
240,168,36457,6,0,P|296:156|340:168,1,100,2|0,0:0|0:0,0:0:0:0:
380,244,36910,2,0,L|377:299,2,50,8|0|4,0:0|0:0|0:0,0:0:0:0:
264,78,37363,6,0,L|213:82,1,50
232,204,37665,1,4,0:0:0:0:
363,135,37817,2,0,L|426:115,2,50,8|0|0,0:0|0:0|0:0,0:0:0:0:
220,292,38270,6,0,L|216:344,1,50,2|0,0:0|0:0,0:0:0:0:
56,224,38572,1,4,0:0:0:0:
120,144,38723,2,0,L|116:94,2,50,8|0|4,0:0|0:0|0:0,0:0:0:0:
304,112,39177,6,0,L|308:63,1,50,8|0,0:0|0:0,0:0:0:0:
212,160,39479,1,4,0:0:0:0:
312,208,39630,2,0,L|372:216,1,50,8|0,0:0|0:0,0:0:0:0:
420,128,39933,1,0,0:0:0:0:
312,304,40084,6,0,P|264:292|212:304,1,100,2|0,0:0|0:0,0:0:0:0:
124,232,40537,2,0,L|132:292,1,50,8|0,0:0|0:0,0:0:0:0:
260,376,40839,1,4,0:0:0:0:
400,348,40990,2,0,L|412:284,1,50
312,180,41292,1,4,0:0:0:0:
300,152,41444,1,8,0:0:0:0:
256,192,41671,12,0,42805,0:0:0:0:
220,131,43257,5,0,0:0:0:0:
398,103,43409,1,4,0:0:0:0:
276,48,43560,1,0,0:0:0:0:
484,88,43711,2,0,P|480:136|444:176,1,100,2|0,0:0|0:0,0:0:0:0:
276,220,44164,5,8,0:0:0:0:
196,30,44315,1,4,0:0:0:0:
143,166,44466,1,0,0:0:0:0:
320,132,44618,2,0,L|208:122,1,100,2|0,0:0|0:0,0:0:0:0:
55,167,45071,5,8,0:0:0:0:
47,251,45222,1,4,0:0:0:0:
88,324,45373,1,0,0:0:0:0:
169,348,45524,5,0,0:0:0:0:
253,336,45675,1,4,0:0:0:0:
309,272,45827,1,0,0:0:0:0:
353,199,45978,5,8,0:0:0:0:
431,165,46129,1,4,0:0:0:0:
505,205,46280,1,0,0:0:0:0:
416,355,46431,2,0,L|424:249,1,100,2|0,0:0|0:0,0:0:0:0:
232,250,46884,5,8,0:0:0:0:
192,74,47036,1,4,0:0:0:0:
318,136,47187,1,0,0:0:0:0:
123,125,47338,2,0,P|162:160|224:152,1,100,2|0,0:0|0:0,0:0:0:0:
301,45,47791,5,8,0:0:0:0:
405,153,47942,1,4,0:0:0:0:
222,244,48093,1,0,0:0:0:0:
340,284,48245,2,0,L|347:391,1,100
299,209,48698,5,8,0:0:0:0:
228,161,48849,1,4,0:0:0:0:
149,193,49000,1,0,0:0:0:0:
145,277,49151,5,0,0:0:0:0:
215,324,49302,1,4,0:0:0:0:
293,289,49454,1,0,0:0:0:0:
222,244,49605,5,8,0:0:0:0:
145,277,49756,1,4,0:0:0:0:
66,245,49907,1,0,0:0:0:0:
29,70,50058,2,0,L|24:172,1,100,2|0,0:0|0:0,0:0:0:0:
200,136,50511,5,8,2:0:0:0:
372,187,50663,1,4,0:0:0:0:
337,55,50814,1,0,2:0:0:0:
296,234,50965,2,0,P|280:180|302:133,1,100,2|0,2:0|2:0,2:0:0:0:
449,249,51418,5,8,0:0:0:0:
332,343,51569,1,4,0:0:0:0:
195,206,51720,1,0,0:0:0:0:
114,301,51872,2,0,L|3:308,1,100,2|0,0:0|0:0,0:0:0:0:
202,292,52325,1,8,0:0:0:0:
274,247,52476,1,4,0:0:0:0:
276,162,52627,1,0,0:0:0:0:
201,121,52778,5,0,0:0:0:0:
195,206,52929,1,4,0:0:0:0:
274,247,53081,1,0,0:0:0:0:
350,209,53232,5,8,0:0:0:0:
357,124,53383,1,4,0:0:0:0:
284,79,53534,1,0,0:0:0:0:
459,118,53685,2,0,L|467:223,1,100,2|0,0:0|0:0,0:0:0:0:
229,275,54138,5,8,0:0:0:0:
108,168,54290,1,4,0:0:0:0:
63,322,54441,1,0,0:0:0:0:
208,168,54592,2,0,P|194:117|152:80,1,100,2|0,0:0|0:0,0:0:0:0:
292,212,55045,5,8,0:0:0:0:
456,124,55196,1,4,0:0:0:0:
324,92,55347,1,0,0:0:0:0:
412,256,55499,2,0,P|384:304|332:328,1,100,2|0,0:0|0:0,0:0:0:0:
132,300,55952,5,8,0:0:0:0:
132,300,56103,1,4,0:0:0:0:
88,104,56254,1,0,0:0:0:0:
184,68,56405,2,0,B|210:168|116:204|116:204|9:245|45:350,1,337.500012874604,0|14,0:0|0:0,0:0:0:0:
493,195,58219,6,0,L|343:207,1,150.000005722046,2|0,0:0|0:0,0:0:0:0:
343,206,58597,1,0,0:0:0:0:
343,206,58672,1,8,0:0:0:0:
214,355,58823,1,4,0:0:0:0:
102,229,58974,1,0,0:0:0:0:
102,229,59126,2,0,L|183:233,1,75.000002861023,2|0,0:0|0:0,0:0:0:0:
352,84,59579,5,8,0:0:0:0:
205,155,59730,1,4,0:0:0:0:
447,261,59881,1,0,0:0:0:0:
324,292,60032,2,0,L|318:370,1,75.000002861023,2|0,0:0|0:0,0:0:0:0:
286,141,60335,1,4,0:0:0:0:
286,141,60410,1,0,0:0:0:0:
286,141,60486,1,0,0:0:0:0:
177,60,60637,1,4,0:0:0:0:
17,278,60788,1,0,0:0:0:0:
106,205,60939,6,0,L|99:130,1,75.000002861023,2|0,0:0|0:0,0:0:0:0:
241,232,61392,5,8,0:0:0:0:
510,249,61544,1,4,0:0:0:0:
316,368,61695,1,0,0:0:0:0:
400,216,61846,2,0,P|429:284|391:348,1,150.000005722046,2|0,0:0|0:0,0:0:0:0:
304,184,62299,1,8,0:0:0:0:
304,184,62375,1,0,0:0:0:0:
304,184,62450,1,4,0:0:0:0:
212,368,62601,1,0,0:0:0:0:
67,303,62753,6,0,L|150:305,1,75.000002861023,2|0,0:0|0:0,0:0:0:0:
255,210,63206,5,8,0:0:0:0:
63,138,63357,1,4,0:0:0:0:
392,101,63508,1,0,0:0:0:0:
174,39,63659,2,0,L|189:127,1,75.000002861023,2|4,0:0|0:0,0:0:0:0:
402,274,63962,2,0,L|417:186,1,75.000002861023,0|8,0:0|0:0,0:0:0:0:
169,359,64264,1,6,0:0:0:0:
169,359,64415,1,6,0:0:0:0:
169,359,64566,2,0,L|141:198,1,150.000005722046,2|0,0:0|0:0,0:0:0:0:
42,54,65020,5,8,0:0:0:0:
231,133,65171,1,4,0:0:0:0:
70,223,65322,1,0,0:0:0:0:
199,33,65473,2,0,P|242:29|279:34,1,75.000002861023,2|0,0:0|0:0,0:0:0:0:
344,188,65775,5,4,0:0:0:0:
344,188,65851,1,0,0:0:0:0:
344,188,65926,2,0,P|345:147|337:106,1,75.000002861023,8|0,0:0|0:0,0:0:0:0:
192,160,66229,1,4,0:0:0:0:
392,264,66380,6,0,P|430:271|480:254,1,75.000002861023
456,117,66833,5,8,0:0:0:0:
352,349,66984,1,4,0:0:0:0:
216,188,67135,1,0,0:0:0:0:
120,347,67286,2,0,P|160:355|200:343,1,75.000002861023,2|0,0:0|0:0,0:0:0:0:
285,229,67589,1,4,0:0:0:0:
285,229,67665,1,0,0:0:0:0:
285,229,67740,1,8,0:0:0:0:
163,128,67891,1,4,0:0:0:0:
400,40,68042,1,4,0:0:0:0:
252,56,68193,6,0,L|256:136,1,75.000002861023,2|0,0:0|0:0,0:0:0:0:
238,365,68647,5,8,0:0:0:0:
512,322,68798,1,4,0:0:0:0:
294,251,68949,1,0,0:0:0:0:
471,176,69100,2,0,P|456:108|384:64,1,150.000005722046,2|0,0:0|0:0,0:0:0:0:
368,204,69478,1,8,0:0:0:0:
368,204,69553,2,0,L|364:288,1,75.000002861023,0|4,0:0|0:0,0:0:0:0:
238,365,69856,1,0,0:0:0:0:
152,264,70007,2,0,L|-4:279,1,150.000005722046,2|0,0:0|0:0,0:0:0:0:
65,175,70460,5,8,0:0:0:0:
155,370,70611,1,4,0:0:0:0:
258,250,70762,1,0,0:0:0:0:
366,366,70913,2,0,L|356:291,1,75.000002861023,2|0,0:0|0:0,0:0:0:0:
168,70,71216,2,0,L|158:144,1,75.000002861023,2|8,0:0|0:0,0:0:0:0:
392,26,71518,1,4,0:0:0:0:
392,26,71669,1,4,0:0:0:0:
392,26,71820,2,0,L|424:191,1,150.000005722046
324,308,72274,1,8,0:0:0:0:
452,260,72425,1,4,0:0:0:0:
284,184,72576,1,0,0:0:0:0:
168,340,72727,6,0,L|89:349,1,75.000002861023,2|0,0:0|0:0,0:0:0:0:
232,176,73180,1,8,0:0:0:0:
324,288,73331,1,4,0:0:0:0:
272,364,73483,1,0,0:0:0:0:
141,223,73634,2,0,L|131:147,1,75.000002861023
245,78,74087,6,0,L|284:62,2,37.5000014305115,8|4|0,0:0|0:0|0:0,0:0:0:0:
272,168,74540,2,0,L|312:176,2,37.5000014305115,0|4|0,0:0|0:0|0:0,0:0:0:0:
360,16,74994,1,8,0:0:0:0:
480,104,75145,1,4,0:0:0:0:
392,168,75296,1,0,0:0:0:0:
492,268,75447,2,0,L|482:192,1,75.000002861023
276,192,75901,5,8,0:0:0:0:
184,344,76052,1,4,0:0:0:0:
96,280,76203,1,0,0:0:0:0:
340,256,76354,2,0,L|326:371,1,100,2|0,0:0|0:0,0:0:0:0:
192,236,76807,5,8,0:0:0:0:
285,104,76958,1,4,0:0:0:0:
382,127,77110,1,0,0:0:0:0:
468,312,77261,2,0,L|454:197,1,100
348,52,77714,6,0,L|356:-4,2,50,8|4|0,0:0|0:0|0:0,0:0:0:0:
200,56,78167,2,0,L|182:1,2,50,0|4|0,0:0|0:0|0:0,0:0:0:0:
76,196,78621,1,8,0:0:0:0:
231,283,78772,1,4,0:0:0:0:
326,250,78923,1,0,0:0:0:0:
274,105,79074,2,0,L|249:215,1,100
160,336,79528,5,8,0:0:0:0:
52,212,79679,1,4,0:0:0:0:
124,136,79830,1,0,0:0:0:0:
30,49,79981,2,0,L|21:-16,2,50,2|0|0,0:0|0:0|0:0,0:0:0:0:
160,228,80434,5,8,0:0:0:0:
264,100,80585,1,4,0:0:0:0:
372,116,80737,1,0,0:0:0:0:
488,188,80888,2,0,P|440:236|392:236,1,100
456,64,81341,6,0,L|448:8,2,50,8|4|0,0:0|0:0|0:0,0:0:0:0:
276,104,81794,2,0,L|284:48,2,50,0|4|0,0:0|0:0|0:0,0:0:0:0:
160,184,82248,1,8,0:0:0:0:
248,324,82399,1,4,0:0:0:0:
144,336,82550,1,0,0:0:0:0:
44,304,82701,2,0,B|12:296|4:264|4:264|16:240|12:204,1,100,0|8,0:0|0:0,0:0:0:0:
312,128,83155,5,8,0:0:0:0:
100,240,83306,1,4,0:0:0:0:
208,284,83457,1,0,0:0:0:0:
152,140,83608,5,0,0:0:0:0:
144,112,83683,1,0,0:0:0:0:
148,84,83759,1,0,0:0:0:0:
164,60,83834,1,0,0:0:0:0:
188,48,83910,1,0,0:0:0:0:
216,52,83986,1,0,0:0:0:0:
236,72,84061,5,8,0:0:0:0:
256,92,84137,1,0,0:0:0:0:
280,104,84212,1,0,0:0:0:0:
308,104,84288,1,0,0:0:0:0:
332,92,84363,1,0,0:0:0:0:
348,72,84439,1,0,0:0:0:0:
340,44,84514,5,0,0:0:0:0:
324,20,84590,1,0,0:0:0:0:
296,12,84666,1,0,0:0:0:0:
268,20,84741,1,0,0:0:0:0:
248,40,84817,1,0,0:0:0:0:
236,64,84892,1,0,0:0:0:0:
232,92,84968,5,8,0:0:0:0:
220,116,85043,1,0,0:0:0:0:
196,132,85119,1,0,0:0:0:0:
168,136,85195,1,0,0:0:0:0:
140,132,85270,1,0,0:0:0:0:
116,116,85346,1,0,0:0:0:0:
80,120,85422,6,0,L|64:27,1,93.75
64,27,85762,1,4,0:0:0:0:
264,236,85875,2,0,L|248:332,1,93.75
248,328,86215,1,4,0:0:0:0:
380,200,86328,6,0,L|400:324,1,125,8|0,0:0|0:0,0:0:0:0:
120,236,86782,2,0,L|96:368,1,125,8|0,0:0|0:0,0:0:0:0:
256,368,87235,6,0,L|256:264,1,100,2|0,0:0|0:0,0:0:0:0:
61,166,87704,1,8,0:0:0:0:
38,94,87861,1,4,0:0:0:0:
18,21,88017,1,0,0:0:0:0:
224,137,88174,5,8,0:0:0:0:
201,209,88331,1,4,0:0:0:0:
181,282,88487,1,0,0:0:0:0:
304,112,88644,2,0,P|252:56|180:68,1,150,10|8,0:0|0:0,0:0:0:0:
366,42,89583,5,8,0:0:0:0:
439,27,89740,1,4,0:0:0:0:
512,11,89897,1,0,0:0:0:0:
385,168,90053,5,8,0:0:0:0:
312,153,90210,1,4,0:0:0:0:
239,137,90367,1,0,0:0:0:0:
464,120,90523,2,0,P|472:192|420:260,1,150,10|8,0:0|0:0,0:0:0:0:
128,304,91462,5,8,0:0:0:0:
272,261,91619,1,4,0:0:0:0:
160,160,91776,1,0,0:0:0:0:
146,317,91932,5,8,0:0:0:0:
274,238,92089,1,4,0:0:0:0:
139,169,92246,1,0,0:0:0:0:
167,324,92402,5,8,0:0:0:0:
270,215,92559,1,4,0:0:0:0:
122,184,92716,1,0,0:0:0:0:
189,327,92872,5,8,0:0:0:0:
260,194,93029,1,4,0:0:0:0:
109,202,93186,1,0,0:0:0:0:
211,322,93342,5,8,0:0:0:0:
245,176,93499,1,4,0:0:0:0:
102,223,93656,1,0,0:0:0:0:
294,295,93811,5,0,0:0:0:0:
381,194,93968,2,0,P|379:163|362:132,1,50,4|4,0:0|0:0,0:0:0:0:
220,36,94281,2,0,P|162:97|180:164,1,150,10|8,0:0|0:0,0:0:0:0:
247,272,95221,5,8,0:0:0:0:
451,203,95377,1,4,0:0:0:0:
248,137,95534,1,0,0:0:0:0:
373,311,95690,1,8,0:0:0:0:
373,97,95847,1,4,0:0:0:0:
345,206,96004,1,0,0:0:0:0:
507,283,96160,2,0,L|513:400,1,100,10|0,0:0|0:0,0:0:0:0:
163,345,96630,2,0,L|169:228,1,100,8|0,0:0|0:0,0:0:0:0:
261,7,97100,5,8,0:0:0:0:
300,216,97256,1,4,0:0:0:0:
393,26,97413,1,0,0:0:0:0:
205,125,97569,1,8,0:0:0:0:
415,155,97726,1,4,0:0:0:0:
311,102,97883,1,0,0:0:0:0:
208,222,98039,2,0,P|183:263|196:317,1,100,10|0,0:0|0:0,0:0:0:0:
324,306,98509,2,0,P|347:348|400:363,1,100,10|0,0:0|0:0,0:0:0:0:
222,196,98979,5,8,0:0:0:0:
12,234,99135,1,4,0:0:0:0:
202,327,99292,1,0,0:0:0:0:
103,139,99448,1,8,0:0:0:0:
73,349,99605,1,4,0:0:0:0:
127,245,99762,1,0,0:0:0:0:
14,148,99918,2,0,L|22:44,1,100,10|0,0:0|0:0,0:0:0:0:
176,112,100388,5,0,0:0:0:0:
196,196,100545,1,0,0:0:0:0:
264,240,100701,5,0,0:0:0:0:
332,232,100858,1,0,0:0:0:0:
376,208,101015,5,0,0:0:0:0:
396,184,101171,1,0,0:0:0:0:
408,168,101328,6,0,L|492:180,1,75
392,64,101798,2,0,L|312:80,1,75
256,192,102267,12,8,105556,0:0:0:0:
24,88,106025,6,0,P|92:84|152:112,1,125,2|0,0:0|0:0,0:0:0:0:
224,168,106478,2,0,L|227:41,1,125,8|0,0:0|0:0,0:0:0:0:
360,196,106931,2,0,P|321:196|277:209,1,62.5,6|0,0:0|0:0,0:0:0:0:
40,280,107234,1,0,0:0:0:0:
258,315,107385,1,8,0:0:0:0:
69,172,107536,1,4,0:0:0:0:
160,368,107687,1,0,0:0:0:0:
400,272,107838,6,0,P|442:228|438:168,1,125,2|0,0:0|0:0,0:0:0:0:
284,112,108291,2,0,P|300:168|380:192,1,125,8|0,0:0|0:0,0:0:0:0:
240,36,108745,2,0,P|192:38|160:54,1,62.5,6|0,0:0|0:0,0:0:0:0:
224,216,109047,1,0,0:0:0:0:
224,216,109198,1,8,0:0:0:0:
120,120,109349,1,4,0:0:0:0:
28,144,109500,1,0,0:0:0:0:
60,240,109652,6,0,L|68:366,1,125,2|0,0:0|0:0,0:0:0:0:
168,328,110105,2,0,P|225:317|299:330,1,125,8|0,0:0|0:0,0:0:0:0:
432,268,110558,2,0,L|448:335,1,62.5,6|0,0:0|0:0,0:0:0:0:
273,165,110861,2,0,L|257:232,1,62.5,2|8,0:0|0:0,0:0:0:0:
402,114,111163,2,0,P|376:90|335:81,1,62.5
124,168,111465,6,0,L|-6:175,1,125,2|0,0:0|0:0,0:0:0:0:
115,86,111918,2,0,P|143:23|216:12,1,125,8|0,0:0|0:0,0:0:0:0:
348,220,112372,2,0,L|336:148,1,62.5,6|0,0:0|0:0,0:0:0:0:
196,120,112674,1,4,0:0:0:0:
128,280,112825,2,0,L|113:353,1,62.5,10|4,0:0|0:0,0:0:0:0:
112,156,113127,5,0,0:0:0:0:
209,338,113279,2,0,L|336:339,1,125,2|0,0:0|0:0,0:0:0:0:
401,172,113732,2,0,P|422:221|397:288,1,125,8|0,0:0|0:0,0:0:0:0:
450,96,114185,2,0,P|483:95|522:110,1,62.5,6|0,0:0|0:0,0:0:0:0:
332,228,114488,1,4,0:0:0:0:
332,228,114639,1,8,0:0:0:0:
196,192,114790,1,0,0:0:0:0:
196,192,114941,1,0,0:0:0:0:
333,128,115092,6,0,P|359:74|332:20,1,125,2|0,0:0|0:0,0:0:0:0:
139,120,115545,2,0,P|197:101|256:122,1,125,8|0,0:0|0:0,0:0:0:0:
192,256,115999,2,0,P|204:227|201:196,1,62.5,6|0,0:0|0:0,0:0:0:0:
40,60,116301,1,4,0:0:0:0:
20,224,116452,2,0,P|55:234|93:220,1,62.5,8|4,0:0|0:0,0:0:0:0:
208,20,116754,5,0,0:0:0:0:
344,100,116906,2,0,L|352:228,1,125,2|0,0:0|0:0,0:0:0:0:
216,324,117359,2,0,P|288:324|344:292,1,125,8|0,0:0|0:0,0:0:0:0:
424,272,117812,2,0,P|434:306|428:348,1,62.5,6|0,0:0|0:0,0:0:0:0:
268,244,118115,1,0,0:0:0:0:
432,196,118266,1,0,0:0:0:0:
360,372,118417,1,4,0:0:0:0:
360,372,118568,1,0,0:0:0:0:
160,200,118719,5,2,0:0:0:0:
88,168,118870,1,0,0:0:0:0:
16,192,119021,1,4,0:0:0:0:
0,260,119172,1,2,0:0:0:0:
8,296,119324,1,4,0:0:0:0:
25,313,119475,1,0,0:0:0:0:
36,320,119626,6,0,L|100:315,1,56.2500021457673,8|0,0:0|0:0,0:0:0:0:
279,354,120079,2,0,L|215:349,1,56.2500021457673,8|0,0:0|0:0,0:0:0:0:
343,160,120533,5,8,0:0:0:0:
168,83,120684,1,0,0:0:0:0:
238,227,120835,1,0,0:0:0:0:
310,55,120986,2,0,P|375:48|435:58,1,125,8|0,0:0|0:0,0:0:0:0:
444,260,121439,2,0,L|448:168,1,62.5,8|0,0:0|0:0,0:0:0:0:
292,152,121742,1,12,0:0:0:0:
193,317,121893,1,8,0:0:0:0:
347,234,122044,1,4,0:0:0:0:
192,152,122195,1,0,0:0:0:0:
314,320,122346,5,10,0:0:0:0:
347,328,122497,1,4,0:0:0:0:
383,336,122648,1,0,0:0:0:0:
175,234,122799,2,0,L|51:253,1,125,8|0,0:0|0:0,0:0:0:0:
128,108,123253,1,8,0:0:0:0:
287,78,123404,1,4,0:0:0:0:
287,78,123480,1,0,0:0:0:0:
287,78,123555,2,0,P|302:114|291:162,1,62.5,4|0,0:0|0:0,0:0:0:0:
160,292,123857,2,0,P|161:261|175:234,1,62.5,4|0,0:0|0:0,0:0:0:0:
391,292,124160,5,8,0:0:0:0:
240,281,124311,1,4,0:0:0:0:
376,172,124462,1,0,0:0:0:0:
453,361,124613,2,0,P|391:372|309:349,1,125,8|0,0:0|0:0,0:0:0:0:
480,156,125066,2,0,L|476:248,1,62.5,8|0,0:0|0:0,0:0:0:0:
412,36,125369,1,0,0:0:0:0:
300,232,125520,1,10,0:0:0:0:
480,156,125671,1,4,0:0:0:0:
332,104,125822,1,0,0:0:0:0:
412,36,125973,5,8,0:0:0:0:
448,32,126124,1,4,0:0:0:0:
478,30,126275,1,0,0:0:0:0:
208,0,126426,2,0,L|210:128,1,125,8|0,0:0|0:0,0:0:0:0:
328,148,126880,5,8,0:0:0:0:
152,232,127031,1,4,0:0:0:0:
131,230,127107,1,0,0:0:0:0:
110,229,127182,1,4,0:0:0:0:
314,315,127333,2,0,L|312:247,1,62.5,8|4,0:0|0:0,0:0:0:0:
172,356,127635,1,0,0:0:0:0:
250,188,127787,6,0,P|312:170|384:195,1,125,10|0,0:0|0:0,0:0:0:0:
164,252,128240,2,0,P|102:270|30:245,1,125,8|0,0:0|0:0,0:0:0:0:
88,44,128693,2,0,L|96:110,1,62.5,14|0,0:0|0:0,0:0:0:0:
280,108,128996,1,0,0:0:0:0:
192,16,129147,1,0,0:0:0:0:
180,156,129298,1,4,0:0:0:0:
180,156,129449,1,0,0:0:0:0:
348,172,129600,5,0,0:0:0:0:
468,280,129751,1,0,0:0:0:0:
508,128,129902,1,0,0:0:0:0:
384,272,130054,2,0,P|402:339|467:363,1,125,8|0,0:0|0:0,0:0:0:0:
272,232,130507,5,8,0:0:0:0:
156,348,130658,1,4,0:0:0:0:
156,348,130734,1,0,0:0:0:0:
156,348,130809,1,0,0:0:0:0:
57,228,130960,2,2,P|96:224|123:237,1,62.5
256,332,131262,1,4,0:0:0:0:
379,261,131414,6,0,L|508:257,1,125,10|0,0:0|0:0,0:0:0:0:
290,169,131867,2,0,L|161:165,1,125,8|0,0:0|0:0,0:0:0:0:
310,18,132320,2,0,P|305:51|314:89,1,62.5,14|0,0:0|0:0,0:0:0:0:
376,224,132623,1,0,0:0:0:0:
376,224,132774,1,0,0:0:0:0:
456,112,132925,1,4,0:0:0:0:
290,169,133076,1,0,0:0:0:0:
176,352,133227,5,8,0:0:0:0:
328,312,133378,1,4,0:0:0:0:
88,272,133529,1,0,0:0:0:0:
184,124,133681,2,0,P|204:192|184:250,1,125,10|0,0:0|0:0,0:0:0:0:
44,184,134134,6,0,L|106:185,1,56.2500021457673,2|0,0:0|0:0,0:0:0:0:
288,232,134587,2,0,L|331:187,1,56.2500021457673,2|0,0:0|0:0,0:0:0:0:
459,21,135041,6,0,P|472:68|460:120,1,100
461,117,135494,1,10,0:0:0:0:
308,88,135645,1,0,0:0:0:0:
177,172,135796,1,0,0:0:0:0:
177,172,135947,2,0,P|164:219|176:271,1,100,4|0,0:0|0:0,0:0:0:0:
174,268,136401,1,8,0:0:0:0:
312,360,136552,1,0,0:0:0:0:
440,268,136703,1,0,0:0:0:0:
440,268,136854,6,0,P|391:278|343:265,1,100,4|0,0:0|0:0,0:0:0:0:
343,265,137308,1,10,0:0:0:0:
436,140,137459,1,0,0:0:0:0:
300,64,137610,1,0,0:0:0:0:
300,64,137761,2,0,P|280:112|304:168,1,100,4|0,0:0|0:0,0:0:0:0:
504,220,138214,1,8,0:0:0:0:
364,112,138365,1,0,0:0:0:0:
288,240,138517,1,0,0:0:0:0:
288,240,138668,6,0,P|240:256|192:240,1,100,4|0,0:0|0:0,0:0:0:0:
194,241,139121,1,10,0:0:0:0:
80,128,139272,1,0,0:0:0:0:
0,268,139423,1,0,0:0:0:0:
168,152,139574,6,0,P|164:96|132:52,1,100,4|0,0:0|0:0,0:0:0:0:
8,184,140028,1,8,0:0:0:0:
136,312,140179,1,0,0:0:0:0:
284,180,140330,1,0,0:0:0:0:
284,180,140481,6,0,P|332:208|352:252,1,100,4|0,0:0|0:0,0:0:0:0:
350,246,140935,1,10,0:0:0:0:
228,352,141086,1,0,0:0:0:0:
128,228,141237,1,0,0:0:0:0:
192,80,141388,6,0,L|204:192,1,100,4|0,0:0|0:0,0:0:0:0:
441,87,141841,1,8,0:0:0:0:
441,87,141992,1,4,0:0:0:0:
441,87,142144,2,4,L|429:243,1,150
263,274,142748,5,10,0:0:0:0:
115,203,142899,1,0,0:0:0:0:
339,203,143050,1,0,0:0:0:0:
182,270,143201,2,0,L|155:368,1,100,4|0,0:0|0:0,0:0:0:0:
319,347,143655,1,8,0:0:0:0:
236,194,143806,1,0,0:0:0:0:
320,112,143957,1,0,0:0:0:0:
320,112,144108,6,0,P|325:59|293:3,1,100,4|0,0:0|0:0,0:0:0:0:
68,57,144562,1,10,0:0:0:0:
232,72,144713,1,0,0:0:0:0:
48,144,144864,1,0,0:0:0:0:
116,212,145015,6,0,P|169:227|225:205,1,100,4|0,0:0|0:0,0:0:0:0:
163,144,145468,1,8,0:0:0:0:
96,312,145619,1,0,0:0:0:0:
237,311,145771,1,0,0:0:0:0:
237,311,145922,6,4,L|206:198,1,100,4|0,0:0|0:0,0:0:0:0:
418,180,146375,1,10,0:0:0:0:
254,131,146526,1,0,0:0:0:0:
374,263,146677,1,0,0:0:0:0:
345,109,146828,6,0,L|376:-4,1,100,4|0,0:0|0:0,0:0:0:0:
479,135,147282,1,8,0:0:0:0:
318,198,147433,1,4,0:0:0:0:
247,51,147584,1,0,0:0:0:0:
247,51,147735,6,0,P|196:36|148:46,1,100,4|0,0:0|0:0,0:0:0:0:
84,96,148189,2,0,B|48:124|48:164|64:216|96:216|116:272|116:316|76:344,1,250,10|0,0:0|0:0,0:0:0:0:
16,280,149095,5,8,0:0:0:0:
16,280,149247,1,0,0:0:0:0:
144,152,149398,1,0,0:0:0:0:
90,107,156803,6,0,L|250:120,1,150
302,319,157710,2,0,L|289:159,1,150
90,107,158616,6,0,L|241:160,1,150
302,319,159523,2,0,L|248:167,1,150
90,107,160430,6,0,L|222:198,1,150
298,315,161337,2,0,L|206:182,1,150
90,107,162243,6,0,L|204:219,1,150
302,319,163150,2,0,L|189:204,1,150
320,128,164057,6,0,P|328:76|312:27,1,100,2|0,0:0|0:0,0:0:0:0:
120,132,164510,1,8,0:0:0:0:
284,212,164661,1,4,0:0:0:0:
77,242,164812,1,0,0:0:0:0:
196,80,164964,2,0,P|212:132|192:184,1,100,2|0,0:0|0:0,0:0:0:0:
432,51,165417,5,8,0:0:0:0:
482,137,165568,1,4,0:0:0:0:
456,233,165719,1,0,0:0:0:0:
384,302,165870,5,0,0:0:0:0:
285,316,166021,1,4,0:0:0:0:
201,259,166173,1,0,0:0:0:0:
109,218,166324,5,8,0:0:0:0:
15,253,166475,1,4,0:0:0:0:
1,351,166626,1,0,0:0:0:0:
183,175,166777,2,0,P|137:137|82:140,1,100,2|0,0:0|0:0,0:0:0:0:
284,237,167230,5,8,0:0:0:0:
332,100,167382,1,4,0:0:0:0:
393,273,167533,1,0,0:0:0:0:
420,44,167684,2,0,P|441:91|412:149,1,100,2|0,0:3|0:3,0:3:0:0:
183,188,168137,5,8,0:0:0:0:
256,20,168288,1,4,0:0:0:0:
308,234,168439,1,0,0:0:0:0:
148,88,168591,2,0,P|88:96|60:128,1,100
34,247,169044,5,8,0:0:0:0:
86,331,169195,1,4,0:0:0:0:
182,355,169346,1,0,0:0:0:0:
281,341,169497,5,0,0:0:0:0:
360,280,169648,1,4,0:0:0:0:
459,293,169800,1,0,0:0:0:0:
401,375,169951,5,8,0:0:0:0:
360,280,170102,1,4,0:0:0:0:
422,202,170253,1,0,0:0:0:0:
177,255,170404,2,0,L|182:357,1,100,2|0,0:0|0:0,0:0:0:0:
272,224,170857,5,8,2:0:0:0:
116,157,171009,1,4,0:0:0:0:
308,112,171160,1,0,2:0:0:0:
48,113,171311,2,0,P|32:159|48:206,1,100,2|0,2:0|2:0,2:0:0:0:
188,80,171764,5,8,0:0:0:0:
209,231,171915,1,4,0:0:0:0:
280,28,172066,1,0,0:0:0:0:
298,270,172218,2,0,L|397:276,1,100,2|0,0:0|0:0,0:0:0:0:
293,141,172671,5,8,0:0:0:0:
194,155,172822,1,4,0:0:0:0:
119,222,172973,1,0,0:0:0:0:
99,123,173124,5,0,0:0:0:0:
194,155,173275,1,4,0:0:0:0:
242,243,173427,1,0,0:0:0:0:
320,305,173578,5,8,0:0:0:0:
419,302,173729,1,4,0:0:0:0:
492,234,173880,1,0,0:0:0:0:
284,100,174031,2,0,P|300:52|352:24,1,100,2|0,0:0|0:0,0:0:0:0:
368,200,174484,5,8,0:0:0:0:
200,96,174636,1,4,0:0:0:0:
200,268,174787,1,0,0:0:0:0:
367,116,174938,2,0,P|418:130|447:181,1,100,2|0,0:0|0:0,0:0:0:0:
256,176,175391,5,8,0:0:0:0:
404,256,175542,1,4,0:0:0:0:
200,272,175693,1,0,0:0:0:0:
312,248,175845,2,0,P|316:304|272:344,1,100,2|0,0:0|0:0,0:0:0:0:
103,242,176298,5,8,0:0:0:0:
256,176,176449,1,4,0:0:0:0:
42,117,176600,1,0,0:0:0:0:
240,52,176751,2,0,B|340:26|376:120|376:120|417:227|522:191,1,337.500012874604,0|14,0:0|0:0,0:0:0:0:
304,352,178565,6,0,L|272:204,1,150.000005722046,2|0,0:0|0:0,0:0:0:0:
272,205,178943,1,0,0:0:0:0:
272,205,179018,1,8,0:0:0:0:
384,144,179169,1,4,0:0:0:0:
144,248,179320,1,0,0:0:0:0:
400,344,179472,2,0,L|416:264,1,75.000002861023,2|0,0:0|0:0,0:0:0:0:
300,16,179925,5,8,0:0:0:0:
225,141,180076,1,4,0:0:0:0:
225,141,180227,1,0,0:0:0:0:
488,168,180378,2,0,L|502:246,1,75.000002861023,2|0,0:0|0:0,0:0:0:0:
284,332,180681,1,4,0:0:0:0:
292,296,180756,1,0,0:0:0:0:
300,260,180832,1,0,0:0:0:0:
488,352,180983,1,4,0:0:0:0:
408,268,181134,1,0,0:0:0:0:
204,356,181285,2,0,P|164:364|120:352,1,75.000002861023,2|0,0:0|0:0,0:0:0:0:
256,184,181738,5,8,0:0:0:0:
84,128,181890,1,4,0:0:0:0:
168,288,182041,1,0,0:0:0:0:
288,64,182192,2,0,P|356:36|424:68,1,150.000005722046,2|0,0:0|0:0,0:0:0:0:
204,112,182645,1,8,0:0:0:0:
352,136,182796,1,4,0:0:0:0:
152,216,182947,1,0,0:0:0:0:
348,244,183099,2,0,P|368:276|364:320,1,75.000002861023,2|0,0:0|0:0,0:0:0:0:
239,90,183552,5,8,0:0:0:0:
259,294,183703,1,4,0:0:0:0:
72,192,183854,1,0,0:0:0:0:
291,170,184005,2,0,L|204:205,1,75.000002861023,2|4,0:0|0:0,0:0:0:0:
35,322,184308,2,0,L|121:349,1,75.000002861023,0|8,0:0|0:0,0:0:0:0:
144,68,184610,1,6,0:0:0:0:
144,68,184761,1,6,0:0:0:0:
144,68,184912,2,0,L|151:224,1,150.000005722046,2|0,0:0|0:0,0:0:0:0:
404,368,185366,5,8,0:0:0:0:
288,204,185517,1,4,0:0:0:0:
216,340,185668,1,0,0:0:0:0:
418,243,185819,2,0,P|422:200|417:163,1,75.000002861023,2|0,0:0|0:0,0:0:0:0:
280,280,186121,1,4,0:0:0:0:
248,260,186197,1,0,0:0:0:0:
212,252,186272,2,0,P|171:251|130:259,1,75.000002861023,8|0,0:0|0:0,0:0:0:0:
80,352,186575,1,4,0:0:0:0:
4,176,186726,2,0,P|44:172|92:184,1,75.000002861023
208,336,187179,5,8,0:0:0:0:
72,264,187330,1,4,0:0:0:0:
296,188,187481,1,0,0:0:0:0:
168,36,187632,2,0,P|160:76|172:116,1,75.000002861023,2|0,0:0|0:0,0:0:0:0:
376,288,187935,1,4,0:0:0:0:
372,252,188011,1,0,0:0:0:0:
368,216,188086,1,8,0:0:0:0:
264,72,188237,1,4,0:0:0:0:
448,108,188388,1,4,0:0:0:0:
232,192,188539,2,0,P|198:200|158:196,1,75.000002861023,2|0,0:0|0:0,0:0:0:0:
348,72,188993,5,8,0:0:0:0:
456,300,189144,1,4,0:0:0:0:
456,160,189295,1,0,0:0:0:0:
294,256,189446,2,0,P|298:328|370:368,1,150.000005722046,2|0,0:0|0:0,0:0:0:0:
208,252,189824,1,0,0:0:0:0:
208,252,189899,2,0,P|164:264|136:292,1,75.000002861023,0|4,0:0|0:0,0:0:0:0:
216,340,190202,1,0,0:0:0:0:
376,283,190353,2,0,P|446:274|504:348,1,150.000005722046,2|0,0:0|0:0,0:0:0:0:
348,104,190806,5,8,0:0:0:0:
160,136,190957,1,4,0:0:0:0:
304,316,191108,1,0,0:0:0:0:
108,348,191259,2,0,L|98:273,1,75.000002861023,2|0,0:0|0:0,0:0:0:0:
36,60,191562,2,0,L|26:134,1,75.000002861023,2|8,0:0|0:0,0:0:0:0:
184,208,191864,1,4,0:0:0:0:
184,208,192015,1,4,0:0:0:0:
184,208,192166,2,0,L|212:368,1,150.000005722046
376,152,192620,1,8,0:0:0:0:
92,220,192771,1,4,0:0:0:0:
300,264,192922,1,0,0:0:0:0:
216,116,193073,6,0,L|224:32,1,75.000002861023,2|0,0:0|0:0,0:0:0:0:
312,172,193526,1,8,0:0:0:0:
205,249,193677,1,4,0:0:0:0:
288,352,193829,1,0,0:0:0:0:
412,292,193980,2,0,L|402:366,1,75.000002861023
404,169,194433,6,0,L|392:129,2,37.5000014305115,8|4|0,0:0|0:0|0:0,0:0:0:0:
455,61,194886,2,0,L|463:21,2,37.5000014305115,0|4|0,0:0|0:0|0:0,0:0:0:0:
311,20,195340,1,8,0:0:0:0:
200,34,195491,1,4,0:0:0:0:
121,113,195642,1,0,0:0:0:0:
120,112,195793,2,0,L|110:186,1,75.000002861023
242,166,196247,5,8,0:0:0:0:
447,203,196398,1,4,0:0:0:0:
261,289,196549,1,0,0:0:0:0:
352,155,196700,2,0,L|366:270,1,100,2|0,0:0|0:0,0:0:0:0:
179,267,197153,1,8,0:0:0:0:
306,361,197304,1,4,0:0:0:0:
56,356,197456,1,0,0:0:0:0:
56,356,197607,2,0,L|70:241,1,100
264,195,198060,6,0,L|320:203,2,50,8|4|0,0:0|0:0|0:0,0:0:0:0:
77,98,198513,2,0,L|16:108,2,50,0|4|0,0:0|0:0|0:0,0:0:0:0:
276,72,198967,1,8,0:0:0:0:
384,104,199118,1,4,0:0:0:0:
492,136,199269,1,0,0:0:0:0:
492,136,199420,2,0,L|467:246,1,100
216,280,199874,2,0,L|207:215,2,50,8|4|0,0:0|0:0|0:0,0:0:0:0:
128,164,200327,2,0,P|84:156|31:187,1,100,2|0,0:0|0:0,0:0:0:0:
112,280,200780,5,8,0:0:0:0:
224,136,200931,1,4,0:0:0:0:
108,76,201083,1,0,0:0:0:0:
232,48,201234,2,0,P|279:60|309:99,1,100
392,244,201687,6,0,L|448:236,2,50,8|4|0,0:0|0:0|0:0,0:0:0:0:
444,60,202140,2,0,L|388:52,2,50,0|4|0,0:0|0:0|0:0,0:0:0:0:
304,200,202594,1,8,0:0:0:0:
460,340,202745,1,4,0:0:0:0:
224,284,202896,1,0,0:0:0:0:
384,160,203047,2,0,P|352:124|292:112,1,100
120,160,203501,5,8,0:0:0:0:
304,200,203652,1,4,0:0:0:0:
192,320,203803,1,0,0:0:0:0:
220,136,203954,5,0,0:0:0:0:
240,120,204029,1,0,0:0:0:0:
268,112,204105,1,0,0:0:0:0:
296,112,204180,1,0,0:0:0:0:
324,116,204256,1,0,0:0:0:0:
348,128,204332,1,0,0:0:0:0:
368,148,204407,5,8,0:0:0:0:
384,172,204483,1,0,0:0:0:0:
392,200,204558,1,0,0:0:0:0:
396,228,204634,1,0,0:0:0:0:
392,256,204709,1,0,0:0:0:0:
380,280,204785,1,0,0:0:0:0:
360,300,204860,5,0,0:0:0:0:
336,312,204936,1,0,0:0:0:0:
308,316,205012,1,0,0:0:0:0:
280,308,205087,1,0,0:0:0:0:
256,296,205163,1,0,0:0:0:0:
228,296,205238,1,0,0:0:0:0:
200,304,205314,5,8,0:0:0:0:
176,316,205389,1,0,0:0:0:0:
148,320,205465,1,0,0:0:0:0:
120,312,205541,1,0,0:0:0:0:
96,296,205616,1,0,0:0:0:0:
84,272,205692,1,0,0:0:0:0:
84,236,205768,6,0,L|93:174,1,62.5
256,192,206070,1,4,0:0:0:0:
200,40,206221,2,0,L|191:102,1,62.5
256,192,206523,1,4,0:0:0:0:
336,104,206674,2,0,L|437:87,1,93.75,8|0,0:0|0:0,0:0:0:0:
440,260,207128,2,0,L|339:243,1,93.75,8|0,0:0|0:0,0:0:0:0:
256,368,207581,6,0,L|256:264,1,100,2|0,0:0|0:0,0:0:0:0:
375,61,208050,1,8,0:0:0:0:
444,90,208207,1,4,0:0:0:0:
490,148,208363,1,0,0:0:0:0:
375,61,208520,1,0,0:0:0:0:
371,136,208677,1,4,0:0:0:0:
334,201,208833,1,0,0:0:0:0:
375,61,208990,2,0,P|323:117|251:105,1,150,10|0,0:0|0:0,0:0:0:0:
41,141,209929,5,8,0:0:0:0:
101,96,210086,1,4,0:0:0:0:
174,85,210242,1,0,0:0:0:0:
41,141,210399,1,0,0:0:0:0:
104,182,210556,1,4,0:0:0:0:
142,247,210712,1,0,0:0:0:0:
41,141,210869,2,0,P|63:214|17:270,1,150,10|0,0:0|0:0,0:0:0:0:
268,112,211808,5,8,0:0:0:0:
412,155,211965,1,4,0:0:0:0:
300,256,212122,1,0,0:0:0:0:
286,99,212278,5,0,0:0:0:0:
414,178,212435,1,4,0:0:0:0:
279,247,212592,1,0,0:0:0:0:
284,16,212748,2,0,P|231:36|207:74,1,100
401,262,213218,5,0,0:0:0:0:
472,129,213375,1,4,0:0:0:0:
322,137,213532,1,0,0:0:0:0:
423,259,213688,5,0,0:0:0:0:
457,112,213845,1,4,0:0:0:0:
314,159,214002,1,0,0:0:0:0:
184,312,214157,6,0,L|182:380,2,50,0|4|0,0:0|0:0|0:0,0:0:0:0:
90,244,214627,2,0,P|24:202|38:120,1,150,10|0,0:0|0:0,0:0:0:0:
413,254,215567,5,10,0:0:0:0:
264,48,215723,1,4,0:0:0:0:
505,127,215879,1,0,0:0:0:0:
264,205,216036,1,0,0:0:0:0:
413,0,216193,1,4,0:0:0:0:
376,122,216350,1,0,0:0:0:0:
156,176,216506,2,0,L|162:293,1,100,10|0,0:0|0:0,0:0:0:0:
352,368,216976,2,0,L|358:251,1,100,4|0,0:0|0:0,0:0:0:0:
23,126,217446,5,8,0:0:0:0:
264,205,217602,1,4,0:0:0:0:
23,282,217758,1,0,0:0:0:0:
172,78,217915,1,0,0:0:0:0:
172,331,218072,1,4,0:0:0:0:
130,211,218229,1,0,0:0:0:0:
352,116,218385,2,0,P|388:158|388:216,1,100,10|0,0:0|0:0,0:0:0:0:
116,136,218855,2,0,P|90:93|93:44,1,100,4|0,0:0|0:0,0:0:0:0:
355,255,219325,5,8,0:0:0:0:
308,2,219481,1,4,0:0:0:0:
196,231,219638,1,0,0:0:0:0:
423,112,219795,1,0,0:0:0:0:
170,76,219951,1,4,0:0:0:0:
291,131,220108,1,0,0:0:0:0:
88,224,220264,2,0,L|72:328,1,100,10|0,0:0|0:0,0:0:0:0:
300,192,220734,5,0,0:0:0:0:
324,188,220891,1,0,0:0:0:0:
348,184,221047,1,0,0:0:0:0:
224,240,221204,5,0,0:0:0:0:
200,236,221361,1,0,0:0:0:0:
176,232,221517,1,0,0:0:0:0:
352,291,221674,6,0,L|376:284,2,25,4|0|0,0:0|0:0|0:0,0:0:0:0:
144,124,222144,2,0,L|204:136,1,50,4|0,0:0|0:0,0:0:0:0:
326,52,222613,6,0,L|338:156,1,100,2|0,0:0|0:0,0:0:0:0:
124,256,223083,5,8,0:0:0:0:
54,11,223240,1,4,0:0:0:0:
253,168,223395,1,0,0:0:0:0:
0,158,223552,1,0,0:0:0:0:
210,17,223709,1,4,0:0:0:0:
134,119,223866,1,0,0:0:0:0:
312,240,224023,2,0,P|340:204|332:136,1,100,10|0,0:0|0:0,0:0:0:0:
232,328,224492,2,0,L|115:334,1,100,4|0,0:0|0:0,0:0:0:0:
253,168,224962,5,8,0:0:0:0:
502,211,225118,1,4,0:0:0:0:
326,30,225274,1,0,0:0:0:0:
362,280,225431,1,0,0:0:0:0:
480,56,225588,1,4,0:0:0:0:
384,148,225745,1,0,0:0:0:0:
216,84,225901,2,0,P|170:116|156:172,1,100,10|0,0:0|0:0,0:0:0:0:
40,292,226371,2,0,L|17:194,1,100,4|0,0:0|0:0,0:0:0:0:
327,317,226841,5,8,0:0:0:0:
373,65,226997,1,4,0:0:0:0:
186,239,227154,1,0,0:0:0:0:
441,209,227310,1,0,0:0:0:0:
216,84,227467,1,4,0:0:0:0:
312,184,227624,1,0,0:0:0:0:
456,48,227780,2,0,L|492:144,1,100,10|0,0:0|0:0,0:0:0:0:
436,336,228251,5,8,0:0:0:0:
250,280,228408,1,4,0:0:0:0:
394,150,228565,1,0,0:0:0:0:
412,352,228721,5,0,0:0:0:0:
248,251,228878,1,4,0:0:0:0:
421,162,229035,1,0,0:0:0:0:
376,356,229191,5,8,0:0:0:0:
296,144,229348,1,4,0:0:0:0:
236,336,229503,1,4,0:0:0:0:
164,200,229660,2,0,B|124:168|124:168|68:196|12:160,1,150,8|0,0:0|0:0,0:0:0:0:
420,260,230600,5,8,0:0:0:0:
271,54,230756,1,4,0:0:0:0:
512,133,230912,1,0,0:0:0:0:
271,211,231069,1,0,0:0:0:0:
420,6,231226,1,4,0:0:0:0:
383,128,231383,1,0,0:0:0:0:
184,68,231539,2,0,L|190:185,1,100,10|0,0:0|0:0,0:0:0:0:
32,356,232009,2,0,L|38:239,1,100,4|0,0:0|0:0,0:0:0:0:
84,84,232479,5,8,0:0:0:0:
325,163,232635,1,4,0:0:0:0:
84,240,232791,1,0,0:0:0:0:
233,36,232948,1,0,0:0:0:0:
233,289,233105,1,4,0:0:0:0:
191,169,233262,1,0,0:0:0:0:
305,330,233418,2,0,P|263:366|205:366,1,100,10|0,0:0|0:0,0:0:0:0:
16,172,233888,2,0,P|59:146|108:149,1,100,4|0,0:0|0:0,0:0:0:0:
244,272,234358,5,8,0:0:0:0:
197,18,234514,1,4,0:0:0:0:
84,248,234671,1,0,0:0:0:0:
312,128,234827,1,0,0:0:0:0:
58,92,234984,1,4,0:0:0:0:
180,147,235141,1,0,0:0:0:0:
296,32,235297,2,0,L|395:47,1,100,10|0,0:0|0:0,0:0:0:0:
256,192,235767,12,0,237176,0:0:0:0:
305,103,237634,6,0,P|347:64|406:74,1,100,2|0,0:0|0:0,0:0:0:0:
470,224,238087,1,8,0:0:0:0:
377,147,238238,1,4,0:0:0:0:
312,302,238389,1,0,0:0:0:0:
156,203,238541,2,0,L|255:211,1,100,2|0,0:0|0:0,0:0:0:0:
152,56,238994,5,8,0:0:0:0:
54,79,239145,1,4,0:0:0:0:
12,169,239296,1,0,0:0:0:0:
39,265,239447,5,0,0:0:0:0:
125,315,239598,1,4,0:0:0:0:
218,278,239750,1,0,0:0:0:0:
131,228,239901,5,8,0:0:0:0:
39,265,240052,1,4,0:0:0:0:
32,364,240203,1,0,0:0:0:0:
212,192,240354,2,0,L|220:86,1,100,2|0,0:0|0:0,0:0:0:0:
488,158,240807,5,8,0:0:0:0:
416,294,240959,1,4,0:0:0:0:
346,179,241110,1,0,0:0:0:0:
247,324,241261,2,0,P|295:367|346:355,1,100,2|0,0:0|0:0,0:0:0:0:
154,324,241714,5,8,0:0:0:0:
320,279,241865,1,4,0:0:0:0:
90,193,242016,1,0,0:0:0:0:
226,149,242168,2,0,L|233:256,1,100
140,80,242621,1,8,0:0:0:0:
235,49,242772,1,4,0:0:0:0:
323,95,242923,1,0,0:0:0:0:
352,192,243074,5,0,0:0:0:0:
412,272,243225,1,4,0:0:0:0:
512,292,243377,1,0,0:0:0:0:
480,196,243528,5,8,0:0:0:0:
412,272,243679,1,4,0:0:0:0:
316,300,243830,1,0,0:0:0:0:
200,156,243981,2,0,P|220:104|272:72,1,100,2|0,0:0|0:0,0:0:0:0:
208,293,244434,5,8,2:0:0:0:
104,173,244586,1,4,0:0:0:0:
304,172,244737,1,0,2:0:0:0:
75,254,244888,2,0,P|32:228|14:183,1,100,2|0,2:0|2:0,2:0:0:0:
206,197,245341,5,8,0:0:0:0:
350,287,245492,1,4,0:0:0:0:
310,108,245643,1,0,0:0:0:0:
208,329,245795,2,0,L|97:336,1,100,2|0,0:0|0:0,0:0:0:0:
281,213,246248,1,8,0:0:0:0:
380,200,246399,1,4,0:0:0:0:
462,256,246550,1,0,0:0:0:0:
371,299,246701,5,0,0:0:0:0:
380,200,246852,1,4,0:0:0:0:
445,123,247004,1,0,0:0:0:0:
358,73,247155,5,8,0:0:0:0:
258,67,247306,1,4,0:0:0:0:
170,114,247457,1,0,0:0:0:0:
297,280,247608,2,0,P|293:227|262:188,1,100,2|0,0:0|0:0,0:0:0:0:
107,364,248061,5,8,0:0:0:0:
221,257,248213,1,4,0:0:0:0:
44,284,248364,1,0,0:0:0:0:
258,352,248515,2,0,P|309:363|359:332,1,100,2|0,0:0|0:0,0:0:0:0:
303,81,248968,5,8,0:0:0:0:
512,113,249119,1,4,0:0:0:0:
331,166,249270,1,0,0:0:0:0:
452,189,249422,2,0,L|448:302,1,100,2|0,0:0|0:0,0:0:0:0:
352,208,249875,1,8,0:0:0:0:
288,352,250026,1,4,0:0:0:0:
216,160,250177,1,0,0:0:0:0:
160,324,250328,2,0,B|71:269|86:173|86:173|-41:186|13:297|13:297|116:272|171:220,1,517.500009870529
304,32,252142,6,0,L|272:180,1,150.000005722046,2|0,0:0|0:0,0:0:0:0:
272,178,252519,1,0,0:0:0:0:
272,178,252595,1,8,0:0:0:0:
176,132,252746,1,4,0:0:0:0:
368,264,252897,1,0,0:0:0:0:
468,176,253049,2,0,L|484:256,1,75.000002861023,2|0,0:0|0:0,0:0:0:0:
396,0,253502,5,8,0:0:0:0:
354,188,253653,1,4,0:0:0:0:
354,188,253804,1,0,0:0:0:0:
160,84,253955,2,0,P|116:84|82:98,1,75.000002861023,2|0,0:0|0:0,0:0:0:0:
228,288,254258,1,4,0:0:0:0:
236,252,254333,1,0,0:0:0:0:
244,216,254409,1,0,0:0:0:0:
432,148,254560,1,4,0:0:0:0:
344,336,254711,1,0,0:0:0:0:
224,140,254862,2,8,P|260:139|295:153,1,75.000002861023,2|0,0:0|0:0,0:0:0:0:
416,280,255315,5,8,0:0:0:0:
244,216,255467,1,4,0:0:0:0:
380,108,255618,1,0,0:0:0:0:
488,352,255769,2,0,P|516:284|484:216,1,150.000005722046,2|0,0:0|0:0,0:0:0:0:
284,140,256222,1,8,0:0:0:0:
496,72,256373,1,4,0:0:0:0:
392,256,256524,1,0,0:0:0:0:
284,140,256676,2,0,L|196:156,1,75.000002861023,2|0,0:0|0:0,0:0:0:0:
336,60,257129,5,8,0:0:0:0:
112,144,257280,1,4,0:0:0:0:
376,200,257431,1,0,0:0:0:0:
292,288,257582,2,0,L|327:375,1,75.000002861023,2|4,0:0|0:0,0:0:0:0:
488,204,257885,2,0,L|461:290,1,75.000002861023,0|8,0:0|0:0,0:0:0:0:
200,304,258187,1,6,0:0:0:0:
200,304,258338,1,6,0:0:0:0:
200,304,258489,2,0,P|224:220|288:196,1,150.000005722046,2|0,0:0|0:0,0:0:0:0:
120,184,258943,5,8,0:0:0:0:
364,224,259094,1,4,0:0:0:0:
104,288,259245,1,0,0:0:0:0:
308,140,259396,2,0,P|344:124|384:124,1,75.000002861023,2|0,0:0|0:0,0:0:0:0:
405,283,259698,2,0,P|374:253|362:212,1,75.000002861023,0|8,0:0|0:0,0:0:0:0:
468,108,260000,1,4,0:0:0:0:
444,204,260152,1,4,0:0:0:0:
288,360,260303,6,0,L|281:286,1,75.000002861023
152,144,260756,5,8,0:0:0:0:
176,276,260907,1,4,0:0:0:0:
48,240,261058,1,0,0:0:0:0:
300,184,261209,2,0,L|304:104,1,75.000002861023,2|0,0:0|0:0,0:0:0:0:
496,20,261512,1,4,0:0:0:0:
500,56,261588,1,0,0:0:0:0:
504,92,261663,1,8,0:0:0:0:
384,216,261814,1,4,0:0:0:0:
232,68,261965,1,4,0:0:0:0:
128,184,262116,6,0,P|88:196|40:184,1,75.000002861023,2|0,0:0|0:0,0:0:0:0:
92,68,262570,5,8,0:0:0:0:
244,164,262721,1,4,0:0:0:0:
36,280,262872,1,0,0:0:0:0:
232,336,263023,2,0,P|160:376|92:340,1,150.000005722046,2|0,0:0|0:0,0:0:0:0:
320,272,263400,1,0,0:0:0:0:
320,272,263476,2,0,P|359:271|400:296,1,75.000002861023,0|4,0:0|0:0,0:0:0:0:
276,368,263778,1,8,0:0:0:0:
164,288,263930,2,0,P|148:216|168:136,1,150.000005722046,2|0,0:0|0:0,0:0:0:0:
380,132,264383,5,8,0:0:0:0:
248,24,264534,1,4,0:0:0:0:
440,36,264685,1,0,0:0:0:0:
248,120,264836,2,0,L|258:195,1,75.000002861023,2|0,0:0|0:0,0:0:0:0:
84,132,265139,2,0,L|94:58,1,75.000002861023,2|8,0:0|0:0,0:0:0:0:
328,92,265441,5,0,0:0:0:0:
164,142,265592,1,0,0:0:0:0:
344,244,265743,2,0,P|268:284|188:256,1,150.000005722046
72,200,266197,1,8,0:0:0:0:
200,128,266348,1,4,0:0:0:0:
208,270,266499,1,0,0:0:0:0:
112,116,266650,6,0,P|126:78|160:52,1,75.000002861023,2|0,0:0|0:0,0:0:0:0:
312,52,267103,1,8,0:0:0:0:
376,112,267254,1,4,0:0:0:0:
332,188,267405,1,0,0:0:0:0:
456,144,267556,2,0,P|464:104|448:64,1,75.000002861023,4|0,0:0|0:0,0:0:0:0:
244,168,268010,5,10,0:0:0:0:
236,252,268161,1,4,0:0:0:0:
304,304,268312,1,0,0:0:0:0:
244,168,268463,5,0,0:0:0:0:
160,160,268614,1,4,0:0:0:0:
108,228,268765,1,0,0:0:0:0:
244,168,268917,5,10,0:0:0:0:
328,176,269068,1,4,0:0:0:0:
380,108,269219,1,0,0:0:0:0:
220,0,269370,2,0,L|212:80,1,75.000002861023,2|0,0:0|0:0,0:0:0:0:
40,220,269823,5,10,0:0:0:0:
136,240,269974,1,4,0:0:0:0:
236,260,270126,1,0,0:0:0:0:
236,260,270277,2,0,L|244:364,1,100
344,264,270730,1,8,0:0:0:0:
300,176,270881,1,4,0:0:0:0:
200,176,271032,1,0,0:0:0:0:
296,96,271183,2,0,P|352:108|380:152,1,100,4|0,0:0|0:0,0:0:0:0:
144,60,271637,5,2,0:0:0:0:
2,213,271788,1,4,0:0:0:0:
204,174,271939,1,0,0:0:0:0:
18,86,272090,1,2,0:0:0:0:
117,266,272241,1,4,0:0:0:0:
144,60,272392,1,0,0:0:0:0:
260,25,272544,6,0,L|271:73,1,50,8|4,0:0|0:0,0:0:0:0:
326,163,272846,1,0,0:0:0:0:
326,163,272997,2,0,P|382:179|434:159,1,100,4|0,0:0|0:0,0:0:0:0:
487,232,273450,2,0,L|503:292,2,50
344,316,273904,2,0,L|335:381,2,50,2|0|0,0:0|0:0|0:0,0:0:0:0:
232,136,274357,5,8,0:0:0:0:
168,312,274508,1,4,0:0:0:0:
76,72,274660,1,0,0:0:0:0:
316,176,274811,2,0,P|268:224|220:224,1,100
176,68,275264,6,0,L|168:12,2,50,8|4|0,0:0|0:0|0:0,0:0:0:0:
388,100,275717,2,0,L|396:44,2,50,0|4|0,0:0|0:0|0:0,0:0:0:0:
160,184,276171,1,8,0:0:0:0:
388,236,276322,1,4,0:0:0:0:
292,344,276473,1,0,0:0:0:0:
292,344,276624,2,0,B|260:336|252:304|252:304|264:280|260:244,1,100,0|8,0:0|0:0,0:0:0:0:
308,156,277078,5,8,0:0:0:0:
376,384,277229,1,4,0:0:0:0:
256,308,277380,1,0,0:0:0:0:
152,202,277531,5,0,0:0:0:0:
148,174,277606,1,0,0:0:0:0:
153,146,277682,1,0,0:0:0:0:
166,122,277757,1,0,0:0:0:0:
187,104,277833,1,0,0:0:0:0:
213,95,277909,1,0,0:0:0:0:
240,92,277984,5,8,0:0:0:0:
267,95,278060,1,0,0:0:0:0:
291,107,278135,1,0,0:0:0:0:
307,129,278211,1,0,0:0:0:0:
316,154,278286,1,0,0:0:0:0:
322,180,278362,1,0,0:0:0:0:
317,206,278437,5,0,0:0:0:0:
308,232,278513,1,0,0:0:0:0:
294,256,278589,1,0,0:0:0:0:
283,281,278664,1,0,0:0:0:0:
286,308,278740,1,0,0:0:0:0:
299,331,278815,1,0,0:0:0:0:
317,351,278891,5,8,0:0:0:0:
341,362,278966,1,0,0:0:0:0:
368,363,279042,1,0,0:0:0:0:
395,357,279118,1,0,0:0:0:0:
419,344,279193,1,0,0:0:0:0:
438,324,279269,1,0,0:0:0:0:
432,300,279344,6,0,P|430:262|439:226,1,62.5,2|0,0:0|0:0,0:0:0:0:
512,272,279646,1,4,0:0:0:0:
353,204,279798,6,0,P|355:166|346:130,1,62.5
276,176,280100,1,0,0:0:0:0:
416,88,280251,2,0,P|452:76|496:76,1,75.000002861023,6|0,0:0|0:0,0:0:0:0:
269,19,280704,2,0,P|228:8|192:8,1,75.000002861023,6|0,0:0|0:0,0:0:0:0:
232,136,281132,6,0,P|288:156|356:140,1,125,2|0,0:0|0:0,0:0:0:0:
136,92,281585,2,0,L|136:154,1,62.5,8|0,0:0|0:0,0:0:0:0:
28,224,281887,1,4,0:0:0:0:
244,316,282038,1,0,0:0:0:0:
64,336,282189,1,4,0:0:0:0:
204,236,282341,1,0,0:0:0:0:
204,236,282492,2,0,P|268:232|328:276,1,125,8|0,0:0|0:0,0:0:0:0:
452,136,282945,6,0,P|456:200|420:264,1,125,2|0,0:0|0:0,0:0:0:0:
280,84,283398,2,0,L|272:20,1,62.5,8|0,0:0|0:0,0:0:0:0:
380,48,283701,1,4,0:0:0:0:
192,144,283851,1,0,0:0:0:0:
376,184,284002,1,4,0:0:0:0:
268,260,284154,1,0,0:0:0:0:
120,204,284305,2,0,P|102:142|124:72,1,125,8|0,0:0|0:0,0:0:0:0:
180,288,284758,6,0,L|44:304,1,125,2|0,0:0|0:0,0:0:0:0:
292,88,285212,2,0,L|356:96,1,62.5,8|0,0:0|0:0,0:0:0:0:
292,184,285514,1,4,0:0:0:0:
212,52,285665,1,0,0:0:0:0:
368,8,285816,1,4,0:0:0:0:
192,144,285968,1,0,0:0:0:0:
384,292,286119,2,0,P|408:228|392:172,1,125,8|0,0:0|0:0,0:0:0:0:
292,64,286572,6,0,L|416:72,1,125,2|0,0:0|0:0,0:0:0:0:
192,144,287025,2,0,P|190:177|200:204,1,62.5,8|0,0:0|0:0,0:0:0:0:
288,160,287327,1,4,0:0:0:0:
128,68,287479,2,0,P|94:66|68:76,1,62.5
112,164,287781,1,4,0:0:0:0:
48,236,287932,2,0,P|44:300|84:360,1,125,8|0,0:0|0:0,0:0:0:0:
248,252,288385,6,0,P|176:252|124:280,1,125,2|0,0:0|0:0,0:0:0:0:
332,376,288839,2,0,L|320:309,1,62.5,8|0,0:0|0:0,0:0:0:0:
200,352,289141,1,4,0:0:0:0:
404,320,289292,1,0,0:0:0:0:
248,252,289443,1,4,0:0:0:0:
328,168,289595,1,0,0:0:0:0:
328,168,289746,2,0,L|316:40,1,125,8|0,0:0|0:0,0:0:0:0:
480,208,290199,6,0,P|496:268|472:348,1,125,2|0,0:0|0:0,0:0:0:0:
408,124,290652,2,0,P|404:92|412:61,1,62.5,8|0,0:0|0:0,0:0:0:0:
492,100,290954,1,4,0:0:0:0:
344,256,291105,1,0,0:0:0:0:
216,164,291256,1,4,0:0:0:0:
144,240,291408,1,0,0:0:0:0:
248,324,291559,2,0,P|180:344|116:308,1,125,8|0,0:0|0:0,0:0:0:0:
60,124,292012,6,0,L|56:264,1,125,2|0,0:0|0:0,0:0:0:0:
252,132,292466,2,0,L|252:194,1,62.5,8|0,0:0|0:0,0:0:0:0:
352,268,292768,1,4,0:0:0:0:
168,212,292919,1,0,0:0:0:0:
336,148,293070,1,4,0:0:0:0:
220,52,293222,1,0,0:0:0:0:
352,72,293373,5,8,0:0:0:0:
432,92,293524,1,0,0:0:0:0:
472,152,293675,1,0,0:0:0:0:
468,196,293826,1,0,0:0:0:0:
448,220,293977,1,0,0:0:0:0:
428,228,294128,1,0,0:0:0:0:
416,228,294279,6,0,L|296:228,1,93.75,8|0,0:0|0:0,0:0:0:0:
376,328,294733,2,0,L|492:332,1,93.75,8|0,0:0|0:0,0:0:0:0:
300,124,295186,5,8,0:0:0:0:
152,208,295337,1,4,0:0:0:0:
260,256,295488,1,0,0:0:0:0:
208,92,295639,2,0,P|260:36|344:40,1,150.000005722046,8|0,0:0|0:0,0:0:0:0:
152,208,296092,6,0,P|132:136|56:96,1,150.000005722046,10|4,0:0|0:0,0:0:0:0:
124,300,296546,2,0,P|160:304|194:289,1,75.000002861023,8|0,0:0|0:0,0:0:0:0:
56,200,296848,1,4,0:0:0:0:
288,216,296999,6,0,L|304:374,1,150.000005722046,10|0,0:0|0:0,0:0:0:0:
408,284,297452,1,8,0:0:0:0:
200,196,297604,1,4,0:0:0:0:
360,148,297755,1,0,0:0:0:0:
220,56,297906,6,0,P|152:32|64:60,1,150.000005722046,10|4,0:0|0:0,0:0:0:0:
288,216,298359,2,0,L|280:132,1,75.000002861023,8|0,0:0|0:0,0:0:0:0:
282,141,298586,1,0,0:0:0:0:
282,141,298661,1,4,0:0:0:0:
480,228,298813,2,0,P|468:284|392:332,1,150.000005722046,8|0,0:0|0:0,0:0:0:0:
393,331,299266,1,0,0:0:0:0:
208,268,299417,6,6,L|164:232,1,37.5000014305115
284,320,299568,2,0,L|336:276,1,37.5000014305115,6|0,0:0|0:0,0:0:0:0:
196,356,299719,2,0,P|120:368|44:348,1,150.000005722046,8|4,0:0|0:0,0:0:0:0:
108,200,300173,1,8,0:0:0:0:
280,224,300324,1,4,0:0:0:0:
128,288,300475,1,0,0:0:0:0:
204,156,300626,5,14,0:0:0:0:
280,332,300777,1,4,0:0:0:0:
368,216,300928,1,0,0:0:0:0:
368,216,301079,2,0,P|436:184|520:196,1,150.000005722046,8|0,0:0|0:0,0:0:0:0:
284,156,301533,2,0,P|260:124|264:68,1,75.000002861023,10|4,0:0|0:0,0:0:0:0:
224,248,301759,1,0,0:0:0:0:
224,248,301835,2,0,P|192:272|136:268,1,75.000002861023,0|8,0:0|0:0,0:0:0:0:
0,128,302137,1,4,0:0:0:0:
96,336,302288,1,0,0:0:0:0:
96,336,302440,2,0,P|68:264|116:200,1,150.000005722046,10|0,0:0|0:0,0:0:0:0:
103,206,302893,1,8,0:0:0:0:
208,80,303044,6,0,L|190:30,1,37.5000014305115,6|0,0:0|0:0,0:0:0:0:
292,136,303195,2,0,L|304:87,1,37.5000014305115,6|0,0:0|0:0,0:0:0:0:
220,208,303346,2,0,P|288:236|364:204,1,150.000005722046,8|0,0:0|0:0,0:0:0:0:
412,68,303800,2,0,P|396:104|404:144,1,75.000002861023,8|0,0:0|0:0,0:0:0:0:
488,312,304102,1,4,0:0:0:0:
488,312,304253,2,0,P|420:340|351:315,1,150.000005722046,10|0,0:0|0:0,0:0:0:0:
144,204,304706,5,0,0:0:0:0:
352,168,304858,1,4,0:0:0:0:
244,324,305009,1,0,0:0:0:0:
228,144,305160,2,0,P|152:120|61:157,1,150.000005722046,10|4,0:0|0:0,0:0:0:0:
292,88,305613,2,0,P|316:56|320:12,1,75.000002861023,8|0,0:0|0:0,0:0:0:0:
208,28,305915,1,4,0:0:0:0:
392,132,306067,2,8,P|404:212|364:284,1,150.000005722046,10|0,0:0|0:0,0:0:0:0:
375,272,306520,1,8,0:0:0:0:
158,188,306671,5,2,0:0:0:0:
127,185,306747,1,4,0:0:0:0:
96,181,306822,1,0,0:0:0:0:
65,178,306898,1,4,0:0:0:0:
34,174,306973,1,8,0:0:0:0:
295,204,307124,1,4,0:0:0:0:
104,27,307275,1,0,0:0:0:0:
154,283,307426,1,8,0:0:0:0:
264,44,307578,1,4,0:0:0:0:
34,174,307729,1,0,0:0:0:0:
224,144,307880,5,10,0:0:0:0:
347,376,308031,1,4,0:0:0:0:
386,120,308182,1,0,0:0:0:0:
202,304,308333,1,8,0:0:0:0:
461,262,308485,1,4,0:0:0:0:
224,144,308636,1,4,0:0:0:0:
356,176,308787,6,0,L|356:240,1,50,10|0,0:0|0:0,0:0:0:0:
280,292,309089,1,4,0:0:0:0:
212,232,309240,1,8,0:0:0:0:
192,216,309316,1,0,0:0:0:0:
168,208,309391,1,4,0:0:0:0:
144,204,309467,1,0,0:0:0:0:
120,208,309542,1,4,0:0:0:0:
100,224,309618,1,0,0:0:0:0:
72,240,309694,6,0,P|40:244|4:244,1,62.5,6|0,0:0|0:0,0:0:0:0:
44,156,309996,1,4,0:0:0:0:
152,288,310147,2,0,L|154:350,1,62.5,8|0,0:0|0:0,0:0:0:0:
280,224,310449,5,4,0:0:0:0:
348,80,310600,2,0,L|349:5,1,62.5,8|0,0:0|0:0,0:0:0:0:
424,112,310902,1,4,0:0:0:0:
488,168,311054,2,0,P|424:196|360:164,1,125,8|0,0:0|0:0,0:0:0:0:
168,264,311507,6,0,L|164:328,2,62.5,2|0|0,0:0|0:0|0:0,0:0:0:0:
224,120,311960,2,0,P|264:120|300:144,1,62.5,8|0,0:0|0:0,0:0:0:0:
236,208,312262,1,4,0:0:0:0:
87,103,312414,1,0,0:0:0:0:
58,293,312565,5,0,0:0:0:0:
58,293,312640,1,0,0:0:0:0:
58,293,312716,1,0,0:0:0:0:
302,226,312867,1,0,0:0:0:0:
145,176,313018,1,0,0:0:0:0:
223,335,313169,1,0,0:0:0:0:
340,136,313321,6,0,P|332:104|340:68,2,62.5,2|0|0,0:0|0:0|0:0,0:0:0:0:
412,276,313774,2,0,P|408:240|384:204,1,62.5,8|0,0:0|0:0,0:0:0:0:
268,204,314076,1,4,0:0:0:0:
156,308,314227,2,0,P|196:308|232:276,1,62.5,8|0,0:0|0:0,0:0:0:0:
144,176,314530,1,4,0:0:0:0:
192,32,314681,2,0,P|232:80|196:140,1,125,8|0,0:0|0:0,0:0:0:0:
376,96,315134,6,0,L|444:92,1,62.5,2|0,0:0|0:0,0:0:0:0:
492,184,315436,1,4,0:0:0:0:
348,220,315587,2,0,L|284:216,1,62.5,8|0,0:0|0:0,0:0:0:0:
212,292,315889,1,4,0:0:0:0:
285,216,316041,2,0,P|293:176|281:132,1,62.5
149,92,316268,5,0,0:0:0:0:
149,92,316343,1,0,0:0:0:0:
149,92,316419,1,0,0:0:0:0:
149,92,316494,2,0,P|195:78|242:88,1,93.75,8|0,0:0|0:0,0:0:0:0:
72,172,316796,2,0,L|40:148,1,31.25,4|0,0:0|0:0,0:0:0:0:
95,266,316948,2,0,P|145:252|173:177,1,125,2|0,0:0|0:0,0:0:0:0:
336,176,317401,6,0,L|404:200,1,62.5,8|0,0:0|0:0,0:0:0:0:
436,104,317703,1,4,0:0:0:0:
448,280,317854,2,0,L|518:266,1,62.5,8|0,0:0|0:0,0:0:0:0:
498,168,318156,1,4,0:0:0:0:
352,288,318308,2,0,P|372:344|432:372,1,125,8|0,0:0|0:0,0:0:0:0:
272,228,318761,6,0,L|208:228,2,62.5,2|0|0,0:0|0:0|0:0,0:0:0:0:
184,132,319214,2,0,P|144:132|108:156,1,62.5,8|0,0:0|0:0,0:0:0:0:
56,256,319516,1,4,0:0:0:0:
8,176,319668,2,0,L|0:112,1,62.5
144,300,319895,5,0,0:0:0:0:
144,300,319970,1,0,0:0:0:0:
144,300,320046,1,0,0:0:0:0:
144,300,320121,2,0,P|188:308|228:296,1,62.5,8|0,0:0|0:0,0:0:0:0:
300,160,320348,2,0,L|292:120,2,31.25
331,58,320575,6,0,P|302:47|272:52,2,62.5,2|0|0,0:0|0:0|0:0,0:0:0:0:
444,160,321028,2,0,P|480:156|516:132,1,62.5,8|0,0:0|0:0,0:0:0:0:
448,72,321330,1,4,0:0:0:0:
380,232,321481,2,0,P|380:272|412:308,1,62.5,8|0,0:0|0:0,0:0:0:0:
472,244,321784,1,4,0:0:0:0:
296,328,321935,2,0,P|236:348|164:336,1,125,8|0,0:0|0:0,0:0:0:0:
128,132,322388,6,0,P|120:164|124:200,1,62.5,2|0,0:0|0:0,0:0:0:0:
216,248,322690,1,4,0:0:0:0:
340,164,322841,2,0,P|308:156|276:160,1,62.5,8|0,0:0|0:0,0:0:0:0:
216,248,323143,1,4,0:0:0:0:
344,288,323295,6,0,L|356:384,1,93.75
472,268,323748,2,0,L|484:172,1,93.75
256,112,324202,6,0,P|268:168|312:200,1,100,2|0,0:0|0:0,0:0:0:0:
176,84,324655,2,0,L|124:72,1,50,8|0,0:0|0:0,0:0:0:0:
44,144,324957,1,4,0:0:0:0:
144,244,325108,2,0,L|143:194,1,50,8|0,0:0|0:0,0:0:0:0:
44,144,325410,1,4,0:0:0:0:
96,320,325562,2,0,P|144:332|196:316,1,100,8|0,0:0|0:0,0:0:0:0:
404,224,326015,6,0,L|408:273,1,50,2|0,0:0|0:0,0:0:0:0:
338,345,326317,1,4,0:0:0:0:
300,209,326468,2,0,L|304:159,1,50,8|0,0:0|0:0,0:0:0:0:
376,92,326770,1,4,0:0:0:0:
194,124,326922,2,0,L|198:173,1,50,8|0,0:0|0:0,0:0:0:0:
106,236,327224,1,4,0:0:0:0:
242,280,327375,2,0,P|286:252|298:196,1,100,8|0,0:0|0:0,0:0:0:0:
352,12,327829,6,0,P|405:11|444:44,1,100,2|0,0:0|0:0,0:0:0:0:
448,208,328282,2,0,L|447:149,1,50,8|0,0:0|0:0,0:0:0:0:
376,104,328584,1,4,0:0:0:0:
248,180,328735,2,0,L|309:177,1,50
368,104,329038,1,4,0:0:0:0:
320,268,329189,2,0,L|332:372,1,100,8|0,0:0|0:0,0:0:0:0:
232,272,329642,6,0,P|204:272|182:270,1,50,2|0,0:0|0:0,0:0:0:0:
120,204,329944,1,4,0:0:0:0:
200,100,330096,2,0,P|200:128|198:150,1,50,2|0,0:0|0:0,0:0:0:0:
120,204,330397,1,4,0:0:0:0:
4,136,330549,2,0,P|32:136|54:138,1,50,2|0,0:0|0:0,0:0:0:0:
120,204,330851,1,4,0:0:0:0:
284,128,331002,2,0,P|333:119|382:124,1,100,8|0,0:0|0:0,0:0:0:0:
488,300,331456,6,0,P|441:276|413:228,1,100,2|0,0:0|0:0,0:0:0:0:
264,288,331909,2,0,L|322:290,1,50,8|0,0:0|0:0,0:0:0:0:
375,362,332211,1,4,0:0:0:0:
172,324,332362,2,0,L|172:265,1,50
228,200,332664,1,4,0:0:0:0:
0,232,332816,2,0,P|56:236|104:228,1,100,8|0,0:0|0:0,0:0:0:0:
289,76,333269,6,0,L|294:125,1,50,2|0,0:0|0:0,0:0:0:0:
228,200,333571,1,4,0:0:0:0:
351,15,333722,2,0,L|390:46,1,50,8|0,0:0|0:0,0:0:0:0:
397,147,334024,1,4,0:0:0:0:
381,287,334176,2,0,L|359:242,1,50,8|0,0:0|0:0,0:0:0:0:
397,147,334478,1,4,0:0:0:0:
468,312,334629,2,0,P|448:356|396:376,1,100,8|0,0:0|0:0,0:0:0:0:
284,268,335083,6,0,P|240:244|188:240,1,100,2|0,0:0|0:0,0:0:0:0:
112,368,335536,2,0,L|112:318,1,50,8|0,0:0|0:0,0:0:0:0:
48,248,335838,1,4,0:0:0:0:
116,128,335989,2,0,L|118:191,1,50
48,248,336291,1,4,0:0:0:0:
72,56,336443,2,0,P|121:42|172:60,1,100,8|0,0:0|0:0,0:0:0:0:
384,148,336896,6,0,L|377:92,1,50
295,47,337198,1,0,0:0:0:0:
192,240,337350,2,0,L|203:185,1,50
289,147,337652,1,0,0:0:0:0:
352,244,337803,5,0,0:0:0:0:
356,260,337954,1,0,0:0:0:0:
360,276,338105,1,0,0:0:0:0:
476,196,338256,1,0,0:0:0:0:
480,180,338407,1,0,0:0:0:0:
484,164,338558,1,0,0:0:0:0:
256,76,338710,1,10,0:0:0:0:
