osu file format v14

[General]
AudioFilename: audio.mp3
AudioLeadIn: 0
PreviewTime: 38964
Countdown: 0
SampleSet: Soft
StackLeniency: 0.3
Mode: 0
LetterboxInBreaks: 0
WidescreenStoryboard: 0

[Editor]
DistanceSpacing: 0.3
BeatDivisor: 4
GridSize: 4
TimelineZoom: 1.7

[Metadata]
Title:HAJI kete Synapse * Cinnamon Roll (TV Size)
TitleUnicode:HAJIけてシナプス☆シナモンロール (TV Size)
Artist:Neuron * Creamsoft
ArtistUnicode:にゅーろん★くりぃむそふと
Creator:__Ag
Version:Insane
Source:ガールフレンド(♪)
Tags:hajikete girlfriend note onpu kari ona ed ending anime japanese pop j-pop jpop 朝比奈桃子 Asahina Momoko 小倉唯 Ogura Yui 蓬田菫 Yomogida Sumire 五十嵐裕美 Igarashi Hiromi 風町陽歌 Kazemachi Haruka 早見沙織 Hayami Saori 黒川凪子 Kurokawa Nagiko 後藤沙緒里 Gotou Saori 江藤くるみ Etou Kurumi 洲崎綾 Suzaki Aya sekai sekaii sekai-nyan suimya andrea osuplayer111 setu -yua yua
BeatmapID:4561043
BeatmapSetID:2162749

[Difficulty]
HPDrainRate:5
CircleSize:4
OverallDifficulty:8
ApproachRate:9
SliderMultiplier:1.6
SliderTickRate:1

[Events]
//Background and Video events
0,0,"BG.jpg",0,0
//Break Periods
//Storyboard Layer 0 (Background)
//Storyboard Layer 1 (Fail)
//Storyboard Layer 2 (Pass)
//Storyboard Layer 3 (Foreground)
//Storyboard Layer 4 (Overlay)
//Storyboard Sound Samples

[TimingPoints]
3676,352.941176470588,4,2,1,60,1,0
3676,-83.3333333333333,4,2,1,60,0,0
12852,-66.6666666666667,4,2,1,60,0,0
13205,-83.3333333333333,4,2,1,60,0,0
15234,-83.3333333333333,4,2,1,50,0,0
15323,-100,4,2,1,50,0,0
23440,-100,4,2,1,55,0,0
24852,-100,4,2,1,50,0,0
26264,-125,4,2,1,40,0,0
31911,-111.111111111111,4,2,1,45,0,0
34381,-111.111111111111,4,2,1,60,0,0
34734,-100,4,2,1,60,0,0
36146,-133.333333333333,4,2,1,60,0,0
37558,-100,4,2,1,50,0,0
38970,-83.3333333333333,4,2,1,70,0,0
50264,-100,4,2,1,60,0,0
53087,-83.3333333333333,4,2,1,50,0,0
64381,-125,4,2,1,40,0,0
73558,-125,4,2,1,60,0,0
74264,-100,4,2,1,60,0,0
74793,-133.333333333333,4,2,1,60,0,0
75675,-100,4,2,1,50,0,0
77793,-83.3333333333333,4,2,1,70,0,0
89087,-100,4,2,1,60,0,0
91911,-83.3333333333333,4,2,1,50,0,0
98264,-66.6666666666667,4,2,1,60,0,0
98970,-83.3333333333333,4,2,1,50,0,0
99675,-66.6666666666667,4,2,1,60,0,0
100381,-83.3333333333333,4,2,1,50,0,0
101087,-66.6666666666667,4,2,1,60,0,0
101793,-83.3333333333333,4,2,1,50,0,0
103205,-83.3333333333333,4,2,1,75,0,0
113087,-83.3333333333333,4,2,1,60,0,0
114499,-100,4,2,1,50,0,0
116617,-100,4,2,1,60,0,0

[Colours]
Combo1 : 98,176,255
Combo2 : 255,128,255
Combo3 : 255,74,255
Combo4 : 255,128,192

[HitObjects]
57,304,3676,6,0,P|128:286|149:251,1,95.9999970703126,4|0,1:2|0:0,0:0:0:0:
73,134,4028,2,0,P|62:209|90:242,2,95.9999970703126,8|0|8,0:0|0:0|0:0,0:0:0:0:
262,36,4558,1,0,1:0:0:0:
201,189,4734,1,8,0:0:0:0:
129,85,4911,2,0,P|201:93|235:128,1,95.9999970703126,0|8,1:0|0:0,0:0:0:0:
417,101,5264,5,2,0:0:0:0:
274,166,5440,1,8,0:0:0:0:
367,30,5617,1,0,1:0:0:0:
367,30,5705,1,0,1:0:0:0:
367,30,5793,1,8,0:0:0:0:
362,164,5970,1,0,1:0:0:0:
310,86,6146,1,8,0:0:0:0:
417,101,6323,1,0,1:0:0:0:
469,334,6499,6,0,B|492:256|492:256|468:262,1,95.9999970703126,4|0,1:2|0:0,0:0:0:0:
325,242,6852,1,8,0:0:0:0:
377,346,7028,2,0,P|312:364|266:335,1,95.9999970703126,2|8,0:0|0:0,0:0:0:0:
117,326,7381,1,0,1:0:0:0:
225,232,7558,1,8,0:0:0:0:
287,354,7734,1,0,1:0:0:0:
142,245,7911,6,0,P|128:229|122:178,3,47.9999985351563,10|2|2|2,0:0|0:0|1:2|1:2,0:0:0:0:
33,195,8264,2,0,P|35:163|64:131,3,47.9999985351563,10|2|2|2,0:0|0:0|1:2|1:2,0:0:0:0:
115,96,8617,2,0,P|141:122|168:122,1,47.9999985351563,10|2,0:0|0:0,0:0:0:0:
222,26,8793,2,0,P|192:38|178:58,1,47.9999985351563,2|2,1:2|1:2,0:0:0:0:
236,136,8970,1,10,0:0:0:0:
263,165,9058,1,2,0:0:0:0:
270,204,9146,1,10,0:0:0:0:
255,240,9234,1,10,0:0:0:0:
231,271,9323,6,0,P|288:266|323:294,1,95.9999970703126,4|0,1:2|0:0,0:0:0:0:
172,329,9675,1,8,0:0:0:0:
336,371,9852,2,0,P|379:354|401:313,1,95.9999970703126,2|8,0:0|0:0,0:0:0:0:
450,131,10205,1,0,1:0:0:0:
510,271,10381,1,8,0:0:0:0:
360,214,10558,2,0,P|328:171|331:111,1,95.9999970703126,0|8,1:0|0:0,0:0:0:0:
134,78,10911,5,0,0:0:0:0:
291,35,11087,1,8,0:0:0:0:
217,145,11264,1,0,1:0:0:0:
217,145,11352,1,0,1:0:0:0:
217,145,11440,1,8,0:0:0:0:
134,78,11617,1,0,1:0:0:0:
110,172,11793,1,8,0:0:0:0:
39,107,11970,1,0,1:0:0:0:
5,306,12146,6,0,L|111:275,1,95.9999970703126,4|0,1:2|1:0,0:0:0:0:
251,352,12499,2,0,P|189:342|170:301,1,95.9999970703126,8|0,0:0|0:0,0:0:0:0:
379,254,12852,6,0,B|393:259|393:259|390:310|339:321|339:321|323:292,1,120.000004577637,0|8,1:0|0:0,0:0:0:0:
303,238,13117,1,8,0:0:0:0:
303,238,13205,1,0,1:0:0:0:
187,78,13381,6,0,P|254:49|207:115,1,191.999994140625,4|0,1:2|1:0,0:0:0:0:
74,85,13911,6,0,B|77:118|77:118|124:180|124:180|117:211,1,143.999995605469,8|0,0:0|0:0,0:0:0:0:
3,241,14264,6,0,P|-13:193|37:223,1,143.999995605469,8|0,0:0|1:0,0:0:0:0:
49,323,14617,6,0,B|87:295|87:295|139:312,1,95.9999970703126,8|8,0:0|0:0,0:0:0:0:
208,346,14881,1,8,0:0:0:0:
208,346,14970,2,0,B|232:240|232:240|257:284,1,143.999995605469,4|0,1:2|1:0,0:0:0:0:
326,250,15323,6,0,L|278:165,1,80,10|0,0:0|1:0,0:0:0:0:
300,49,15675,1,10,0:0:0:0:
296,61,15764,1,10,0:0:0:0:
293,73,15852,1,2,1:2:0:0:
181,99,16028,2,0,P|139:111|118:150,1,80,10|2,0:0|0:0,0:0:0:0:
76,277,16381,6,0,B|117:271|130:220|130:220|156:264|213:263,1,160,0|8,1:0|0:0,0:0:0:0:
257,190,16911,1,2,1:2:0:0:
310,266,17087,2,0,P|334:266|358:278,2,40,10|10|2,0:0|0:0|1:2,0:0:0:0:
390,340,17440,2,0,P|416:316|430:264,1,80,10|0,0:0|0:0,0:0:0:0:
366,87,17793,6,0,L|411:221,1,120,0|0,1:0|1:0,0:0:0:0:
479,206,18146,1,10,0:0:0:0:
512,117,18323,1,0,1:0:0:0:
433,37,18499,2,0,L|490:50,2,40,10|10|2,0:0|0:0|1:2,0:0:0:0:
352,85,18852,2,0,L|255:115,1,80,10|0,0:0|0:0,0:0:0:0:
85,169,19205,6,0,P|155:161|207:233,1,160,2|8,1:2|0:0,0:0:0:0:
297,316,19734,1,2,1:2:0:0:
370,232,19911,1,10,0:0:0:0:
359,218,19999,1,10,0:0:0:0:
342,214,20087,1,2,1:2:0:0:
385,320,20264,1,8,0:0:0:0:
404,317,20352,1,8,0:0:0:0:
421,307,20440,2,0,P|434:291|448:259,1,40,8|8,0:0|0:0,0:0:0:0:
485,154,20617,6,0,B|440:160|440:160|413:125|348:116,1,120,4|0,1:0|1:0,0:0:0:0:
304,117,20970,1,10,0:0:0:0:
210,166,21146,1,2,1:2:0:0:
202,61,21323,2,0,P|233:60|245:66,2,40,10|10|2,0:0|0:0|1:2,0:0:0:0:
114,120,21675,2,0,P|70:119|38:79,1,80,10|2,0:0|0:0,0:0:0:0:
210,166,22028,6,0,B|201:222|201:222|206:231|206:231|195:231|195:231|199:242|199:242|186:327,1,160,0|8,1:0|0:0,0:0:0:0:
264,372,22558,1,2,1:2:0:0:
309,281,22734,2,0,L|263:293,2,40,10|10|2,0:0|0:0|1:2,0:0:0:0:
412,294,23087,2,0,L|399:253,1,40,10|8,0:0|0:0,0:0:0:0:
485,253,23264,2,0,L|472:212,1,40,8|8,0:0|0:0,0:0:0:0:
394,163,23440,5,6,1:2:0:0:
472,53,23705,5,6,1:2:0:0:
285,100,23970,6,0,B|245:73|245:73|203:73|203:73|141:28,1,160,6|0,1:2|1:0,0:0:0:0:
61,81,24499,1,10,0:0:0:0:
182,184,24675,1,10,0:0:0:0:
169,191,24764,1,10,0:0:0:0:
157,199,24852,6,0,P|121:239|127:322,1,120,2|2,1:2|1:2,0:0:0:0:
143,374,25205,1,10,0:0:0:0:
40,344,25381,1,2,1:2:0:0:
203,276,25558,2,0,P|253:296|318:269,1,120,10|10,0:0|0:0,0:0:0:0:
372,226,25911,1,2,1:2:0:0:
501,293,26087,1,10,0:3:0:0:
487,289,26175,1,10,0:3:0:0:
472,285,26264,6,0,B|460:249|460:249|466:198|466:198|448:151,1,128,4|2,0:3|0:0,0:0:0:0:
350,17,26970,2,0,P|360:50|301:33,1,128,2|2,0:0|0:0,0:0:0:0:
191,143,27675,2,0,L|116:130,1,64,2|0,0:0|0:0,0:0:0:0:
132,239,28028,6,0,P|119:264|123:292,2,42.6666666666667,2|2|2,0:0|0:0|0:0,0:0:0:0:
200,285,28381,6,0,P|217:307|244:315,2,42.6666666666667,2|2|2,0:0|0:0|0:0,0:0:0:0:
273,247,28734,6,0,P|300:240|319:219,2,42.6666666666667,2|2|2,0:0|0:0|0:0,0:0:0:0:
387,268,29087,6,0,P|441:248|459:308,1,128,2|0,0:0|0:0,0:0:0:0:
384,360,29558,5,2,0:0:0:0:
353,336,29675,5,2,0:0:0:0:
321,360,29793,6,0,B|264:378|264:378|177:335,1,128,2|2,0:0|0:0,0:0:0:0:
3,147,30499,6,0,P|45:151|74:133,1,64,2|0,0:0|0:0,0:0:0:0:
139,97,30852,1,2,0:0:0:0:
164,182,31028,2,0,P|237:182|284:223,1,128,2|0,0:0|0:0,0:0:0:0:
316,293,31558,1,2,0:3:0:0:
419,258,31734,1,10,0:3:0:0:
419,258,31823,1,10,0:3:0:0:
419,258,31911,6,0,P|390:223|355:225,1,71.9999978027344,4|0,0:3|0:0,0:0:0:0:
407,110,32264,2,0,P|363:121|350:154,1,71.9999978027344,6|0,0:3|0:0,0:0:0:0:
266,63,32617,2,0,P|257:107|281:133,1,71.9999978027344,6|0,0:3|0:0,0:0:0:0:
158,166,32970,2,0,P|195:192|228:181,1,71.9999978027344,6|0,0:3|0:0,0:0:0:0:
66,90,33323,6,0,B|50:121|50:121|54:154|54:154|25:201,2,107.999996704102,6|2|2,0:3|0:0|0:0,0:0:0:0:
164,26,34028,2,0,P|189:58|259:32,1,107.999996704102,6|2,0:3|0:0,0:0:0:0:
330,36,34381,1,10,0:0:0:0:
337,59,34469,1,10,0:0:0:0:
344,82,34557,1,10,0:0:0:0:
352,106,34645,1,10,0:0:0:0:
359,129,34734,6,0,B|380:197|288:211|322:303,1,160,6|8,1:2|0:0,0:0:0:0:
334,367,35264,1,8,0:3:0:0:
474,288,35440,2,0,P|452:242|395:271,1,120,6|0,1:2|0:0,0:0:0:0:
315,277,35793,1,8,0:0:0:0:
288,290,35881,1,8,0:0:0:0:
258,294,35969,1,8,0:0:0:0:
229,287,36057,1,8,0:0:0:0:
204,270,36146,6,0,P|188:219|172:333,1,420.000016021729,6|0,1:2|0:0,0:0:0:0:
298,324,37558,5,8,0:0:0:0:
298,324,37646,1,0,1:0:0:0:
298,324,37734,2,0,L|290:276,1,40,0|0,1:0|1:0,0:0:0:0:
336,215,37911,1,8,0:0:0:0:
300,84,38087,2,0,L|292:132,1,40,0|0,1:0|1:0,0:0:0:0:
222,157,38264,1,10,0:0:0:0:
119,41,38440,5,10,0:0:0:0:
140,30,38528,1,10,0:0:0:0:
165,30,38617,2,0,P|185:32|208:52,1,40,2|2,1:2|1:2,0:0:0:0:
300,84,38793,1,10,0:0:0:0:
325,92,38881,1,10,0:0:0:0:
350,83,38970,5,6,1:2:0:0:
491,127,39146,1,2,0:0:0:0:
415,10,39323,1,10,0:0:0:0:
419,186,39499,1,2,0:0:0:0:
239,148,39675,1,2,1:2:0:0:
239,148,39764,1,10,0:0:0:0:
239,148,39852,2,0,B|236:178|236:178|214:197|214:197|202:259,1,95.9999970703126,2|8,1:2|0:0,0:0:0:0:
396,304,40205,6,0,P|371:250|289:254,1,143.999995605469,2|0,0:0|0:0,0:0:0:0:
235,305,40558,1,2,0:0:0:0:
125,282,40734,1,10,0:0:0:0:
182,382,40911,1,2,0:0:0:0:
207,233,41087,1,2,1:2:0:0:
207,233,41175,1,10,0:0:0:0:
207,233,41264,1,2,1:2:0:0:
295,169,41440,2,0,L|309:67,1,95.9999970703126,10|0,0:0|0:0,0:0:0:0:
212,140,41793,5,0,1:0:0:0:
96,63,41970,1,2,0:0:0:0:
131,142,42146,1,10,0:0:0:0:
82,212,42323,1,2,0:0:0:0:
96,63,42499,1,2,1:2:0:0:
176,0,42675,1,2,0:0:0:0:
250,66,42852,1,10,0:0:0:0:
414,59,43028,6,0,B|364:43|364:43|330:91,1,95.9999970703126,2|0,0:0|1:0,0:0:0:0:
368,183,43381,2,0,L|477:152,2,95.9999970703126,2|10|2,0:0|0:0|0:0,0:0:0:0:
236,258,43911,1,2,1:2:0:0:
349,305,44087,1,10,0:0:0:0:
339,283,44175,1,10,0:0:0:0:
317,272,44264,1,2,1:2:0:0:
165,295,44440,1,8,0:0:0:0:
140,296,44528,1,8,0:0:0:0:
119,282,44617,5,6,1:2:0:0:
26,176,44793,1,2,0:0:0:0:
158,214,44970,1,10,0:0:0:0:
42,302,45146,1,2,0:0:0:0:
19,97,45323,1,2,1:2:0:0:
19,97,45411,1,10,0:0:0:0:
19,97,45499,2,0,L|118:71,1,95.9999970703126,2|8,1:2|0:0,0:0:0:0:
336,43,45852,6,0,P|261:75|281:124,1,143.999995605469,2|0,0:0|0:0,0:0:0:0:
330,174,46205,1,2,0:0:0:0:
427,120,46381,1,10,0:0:0:0:
448,231,46558,1,2,0:0:0:0:
290,275,46734,1,2,1:2:0:0:
290,275,46823,1,10,0:0:0:0:
290,275,46911,1,2,1:2:0:0:
391,326,47087,2,0,P|426:349|493:338,2,95.9999970703126,8|0|0,0:0|0:0|1:0,0:0:0:0:
209,302,47617,6,0,P|279:291|294:254,1,95.9999970703126,2|10,0:0|0:0,0:0:0:0:
163,146,47970,2,0,P|137:212|162:243,1,95.9999970703126,2|0,0:0|1:0,0:0:0:0:
227,209,48323,1,2,0:0:0:0:
270,60,48499,1,10,0:0:0:0:
246,56,48587,1,10,0:0:0:0:
222,53,48675,1,10,0:0:0:0:
198,49,48763,1,10,0:0:0:0:
174,46,48852,6,0,B|135:56|135:56|124:49|124:49|53:67,1,95.9999970703126,6|0,1:2|1:0,0:0:0:0:
10,126,49205,1,8,0:0:0:0:
139,234,49381,2,0,P|178:193|87:162,1,191.999994140625,6|0,1:2|1:0,0:0:0:0:
86,327,49911,1,8,0:0:0:0:
109,325,49999,1,8,0:0:0:0:
133,323,50087,1,8,0:0:0:0:
157,321,50175,1,8,0:0:0:0:
181,320,50264,6,0,P|228:281|270:355,1,160,4|2,1:2|0:0,0:0:0:0:
371,374,50793,1,2,0:0:0:0:
408,222,50970,6,0,B|339:246|333:167|248:184,1,160,6|2,1:2|0:0,0:0:0:0:
244,84,51499,1,2,0:0:0:0:
390,144,51675,6,0,B|401:31|401:31|357:63,1,160,6|0,1:2|0:0,0:0:0:0:
244,84,52205,2,0,L|153:45,1,80,2|2,0:0|0:0,0:0:0:0:
61,138,52558,1,2,1:2:0:0:
61,138,52646,2,0,L|72:187,1,40,2|10,1:2|0:0,0:0:0:0:
281,356,53087,6,0,P|328:338|348:287,1,95.9999970703126,4|0,1:2|0:0,0:0:0:0:
236,204,53440,2,0,P|238:253|306:279,1,95.9999970703126,10|2,0:0|0:0,0:0:0:0:
357,200,53793,1,2,1:2:0:0:
336,193,53881,1,10,0:0:0:0:
318,206,53970,1,0,1:0:0:0:
416,260,54146,1,10,0:0:0:0:
427,154,54323,1,0,0:0:0:0:
315,111,54499,6,0,P|261:108|233:60,1,95.9999970703126,2|0,1:2|0:0,0:0:0:0:
99,120,54852,2,0,P|153:123|181:171,1,95.9999970703126,10|0,0:0|0:0,0:0:0:0:
187,279,55205,1,2,1:2:0:0:
178,260,55293,1,0,1:0:0:0:
182,240,55381,1,0,0:0:0:0:
270,295,55558,1,8,0:0:0:0:
182,361,55734,1,2,0:0:0:0:
283,294,55911,6,0,B|329:307|329:307|390:278,1,95.9999970703126,2|2,1:2|0:0,0:0:0:0:
472,238,56264,1,8,0:0:0:0:
454,323,56440,1,2,0:0:0:0:
387,206,56617,1,2,1:2:0:0:
379,193,56705,1,10,0:0:0:0:
371,180,56793,1,2,1:2:0:0:
336,92,56970,1,8,0:0:0:0:
273,176,57146,1,2,0:0:0:0:
148,89,57323,6,0,B|116:146|203:164|137:242,1,143.999995605469,2|10,1:2|0:0,0:0:0:0:
121,293,57675,2,0,P|119:256|203:282,1,143.999995605469,2|10,1:2|0:0,0:0:0:0:
206,272,58028,2,0,P|208:302|186:329,1,47.9999985351563,2|2,1:2|1:2,0:0:0:0:
142,368,58205,1,10,0:0:0:0:
51,334,58381,1,2,1:2:0:0:
199,317,58558,2,0,L|246:341,1,47.9999985351563,10|10,0:0|0:0,0:0:0:0:
316,329,58734,5,4,1:2:0:0:
418,287,58911,1,2,0:0:0:0:
337,218,59087,2,0,B|324:194|324:194|330:155|330:155|310:109,1,95.9999970703126,10|10,0:0|0:0,0:0:0:0:
284,27,59440,2,0,P|254:47|244:77,1,47.9999985351563,2|10,1:2|0:0,0:0:0:0:
239,138,59617,2,0,P|186:126|140:159,1,95.9999970703126,2|10,1:2|0:0,0:0:0:0:
64,146,59970,1,2,0:0:0:0:
208,212,60146,5,2,1:2:0:0:
208,212,60234,1,2,0:0:0:0:
208,212,60323,2,0,B|214:251|214:251|206:264|206:264|215:308,1,95.9999970703126,2|10,0:0|0:0,0:0:0:0:
300,366,60675,1,2,0:0:0:0:
334,269,60852,2,0,P|303:269|279:288,1,47.9999985351563,2|10,1:2|0:0,0:0:0:0:
214,304,61028,2,0,P|162:323|113:269,1,95.9999970703126,2|10,1:2|0:0,0:0:0:0:
12,272,61381,1,2,0:0:0:0:
12,272,61470,1,2,0:0:0:0:
12,272,61558,6,0,P|63:258|77:204,1,95.9999970703126,2|0,1:2|0:0,0:0:0:0:
126,91,61911,1,10,0:0:0:0:
35,135,62087,1,2,0:0:0:0:
166,186,62264,1,2,1:2:0:0:
188,163,62352,1,8,0:0:0:0:
216,147,62440,1,0,1:2:0:0:
247,139,62528,1,2,0:0:0:0:
279,140,62616,1,8,0:0:0:0:
310,149,62705,1,8,0:0:0:0:
336,166,62793,2,0,P|350:188|353:216,1,47.9999985351563,10|8,0:0|0:0,0:0:0:0:
324,299,62970,5,4,1:2:0:0:
266,226,63146,1,0,1:0:0:0:
432,201,63323,1,8,0:0:0:0:
410,292,63499,6,0,B|361:302|361:302|343:335|343:335|257:353,1,143.999995605469,4|0,1:2|0:0,0:0:0:0:
219,372,63852,2,0,P|252:329|228:298,2,95.9999970703126,0|8|0,1:0|0:0|1:0,0:0:0:0:
125,375,64381,6,0,B|117:296|117:296|122:288|122:288|111:289|111:289|116:282|116:282|104:173,1,192,6|2,1:2|0:0,0:0:0:0:
58,116,65087,6,0,P|62:159|144:105,1,192,2|2,0:0|0:0,0:0:0:0:
186,24,65793,6,0,B|228:51|228:51|305:20|305:20|370:47,1,192,2|2,0:0|0:0,0:0:0:0:
322,132,66499,6,0,P|280:139|293:180,1,96,2|0,0:0|0:0,0:0:0:0:
334,177,66852,1,8,0:1:0:0:
418,207,67028,1,0,0:0:0:0:
333,267,67205,5,2,0:0:0:0:
322,359,67381,2,0,P|336:365|360:358,2,32,2|0|10,0:0|0:0|0:1,0:0:0:0:
247,304,67734,1,2,0:0:0:0:
185,371,67911,2,0,P|155:345|125:349,1,64,2|2,0:0|0:0,0:0:0:0:
108,357,68175,1,0,0:0:0:0:
108,357,68264,1,10,0:1:0:0:
36,295,68440,1,2,0:0:0:0:
149,251,68617,6,0,L|125:137,1,96,2|0,0:0|0:0,0:0:0:0:
123,130,68970,1,10,0:1:0:0:
202,85,69146,1,0,0:0:0:0:
284,125,69323,1,2,0:0:0:0:
287,215,69499,2,0,L|318:218,1,32,2|0,0:0|0:0,0:0:0:0:
401,245,69675,2,0,P|392:207|435:166,1,96,10|0,0:1|0:0,0:0:0:0:
501,129,70028,6,0,P|422:146|405:34,1,192,2|2,1:0|0:0,0:0:0:0:
284,45,70734,2,0,L|223:64,1,64,2|2,1:0|0:0,0:0:0:0:
142,135,71087,2,0,L|209:157,1,64,8|2,0:1|0:0,0:0:0:0:
303,211,71440,6,0,L|283:133,1,64,2|2,0:0|1:0,0:0:0:0:
360,67,71793,2,0,L|380:145,1,64,10|2,0:1|0:0,0:0:0:0:
293,224,72146,2,0,L|273:146,1,64,2|2,1:0|0:0,0:0:0:0:
370,54,72499,2,0,L|390:132,1,64,10|0,0:1|0:0,0:0:0:0:
398,244,72852,6,0,P|440:220|436:322,1,192,2|2,1:0|0:0,0:0:0:0:
314,317,73558,1,2,1:2:0:0:
282,313,73646,1,2,1:2:0:0:
250,310,73734,1,2,1:2:0:0:
218,307,73822,1,2,1:2:0:0:
176,326,73911,2,0,B|188:302|188:302|173:256|173:256|182:214,1,96,10|0,0:0|0:0,0:0:0:0:
212,169,74264,5,6,1:2:0:0:
86,175,74440,1,2,1:2:0:0:
182,58,74617,1,10,0:0:0:0:
295,178,74793,6,0,B|286:150|297:117|326:101|369:111|369:111|375:100|375:100|379:115|379:115|414:128|426:172|415:203|378:219,1,270.000010299683,6|0,1:2|0:0,0:0:0:0:
325,249,75675,5,6,1:2:0:0:
160,340,75940,5,6,1:2:0:0:
154,151,76205,5,6,1:2:0:0:
213,238,76381,5,6,0:3:0:0:
124,247,76558,1,6,0:3:0:0:
262,314,76734,1,6,0:3:0:0:
250,160,76911,1,6,0:3:0:0:
340,226,77087,1,8,0:0:0:0:
340,226,77175,1,8,0:0:0:0:
340,226,77264,2,0,L|383:214,1,40,0|0,1:0|1:0,0:0:0:0:
457,193,77440,1,8,0:0:0:0:
472,336,77617,1,8,0:0:0:0:
455,330,77705,1,8,0:0:0:0:
438,324,77794,5,6,1:2:0:0:
378,215,77970,1,2,0:0:0:0:
336,354,78147,1,10,0:0:0:0:
292,214,78323,1,2,0:0:0:0:
195,362,78499,1,2,1:2:0:0:
195,362,78588,1,10,0:0:0:0:
195,362,78676,2,0,B|91:352,1,95.9999970703126,2|8,1:2|0:0,0:0:0:0:
14,122,79029,6,0,B|41:231|41:231|71:187,1,143.999995605469,2|0,0:0|0:0,0:0:0:0:
106,141,79382,1,2,0:0:0:0:
173,45,79558,1,10,0:0:0:0:
57,46,79735,1,2,0:0:0:0:
186,185,79911,1,2,1:2:0:0:
186,185,79999,1,10,0:0:0:0:
186,185,80088,1,2,1:2:0:0:
303,131,80264,2,0,B|266:117|266:117|246:123|246:123|198:99,1,95.9999970703126,10|0,0:0|0:0,0:0:0:0:
356,65,80617,5,0,1:0:0:0:
382,172,80794,1,2,0:0:0:0:
303,131,80970,1,10,0:0:0:0:
356,65,81147,1,2,0:0:0:0:
463,153,81323,1,2,1:2:0:0:
492,244,81499,1,2,0:0:0:0:
408,292,81676,1,10,0:0:0:0:
243,249,81852,6,0,P|294:226|340:245,1,95.9999970703126,2|0,0:0|1:0,0:0:0:0:
218,334,82205,2,0,P|177:309|158:264,2,95.9999970703126,2|10|2,0:0|0:0|0:0,0:0:0:0:
331,342,82734,1,2,1:2:0:0:
411,269,82911,1,10,0:0:0:0:
419,250,82999,1,10,0:0:0:0:
411,230,83088,1,2,1:2:0:0:
332,158,83264,1,8,0:0:0:0:
320,140,83352,1,8,0:0:0:0:
331,121,83441,5,6,1:2:0:0:
461,42,83617,1,2,0:0:0:0:
477,187,83794,1,10,0:0:0:0:
399,84,83970,1,2,0:0:0:0:
306,233,84147,1,2,1:2:0:0:
306,233,84235,1,10,0:0:0:0:
306,233,84323,2,0,L|206:209,1,95.9999970703126,2|0,1:2|0:0,0:0:0:0:
30,232,84676,6,0,B|9:159|9:159|81:97,1,143.999995605469,2|0,0:0|0:0,0:0:0:0:
128,71,85029,1,2,0:0:0:0:
140,199,85205,1,10,0:0:0:0:
60,114,85382,1,2,0:0:0:0:
225,59,85558,1,2,1:2:0:0:
225,59,85647,1,10,0:0:0:0:
225,59,85735,1,2,1:2:0:0:
338,121,85911,2,0,B|302:216,2,95.9999970703126,8|0|0,0:0|0:0|1:0,0:0:0:0:
369,303,86441,6,0,P|439:292|454:255,1,95.9999970703126,2|10,0:0|0:0,0:0:0:0:
303,210,86794,2,0,B|301:252|301:252|287:268|287:268|286:308,1,95.9999970703126,2|0,0:0|1:0,0:0:0:0:
193,292,87147,1,10,0:0:0:0:
193,292,87234,1,10,0:0:0:0:
193,292,87323,1,2,1:2:0:0:
267,376,87499,1,10,0:0:0:0:
126,223,87676,6,0,B|97:300|97:300|77:279,1,95.9999970703126,6|0,1:2|0:0,0:0:0:0:
19,200,88029,1,8,0:0:0:0:
179,110,88205,2,0,P|275:135|300:56,1,191.999994140625,6|0,1:2|1:0,0:0:0:0:
470,128,88734,1,8,0:0:0:0:
453,111,88822,1,8,0:0:0:0:
432,102,88910,1,8,0:0:0:0:
409,102,88998,1,8,0:0:0:0:
388,111,89087,6,0,B|374:182|374:182|381:191|381:191|359:284,1,160,4|2,1:2|0:0,0:0:0:0:
445,311,89617,1,2,0:0:0:0:
291,323,89793,6,0,P|230:302|283:245,1,160,6|2,1:2|0:0,0:0:0:0:
363,265,90323,1,2,0:0:0:0:
244,160,90499,6,0,B|214:46|214:46|188:87,1,160,6|0,1:2|0:0,0:0:0:0:
148,165,91028,1,2,0:0:0:0:
4,80,91205,5,10,0:0:0:0:
15,52,91293,1,10,0:0:0:0:
36,32,91381,1,10,0:0:0:0:
63,22,91469,1,10,0:0:0:0:
92,25,91558,2,0,P|108:26|134:48,1,40,10|10,0:0|0:0,0:0:0:0:
148,165,91734,2,0,P|122:145|114:120,1,40,10|10,0:0|0:0,0:0:0:0:
191,81,91911,6,0,P|235:55|316:74,1,95.9999970703126,4|0,1:2|0:0,0:0:0:0:
366,146,92264,1,8,0:0:0:0:
401,25,92440,1,8,0:0:0:0:
261,140,92617,6,0,L|287:243,1,95.9999970703126,0|0,1:0|0:0,0:0:0:0:
204,317,92970,1,8,0:0:0:0:
365,278,93146,2,0,P|403:310|445:295,1,95.9999970703126,2|0,0:0|1:0,0:0:0:0:
435,144,93499,2,0,P|397:112|355:127,1,95.9999970703126,2|8,0:0|0:0,0:0:0:0:
238,196,93852,1,2,0:0:0:0:
217,205,93940,1,2,0:0:0:0:
194,203,94028,6,0,P|165:198|145:172,1,47.9999985351563,0|8,1:0|0:0,0:0:0:0:
191,74,94205,2,0,P|205:104|199:126,1,47.9999985351563,0|0,1:0|0:0,0:0:0:0:
114,116,94381,1,8,0:0:0:0:
93,128,94469,1,2,0:0:0:0:
78,146,94558,2,0,P|65:174|66:205,1,47.9999985351563,8|8,0:0|0:0,0:0:0:0:
93,275,94734,2,0,P|39:275|8:308,1,95.9999970703126,0|0,1:0|0:0,0:0:0:0:
116,364,95087,1,8,0:0:0:0:
170,255,95264,1,8,0:0:0:0:
314,367,95440,5,0,1:0:0:0:
314,367,95528,1,8,0:0:0:0:
314,367,95617,1,0,1:0:0:0:
399,289,95793,2,0,P|366:253|301:255,1,95.9999970703126,8|0,0:0|0:0,0:0:0:0:
242,214,96058,1,0,1:0:0:0:
242,214,96146,2,0,P|224:181|224:164,1,47.9999985351563,0|2,1:0|0:0,0:0:0:0:
138,129,96323,2,0,P|160:98|175:91,1,47.9999985351563,8|8,0:0|0:0,0:0:0:0:
255,76,96499,2,0,P|306:72|343:26,1,95.9999970703126,0|8,1:0|0:0,0:0:0:0:
490,91,96852,2,0,P|446:53|430:90,1,95.9999970703126,0|8,1:0|0:0,0:0:0:0:
381,137,97117,5,8,0:0:0:0:
381,137,97205,2,0,B|414:187|330:206|395:297,1,143.999995605469,2|0,1:2|0:0,0:0:0:0:
455,300,97558,2,0,P|503:258|439:243,1,143.999995605469,6|0,1:2|0:0,0:0:0:0:
380,274,97911,1,8,0:0:0:0:
260,303,98087,2,0,L|243:257,1,47.9999985351563,2|0,0:0|0:0,0:0:0:0:
181,204,98264,6,0,P|237:231|215:158,2,180.000006866455,4|4|4,1:2|1:2|1:2,0:0:0:0:
114,116,98970,5,0,1:0:0:0:
20,194,99146,1,8,0:0:0:0:
29,206,99234,1,8,0:0:0:0:
39,218,99323,1,0,1:0:0:0:
83,335,99499,2,0,L|138:315,1,47.9999985351563,2|0,0:0|0:0,0:0:0:0:
210,321,99675,6,0,P|149:311|213:261,2,180.000006866455,12|12|12,0:0|0:0|0:0,0:0:0:0:
305,266,100381,5,0,1:0:0:0:
418,205,100558,1,0,0:0:0:0:
396,333,100734,1,8,0:0:0:0:
401,204,100911,2,0,L|397:154,1,47.9999985351563,2|0,0:0|0:0,0:0:0:0:
357,84,101087,6,0,P|424:122|420:50,2,180.000006866455,4|4|4,1:2|1:2|1:2,0:0:0:0:
195,41,101793,6,0,P|259:23|299:66,1,95.9999970703126,0|0,1:0|1:0,0:0:0:0:
247,163,102146,1,8,0:0:0:0:
144,101,102323,1,0,1:0:0:0:
117,256,102499,6,0,P|94:274|63:275,1,47.9999985351563,8|8,0:0|0:0,0:0:0:0:
131,180,102675,2,0,P|161:190|180:217,1,47.9999985351563,8|8,0:0|0:0,0:0:0:0:
189,304,102852,1,8,0:0:0:0:
224,298,102940,1,8,0:0:0:0:
260,292,103028,1,8,0:0:0:0:
295,286,103116,1,8,0:0:0:0:
331,280,103204,5,6,1:2:0:0:
421,179,103381,1,2,0:0:0:0:
419,316,103558,1,10,0:0:0:0:
421,179,103734,1,2,0:0:0:0:
512,309,103910,1,10,0:0:0:0:
421,179,104087,2,0,B|317:169,1,95.9999970703126,2|10,1:2|0:0,0:0:0:0:
145,179,104440,6,0,B|151:151|151:151|174:129|174:129|182:78,1,95.9999970703126,2|10,1:2|0:0,0:0:0:0:
55,85,104793,1,2,1:2:0:0:
145,179,104969,1,10,0:0:0:0:
6,247,105146,1,2,1:2:0:0:
6,247,105234,1,2,1:2:0:0:
6,247,105323,1,10,0:0:0:0:
100,339,105499,1,2,1:2:0:0:
273,255,105675,6,0,P|250:197|203:194,1,95.9999970703126,10|0,0:0|1:0,0:0:0:0:
239,365,106028,2,0,L|351:321,1,95.9999970703126,10|0,0:0|1:0,0:0:0:0:
505,266,106381,1,10,0:0:0:0:
446,371,106558,1,0,1:0:0:0:
345,228,106734,5,10,0:0:0:0:
463,201,106911,1,0,1:0:0:0:
507,53,107087,1,10,0:0:0:0:
392,16,107264,1,0,1:0:0:0:
327,139,107440,1,10,0:0:0:0:
327,139,107528,1,8,0:0:0:0:
327,139,107617,1,0,1:0:0:0:
258,36,107793,2,0,P|210:55|182:112,1,95.9999970703126,10|0,0:0|1:0,0:0:0:0:
140,258,108146,5,10,0:0:0:0:
78,149,108323,1,0,1:0:0:0:
95,142,108411,1,0,1:0:0:0:
112,145,108499,2,0,P|143:153|161:175,1,47.9999985351563,10|8,0:0|0:0,0:0:0:0:
232,235,108675,2,0,P|260:240|292:222,1,47.9999985351563,8|8,0:0|0:0,0:0:0:0:
343,169,108852,5,6,1:2:0:0:
358,308,109029,1,2,0:0:0:0:
468,222,109206,1,10,0:0:0:0:
343,169,109382,1,2,0:0:0:0:
457,315,109558,1,10,0:0:0:0:
343,169,109735,2,0,B|276:81,1,95.9999970703126,2|10,1:2|0:0,0:0:0:0:
62,149,110088,6,0,P|87:115|162:129,1,95.9999970703126,2|10,1:2|0:0,0:0:0:0:
211,222,110441,1,2,1:2:0:0:
213,98,110617,1,10,0:0:0:0:
104,230,110794,1,2,1:2:0:0:
104,230,110882,1,2,1:2:0:0:
104,230,110971,1,10,0:0:0:0:
226,302,111147,1,2,1:2:0:0:
333,179,111323,6,0,L|292:71,1,95.9999970703126,10|0,0:0|1:0,0:0:0:0:
478,52,111676,2,0,P|441:29|368:51,1,95.9999970703126,10|0,0:0|1:0,0:0:0:0:
412,184,112028,1,10,0:0:0:0:
512,122,112205,1,0,1:0:0:0:
298,89,112381,6,0,P|281:58|243:40,1,47.9999985351563,10|0,0:0|0:0,0:0:0:0:
179,32,112558,2,0,P|150:45|135:70,1,47.9999985351563,0|0,1:0|1:0,0:0:0:0:
136,161,112734,1,10,0:0:0:0:
157,189,112822,1,8,0:0:0:0:
189,205,112910,1,8,0:0:0:0:
225,204,112998,1,8,0:0:0:0:
256,187,113087,6,0,L|272:335,1,143.999995605469,4|0,1:2|0:0,0:0:0:0:
299,344,113440,1,8,0:0:0:0:
433,312,113617,2,0,P|443:253|354:300,1,191.999994140625,4|0,1:2|1:0,0:0:0:0:
198,366,114146,2,0,L|140:348,1,47.9999985351563,8|8,0:0|0:0,0:0:0:0:
116,270,114323,2,0,L|49:247,1,47.9999985351563,2|0,0:0|0:0,0:0:0:0:
46,128,114499,6,0,P|14:86|99:119,1,240,0|0,1:0|0:0,0:0:0:0:
122,192,115205,2,0,B|181:191|217:121|217:121|220:209|299:231,1,240,0|0,1:0|0:0,0:0:0:0:
318,127,115911,2,0,B|354:120|375:93|375:93|365:191|365:191|393:155|443:157,1,240,0|0,1:0|0:0,0:0:0:0:
460,288,116617,5,8,0:0:0:0:
442,296,116705,1,8,0:0:0:0:
424,299,116793,1,8,0:0:0:0:
405,297,116881,1,8,0:0:0:0:
387,290,116970,2,0,P|366:278|345:255,4,40,8|8|8|8|8,0:0|0:0|0:0|0:0|0:0,0:0:0:0:
