osu file format v14

[General]
AudioFilename: audio.mp3
AudioLeadIn: 0
PreviewTime: 25480
Countdown: 1
SampleSet: Normal
StackLeniency: 0.7
Mode: 1
LetterboxInBreaks: 0
WidescreenStoryboard: 1

[Editor]
DistanceSpacing: 0.8
BeatDivisor: 4
GridSize: 32
TimelineZoom: 1.4

[Metadata]
Title:Vezde plyashu
TitleUnicode:Везде пляшу
Artist:Neuromonakh Feofan
ArtistUnicode:Нейромонах Феофан
Creator:Nepuri
Version:Green's Ekstremalnyy
Source:
Tags:Велики силы добра Veliki sily dobra Russian Folk Drum and Bass 'n' DnB Neurofeofan Greenshell
BeatmapID:1468822
BeatmapSetID:694154

[Difficulty]
HPDrainRate:5
CircleSize:3
OverallDifficulty:6
ApproachRate:8
SliderMultiplier:1.4
SliderTickRate:1

[Events]
//Background and Video events
0,0,"Neuromonakh.png",0,70
//Break Periods
//Storyboard Layer 0 (Background)
//Storyboard Layer 1 (Fail)
//Storyboard Layer 2 (Pass)
//Storyboard Layer 3 (Foreground)
//Storyboard Sound Samples

[TimingPoints]
3709,342.857142857143,4,1,0,100,1,0
5080,-90.9090909090909,4,1,0,100,0,0
5166,-100,4,1,0,100,0,0
23080,-99.009900990099,4,1,0,100,0,0
23251,-98.0392156862745,4,1,0,100,0,0
23594,-96.1538461538461,4,1,0,100,0,0
23766,-95.2380952380952,4,1,0,100,0,0
23937,-94.3396226415094,4,1,0,100,0,0
24280,-92.5925925925926,4,1,0,100,0,0
24451,-91.743119266055,4,1,0,100,0,0
24537,-91.324200913242,4,1,0,100,0,0
24623,-90.9090909090909,4,1,0,100,0,0
24794,-90.0900900900901,4,1,0,100,0,0
24966,-89.2857142857143,4,1,0,100,0,0
25051,-88.8888888888889,4,1,0,100,0,0
25137,-88.4955752212389,4,1,0,100,0,0
25223,-88.1057268722467,4,1,0,100,0,0
25309,-87.719298245614,4,1,0,100,0,0
25651,-83.3333333333333,4,1,0,100,0,1
25823,-90.9090909090909,4,1,0,100,0,1
35251,-83.3333333333333,4,1,0,100,0,1
35337,-90.9090909090909,4,1,0,100,0,1
44851,-83.3333333333333,4,1,0,100,0,1
44937,-90.9090909090909,4,1,0,100,0,1
54451,-83.3333333333333,4,1,0,100,0,1
54537,-90.9090909090909,4,1,0,100,0,1
64051,-90.9090909090909,4,1,0,100,0,0
64137,-100,4,1,0,100,0,0
82051,-99.009900990099,4,1,0,100,0,0
82222,-98.0392156862745,4,1,0,100,0,0
82565,-96.1538461538461,4,1,0,100,0,0
82737,-95.2380952380952,4,1,0,100,0,0
82908,-94.3396226415094,4,1,0,100,0,0
83251,-92.5925925925926,4,1,0,100,0,0
83422,-91.743119266055,4,1,0,100,0,0
83508,-91.324200913242,4,1,0,100,0,0
83594,-90.9090909090909,4,1,0,100,0,0
83765,-90.0900900900901,4,1,0,100,0,0
83937,-89.2857142857143,4,1,0,100,0,0
84022,-88.8888888888889,4,1,0,100,0,0
84108,-88.4955752212389,4,1,0,100,0,0
84194,-88.1057268722467,4,1,0,100,0,0
84280,-87.719298245614,4,1,0,100,0,0
84623,-83.3333333333333,4,1,0,100,0,1
84794,-90.9090909090909,4,1,0,100,0,1
94222,-83.3333333333333,4,1,0,100,0,1
94308,-90.9090909090909,4,1,0,100,0,1
103822,-83.3333333333333,4,1,0,100,0,1
103908,-90.9090909090909,4,1,0,100,0,1
113422,-83.3333333333333,4,1,0,100,0,1
113508,-90.9090909090909,4,1,0,100,0,1
121651,-80,4,1,0,100,0,0

[HitObjects]
224,224,5080,5,4,0:0:0:0:
224,160,5423,1,0,0:0:0:0:
224,160,5594,1,0,0:0:0:0:
224,160,5680,1,0,0:0:0:0:
288,160,5766,1,8,0:0:0:0:
224,160,5937,1,0,0:0:0:0:
288,160,6109,1,8,0:0:0:0:
224,160,6280,1,0,0:0:0:0:
224,160,6366,1,0,0:0:0:0:
224,160,6451,1,0,0:0:0:0:
224,160,6794,1,0,0:0:0:0:
288,160,6966,1,8,0:0:0:0:
224,160,7051,1,0,0:0:0:0:
288,160,7137,1,8,0:0:0:0:
224,160,7309,1,0,0:0:0:0:
288,160,7480,1,8,0:0:0:0:
288,160,7651,1,8,0:0:0:0:
224,160,7823,1,0,0:0:0:0:
224,160,7909,1,0,0:0:0:0:
224,160,7994,1,0,0:0:0:0:
288,160,8166,1,8,0:0:0:0:
224,160,8337,1,0,0:0:0:0:
224,160,8423,1,0,0:0:0:0:
288,160,8509,1,8,0:0:0:0:
288,160,8851,1,8,0:0:0:0:
224,160,9023,1,0,0:0:0:0:
288,160,9109,1,8,0:0:0:0:
224,160,9194,1,0,0:0:0:0:
224,160,9366,1,0,0:0:0:0:
288,160,9537,1,8,0:0:0:0:
224,160,9709,1,0,0:0:0:0:
224,160,9794,1,0,0:0:0:0:
288,160,9880,1,8,0:0:0:0:
224,160,10051,1,0,0:0:0:0:
288,160,10223,1,8,0:0:0:0:
288,160,10394,1,8,0:0:0:0:
288,160,10480,1,8,0:0:0:0:
224,160,10566,1,0,0:0:0:0:
224,160,10909,1,0,0:0:0:0:
288,160,11080,1,8,0:0:0:0:
288,160,11251,1,8,0:0:0:0:
224,160,11337,1,0,0:0:0:0:
224,160,11423,1,0,0:0:0:0:
288,160,11594,1,8,0:0:0:0:
224,160,11766,1,0,0:0:0:0:
224,160,11937,1,0,0:0:0:0:
288,160,12023,1,8,0:0:0:0:
224,160,12109,1,0,0:0:0:0:
288,160,12280,1,8,0:0:0:0:
224,160,12451,1,0,0:0:0:0:
224,160,12537,1,0,0:0:0:0:
288,160,12623,1,8,0:0:0:0:
224,160,12709,1,0,0:0:0:0:
224,160,12794,1,0,0:0:0:0:
288,160,12966,1,8,0:0:0:0:
224,160,13309,1,0,0:0:0:0:
224,160,13480,1,0,0:0:0:0:
288,160,13651,1,8,0:0:0:0:
224,160,13994,1,0,0:0:0:0:
288,160,14337,1,8,0:0:0:0:
224,224,14680,1,4,0:0:0:0:
288,160,14851,1,8,0:0:0:0:
288,160,14937,1,8,0:0:0:0:
224,160,15023,1,0,0:0:0:0:
224,160,15194,1,0,0:0:0:0:
288,160,15366,1,8,0:0:0:0:
288,160,15709,1,8,0:0:0:0:
288,160,15880,1,8,0:0:0:0:
288,160,15966,1,8,0:0:0:0:
224,160,16051,1,0,0:0:0:0:
224,160,16223,1,0,0:0:0:0:
288,160,16394,1,8,0:0:0:0:
224,160,16480,1,0,0:0:0:0:
224,160,16566,1,0,0:0:0:0:
224,160,16651,1,0,0:0:0:0:
288,160,16737,1,8,0:0:0:0:
224,160,16909,1,0,0:0:0:0:
288,160,17080,1,8,0:0:0:0:
224,160,17251,1,0,0:0:0:0:
288,160,17337,1,8,0:0:0:0:
224,160,17423,1,0,0:0:0:0:
224,160,17766,1,0,0:0:0:0:
224,160,17937,1,0,0:0:0:0:
288,160,18109,1,8,0:0:0:0:
224,160,18280,1,0,0:0:0:0:
288,160,18451,1,8,0:0:0:0:
288,160,18623,1,8,0:0:0:0:
288,160,18709,1,8,0:0:0:0:
224,160,18794,1,0,0:0:0:0:
288,160,18966,1,8,0:0:0:0:
224,160,19051,1,0,0:0:0:0:
288,160,19137,1,8,0:0:0:0:
224,160,19309,1,0,0:0:0:0:
288,160,19480,1,8,0:0:0:0:
288,160,19566,1,8,0:0:0:0:
224,160,19651,1,0,0:0:0:0:
224,160,19737,1,0,0:0:0:0:
288,160,19823,1,8,0:0:0:0:
224,160,20166,1,0,0:0:0:0:
288,160,20509,1,8,0:0:0:0:
224,160,20680,1,0,0:0:0:0:
224,160,20766,1,0,0:0:0:0:
288,160,20851,1,8,0:0:0:0:
224,160,21023,1,0,0:0:0:0:
288,160,21194,1,8,0:0:0:0:
288,160,21366,1,8,0:0:0:0:
288,160,21451,1,8,0:0:0:0:
224,160,21537,1,0,0:0:0:0:
288,160,21623,1,0,0:0:0:0:
224,160,21709,1,0,0:0:0:0:
288,160,21880,1,8,0:0:0:0:
224,160,22051,1,0,0:0:0:0:
224,160,22137,1,0,0:0:0:0:
288,160,22223,1,8,0:0:0:0:
224,160,22394,1,0,0:0:0:0:
288,160,22566,1,8,0:0:0:0:
224,160,22651,1,0,0:0:0:0:
288,160,22737,1,8,0:0:0:0:
288,160,22823,1,8,0:0:0:0:
224,160,22909,1,0,0:0:0:0:
224,160,23080,1,0,0:0:0:0:
288,160,23166,1,0,0:0:0:0:
288,160,23251,1,8,0:0:0:0:
288,160,23509,1,8,0:0:0:0:
224,160,23594,1,0,0:0:0:0:
224,160,23766,1,0,0:0:0:0:
224,160,23851,1,0,0:0:0:0:
288,160,23937,1,8,0:0:0:0:
288,160,24194,1,8,0:0:0:0:
224,160,24280,1,0,0:0:0:0:
224,160,24451,1,0,0:0:0:0:
224,160,24537,1,0,0:0:0:0:
288,160,24623,1,8,0:0:0:0:
224,160,24794,1,0,0:0:0:0:
224,160,24966,1,0,0:0:0:0:
224,160,25051,1,0,0:0:0:0:
224,160,25137,1,0,0:0:0:0:
224,160,25223,1,0,0:0:0:0:
288,224,25309,1,12,0:0:0:0:
224,224,25651,1,4,0:0:0:0:
288,160,25994,1,8,0:0:0:0:
288,160,26166,1,8,0:0:0:0:
224,160,26251,1,0,0:0:0:0:
224,160,26337,1,0,0:0:0:0:
224,160,26423,1,0,0:0:0:0:
288,160,26509,1,8,0:0:0:0:
288,160,26680,1,8,0:0:0:0:
224,160,26851,1,0,0:0:0:0:
288,160,26937,1,8,0:0:0:0:
224,160,27023,1,0,0:0:0:0:
224,160,27194,1,0,0:0:0:0:
224,160,27280,1,0,0:0:0:0:
288,160,27366,1,8,0:0:0:0:
288,160,27537,1,8,0:0:0:0:
288,160,27623,1,8,0:0:0:0:
224,160,27709,1,0,0:0:0:0:
224,160,27794,1,0,0:0:0:0:
224,160,27880,1,0,0:0:0:0:
288,160,28051,1,8,0:0:0:0:
224,160,28394,1,0,0:0:0:0:
224,160,28480,1,0,0:0:0:0:
224,160,28566,1,0,0:0:0:0:
224,160,28651,1,0,0:0:0:0:
288,160,28737,1,8,0:0:0:0:
288,160,28909,1,8,0:0:0:0:
288,160,28994,1,8,0:0:0:0:
224,160,29080,1,0,0:0:0:0:
224,160,29251,1,0,0:0:0:0:
288,160,29423,1,8,0:0:0:0:
224,160,29594,1,0,0:0:0:0:
288,160,29680,1,8,0:0:0:0:
224,160,29766,1,0,0:0:0:0:
224,160,29937,1,0,0:0:0:0:
224,160,30023,1,0,0:0:0:0:
288,160,30109,1,8,0:0:0:0:
224,160,30280,1,0,0:0:0:0:
288,160,30366,1,8,0:0:0:0:
288,160,30537,1,8,0:0:0:0:
224,160,30623,1,0,0:0:0:0:
288,160,30794,1,8,0:0:0:0:
288,160,30966,1,8,0:0:0:0:
288,160,31051,1,8,0:0:0:0:
224,160,31137,1,0,0:0:0:0:
288,160,31480,1,8,0:0:0:0:
224,160,31651,1,0,0:0:0:0:
288,160,31737,1,8,0:0:0:0:
224,160,31823,1,0,0:0:0:0:
288,160,31994,1,0,0:0:0:0:
224,160,32080,1,0,0:0:0:0:
288,160,32166,1,8,0:0:0:0:
288,160,32337,1,8,0:0:0:0:
224,160,32509,1,0,0:0:0:0:
224,160,32594,1,0,0:0:0:0:
224,160,32680,1,0,0:0:0:0:
288,160,32851,1,8,0:0:0:0:
288,160,32937,1,8,0:0:0:0:
288,160,33023,1,8,0:0:0:0:
288,160,33109,1,8,0:0:0:0:
224,160,33194,1,0,0:0:0:0:
224,160,33366,1,0,0:0:0:0:
288,160,33537,1,8,0:0:0:0:
224,160,33709,1,0,0:0:0:0:
288,160,33794,1,8,0:0:0:0:
224,160,33880,1,0,0:0:0:0:
224,160,34051,1,0,0:0:0:0:
224,160,34137,1,0,0:0:0:0:
288,160,34223,1,8,0:0:0:0:
288,160,34394,1,8,0:0:0:0:
292,286,34566,2,0,P|181:305|136:201,1,231.000007049561
224,224,35251,1,4,0:0:0:0:
288,160,35423,1,8,0:0:0:0:
288,160,35509,1,8,0:0:0:0:
288,160,35594,1,8,0:0:0:0:
288,160,35766,1,8,0:0:0:0:
224,160,35937,1,0,0:0:0:0:
224,160,36023,1,0,0:0:0:0:
288,160,36109,1,8,0:0:0:0:
224,160,36194,1,0,0:0:0:0:
288,160,36280,1,8,0:0:0:0:
224,160,36451,1,0,0:0:0:0:
224,160,36537,1,0,0:0:0:0:
288,160,36623,1,8,0:0:0:0:
224,160,36794,1,0,0:0:0:0:
288,160,36966,1,8,0:0:0:0:
288,160,37137,1,8,0:0:0:0:
288,160,37223,1,8,0:0:0:0:
224,160,37309,1,0,0:0:0:0:
224,160,37480,1,0,0:0:0:0:
288,160,37651,1,8,0:0:0:0:
288,160,37994,1,8,0:0:0:0:
288,160,38080,1,8,0:0:0:0:
224,160,38166,1,0,0:0:0:0:
224,160,38251,1,0,0:0:0:0:
288,160,38337,1,8,0:0:0:0:
288,160,38509,1,8,0:0:0:0:
224,160,38594,1,0,0:0:0:0:
224,160,38680,1,0,0:0:0:0:
224,160,38851,1,0,0:0:0:0:
288,160,39023,1,8,0:0:0:0:
224,160,39194,1,0,0:0:0:0:
224,160,39280,1,0,0:0:0:0:
224,160,39366,1,0,0:0:0:0:
288,160,39451,1,8,0:0:0:0:
224,160,39537,1,0,0:0:0:0:
288,160,39709,1,8,0:0:0:0:
224,160,39880,1,0,0:0:0:0:
288,160,39966,1,8,0:0:0:0:
288,160,40137,1,8,0:0:0:0:
224,160,40223,1,0,0:0:0:0:
288,160,40394,1,8,0:0:0:0:
288,160,40566,1,8,0:0:0:0:
288,160,40651,1,8,0:0:0:0:
224,160,40737,1,0,0:0:0:0:
288,160,41080,1,8,0:0:0:0:
224,160,41251,1,0,0:0:0:0:
224,160,41337,1,0,0:0:0:0:
224,160,41423,1,0,0:0:0:0:
288,160,41594,1,8,0:0:0:0:
288,160,41680,1,8,0:0:0:0:
288,160,41766,1,8,0:0:0:0:
224,160,41937,1,0,0:0:0:0:
288,160,42109,1,8,0:0:0:0:
224,160,42280,1,0,0:0:0:0:
224,160,42366,1,0,0:0:0:0:
288,160,42451,1,8,0:0:0:0:
224,160,42537,1,0,0:0:0:0:
288,160,42623,1,8,0:0:0:0:
288,160,42709,1,8,0:0:0:0:
224,160,42794,1,0,0:0:0:0:
224,160,42966,1,0,0:0:0:0:
288,160,43137,1,8,0:0:0:0:
224,160,43309,1,0,0:0:0:0:
288,160,43394,1,8,0:0:0:0:
224,160,43480,1,0,0:0:0:0:
224,160,43651,1,0,0:0:0:0:
288,160,43823,1,8,0:0:0:0:
224,160,43994,1,0,0:0:0:0:
224,160,44080,1,0,0:0:0:0:
224,160,44166,1,0,0:0:0:0:
288,160,44337,1,8,0:0:0:0:
224,224,44851,1,4,0:0:0:0:
288,160,45194,1,8,0:0:0:0:
224,160,45366,1,0,0:0:0:0:
288,160,45451,1,8,0:0:0:0:
224,160,45537,1,0,0:0:0:0:
224,160,45623,1,0,0:0:0:0:
288,160,45709,1,8,0:0:0:0:
288,160,45880,1,8,0:0:0:0:
224,160,46051,1,0,0:0:0:0:
224,160,46137,1,0,0:0:0:0:
288,160,46223,1,8,0:0:0:0:
224,160,46394,1,0,0:0:0:0:
288,160,46566,1,8,0:0:0:0:
224,160,46651,1,0,0:0:0:0:
288,160,46737,1,8,0:0:0:0:
288,160,46823,1,8,0:0:0:0:
224,160,46909,1,0,0:0:0:0:
224,160,47080,1,0,0:0:0:0:
288,160,47251,1,8,0:0:0:0:
224,160,47594,1,0,0:0:0:0:
224,160,47680,1,0,0:0:0:0:
288,160,47766,1,8,0:0:0:0:
288,160,47937,1,8,0:0:0:0:
288,160,48109,1,8,0:0:0:0:
288,160,48194,1,8,0:0:0:0:
224,160,48280,1,0,0:0:0:0:
224,160,48451,1,0,0:0:0:0:
288,160,48623,1,8,0:0:0:0:
224,160,48794,1,0,0:0:0:0:
224,160,48880,1,0,0:0:0:0:
288,160,48966,1,8,0:0:0:0:
224,160,49051,1,0,0:0:0:0:
224,160,49137,1,0,0:0:0:0:
288,160,49309,1,8,0:0:0:0:
224,160,49480,1,0,0:0:0:0:
288,160,49566,1,8,0:0:0:0:
288,160,49737,1,8,0:0:0:0:
224,160,49823,1,0,0:0:0:0:
288,160,49994,1,8,0:0:0:0:
288,160,50166,1,8,0:0:0:0:
288,160,50251,1,8,0:0:0:0:
224,160,50337,1,0,0:0:0:0:
288,160,50680,1,8,0:0:0:0:
288,160,50851,1,8,0:0:0:0:
224,160,50937,1,0,0:0:0:0:
224,160,51023,1,0,0:0:0:0:
288,160,51194,1,8,0:0:0:0:
224,160,51280,1,0,0:0:0:0:
288,160,51366,1,8,0:0:0:0:
224,160,51537,1,0,0:0:0:0:
288,160,51623,1,8,0:0:0:0:
224,160,51709,1,0,0:0:0:0:
224,160,51794,1,0,0:0:0:0:
224,160,51880,1,0,0:0:0:0:
288,160,52051,1,8,0:0:0:0:
224,160,52223,1,0,0:0:0:0:
224,160,52309,1,0,0:0:0:0:
288,160,52394,1,8,0:0:0:0:
224,160,52480,1,0,0:0:0:0:
224,160,52566,1,0,0:0:0:0:
288,160,52737,1,8,0:0:0:0:
224,160,52909,1,0,0:0:0:0:
224,160,52994,1,0,0:0:0:0:
288,160,53080,1,8,0:0:0:0:
288,160,53166,1,8,0:0:0:0:
288,160,53251,1,8,0:0:0:0:
288,160,53423,1,8,0:0:0:0:
288,160,53594,1,8,0:0:0:0:
221,98,53766,2,0,P|336:81|379:173,1,231.000007049561
224,224,54451,1,4,0:0:0:0:
288,160,54623,1,8,0:0:0:0:
288,160,54709,1,8,0:0:0:0:
224,160,54794,1,0,0:0:0:0:
288,160,54966,1,8,0:0:0:0:
224,160,55137,1,0,0:0:0:0:
224,160,55223,1,0,0:0:0:0:
288,160,55309,1,8,0:0:0:0:
224,160,55394,1,0,0:0:0:0:
288,160,55480,1,8,0:0:0:0:
224,160,55651,1,0,0:0:0:0:
224,160,55737,1,0,0:0:0:0:
288,160,55823,1,8,0:0:0:0:
224,160,55994,1,0,0:0:0:0:
288,160,56166,1,8,0:0:0:0:
288,160,56337,1,8,0:0:0:0:
288,160,56423,1,8,0:0:0:0:
224,160,56509,1,0,0:0:0:0:
224,160,56594,1,0,0:0:0:0:
224,160,56680,1,0,0:0:0:0:
288,160,56851,1,8,0:0:0:0:
288,160,57194,1,8,0:0:0:0:
288,160,57280,1,8,0:0:0:0:
224,160,57366,1,0,0:0:0:0:
288,160,57537,1,8,0:0:0:0:
224,160,57709,1,0,0:0:0:0:
224,160,57794,1,0,0:0:0:0:
288,160,57880,1,8,0:0:0:0:
224,160,57966,1,0,0:0:0:0:
224,160,58051,1,0,0:0:0:0:
288,160,58223,1,8,0:0:0:0:
224,160,58394,1,0,0:0:0:0:
288,160,58480,1,8,0:0:0:0:
224,160,58566,1,0,0:0:0:0:
224,160,58651,1,0,0:0:0:0:
288,160,58737,1,8,0:0:0:0:
288,160,58909,1,8,0:0:0:0:
224,160,59080,1,0,0:0:0:0:
288,160,59166,1,8,0:0:0:0:
288,160,59337,1,8,0:0:0:0:
224,160,59423,1,0,0:0:0:0:
224,160,59509,1,0,0:0:0:0:
288,160,59594,1,8,0:0:0:0:
288,160,59766,1,8,0:0:0:0:
288,160,59851,1,8,0:0:0:0:
224,160,59937,1,0,0:0:0:0:
288,160,60280,1,8,0:0:0:0:
224,160,60451,1,0,0:0:0:0:
224,160,60623,1,0,0:0:0:0:
224,160,60709,1,0,0:0:0:0:
288,160,60794,1,8,0:0:0:0:
224,160,60880,1,0,0:0:0:0:
288,160,60966,1,8,0:0:0:0:
224,160,61137,1,0,0:0:0:0:
224,160,61223,1,0,0:0:0:0:
288,160,61309,1,8,0:0:0:0:
224,160,61480,1,0,0:0:0:0:
288,160,61651,1,8,0:0:0:0:
224,160,61737,1,0,0:0:0:0:
288,160,61823,1,8,0:0:0:0:
288,160,61909,1,8,0:0:0:0:
224,160,61994,1,0,0:0:0:0:
224,160,62166,1,0,0:0:0:0:
224,160,62251,1,0,0:0:0:0:
288,160,62337,1,8,0:0:0:0:
224,160,62423,1,0,0:0:0:0:
224,160,62509,1,0,0:0:0:0:
224,160,62680,1,0,0:0:0:0:
224,160,62851,1,0,0:0:0:0:
224,160,62937,1,0,0:0:0:0:
288,160,63023,1,8,0:0:0:0:
288,160,63366,1,8,0:0:0:0:
288,160,63709,1,8,0:0:0:0:
224,224,64051,1,4,0:0:0:0:
224,160,64394,1,0,0:0:0:0:
224,160,64566,1,0,0:0:0:0:
224,160,64651,1,0,0:0:0:0:
288,160,64737,1,8,0:0:0:0:
224,160,64909,1,0,0:0:0:0:
288,160,65080,1,8,0:0:0:0:
224,160,65251,1,0,0:0:0:0:
224,160,65337,1,0,0:0:0:0:
224,160,65423,1,0,0:0:0:0:
224,160,65594,1,0,0:0:0:0:
288,160,65766,1,8,0:0:0:0:
224,160,65937,1,0,0:0:0:0:
224,160,66023,1,0,0:0:0:0:
288,160,66109,1,8,0:0:0:0:
288,160,66280,1,8,0:0:0:0:
288,160,66451,1,8,0:0:0:0:
224,160,66623,1,0,0:0:0:0:
224,160,66794,1,0,0:0:0:0:
288,160,67137,1,8,0:0:0:0:
224,160,67309,1,0,0:0:0:0:
224,160,67394,1,0,0:0:0:0:
288,160,67480,1,8,0:0:0:0:
224,160,67651,1,0,0:0:0:0:
288,160,67823,1,8,0:0:0:0:
224,160,67994,1,0,0:0:0:0:
288,160,68080,1,8,0:0:0:0:
224,160,68166,1,0,0:0:0:0:
224,160,68337,1,0,0:0:0:0:
288,160,68509,1,8,0:0:0:0:
224,160,68680,1,0,0:0:0:0:
288,160,68851,1,8,0:0:0:0:
224,160,68937,1,0,0:0:0:0:
224,160,69023,1,0,0:0:0:0:
288,160,69194,1,8,0:0:0:0:
288,160,69366,1,8,0:0:0:0:
288,160,69451,1,8,0:0:0:0:
224,160,69537,1,0,0:0:0:0:
224,160,69880,1,0,0:0:0:0:
288,160,70051,1,8,0:0:0:0:
288,160,70223,1,8,0:0:0:0:
288,160,70309,1,8,0:0:0:0:
224,160,70394,1,0,0:0:0:0:
288,160,70566,1,8,0:0:0:0:
224,160,70737,1,0,0:0:0:0:
224,160,70909,1,0,0:0:0:0:
288,160,70994,1,8,0:0:0:0:
224,160,71080,1,0,0:0:0:0:
288,160,71251,1,8,0:0:0:0:
224,160,71423,1,0,0:0:0:0:
224,160,71509,1,0,0:0:0:0:
288,160,71594,1,8,0:0:0:0:
288,160,71680,1,8,0:0:0:0:
224,160,71766,1,0,0:0:0:0:
288,160,71937,1,8,0:0:0:0:
224,160,72280,1,0,0:0:0:0:
224,160,72451,1,0,0:0:0:0:
288,160,72623,1,8,0:0:0:0:
224,160,72966,1,0,0:0:0:0:
288,160,73309,1,8,0:0:0:0:
224,224,73651,1,4,0:0:0:0:
288,160,73823,1,8,0:0:0:0:
288,160,73909,1,8,0:0:0:0:
224,160,73994,1,0,0:0:0:0:
224,160,74166,1,0,0:0:0:0:
288,160,74337,1,8,0:0:0:0:
288,160,74680,1,8,0:0:0:0:
288,160,74851,1,8,0:0:0:0:
224,160,74937,1,0,0:0:0:0:
224,160,75023,1,0,0:0:0:0:
224,160,75194,1,0,0:0:0:0:
288,160,75366,1,8,0:0:0:0:
288,160,75451,1,8,0:0:0:0:
224,160,75537,1,0,0:0:0:0:
224,160,75623,1,0,0:0:0:0:
288,160,75709,1,8,0:0:0:0:
224,160,75880,1,0,0:0:0:0:
288,160,76051,1,8,0:0:0:0:
224,160,76223,1,0,0:0:0:0:
288,160,76309,1,8,0:0:0:0:
224,160,76394,1,0,0:0:0:0:
288,160,76737,1,0,0:0:0:0:
224,160,76909,1,0,0:0:0:0:
288,160,77080,1,8,0:0:0:0:
224,160,77251,1,0,0:0:0:0:
288,160,77423,1,8,0:0:0:0:
288,160,77594,1,8,0:0:0:0:
288,160,77680,1,8,0:0:0:0:
224,160,77766,1,0,0:0:0:0:
288,160,77937,1,8,0:0:0:0:
224,160,78023,1,0,0:0:0:0:
288,160,78109,1,8,0:0:0:0:
224,160,78280,1,0,0:0:0:0:
288,160,78451,1,8,0:0:0:0:
224,160,78537,1,0,0:0:0:0:
224,160,78623,1,0,0:0:0:0:
224,160,78709,1,0,0:0:0:0:
288,160,78794,1,8,0:0:0:0:
224,160,79137,1,0,0:0:0:0:
288,160,79480,1,8,0:0:0:0:
224,160,79651,1,0,0:0:0:0:
224,160,79737,1,0,0:0:0:0:
288,160,79823,1,8,0:0:0:0:
224,160,79994,1,0,0:0:0:0:
288,160,80166,1,8,0:0:0:0:
288,160,80337,1,8,0:0:0:0:
288,160,80423,1,8,0:0:0:0:
224,160,80509,1,0,0:0:0:0:
288,160,80594,1,0,0:0:0:0:
224,160,80680,1,0,0:0:0:0:
288,160,80851,1,8,0:0:0:0:
224,160,81023,1,0,0:0:0:0:
224,160,81109,1,0,0:0:0:0:
288,160,81194,1,8,0:0:0:0:
224,160,81366,1,0,0:0:0:0:
288,160,81537,1,8,0:0:0:0:
224,160,81623,1,0,0:0:0:0:
288,160,81709,1,8,0:0:0:0:
288,160,81794,1,8,0:0:0:0:
224,160,81880,1,0,0:0:0:0:
224,160,82051,1,0,0:0:0:0:
288,160,82137,1,0,0:0:0:0:
288,160,82223,1,8,0:0:0:0:
288,160,82480,1,8,0:0:0:0:
224,160,82566,1,0,0:0:0:0:
224,160,82737,1,0,0:0:0:0:
224,160,82823,1,0,0:0:0:0:
288,160,82909,1,8,0:0:0:0:
288,160,83166,1,8,0:0:0:0:
224,160,83251,1,0,0:0:0:0:
224,160,83423,1,0,0:0:0:0:
224,160,83509,1,0,0:0:0:0:
288,160,83594,1,8,0:0:0:0:
224,160,83766,1,0,0:0:0:0:
224,160,83937,1,0,0:0:0:0:
224,160,84023,1,0,0:0:0:0:
224,160,84109,1,0,0:0:0:0:
224,160,84194,1,0,0:0:0:0:
288,224,84280,1,12,0:0:0:0:
224,224,84623,1,4,0:0:0:0:
288,160,84966,1,8,0:0:0:0:
224,160,85137,1,0,0:0:0:0:
288,160,85223,1,8,0:0:0:0:
224,160,85309,1,0,0:0:0:0:
224,160,85394,1,0,0:0:0:0:
288,160,85480,1,8,0:0:0:0:
288,160,85651,1,8,0:0:0:0:
288,160,85823,1,8,0:0:0:0:
288,160,85909,1,8,0:0:0:0:
224,160,85994,1,0,0:0:0:0:
224,160,86166,1,0,0:0:0:0:
224,160,86251,1,0,0:0:0:0:
288,160,86337,1,8,0:0:0:0:
288,160,86509,1,8,0:0:0:0:
224,160,86680,1,0,0:0:0:0:
224,160,86766,1,0,0:0:0:0:
224,160,86851,1,0,0:0:0:0:
224,160,86937,1,0,0:0:0:0:
288,160,87023,1,8,0:0:0:0:
224,160,87194,1,0,0:0:0:0:
288,160,87366,1,8,0:0:0:0:
288,160,87451,1,8,0:0:0:0:
224,160,87537,1,0,0:0:0:0:
288,160,87709,1,8,0:0:0:0:
224,160,87880,1,0,0:0:0:0:
288,160,88051,1,8,0:0:0:0:
224,160,88137,1,0,0:0:0:0:
224,160,88223,1,0,0:0:0:0:
288,160,88394,1,8,0:0:0:0:
224,160,88566,1,0,0:0:0:0:
224,160,88651,1,0,0:0:0:0:
288,160,88737,1,8,0:0:0:0:
288,160,88823,1,8,0:0:0:0:
224,160,88909,1,0,0:0:0:0:
288,160,89080,1,8,0:0:0:0:
224,160,89251,1,0,0:0:0:0:
288,160,89337,1,8,0:0:0:0:
288,160,89509,1,8,0:0:0:0:
224,160,89594,1,0,0:0:0:0:
288,160,89766,1,8,0:0:0:0:
224,160,89937,1,0,0:0:0:0:
288,160,90023,1,8,0:0:0:0:
224,160,90109,1,0,0:0:0:0:
288,160,90451,1,8,0:0:0:0:
224,160,90623,1,0,0:0:0:0:
224,160,90709,1,0,0:0:0:0:
224,160,90794,1,0,0:0:0:0:
288,160,90966,1,8,0:0:0:0:
288,160,91051,1,8,0:0:0:0:
288,160,91137,1,8,0:0:0:0:
288,160,91309,1,8,0:0:0:0:
224,160,91480,1,0,0:0:0:0:
224,160,91651,1,0,0:0:0:0:
224,160,91737,1,0,0:0:0:0:
288,160,91823,1,8,0:0:0:0:
224,160,91994,1,0,0:0:0:0:
288,160,92080,1,8,0:0:0:0:
224,160,92166,1,0,0:0:0:0:
224,160,92251,1,0,0:0:0:0:
224,160,92337,1,0,0:0:0:0:
288,160,92509,1,8,0:0:0:0:
224,160,92680,1,0,0:0:0:0:
224,160,92766,1,0,0:0:0:0:
288,160,92851,1,8,0:0:0:0:
288,160,92937,1,8,0:0:0:0:
288,160,93023,1,8,0:0:0:0:
288,160,93109,1,8,0:0:0:0:
224,160,93194,1,0,0:0:0:0:
288,160,93366,1,8,0:0:0:0:
220,286,93537,2,0,P|331:305|376:201,1,231.000007049561
224,224,94223,1,4,0:0:0:0:
288,160,94394,1,8,0:0:0:0:
288,160,94480,1,8,0:0:0:0:
224,160,94566,1,0,0:0:0:0:
224,160,94651,1,0,0:0:0:0:
288,160,94737,1,8,0:0:0:0:
224,160,94909,1,0,0:0:0:0:
288,160,95080,1,8,0:0:0:0:
288,160,95166,1,8,0:0:0:0:
288,160,95251,1,8,0:0:0:0:
224,160,95423,1,0,0:0:0:0:
224,160,95509,1,0,0:0:0:0:
288,160,95594,1,8,0:0:0:0:
224,160,95766,1,0,0:0:0:0:
288,160,95937,1,8,0:0:0:0:
288,160,96109,1,8,0:0:0:0:
288,160,96194,1,8,0:0:0:0:
224,160,96280,1,0,0:0:0:0:
224,160,96366,1,0,0:0:0:0:
224,160,96451,1,0,0:0:0:0:
288,160,96623,1,8,0:0:0:0:
224,160,96794,1,0,0:0:0:0:
288,160,96966,1,8,0:0:0:0:
224,160,97137,1,0,0:0:0:0:
224,160,97223,1,0,0:0:0:0:
288,160,97309,1,8,0:0:0:0:
288,160,97394,1,8,0:0:0:0:
224,160,97480,1,0,0:0:0:0:
224,160,97651,1,0,0:0:0:0:
224,160,97823,1,0,0:0:0:0:
224,160,97909,1,0,0:0:0:0:
288,160,97994,1,8,0:0:0:0:
224,160,98080,1,0,0:0:0:0:
224,160,98166,1,0,0:0:0:0:
288,160,98337,1,8,0:0:0:0:
224,160,98509,1,0,0:0:0:0:
224,160,98594,1,0,0:0:0:0:
288,160,98680,1,8,0:0:0:0:
224,160,98851,1,0,0:0:0:0:
288,160,98937,1,8,0:0:0:0:
288,160,99109,1,8,0:0:0:0:
224,160,99194,1,0,0:0:0:0:
224,160,99280,1,0,0:0:0:0:
288,160,99366,1,8,0:0:0:0:
288,160,99537,1,8,0:0:0:0:
224,160,99709,1,0,0:0:0:0:
288,160,100051,1,8,0:0:0:0:
224,160,100223,1,0,0:0:0:0:
224,160,100309,1,0,0:0:0:0:
224,160,100394,1,0,0:0:0:0:
288,160,100566,1,8,0:0:0:0:
288,160,100737,1,8,0:0:0:0:
288,160,100823,1,8,0:0:0:0:
224,160,100909,1,0,0:0:0:0:
224,160,100994,1,0,0:0:0:0:
288,160,101080,1,8,0:0:0:0:
224,160,101251,1,0,0:0:0:0:
288,160,101423,1,8,0:0:0:0:
224,160,101509,1,0,0:0:0:0:
288,160,101594,1,8,0:0:0:0:
288,160,101680,1,8,0:0:0:0:
224,160,101766,1,0,0:0:0:0:
224,160,101937,1,0,0:0:0:0:
224,160,102023,1,0,0:0:0:0:
288,160,102109,1,8,0:0:0:0:
224,160,102280,1,0,0:0:0:0:
224,160,102451,1,0,0:0:0:0:
288,160,102537,1,8,0:0:0:0:
224,160,102623,1,0,0:0:0:0:
224,160,102709,1,0,0:0:0:0:
288,160,102794,1,8,0:0:0:0:
288,160,102966,1,8,0:0:0:0:
288,160,103051,1,8,0:0:0:0:
224,160,103137,1,0,0:0:0:0:
288,160,103309,1,8,0:0:0:0:
224,224,103823,1,4,0:0:0:0:
288,160,104166,1,8,0:0:0:0:
224,160,104337,1,0,0:0:0:0:
288,160,104423,1,8,0:0:0:0:
256,160,104509,1,0,0:0:0:0:
288,160,104680,1,8,0:0:0:0:
288,160,104851,1,8,0:0:0:0:
224,160,105023,1,0,0:0:0:0:
224,160,105109,1,0,0:0:0:0:
288,160,105194,1,8,0:0:0:0:
224,160,105366,1,0,0:0:0:0:
288,160,105537,1,8,0:0:0:0:
288,160,105623,1,8,0:0:0:0:
288,160,105709,1,8,0:0:0:0:
288,160,105794,1,8,0:0:0:0:
224,160,105880,1,0,0:0:0:0:
224,160,106051,1,0,0:0:0:0:
288,160,106223,1,8,0:0:0:0:
288,160,106394,1,8,0:0:0:0:
224,160,106566,1,0,0:0:0:0:
224,160,106651,1,0,0:0:0:0:
288,160,106737,1,8,0:0:0:0:
224,160,106909,1,0,0:0:0:0:
288,160,107080,1,8,0:0:0:0:
288,160,107166,1,8,0:0:0:0:
224,160,107251,1,0,0:0:0:0:
224,160,107337,1,0,0:0:0:0:
288,160,107423,1,8,0:0:0:0:
224,160,107594,1,0,0:0:0:0:
288,160,107766,1,8,0:0:0:0:
224,160,107851,1,0,0:0:0:0:
224,160,107937,1,0,0:0:0:0:
224,160,108023,1,0,0:0:0:0:
288,160,108109,1,8,0:0:0:0:
288,160,108280,1,8,0:0:0:0:
224,160,108451,1,0,0:0:0:0:
288,160,108537,1,8,0:0:0:0:
288,160,108709,1,8,0:0:0:0:
224,160,108794,1,0,0:0:0:0:
224,160,108880,1,0,0:0:0:0:
288,160,108966,1,8,0:0:0:0:
288,160,109137,1,8,0:0:0:0:
224,160,109309,1,0,0:0:0:0:
288,160,109651,1,8,0:0:0:0:
224,160,109823,1,0,0:0:0:0:
224,160,109909,1,0,0:0:0:0:
224,160,109994,1,0,0:0:0:0:
224,160,110080,1,0,0:0:0:0:
288,160,110166,1,8,0:0:0:0:
288,160,110337,1,8,0:0:0:0:
224,160,110509,1,0,0:0:0:0:
288,160,110594,1,8,0:0:0:0:
224,160,110680,1,0,0:0:0:0:
224,160,110851,1,0,0:0:0:0:
224,160,110937,1,0,0:0:0:0:
288,160,111023,1,8,0:0:0:0:
288,160,111194,1,8,0:0:0:0:
224,160,111366,1,0,0:0:0:0:
224,160,111451,1,0,0:0:0:0:
288,160,111537,1,8,0:0:0:0:
224,160,111623,1,0,0:0:0:0:
288,160,111709,1,8,0:0:0:0:
224,160,111880,1,0,0:0:0:0:
224,160,112051,1,0,0:0:0:0:
224,160,112137,1,0,0:0:0:0:
288,160,112223,1,8,0:0:0:0:
288,160,112394,1,8,0:0:0:0:
288,160,112566,1,8,0:0:0:0:
292,98,112737,2,0,P|181:79|136:183,1,231.000007049561
224,224,113423,1,4,0:0:0:0:
288,160,113594,1,8,0:0:0:0:
288,160,113680,1,8,0:0:0:0:
288,160,113766,1,8,0:0:0:0:
288,160,113851,1,8,0:0:0:0:
224,160,113937,1,0,0:0:0:0:
224,160,114109,1,0,0:0:0:0:
224,160,114194,1,0,0:0:0:0:
288,160,114280,1,8,0:0:0:0:
288,160,114451,1,8,0:0:0:0:
224,160,114623,1,0,0:0:0:0:
288,160,114794,1,8,0:0:0:0:
224,160,114966,1,0,0:0:0:0:
224,160,115051,1,0,0:0:0:0:
288,160,115137,1,8,0:0:0:0:
224,160,115223,1,0,0:0:0:0:
288,160,115309,1,8,0:0:0:0:
288,160,115394,1,8,0:0:0:0:
224,160,115480,1,0,0:0:0:0:
224,160,115651,1,0,0:0:0:0:
288,160,115823,1,8,0:0:0:0:
224,160,115994,1,0,0:0:0:0:
288,160,116080,1,8,0:0:0:0:
224,160,116166,1,0,0:0:0:0:
224,160,116251,1,0,0:0:0:0:
288,160,116337,1,8,0:0:0:0:
224,160,116509,1,0,0:0:0:0:
288,160,116680,1,8,0:0:0:0:
288,160,116766,1,8,0:0:0:0:
224,160,116851,1,0,0:0:0:0:
224,160,116937,1,0,0:0:0:0:
288,160,117023,1,8,0:0:0:0:
224,160,117194,1,0,0:0:0:0:
288,160,117366,1,8,0:0:0:0:
224,160,117451,1,0,0:0:0:0:
288,160,117537,1,8,0:0:0:0:
288,160,117623,1,8,0:0:0:0:
224,160,117709,1,0,0:0:0:0:
288,160,117880,1,8,0:0:0:0:
224,160,117966,1,0,0:0:0:0:
224,160,118051,1,0,0:0:0:0:
288,160,118137,1,8,0:0:0:0:
288,160,118309,1,8,0:0:0:0:
224,160,118394,1,0,0:0:0:0:
288,160,118566,1,8,0:0:0:0:
224,160,118737,1,0,0:0:0:0:
288,160,118823,1,8,0:0:0:0:
224,160,118909,1,0,0:0:0:0:
288,160,119251,1,8,0:0:0:0:
224,160,119423,1,0,0:0:0:0:
288,160,119509,1,8,0:0:0:0:
224,160,119594,1,0,0:0:0:0:
288,160,119766,1,8,0:0:0:0:
288,160,119851,1,8,0:0:0:0:
288,160,119937,1,8,0:0:0:0:
224,160,120109,1,0,0:0:0:0:
224,160,120194,1,0,0:0:0:0:
288,160,120280,1,8,0:0:0:0:
224,160,120451,1,0,0:0:0:0:
224,160,120537,1,0,0:0:0:0:
288,160,120623,1,8,0:0:0:0:
224,160,120709,1,0,0:0:0:0:
288,160,120794,1,8,0:0:0:0:
288,160,120880,1,8,0:0:0:0:
224,160,120966,1,0,0:0:0:0:
224,160,121137,1,0,0:0:0:0:
224,160,121223,1,0,0:0:0:0:
288,160,121309,1,8,0:0:0:0:
288,160,121394,1,8,0:0:0:0:
224,160,121480,1,0,0:0:0:0:
224,224,121651,1,4,0:0:0:0:
