osu file format v14

[General]
AudioFilename: audio.mp3
AudioLeadIn: 0
PreviewTime: 25480
Countdown: 1
SampleSet: Normal
StackLeniency: 0.7
Mode: 1
LetterboxInBreaks: 0
WidescreenStoryboard: 1

[Editor]
DistanceSpacing: 0.8
BeatDivisor: 4
GridSize: 16
TimelineZoom: 1.2

[Metadata]
Title:Vezde plyashu
TitleUnicode:Везде пляшу
Artist:Neuromonakh Feofan
ArtistUnicode:Нейромонах Феофан
Creator:Nepuri
Version:Bezumnyy
Source:
Tags:Велики силы добра Veliki sily dobra Russian Folk Drum and Bass 'n' DnB Neurofeofan Greenshell
BeatmapID:1468657
BeatmapSetID:694154

[Difficulty]
HPDrainRate:5
CircleSize:5
OverallDifficulty:5.5
ApproachRate:5
SliderMultiplier:1.4
SliderTickRate:1

[Events]
//Background and Video events
0,0,"Neuromonakh.png",0,70
//Break Periods
//Storyboard Layer 0 (Background)
//Storyboard Layer 1 (Fail)
//Storyboard Layer 2 (Pass)
//Storyboard Layer 3 (Foreground)
//Storyboard Sound Samples

[TimingPoints]
3709,342.857142857143,4,1,0,100,1,0
5080,-90.9090909090909,4,1,0,100,0,0
5166,-100,4,1,0,100,0,0
23080,-99.009900990099,4,1,0,100,0,0
23251,-98.0392156862745,4,1,0,100,0,0
23594,-96.1538461538461,4,1,0,100,0,0
23766,-95.2380952380952,4,1,0,100,0,0
23937,-94.3396226415094,4,1,0,100,0,0
24280,-92.5925925925926,4,1,0,100,0,0
24451,-91.743119266055,4,1,0,100,0,0
24537,-91.324200913242,4,1,0,100,0,0
24623,-90.9090909090909,4,1,0,100,0,0
24794,-90.0900900900901,4,1,0,100,0,0
24966,-89.2857142857143,4,1,0,100,0,0
25051,-88.8888888888889,4,1,0,100,0,0
25137,-88.4955752212389,4,1,0,100,0,0
25223,-88.1057268722467,4,1,0,100,0,0
25309,-87.719298245614,4,1,0,100,0,0
25651,-83.3333333333333,4,1,0,100,0,1
25823,-90.9090909090909,4,1,0,100,0,1
35251,-83.3333333333333,4,1,0,100,0,1
35337,-90.9090909090909,4,1,0,100,0,1
44337,-95.2380952380952,4,1,0,100,0,1
44851,-83.3333333333333,4,1,0,100,0,1
44937,-90.9090909090909,4,1,0,100,0,1
54451,-83.3333333333333,4,1,0,100,0,1
54537,-90.9090909090909,4,1,0,100,0,1
64051,-90.9090909090909,4,1,0,100,0,0
64137,-100,4,1,0,100,0,0
82051,-99.009900990099,4,1,0,100,0,0
82222,-98.0392156862745,4,1,0,100,0,0
82565,-96.1538461538461,4,1,0,100,0,0
82737,-95.2380952380952,4,1,0,100,0,0
82908,-94.3396226415094,4,1,0,100,0,0
83251,-92.5925925925926,4,1,0,100,0,0
83422,-91.743119266055,4,1,0,100,0,0
83508,-91.324200913242,4,1,0,100,0,0
83594,-90.9090909090909,4,1,0,100,0,0
83765,-90.0900900900901,4,1,0,100,0,0
83937,-89.2857142857143,4,1,0,100,0,0
84022,-88.8888888888889,4,1,0,100,0,0
84108,-88.4955752212389,4,1,0,100,0,0
84194,-88.1057268722467,4,1,0,100,0,0
84280,-87.719298245614,4,1,0,100,0,0
84623,-83.3333333333333,4,1,0,100,0,1
84794,-90.9090909090909,4,1,0,100,0,1
94223,-83.3333333333333,4,1,0,100,0,1
94309,-90.9090909090909,4,1,0,100,0,1
103309,-95.2380952380952,4,1,0,100,0,1
103823,-83.3333333333333,4,1,0,100,0,1
103909,-90.9090909090909,4,1,0,100,0,1
113423,-83.3333333333333,4,1,0,100,0,1
113509,-90.9090909090909,4,1,0,100,0,1
121651,-80,4,1,0,100,0,0

[HitObjects]
208,96,5080,5,4,0:0:0:0:
208,96,5594,1,0,0:0:0:0:
208,96,5766,1,8,0:0:0:0:
368,176,6109,1,8,0:0:0:0:
208,208,6280,1,0,0:0:0:0:
208,208,6451,1,8,0:0:0:0:
208,208,6623,1,8,0:0:0:0:
208,208,6794,1,0,0:0:0:0:
208,208,6966,1,0,0:0:0:0:
208,208,7137,1,8,0:0:0:0:
208,208,7480,1,8,0:0:0:0:
208,224,7651,1,8,0:0:0:0:
208,224,7823,1,0,0:0:0:0:
208,224,8166,1,0,0:0:0:0:
208,224,8337,1,0,0:0:0:0:
208,224,8509,1,8,0:0:0:0:
208,224,8851,1,0,0:0:0:0:
208,224,9023,1,0,0:0:0:0:
208,224,9194,1,8,0:0:0:0:
176,160,9537,1,8,0:0:0:0:
176,160,9709,1,0,0:0:0:0:
176,160,9880,1,8,0:0:0:0:
176,176,10223,1,8,0:0:0:0:
176,176,10394,1,0,0:0:0:0:
128,176,10480,1,0,0:0:0:0:
176,192,10566,1,8,0:0:0:0:
160,160,11080,1,0,0:0:0:0:
176,160,11251,1,8,0:0:0:0:
176,160,11594,1,8,0:0:0:0:
176,160,11766,1,0,0:0:0:0:
176,160,11937,1,8,0:0:0:0:
176,160,12109,1,8,0:0:0:0:
160,176,12280,1,0,0:0:0:0:
160,176,12451,1,0,0:0:0:0:
160,176,12623,1,8,0:0:0:0:
176,176,12966,1,0,0:0:0:0:
160,176,13137,1,8,0:0:0:0:
368,112,13223,1,0,0:0:0:0:
160,176,13309,1,0,0:0:0:0:
176,176,13651,1,0,0:0:0:0:
176,176,13994,1,8,0:0:0:0:
96,160,14680,1,4,0:0:0:0:
144,192,15194,1,0,0:0:0:0:
144,192,15366,1,8,0:0:0:0:
144,192,15709,1,8,0:0:0:0:
144,192,15880,1,0,0:0:0:0:
144,192,16051,1,8,0:0:0:0:
144,192,16223,1,0,0:0:0:0:
144,192,16394,1,0,0:0:0:0:
144,208,16566,1,0,0:0:0:0:
224,112,16651,1,0,0:0:0:0:
144,208,16737,1,8,0:0:0:0:
224,112,17080,1,8,0:0:0:0:
224,112,17251,1,8,0:0:0:0:
320,96,17337,1,0,0:0:0:0:
224,112,17423,1,0,0:0:0:0:
256,160,17766,1,0,0:0:0:0:
256,160,18109,1,8,0:0:0:0:
256,160,18451,1,0,0:0:0:0:
256,160,18623,1,0,0:0:0:0:
256,160,18794,1,8,0:0:0:0:
256,96,19137,1,0,0:0:0:0:
256,96,19309,1,0,0:0:0:0:
256,96,19480,1,8,0:0:0:0:
256,96,19823,1,0,0:0:0:0:
256,112,19994,1,0,0:0:0:0:
240,112,20080,1,0,0:0:0:0:
256,112,20166,1,8,0:0:0:0:
160,112,20680,1,0,0:0:0:0:
160,112,20851,1,8,0:0:0:0:
160,112,21194,1,8,0:0:0:0:
160,112,21366,1,0,0:0:0:0:
160,112,21537,1,8,0:0:0:0:
192,128,21709,1,8,0:0:0:0:
192,128,21880,1,0,0:0:0:0:
192,128,22051,1,0,0:0:0:0:
192,160,22137,1,0,0:0:0:0:
192,128,22223,1,8,0:0:0:0:
192,128,22566,1,8,0:0:0:0:
192,128,22909,1,0,0:0:0:0:
224,128,23080,1,0,0:0:0:0:
224,128,23251,1,8,0:0:0:0:
224,128,23594,1,0,0:0:0:0:
224,144,23766,1,0,0:0:0:0:
224,144,23937,1,8,0:0:0:0:
160,144,24280,1,0,0:0:0:0:
160,144,24451,1,0,0:0:0:0:
208,64,24537,1,0,0:0:0:0:
160,144,24623,1,8,0:0:0:0:
160,144,24794,1,0,0:0:0:0:
160,144,24966,1,0,0:0:0:0:
208,32,25051,1,0,0:0:0:0:
160,144,25137,1,0,0:0:0:0:
192,32,25223,1,0,0:0:0:0:
160,144,25309,1,8,0:0:0:0:
96,128,25651,1,4,0:0:0:0:
176,112,25994,1,8,0:0:0:0:
176,112,26337,1,0,0:0:0:0:
176,112,26509,1,0,0:0:0:0:
192,160,26594,1,0,0:0:0:0:
176,112,26680,1,8,0:0:0:0:
176,144,27023,1,8,0:0:0:0:
320,256,27194,1,0,0:0:0:0:
320,256,27280,1,0,0:0:0:0:
320,256,27366,1,8,0:0:0:0:
320,240,27537,1,0,0:0:0:0:
320,240,27709,1,8,0:0:0:0:
320,240,27794,1,0,0:0:0:0:
320,240,27966,1,0,0:0:0:0:
320,240,28051,1,8,0:0:0:0:
320,240,28223,1,0,0:0:0:0:
320,240,28394,1,8,0:0:0:0:
192,144,28480,1,0,0:0:0:0:
240,224,28566,1,0,0:0:0:0:
176,32,28737,1,8,0:0:0:0:
176,32,28909,1,0,0:0:0:0:
160,32,29080,1,0,0:0:0:0:
160,192,29166,1,0,0:0:0:0:
160,32,29251,1,0,0:0:0:0:
144,16,29423,1,8,0:0:0:0:
400,208,29766,1,0,0:0:0:0:
400,208,29937,1,0,0:0:0:0:
384,208,30023,1,0,0:0:0:0:
384,208,30109,1,8,0:0:0:0:
256,160,30280,1,0,0:0:0:0:
256,160,30451,1,0,0:0:0:0:
240,144,30537,1,8,0:0:0:0:
224,144,30623,1,0,0:0:0:0:
224,144,30794,1,8,0:0:0:0:
256,128,30966,1,8,0:0:0:0:
240,144,31051,1,8,0:0:0:0:
192,64,31137,1,0,0:0:0:0:
128,256,31480,1,8,0:0:0:0:
128,256,31651,1,0,0:0:0:0:
128,256,31823,1,0,0:0:0:0:
144,160,31994,1,0,0:0:0:0:
192,160,32166,1,8,0:0:0:0:
192,160,32509,1,0,0:0:0:0:
192,160,32680,1,0,0:0:0:0:
352,192,32766,1,0,0:0:0:0:
352,192,32851,1,8,0:0:0:0:
384,192,33023,1,0,0:0:0:0:
384,192,33194,1,0,0:0:0:0:
160,32,33280,1,8,0:0:0:0:
384,192,33366,1,0,0:0:0:0:
320,64,33537,1,8,0:0:0:0:
192,128,33709,1,0,0:0:0:0:
192,128,33880,1,8,0:0:0:0:
128,32,33966,1,8,0:0:0:0:
192,128,34051,1,0,0:0:0:0:
192,128,34223,1,8,0:0:0:0:
192,128,34394,1,8,0:0:0:0:
192,128,34566,1,0,0:0:0:0:
192,128,35251,1,4,0:0:0:0:
192,144,35594,1,8,0:0:0:0:
192,144,35937,1,0,0:0:0:0:
192,144,36023,1,0,0:0:0:0:
176,144,36109,1,0,0:0:0:0:
144,64,36280,1,8,0:0:0:0:
256,224,36623,1,0,0:0:0:0:
256,240,36794,1,0,0:0:0:0:
240,240,36880,1,0,0:0:0:0:
256,176,36966,1,8,0:0:0:0:
304,224,37137,1,0,0:0:0:0:
320,224,37309,1,0,0:0:0:0:
320,224,37394,1,8,0:0:0:0:
304,192,37480,1,0,0:0:0:0:
304,192,37651,1,8,0:0:0:0:
247,192,37823,1,0,0:0:0:0:
288,112,37994,1,0,0:0:0:0:
272,176,38166,1,0,0:0:0:0:
258,154,38251,1,0,0:0:0:0:
128,32,38337,1,8,0:0:0:0:
163,45,38509,1,0,0:0:0:0:
160,80,38680,1,0,0:0:0:0:
186,95,38766,1,8,0:0:0:0:
176,80,38851,1,0,0:0:0:0:
208,176,39023,1,8,0:0:0:0:
240,192,39366,1,0,0:0:0:0:
240,192,39537,1,0,0:0:0:0:
234,169,39623,1,0,0:0:0:0:
240,176,39709,1,8,0:0:0:0:
192,192,39880,1,0,0:0:0:0:
192,192,40051,1,0,0:0:0:0:
192,192,40137,1,8,0:0:0:0:
144,80,40223,1,0,0:0:0:0:
112,64,40394,1,8,0:0:0:0:
64,144,40566,1,8,0:0:0:0:
256,208,40651,1,8,0:0:0:0:
96,144,40737,1,0,0:0:0:0:
128,176,40909,1,0,0:0:0:0:
128,176,41080,1,8,0:0:0:0:
240,96,41423,1,0,0:0:0:0:
240,96,41594,1,0,0:0:0:0:
240,96,41680,1,0,0:0:0:0:
176,64,41766,1,8,0:0:0:0:
192,192,41937,1,0,0:0:0:0:
192,192,42109,1,8,0:0:0:0:
192,192,42194,1,0,0:0:0:0:
192,192,42366,1,0,0:0:0:0:
192,192,42451,1,8,0:0:0:0:
160,160,42623,1,0,0:0:0:0:
224,192,42794,1,0,0:0:0:0:
144,176,42880,1,0,0:0:0:0:
224,192,42966,1,0,0:0:0:0:
224,192,43137,1,8,0:0:0:0:
224,192,43309,1,0,0:0:0:0:
224,192,43394,1,0,0:0:0:0:
224,192,43480,1,8,0:0:0:0:
144,112,43651,1,0,0:0:0:0:
144,112,43823,1,8,0:0:0:0:
176,144,44337,1,8,0:0:0:0:
160,96,44851,1,4,0:0:0:0:
192,208,45194,1,8,0:0:0:0:
112,112,45537,1,0,0:0:0:0:
112,112,45709,1,0,0:0:0:0:
112,96,45880,1,8,0:0:0:0:
256,112,46051,1,8,0:0:0:0:
208,96,46137,1,8,0:0:0:0:
256,112,46223,1,0,0:0:0:0:
256,96,46566,1,8,0:0:0:0:
256,96,46737,1,0,0:0:0:0:
256,96,46909,1,8,0:0:0:0:
240,80,46994,1,0,0:0:0:0:
240,80,47166,1,0,0:0:0:0:
240,80,47251,1,8,0:0:0:0:
208,80,47423,1,8,0:0:0:0:
192,144,47594,1,0,0:0:0:0:
192,160,47766,1,0,0:0:0:0:
192,160,47851,1,0,0:0:0:0:
192,160,47937,1,8,0:0:0:0:
224,176,48109,1,0,0:0:0:0:
224,176,48280,1,0,0:0:0:0:
160,160,48366,1,8,0:0:0:0:
160,160,48451,1,0,0:0:0:0:
16,128,48623,1,8,0:0:0:0:
112,128,48966,1,0,0:0:0:0:
112,128,49137,1,0,0:0:0:0:
112,128,49223,1,0,0:0:0:0:
112,128,49309,1,8,0:0:0:0:
96,144,49480,1,0,0:0:0:0:
96,144,49651,1,0,0:0:0:0:
96,144,49737,1,8,0:0:0:0:
96,144,49823,1,0,0:0:0:0:
96,144,49994,1,8,0:0:0:0:
64,112,50166,1,8,0:0:0:0:
48,112,50251,1,8,0:0:0:0:
64,112,50337,1,0,0:0:0:0:
256,80,50509,1,0,0:0:0:0:
192,80,50680,1,8,0:0:0:0:
224,144,51023,1,0,0:0:0:0:
224,80,51194,1,0,0:0:0:0:
272,208,51366,1,8,0:0:0:0:
256,176,51537,1,0,0:0:0:0:
256,176,51623,1,0,0:0:0:0:
256,176,51709,1,8,0:0:0:0:
192,144,51880,1,0,0:0:0:0:
192,144,52051,1,8,0:0:0:0:
160,176,52137,1,0,0:0:0:0:
160,176,52309,1,0,0:0:0:0:
160,176,52394,1,8,0:0:0:0:
176,160,52566,1,0,0:0:0:0:
176,160,52737,1,8,0:0:0:0:
144,128,52909,1,0,0:0:0:0:
144,128,53080,1,8,0:0:0:0:
160,144,53166,1,8,0:0:0:0:
160,144,53251,1,0,0:0:0:0:
160,144,53423,1,8,0:0:0:0:
160,144,53594,1,8,0:0:0:0:
160,144,53766,1,0,0:0:0:0:
256,192,54451,1,4,0:0:0:0:
352,224,54794,1,8,0:0:0:0:
320,128,55137,1,0,0:0:0:0:
320,128,55309,1,0,0:0:0:0:
320,128,55480,1,8,0:0:0:0:
208,144,55823,1,0,0:0:0:0:
208,144,55994,1,0,0:0:0:0:
208,144,56080,1,0,0:0:0:0:
176,80,56166,1,8,0:0:0:0:
176,80,56337,1,0,0:0:0:0:
176,80,56509,1,8,0:0:0:0:
128,112,56594,1,8,0:0:0:0:
176,80,56680,1,0,0:0:0:0:
128,112,56851,1,8,0:0:0:0:
160,96,57023,1,0,0:0:0:0:
160,96,57194,1,0,0:0:0:0:
176,48,57280,1,0,0:0:0:0:
160,96,57366,1,0,0:0:0:0:
64,192,57537,1,8,0:0:0:0:
64,192,57709,1,0,0:0:0:0:
96,80,57880,1,0,0:0:0:0:
192,16,57966,5,8,0:0:0:0:
192,16,58051,1,0,0:0:0:0:
96,80,58223,1,8,0:0:0:0:
160,128,58566,1,0,0:0:0:0:
160,128,58737,1,0,0:0:0:0:
224,160,58823,1,0,0:0:0:0:
160,192,58909,1,8,0:0:0:0:
160,192,59080,1,0,0:0:0:0:
176,32,59166,1,0,0:0:0:0:
160,192,59337,1,0,0:0:0:0:
160,192,59423,1,0,0:0:0:0:
160,192,59594,1,8,0:0:0:0:
96,192,59766,1,8,0:0:0:0:
224,144,59851,1,8,0:0:0:0:
176,160,59937,1,0,0:0:0:0:
304,192,60280,1,8,0:0:0:0:
256,240,60623,1,0,0:0:0:0:
192,112,60709,1,0,0:0:0:0:
256,240,60794,1,0,0:0:0:0:
256,240,60966,1,8,0:0:0:0:
368,192,61137,1,0,0:0:0:0:
192,128,61309,1,8,0:0:0:0:
192,128,61394,1,0,0:0:0:0:
192,128,61566,1,0,0:0:0:0:
192,128,61651,1,8,0:0:0:0:
192,64,61823,1,0,0:0:0:0:
192,64,61994,1,0,0:0:0:0:
192,64,62166,1,0,0:0:0:0:
128,144,62251,1,0,0:0:0:0:
144,144,62337,1,8,0:0:0:0:
192,128,62509,1,8,0:0:0:0:
192,128,62680,1,0,0:0:0:0:
256,192,62851,12,0,63880,0:0:0:0:
176,176,64051,5,4,0:0:0:0:
208,96,64566,1,0,0:0:0:0:
208,96,64737,1,8,0:0:0:0:
368,176,65080,1,8,0:0:0:0:
208,208,65251,1,0,0:0:0:0:
208,208,65423,1,8,0:0:0:0:
208,208,65594,1,8,0:0:0:0:
208,208,65766,1,0,0:0:0:0:
208,208,65937,1,0,0:0:0:0:
208,208,66109,1,8,0:0:0:0:
208,208,66451,1,8,0:0:0:0:
208,224,66623,1,8,0:0:0:0:
208,224,66794,1,0,0:0:0:0:
208,224,67137,1,0,0:0:0:0:
208,224,67309,1,0,0:0:0:0:
208,224,67480,1,8,0:0:0:0:
208,224,67823,1,0,0:0:0:0:
208,224,67994,1,0,0:0:0:0:
208,224,68166,1,8,0:0:0:0:
176,160,68509,1,8,0:0:0:0:
176,160,68680,1,0,0:0:0:0:
176,160,68851,1,8,0:0:0:0:
224,208,69023,1,0,0:0:0:0:
176,176,69194,1,8,0:0:0:0:
176,176,69366,1,0,0:0:0:0:
128,176,69451,1,0,0:0:0:0:
176,192,69537,1,8,0:0:0:0:
160,160,70051,1,0,0:0:0:0:
176,160,70223,1,8,0:0:0:0:
176,160,70566,1,8,0:0:0:0:
176,160,70737,1,0,0:0:0:0:
176,160,70909,1,8,0:0:0:0:
176,160,71080,1,8,0:0:0:0:
160,176,71251,1,0,0:0:0:0:
160,176,71423,1,0,0:0:0:0:
160,176,71594,1,8,0:0:0:0:
176,176,71937,1,0,0:0:0:0:
160,176,72109,1,8,0:0:0:0:
368,112,72194,1,0,0:0:0:0:
160,176,72280,1,0,0:0:0:0:
176,176,72623,1,0,0:0:0:0:
272,128,72794,1,0,0:0:0:0:
176,176,72966,1,8,0:0:0:0:
96,160,73651,1,4,0:0:0:0:
144,192,74166,1,0,0:0:0:0:
144,192,74337,1,8,0:0:0:0:
144,192,74680,1,8,0:0:0:0:
144,192,74851,1,0,0:0:0:0:
144,192,75023,1,8,0:0:0:0:
144,192,75194,1,0,0:0:0:0:
144,192,75366,1,0,0:0:0:0:
144,208,75537,1,0,0:0:0:0:
224,112,75623,1,0,0:0:0:0:
144,208,75709,1,8,0:0:0:0:
224,112,76051,1,8,0:0:0:0:
224,112,76223,1,8,0:0:0:0:
320,96,76309,1,0,0:0:0:0:
224,112,76394,1,0,0:0:0:0:
256,160,76737,1,0,0:0:0:0:
256,160,77080,1,8,0:0:0:0:
256,160,77423,1,0,0:0:0:0:
256,160,77594,1,0,0:0:0:0:
256,160,77766,1,8,0:0:0:0:
256,96,78109,1,0,0:0:0:0:
256,96,78280,1,0,0:0:0:0:
256,96,78451,1,8,0:0:0:0:
272,144,78623,1,0,0:0:0:0:
256,96,78794,1,0,0:0:0:0:
256,112,78966,1,0,0:0:0:0:
240,112,79051,1,0,0:0:0:0:
256,112,79137,1,8,0:0:0:0:
160,112,79651,1,0,0:0:0:0:
160,112,79823,1,8,0:0:0:0:
160,112,80166,1,8,0:0:0:0:
160,112,80337,1,0,0:0:0:0:
160,112,80509,1,8,0:0:0:0:
192,128,80680,1,8,0:0:0:0:
192,128,80851,1,0,0:0:0:0:
192,128,81023,1,0,0:0:0:0:
192,160,81109,1,0,0:0:0:0:
192,128,81194,1,8,0:0:0:0:
192,128,81537,1,8,0:0:0:0:
192,128,81880,1,0,0:0:0:0:
400,64,82051,1,0,0:0:0:0:
224,128,82223,1,8,0:0:0:0:
224,128,82566,1,0,0:0:0:0:
224,144,82737,1,0,0:0:0:0:
224,144,82909,1,8,0:0:0:0:
160,144,83251,1,0,0:0:0:0:
160,144,83423,1,0,0:0:0:0:
208,64,83509,1,0,0:0:0:0:
160,144,83594,1,8,0:0:0:0:
160,144,83766,1,0,0:0:0:0:
160,144,83937,1,0,0:0:0:0:
208,32,84023,1,0,0:0:0:0:
160,144,84109,1,0,0:0:0:0:
192,32,84194,1,0,0:0:0:0:
160,144,84280,1,8,0:0:0:0:
96,128,84623,1,4,0:0:0:0:
215,97,84966,1,8,0:0:0:0:
215,97,85309,1,0,0:0:0:0:
215,97,85481,1,0,0:0:0:0:
231,145,85566,1,0,0:0:0:0:
215,97,85652,1,8,0:0:0:0:
215,129,85995,1,8,0:0:0:0:
359,241,86166,1,0,0:0:0:0:
359,241,86252,1,0,0:0:0:0:
359,241,86338,1,8,0:0:0:0:
359,225,86509,1,0,0:0:0:0:
359,225,86681,1,8,0:0:0:0:
359,225,86766,1,0,0:0:0:0:
359,225,86938,1,0,0:0:0:0:
359,225,87023,1,8,0:0:0:0:
359,225,87195,1,0,0:0:0:0:
359,225,87366,1,8,0:0:0:0:
231,129,87452,1,0,0:0:0:0:
279,209,87538,1,0,0:0:0:0:
215,17,87709,1,8,0:0:0:0:
215,17,87881,1,0,0:0:0:0:
199,17,88052,1,0,0:0:0:0:
199,177,88138,1,0,0:0:0:0:
199,17,88223,1,0,0:0:0:0:
183,1,88395,1,8,0:0:0:0:
439,193,88738,1,0,0:0:0:0:
439,193,88909,1,0,0:0:0:0:
423,193,88995,1,0,0:0:0:0:
423,193,89081,1,8,0:0:0:0:
295,145,89252,1,0,0:0:0:0:
295,145,89423,1,0,0:0:0:0:
279,129,89509,1,8,0:0:0:0:
263,129,89595,1,0,0:0:0:0:
263,129,89766,1,8,0:0:0:0:
295,113,89938,1,8,0:0:0:0:
279,129,90023,1,8,0:0:0:0:
231,49,90109,1,0,0:0:0:0:
167,241,90452,1,8,0:0:0:0:
167,241,90623,1,0,0:0:0:0:
167,241,90795,1,0,0:0:0:0:
183,145,90966,1,0,0:0:0:0:
231,145,91138,1,8,0:0:0:0:
231,145,91481,1,0,0:0:0:0:
231,145,91652,1,0,0:0:0:0:
391,177,91738,1,0,0:0:0:0:
391,177,91823,1,8,0:0:0:0:
423,177,91995,1,0,0:0:0:0:
423,177,92166,1,0,0:0:0:0:
199,17,92252,1,8,0:0:0:0:
423,177,92338,1,0,0:0:0:0:
359,49,92509,1,8,0:0:0:0:
231,113,92681,1,0,0:0:0:0:
231,113,92852,1,8,0:0:0:0:
167,17,92938,1,8,0:0:0:0:
231,113,93023,1,0,0:0:0:0:
231,113,93195,1,8,0:0:0:0:
231,113,93366,1,8,0:0:0:0:
231,113,93538,1,0,0:0:0:0:
231,113,94223,1,4,0:0:0:0:
231,129,94566,1,8,0:0:0:0:
231,129,94909,1,0,0:0:0:0:
231,129,94995,1,0,0:0:0:0:
215,129,95081,1,0,0:0:0:0:
183,49,95252,1,8,0:0:0:0:
295,209,95595,1,0,0:0:0:0:
295,225,95766,1,0,0:0:0:0:
279,225,95852,1,0,0:0:0:0:
295,161,95938,1,8,0:0:0:0:
343,209,96109,1,0,0:0:0:0:
359,209,96281,1,0,0:0:0:0:
359,209,96366,1,8,0:0:0:0:
343,177,96452,1,0,0:0:0:0:
343,177,96623,1,8,0:0:0:0:
286,177,96795,1,0,0:0:0:0:
327,97,96966,1,0,0:0:0:0:
311,161,97138,1,0,0:0:0:0:
297,139,97223,1,0,0:0:0:0:
167,17,97309,1,8,0:0:0:0:
202,30,97481,1,0,0:0:0:0:
199,65,97652,1,0,0:0:0:0:
225,80,97738,1,8,0:0:0:0:
215,65,97823,1,0,0:0:0:0:
247,161,97995,1,8,0:0:0:0:
279,177,98338,1,0,0:0:0:0:
279,177,98509,1,0,0:0:0:0:
273,154,98595,1,0,0:0:0:0:
279,161,98681,1,8,0:0:0:0:
231,177,98852,1,0,0:0:0:0:
231,177,99023,1,0,0:0:0:0:
231,177,99109,1,8,0:0:0:0:
183,65,99195,1,0,0:0:0:0:
151,49,99366,1,8,0:0:0:0:
103,129,99538,1,8,0:0:0:0:
295,193,99623,1,8,0:0:0:0:
135,129,99709,1,0,0:0:0:0:
167,161,99881,1,0,0:0:0:0:
167,161,100052,1,8,0:0:0:0:
279,81,100395,1,0,0:0:0:0:
279,81,100566,1,0,0:0:0:0:
279,81,100652,1,0,0:0:0:0:
215,49,100738,1,8,0:0:0:0:
231,177,100909,1,0,0:0:0:0:
231,177,101081,1,8,0:0:0:0:
231,177,101166,1,0,0:0:0:0:
231,177,101338,1,0,0:0:0:0:
231,177,101423,1,8,0:0:0:0:
199,145,101595,1,0,0:0:0:0:
263,177,101766,1,0,0:0:0:0:
183,161,101852,1,0,0:0:0:0:
263,177,101938,1,0,0:0:0:0:
263,177,102109,1,8,0:0:0:0:
263,177,102281,1,0,0:0:0:0:
263,177,102366,1,0,0:0:0:0:
263,177,102452,1,8,0:0:0:0:
183,97,102623,1,0,0:0:0:0:
183,97,102795,1,8,0:0:0:0:
215,129,103309,1,8,0:0:0:0:
199,81,103823,1,4,0:0:0:0:
231,193,104166,1,8,0:0:0:0:
151,97,104509,1,0,0:0:0:0:
151,97,104681,1,0,0:0:0:0:
151,81,104852,1,8,0:0:0:0:
295,97,105023,1,8,0:0:0:0:
247,81,105109,1,8,0:0:0:0:
295,97,105195,1,0,0:0:0:0:
295,81,105538,1,8,0:0:0:0:
295,81,105709,1,0,0:0:0:0:
295,81,105881,1,8,0:0:0:0:
279,65,105966,1,0,0:0:0:0:
279,65,106138,1,0,0:0:0:0:
279,65,106223,1,8,0:0:0:0:
247,65,106395,1,8,0:0:0:0:
231,129,106566,1,0,0:0:0:0:
231,145,106738,1,0,0:0:0:0:
231,145,106823,1,0,0:0:0:0:
231,145,106909,1,8,0:0:0:0:
263,161,107081,1,0,0:0:0:0:
263,161,107252,1,0,0:0:0:0:
199,145,107338,1,8,0:0:0:0:
199,145,107423,1,0,0:0:0:0:
55,113,107595,1,8,0:0:0:0:
151,113,107938,1,0,0:0:0:0:
151,113,108109,1,0,0:0:0:0:
151,113,108195,1,0,0:0:0:0:
151,113,108281,1,8,0:0:0:0:
135,129,108452,1,0,0:0:0:0:
135,129,108623,1,0,0:0:0:0:
135,129,108709,1,8,0:0:0:0:
135,129,108795,1,0,0:0:0:0:
135,129,108966,1,8,0:0:0:0:
103,97,109138,1,8,0:0:0:0:
87,97,109223,1,8,0:0:0:0:
103,97,109309,1,0,0:0:0:0:
295,65,109481,1,0,0:0:0:0:
231,65,109652,1,8,0:0:0:0:
263,129,109995,1,0,0:0:0:0:
263,65,110166,1,0,0:0:0:0:
311,193,110338,1,8,0:0:0:0:
295,161,110509,1,0,0:0:0:0:
295,161,110595,1,0,0:0:0:0:
295,161,110681,1,8,0:0:0:0:
231,129,110852,1,0,0:0:0:0:
231,129,111023,1,8,0:0:0:0:
199,161,111109,1,0,0:0:0:0:
199,161,111281,1,0,0:0:0:0:
199,161,111366,1,8,0:0:0:0:
215,145,111538,1,0,0:0:0:0:
215,145,111709,1,8,0:0:0:0:
183,113,111881,1,0,0:0:0:0:
183,113,112052,1,8,0:0:0:0:
199,129,112138,1,8,0:0:0:0:
199,129,112223,1,0,0:0:0:0:
199,129,112395,1,8,0:0:0:0:
199,129,112566,1,8,0:0:0:0:
199,129,112738,1,0,0:0:0:0:
295,177,113423,1,4,0:0:0:0:
391,209,113766,1,8,0:0:0:0:
359,113,114109,1,0,0:0:0:0:
359,113,114281,1,0,0:0:0:0:
359,113,114452,1,8,0:0:0:0:
247,129,114795,1,0,0:0:0:0:
247,129,114966,1,0,0:0:0:0:
247,129,115052,1,0,0:0:0:0:
215,65,115138,1,8,0:0:0:0:
215,65,115309,1,0,0:0:0:0:
215,65,115481,1,8,0:0:0:0:
167,97,115566,1,8,0:0:0:0:
215,65,115652,1,0,0:0:0:0:
167,97,115823,1,8,0:0:0:0:
199,81,115995,1,0,0:0:0:0:
199,81,116166,1,0,0:0:0:0:
215,33,116252,1,0,0:0:0:0:
199,81,116338,1,0,0:0:0:0:
103,177,116509,1,8,0:0:0:0:
103,177,116681,1,0,0:0:0:0:
135,65,116852,1,0,0:0:0:0:
231,1,116938,5,8,0:0:0:0:
231,1,117023,1,0,0:0:0:0:
135,65,117195,1,8,0:0:0:0:
199,113,117538,1,0,0:0:0:0:
199,113,117709,1,0,0:0:0:0:
263,145,117795,1,0,0:0:0:0:
199,177,117881,1,8,0:0:0:0:
199,177,118052,1,0,0:0:0:0:
215,17,118138,1,0,0:0:0:0:
199,177,118309,1,0,0:0:0:0:
199,177,118395,1,0,0:0:0:0:
199,177,118566,1,8,0:0:0:0:
135,177,118738,1,8,0:0:0:0:
263,129,118823,1,8,0:0:0:0:
215,145,118909,1,0,0:0:0:0:
343,177,119252,1,8,0:0:0:0:
295,225,119595,1,0,0:0:0:0:
231,97,119681,1,0,0:0:0:0:
295,225,119766,1,0,0:0:0:0:
295,225,119938,1,8,0:0:0:0:
407,177,120109,1,0,0:0:0:0:
231,113,120281,1,8,0:0:0:0:
231,113,120366,1,0,0:0:0:0:
231,113,120538,1,0,0:0:0:0:
231,113,120623,1,8,0:0:0:0:
231,49,120795,1,0,0:0:0:0:
231,49,120966,1,0,0:0:0:0:
231,49,121138,1,0,0:0:0:0:
167,129,121223,1,0,0:0:0:0:
183,129,121309,1,8,0:0:0:0:
231,113,121481,1,8,0:0:0:0:
231,113,121651,1,4,0:0:0:0:
